  0
SECTION
  2
HEADER
  9
$ACADVER
  1
AC1015
  9
$ACADMAINTVER
 70
     6
  9
$DWGCODEPAGE
  3
ANSI_1252
  9
$INSBASE
 10
0.0
 20
0.0
 30
0.0
  9
$EXTMIN
 10
0.0
 20
0.0
 30
0.0
  9
$EXTMAX
 10
420.0
 20
297.0
 30
0.0
  9
$LIMMIN
 10
0.0
 20
0.0
  9
$LIMMAX
 10
420.0
 20
297.0
  9
$ORTHOMODE
 70
     0
  9
$REGENMODE
 70
     1
  9
$FILLMODE
 70
     1
  9
$QTEXTMODE
 70
     0
  9
$MIRRTEXT
 70
     1
  9
$LTSCALE
 40
1.0
  9
$ATTMODE
 70
     1
  9
$TEXTSIZE
 40
3.5
  9
$TRACEWID
 40
1.0
  9
$TEXTSTYLE
  7
Standard
  9
$CLAYER
  8
0
  9
$CELTYPE
  6
ByLayer
  9
$CECOLOR
 62
   256
  9
$CELTSCALE
 40
1.0
  9
$DISPSILH
 70
     0
  9
$DIMSCALE
 40
1.0
  9
$DIMASZ
 40
4.0
  9
$DIMEXO
 40
1.0
  9
$DIMDLI
 40
3.75
  9
$DIMRND
 40
0.0
  9
$DIMDLE
 40
0.0
  9
$DIMEXE
 40
1.0
  9
$DIMTP
 40
0.0
  9
$DIMTM
 40
0.0
  9
$DIMTXT
 40
3.5
  9
$DIMCEN
 40
2.5
  9
$DIMTSZ
 40
0.0
  9
$DIMTOL
 70
     0
  9
$DIMLIM
 70
     0
  9
$DIMTIH
 70
     1
  9
$DIMTOH
 70
     1
  9
$DIMSE1
 70
     0
  9
$DIMSE2
 70
     0
  9
$DIMTAD
 70
     1
  9
$DIMZIN
 70
     1
  9
$DIMBLK
  1

  9
$DIMASO
 70
     1
  9
$DIMSHO
 70
     1
  9
$DIMPOST
  1

  9
$DIMAPOST
  1

  9
$DIMALT
 70
     0
  9
$DIMALTD
 70
     3
  9
$DIMALTF
 40
0.0393700787
  9
$DIMLFAC
 40
1.0
  9
$DIMTOFL
 70
     1
  9
$DIMTVP
 40
0.0
  9
$DIMTIX
 70
     0
  9
$DIMSOXD
 70
     0
  9
$DIMSAH
 70
     0
  9
$DIMBLK1
  1

  9
$DIMBLK2
  1

  9
$DIMSTYLE
  2
ISO-25
  9
$DIMCLRD
 70
     0
  9
$DIMCLRE
 70
     0
  9
$DIMCLRT
 70
     0
  9
$DIMTFAC
 40
1.0
  9
$DIMGAP
 40
1.524
  9
$DIMJUST
 70
     0
  9
$DIMSD1
 70
     0
  9
$DIMSD2
 70
     0
  9
$DIMTOLJ
 70
     0
  9
$DIMTZIN
 70
     1
  9
$DIMALTZ
 70
     0
  9
$DIMALTTZ
 70
     0
  9
$DIMUPT
 70
     0
  9
$DIMDEC
 70
     2
  9
$DIMTDEC
 70
     2
  9
$DIMALTU
 70
     2
  9
$DIMALTTD
 70
     3
  9
$DIMTXSTY
  7
Standard
  9
$DIMAUNIT
 70
     0
  9
$DIMADEC
 70
     2
  9
$DIMALTRND
 40
0.0
  9
$DIMAZIN
 70
     0
  9
$DIMDSEP
 70
    44
  9
$DIMATFIT
 70
     3
  9
$DIMFRAC
 70
     0
  9
$DIMLDRBLK
  1

  9
$DIMLUNIT
 70
     2
  9
$DIMLWD
 70
    -2
  9
$DIMLWE
 70
    -2
  9
$DIMTMOVE
 70
     0
  9
$LUNITS
 70
     2
  9
$LUPREC
 70
     2
  9
$SKETCHINC
 40
1.0
  9
$FILLETRAD
 40
10.0
  9
$AUNITS
 70
     0
  9
$AUPREC
 70
     2
  9
$MENU
  1
.
  9
$ELEVATION
 40
0.0
  9
$PELEVATION
 40
0.0
  9
$THICKNESS
 40
0.0
  9
$LIMCHECK
 70
     0
  9
$CHAMFERA
 40
0.0
  9
$CHAMFERB
 40
0.0
  9
$CHAMFERC
 40
0.0
  9
$CHAMFERD
 40
0.0
  9
$SKPOLY
 70
     0
  9
$TDCREATE
 40
2458332.562805544
  9
$TDUCREATE
 40
2458332.479472211
  9
$TDUPDATE
 40
2458332.562806273
  9
$TDUUPDATE
 40
2458332.47947294
  9
$TDINDWG
 40
0.0000000116
  9
$TDUSRTIMER
 40
0.0000000116
  9
$USRTIMER
 70
     1
  9
$ANGBASE
 50
0.0
  9
$ANGDIR
 70
     0
  9
$PDMODE
 70
     0
  9
$PDSIZE
 40
-1.0
  9
$PLINEWID
 40
0.0
  9
$SPLFRAME
 70
     0
  9
$SPLINETYPE
 70
     6
  9
$SPLINESEGS
 70
     8
  9
$HANDSEED
  5
18C
  9
$SURFTAB1
 70
     6
  9
$SURFTAB2
 70
     6
  9
$SURFTYPE
 70
     6
  9
$SURFU
 70
     6
  9
$SURFV
 70
     6
  9
$UCSBASE
  2

  9
$UCSNAME
  2

  9
$UCSORG
 10
0.0
 20
0.0
 30
0.0
  9
$UCSXDIR
 10
1.0
 20
0.0
 30
0.0
  9
$UCSYDIR
 10
0.0
 20
1.0
 30
0.0
  9
$UCSORTHOREF
  2

  9
$UCSORTHOVIEW
 70
     0
  9
$UCSORGTOP
 10
0.0
 20
0.0
 30
0.0
  9
$UCSORGBOTTOM
 10
0.0
 20
0.0
 30
0.0
  9
$UCSORGLEFT
 10
0.0
 20
0.0
 30
0.0
  9
$UCSORGRIGHT
 10
0.0
 20
0.0
 30
0.0
  9
$UCSORGFRONT
 10
0.0
 20
0.0
 30
0.0
  9
$UCSORGBACK
 10
0.0
 20
0.0
 30
0.0
  9
$PUCSBASE
  2

  9
$PUCSNAME
  2

  9
$PUCSORG
 10
0.0
 20
0.0
 30
0.0
  9
$PUCSXDIR
 10
1.0
 20
0.0
 30
0.0
  9
$PUCSYDIR
 10
0.0
 20
1.0
 30
0.0
  9
$PUCSORTHOREF
  2

  9
$PUCSORTHOVIEW
 70
     0
  9
$PUCSORGTOP
 10
0.0
 20
0.0
 30
0.0
  9
$PUCSORGBOTTOM
 10
0.0
 20
0.0
 30
0.0
  9
$PUCSORGLEFT
 10
0.0
 20
0.0
 30
0.0
  9
$PUCSORGRIGHT
 10
0.0
 20
0.0
 30
0.0
  9
$PUCSORGFRONT
 10
0.0
 20
0.0
 30
0.0
  9
$PUCSORGBACK
 10
0.0
 20
0.0
 30
0.0
  9
$USERI1
 70
     0
  9
$USERI2
 70
     0
  9
$USERI3
 70
     0
  9
$USERI4
 70
     0
  9
$USERI5
 70
     0
  9
$USERR1
 40
0.0
  9
$USERR2
 40
0.0
  9
$USERR3
 40
0.0
  9
$USERR4
 40
0.0
  9
$USERR5
 40
0.0
  9
$WORLDVIEW
 70
     1
  9
$SHADEDGE
 70
     3
  9
$SHADEDIF
 70
    70
  9
$TILEMODE
 70
     1
  9
$MAXACTVP
 70
    64
  9
$PINSBASE
 10
0.0
 20
0.0
 30
0.0
  9
$PLIMCHECK
 70
     0
  9
$PEXTMIN
 10
1.0000000000E+20
 20
1.0000000000E+20
 30
1.0000000000E+20
  9
$PEXTMAX
 10
-1.0000000000E+20
 20
-1.0000000000E+20
 30
-1.0000000000E+20
  9
$PLIMMIN
 10
0.0
 20
0.0
  9
$PLIMMAX
 10
420.0
 20
297.0
  9
$UNITMODE
 70
     0
  9
$VISRETAIN
 70
     1
  9
$PLINEGEN
 70
     0
  9
$PSLTSCALE
 70
     1
  9
$TREEDEPTH
 70
  3020
  9
$CMLSTYLE
  2
Standard
  9
$CMLJUST
 70
     0
  9
$CMLSCALE
 40
20.0
  9
$PROXYGRAPHICS
 70
     1
  9
$MEASUREMENT
 70
     1
  9
$CELWEIGHT
370
    -1
  9
$ENDCAPS
280
     0
  9
$JOINSTYLE
280
     0
  9
$LWDISPLAY
290
     1
  9
$INSUNITS
 70
     4
  9
$HYPERLINKBASE
  1

  9
$STYLESHEET
  1

  9
$XEDIT
290
     1
  9
$CEPSNTYPE
380
     0
  9
$PSTYLEMODE
290
     1
  9
$FINGERPRINTGUID
  2
{6BAFE5AB-2EE8-44B1-8A3D-FE710E456B9B}
  9
$VERSIONGUID
  2
{FAEB1C32-E019-11D5-929B-00C0DF256EC4}
  9
$EXTNAMES
290
     1
  9
$PSVPSCALE
 40
0.0
  9
$OLESTARTUP
290
     0
  0
ENDSEC
  0
SECTION
  2
CLASSES
  0
CLASS
  1
ACDBDICTIONARYWDFLT
  2
AcDbDictionaryWithDefault
  3
ObjectDBX Classes
 90
        0
280
     0
281
     0
  0
CLASS
  1
VISUALSTYLE
  2
AcDbVisualStyle
  3
ObjectDBX Classes
 90
     4095
280
     0
281
     0
  0
CLASS
  1
MATERIAL
  2
AcDbMaterial
  3
ObjectDBX Classes
 90
     1153
280
     0
281
     0
  0
CLASS
  1
SCALE
  2
AcDbScale
  3
ObjectDBX Classes
 90
     1153
280
     0
281
     0
  0
CLASS
  1
TABLESTYLE
  2
AcDbTableStyle
  3
ObjectDBX Classes
 90
     4095
280
     0
281
     0
  0
CLASS
  1
MLEADERSTYLE
  2
AcDbMLeaderStyle
  3
ACDB_MLEADERSTYLE_CLASS
 90
     4095
280
     0
281
     0
  0
CLASS
  1
SUN
  2
AcDbSun
  3
SCENEOE
 90
     1153
280
     0
281
     0
  0
CLASS
  1
ACDBPLACEHOLDER
  2
AcDbPlaceHolder
  3
ObjectDBX Classes
 90
        0
280
     0
281
     0
  0
CLASS
  1
LAYOUT
  2
AcDbLayout
  3
ObjectDBX Classes
 90
        0
280
     0
281
     0
  0
ENDSEC
  0
SECTION
  2
TABLES
  0
TABLE
  2
VPORT
  5
8
330
0
100
AcDbSymbolTable
 70
     1
  0
VPORT
  5
29
330
8
100
AcDbSymbolTableRecord
100
AcDbViewportTableRecord
  2
*Active
 70
     0
 10
0.0
 20
0.0
 11
1.0
 21
1.0
 12
210.0
 22
148.5
 13
0.0
 23
0.0
 14
10.0
 24
10.0
 15
10.0
 25
10.0
 16
0.0
 26
0.0
 36
1.0
 17
0.0
 27
0.0
 37
0.0
 40
297.0
 41
1.4141414141
 42
50.0
 43
0.0
 44
0.0
 50
0.0
 51
0.0
 71
     0
 72
  2000
 73
     1
 74
     3
 75
     0
 76
     0
 77
     0
 78
     0
281
     0
 65
     1
110
0.0
120
0.0
130
0.0
111
1.0
121
0.0
131
0.0
112
0.0
122
1.0
132
0.0
 79
     0
146
0.0
  0
ENDTAB
  0
TABLE
  2
LTYPE
  5
5
330
0
100
AcDbSymbolTable
 70
     8
  0
LTYPE
  5
14
330
5
100
AcDbSymbolTableRecord
100
AcDbLinetypeTableRecord
  2
ByBlock
 70
     0
  3

 72
    65
 73
     0
 40
0.0
  0
LTYPE
  5
15
330
5
100
AcDbSymbolTableRecord
100
AcDbLinetypeTableRecord
  2
ByLayer
 70
     0
  3

 72
    65
 73
     0
 40
0.0
  0
LTYPE
  5
16
330
5
100
AcDbSymbolTableRecord
100
AcDbLinetypeTableRecord
  2
Continuous
 70
     0
  3
Solid line
 72
    65
 73
     0
 40
0.0
  0
LTYPE
  5
6E
330
5
100
AcDbSymbolTableRecord
100
AcDbLinetypeTableRecord
  2
SLD-Durchgehend
 70
     0
  3
SolidWorks Line Style
 72
    65
 73
     0
 40
0.0
  0
LTYPE
  5
6F
330
5
100
AcDbSymbolTableRecord
100
AcDbLinetypeTableRecord
  2
SLD-Gestrichelt
 70
     0
  3
SolidWorks Line Style
 72
    65
 73
     2
 40
1.905
 49
1.27
 74
     0
 49
-0.635
 74
     0
  0
LTYPE
  5
70
330
5
100
AcDbSymbolTableRecord
100
AcDbLinetypeTableRecord
  2
SLD-Phantom
 70
     0
  3
SolidWorks Line Style
 72
    65
 73
     6
 40
12.7
 49
6.35
 74
     0
 49
-1.27
 74
     0
 49
1.27
 74
     0
 49
-1.27
 74
     0
 49
1.27
 74
     0
 49
-1.27
 74
     0
  0
LTYPE
  5
71
330
5
100
AcDbSymbolTableRecord
100
AcDbLinetypeTableRecord
  2
SLD-Kette
 70
     0
  3
SolidWorks Line Style
 72
    65
 73
     4
 40
10.16
 49
6.35
 74
     0
 49
-1.27
 74
     0
 49
1.27
 74
     0
 49
-1.27
 74
     0
  0
LTYPE
  5
72
330
5
100
AcDbSymbolTableRecord
100
AcDbLinetypeTableRecord
  2
SLD-Punktstrich
 70
     0
  3
SolidWorks Line Style
 72
    65
 73
     4
 40
19.05
 49
15.24
 74
     0
 49
-1.27
 74
     0
 49
1.27
 74
     0
 49
-1.27
 74
     0
  0
LTYPE
  5
73
330
5
100
AcDbSymbolTableRecord
100
AcDbLinetypeTableRecord
  2
SLD-Naht
 70
     0
  3
SolidWorks Line Style
 72
    65
 73
     2
 40
0.635
 49
0.0
 74
     0
 49
-0.635
 74
     0
  0
LTYPE
  5
74
330
5
100
AcDbSymbolTableRecord
100
AcDbLinetypeTableRecord
  2
SLD-Dicke-Dünne-Kette
 70
     0
  3
SolidWorks Line Style
 72
    65
 73
     4
 40
10.16
 49
6.35
 74
     0
 49
-1.27
 74
     0
 49
1.27
 74
     0
 49
-1.27
 74
     0
  0
ENDTAB
  0
TABLE
  2
LAYER
  5
2
330
0
100
AcDbSymbolTable
 70
     1
  0
LAYER
  5
10
330
2
100
AcDbSymbolTableRecord
100
AcDbLayerTableRecord
  2
0
 70
     0
 62
     7
  6
Continuous
370
    -3
390
F
  0
ENDTAB
  0
TABLE
  2
STYLE
  5
3
330
0
100
AcDbSymbolTable
 70
     3
  0
STYLE
  5
11
330
3
100
AcDbSymbolTableRecord
100
AcDbTextStyleTableRecord
  2
Standard
 70
     0
 40
0.0
 41
1.0
 50
0.0
 71
     0
 42
3.5
  3
txt
  4

  0
STYLE
  5
166
330
3
100
AcDbSymbolTableRecord
100
AcDbTextStyleTableRecord
  2
SLDTEXTSTYLE0
 70
     0
 40
0.0
 41
0.605
 50
0.0
 71
     0
 42
3.5
  3
TXT
  4

  0
STYLE
  5
171
330
3
100
AcDbSymbolTableRecord
100
AcDbTextStyleTableRecord
  2
SLDTEXTSTYLE1
 70
     0
 40
0.0
 41
0.96
 50
0.0
 71
     0
 42
3.5
  3
TXT
  4

  0
ENDTAB
  0
TABLE
  2
VIEW
  5
6
330
0
100
AcDbSymbolTable
 70
     0
  0
ENDTAB
  0
TABLE
  2
UCS
  5
7
330
0
100
AcDbSymbolTable
 70
     0
  0
ENDTAB
  0
TABLE
  2
APPID
  5
9
330
0
100
AcDbSymbolTable
 70
     1
  0
APPID
  5
12
330
9
100
AcDbSymbolTableRecord
100
AcDbRegAppTableRecord
  2
ACAD
 70
     0
  0
ENDTAB
  0
TABLE
  2
DIMSTYLE
  5
A
330
0
100
AcDbSymbolTable
 70
     3
100
AcDbDimStyleTable
  0
DIMSTYLE
105
27
330
A
100
AcDbSymbolTableRecord
100
AcDbDimStyleTableRecord
  2
ISO-25
 70
     0
 41
2.5
 42
0.625
 43
3.75
 44
1.25
 73
     0
 74
     0
 77
     1
 78
     8
140
2.5
141
2.5
143
0.0393700787
147
0.625
171
     3
172
     1
178
     0
271
     2
272
     2
274
     3
278
    44
283
     0
284
     8
340
11
  0
DIMSTYLE
105
167
102
{ACAD_REACTORS
330
165
102
}
330
A
100
AcDbSymbolTableRecord
100
AcDbDimStyleTableRecord
  2
SLDDIMSTYLE0
 70
     0
 41
4.0
 44
0.0
 45
0.000000001
 73
     0
 74
     0
 77
     1
 78
    12
 79
     3
140
6.0
147
1.5
173
     1
178
     0
271
     1
272
     1
276
     2
284
    12
340
166
341
168
343
168
344
168
  0
DIMSTYLE
105
177
102
{ACAD_REACTORS
330
176
330
181
102
}
330
A
100
AcDbSymbolTableRecord
100
AcDbDimStyleTableRecord
  2
SLDDIMSTYLE1
 70
     0
 41
4.0
 44
0.0
 45
0.000000001
 73
     0
 74
     0
 77
     1
 78
    12
 79
     3
140
6.0
147
1.5
173
     1
178
     0
271
     0
272
     2
276
     2
284
    12
340
166
341
168
343
168
344
168
  0
ENDTAB
  0
TABLE
  2
BLOCK_RECORD
  5
1
330
0
100
AcDbSymbolTable
 70
     5
  0
BLOCK_RECORD
  5
1F
330
1
100
AcDbSymbolTableRecord
100
AcDbBlockTableRecord
  2
*Model_Space
340
22
  0
BLOCK_RECORD
  5
1B
330
1
100
AcDbSymbolTableRecord
100
AcDbBlockTableRecord
  2
*Paper_Space
340
1E
  0
BLOCK_RECORD
  5
23
330
1
100
AcDbSymbolTableRecord
100
AcDbBlockTableRecord
  2
*Paper_Space0
340
26
  0
BLOCK_RECORD
  5
168
330
1
100
AcDbSymbolTableRecord
100
AcDbBlockTableRecord
  2
_NONE
340
0
  0
BLOCK_RECORD
  5
16B
330
1
100
AcDbSymbolTableRecord
100
AcDbBlockTableRecord
  2
_D
340
0
  0
BLOCK_RECORD
  5
178
330
1
100
AcDbSymbolTableRecord
100
AcDbBlockTableRecord
  2
_D_1
340
0
  0
BLOCK_RECORD
  5
182
330
1
100
AcDbSymbolTableRecord
100
AcDbBlockTableRecord
  2
_D_2
340
0
  0
ENDTAB
  0
ENDSEC
  0
SECTION
  2
BLOCKS
  0
BLOCK
  5
20
330
1F
100
AcDbEntity
  8
0
100
AcDbBlockBegin
  2
*Model_Space
 70
     0
 10
0.0
 20
0.0
 30
0.0
  3
*Model_Space
  1

  0
ENDBLK
  5
21
330
1F
100
AcDbEntity
  8
0
100
AcDbBlockEnd
  0
BLOCK
  5
1C
330
1B
100
AcDbEntity
 67
     1
  8
0
100
AcDbBlockBegin
  2
*Paper_Space
 70
     0
 10
0.0
 20
0.0
 30
0.0
  3
*Paper_Space
  1

  0
ENDBLK
  5
1D
330
1B
100
AcDbEntity
 67
     1
  8
0
100
AcDbBlockEnd
  0
BLOCK
  5
24
330
23
100
AcDbEntity
  8
0
100
AcDbBlockBegin
  2
*Paper_Space0
 70
     0
 10
0.0
 20
0.0
 30
0.0
  3
*Paper_Space0
  1

  0
ENDBLK
  5
25
330
23
100
AcDbEntity
  8
0
100
AcDbBlockEnd
  0
BLOCK
  5
169
330
168
100
AcDbEntity
  8
0
100
AcDbBlockBegin
  2
_NONE
 70
     0
 10
0.0
 20
0.0
 30
0.0
  3
_NONE
  1

  0
ENDBLK
  5
16A
330
168
100
AcDbEntity
  8
0
100
AcDbBlockEnd
  0
BLOCK
  5
16C
330
16B
100
AcDbEntity
  8
0
100
AcDbBlockBegin
  2
_D
 70
     0
 10
0.0
 20
0.0
 30
0.0
  3
_D
  1

  0
LINE
  5
16E
330
16B
100
AcDbEntity
  8
0
  6
SLD-Durchgehend
 62
   179
370
     0
100
AcDbLine
 10
155.6072092516
 20
263.4423823392
 30
0.0
 11
155.6072092516
 21
273.0223933577
 31
0.0
  0
LINE
  5
16F
330
16B
100
AcDbEntity
  8
0
  6
SLD-Durchgehend
 62
   179
370
     0
100
AcDbLine
 10
198.0072092516
 20
263.4423823392
 30
0.0
 11
198.0072092516
 21
273.0223933577
 31
0.0
  0
LINE
  5
170
330
16B
100
AcDbEntity
  8
0
  6
SLD-Durchgehend
 62
   179
370
     0
100
AcDbLine
 10
155.6072092516
 20
272.0223933577
 30
0.0
 11
198.0072092516
 21
272.0223933577
 31
0.0
  0
MTEXT
  5
172
330
16B
100
AcDbEntity
  8
0
  6
SLD-Durchgehend
 62
   179
370
     0
100
AcDbMText
 10
161.412418714
 20
279.3070331074
 30
0.0
 40
6.0
 41
0.0
 71
     1
 72
     1
  1
%%c
  7
SLDTEXTSTYLE1
 73
     1
 44
1.0
  0
MTEXT
  5
173
330
16B
100
AcDbEntity
  8
0
  6
SLD-Durchgehend
 62
   179
370
     0
100
AcDbMText
 10
173.1603353826
 20
279.3487002466
 30
0.0
 40
6.0
 41
0.0
 71
     1
 72
     1
  1
42,4
  7
SLDTEXTSTYLE1
 73
     1
 44
1.0
  0
SOLID
  5
174
330
16B
100
AcDbEntity
  8
0
  6
SLD-Durchgehend
 62
   179
370
     0
100
AcDbTrace
 10
155.6072092516
 20
272.0223933577
 30
0.0
 11
161.6072092516
 21
271.0993164346
 31
0.0
 12
161.6072092516
 22
272.9454702808
 32
0.0
 13
161.6072092516
 23
272.9454702808
 33
0.0
  0
SOLID
  5
175
330
16B
100
AcDbEntity
  8
0
  6
SLD-Durchgehend
 62
   179
370
     0
100
AcDbTrace
 10
198.0072092516
 20
272.0223933577
 30
0.0
 11
192.0072092516
 21
272.9454702808
 31
0.0
 12
192.0072092516
 22
271.0993164346
 32
0.0
 13
192.0072092516
 23
271.0993164346
 33
0.0
  0
ENDBLK
  5
16D
330
16B
100
AcDbEntity
  8
0
100
AcDbBlockEnd
  0
BLOCK
  5
179
330
178
100
AcDbEntity
  8
0
100
AcDbBlockBegin
  2
_D_1
 70
     0
 10
0.0
 20
0.0
 30
0.0
  3
_D_1
  1

  0
LINE
  5
17B
330
178
100
AcDbEntity
  8
0
  6
SLD-Durchgehend
 62
   179
370
     0
100
AcDbLine
 10
201.3072092516
 20
193.4423822474
 30
0.0
 11
220.3072092516
 21
193.4423822474
 31
0.0
  0
LINE
  5
17C
330
178
100
AcDbEntity
  8
0
  6
SLD-Durchgehend
 62
   179
370
     0
100
AcDbLine
 10
198.2033616743
 20
265.4423823392
 30
0.0
 11
220.3072092516
 21
265.4423823392
 31
0.0
  0
LINE
  5
17D
330
178
100
AcDbEntity
  8
0
  6
SLD-Durchgehend
 62
   179
370
     0
100
AcDbLine
 10
219.3072092516
 20
193.4423822474
 30
0.0
 11
219.3072092516
 21
265.4423823392
 31
0.0
  0
MTEXT
  5
17E
330
178
100
AcDbEntity
  8
0
  6
SLD-Durchgehend
 62
   179
370
     0
100
AcDbMText
 10
212.0225683377
 20
226.5460166923
 30
0.0
 40
6.0
 41
0.0
 71
     1
 72
     1
  1
72
  7
SLDTEXTSTYLE1
 11
-3.491481338843133E-15
 21
1.0
 31
0.0
 73
     1
 44
1.0
  0
SOLID
  5
17F
330
178
100
AcDbEntity
  8
0
  6
SLD-Durchgehend
 62
   179
370
     0
100
AcDbTrace
 10
219.3072092516
 20
193.4423822474
 30
0.0
 11
220.2302861747
 21
199.4423822474
 31
0.0
 12
218.3841323286
 22
199.4423822474
 32
0.0
 13
218.3841323286
 23
199.4423822474
 33
0.0
  0
SOLID
  5
180
330
178
100
AcDbEntity
  8
0
  6
SLD-Durchgehend
 62
   179
370
     0
100
AcDbTrace
 10
219.3072092516
 20
265.4423823392
 30
0.0
 11
218.3841323286
 21
259.4423823392
 31
0.0
 12
220.2302861747
 22
259.4423823392
 32
0.0
 13
220.2302861747
 23
259.4423823392
 33
0.0
  0
ENDBLK
  5
17A
330
178
100
AcDbEntity
  8
0
100
AcDbBlockEnd
  0
BLOCK
  5
183
330
182
100
AcDbEntity
  8
0
100
AcDbBlockBegin
  2
_D_2
 70
     0
 10
0.0
 20
0.0
 30
0.0
  3
_D_2
  1

  0
LINE
  5
185
330
182
100
AcDbEntity
  8
0
  6
SLD-Durchgehend
 62
   179
370
     0
100
AcDbLine
 10
150.3072092516
 20
193.2462298247
 30
0.0
 11
150.3072092516
 21
179.684830985
 31
0.0
  0
LINE
  5
186
330
182
100
AcDbEntity
  8
0
  6
SLD-Durchgehend
 62
   179
370
     0
100
AcDbLine
 10
203.3072092516
 20
193.2462298247
 30
0.0
 11
203.3072092516
 21
179.684830985
 31
0.0
  0
LINE
  5
187
330
182
100
AcDbEntity
  8
0
  6
SLD-Durchgehend
 62
   179
370
     0
100
AcDbLine
 10
150.3072092516
 20
180.684830985
 30
0.0
 11
203.3072092516
 21
180.684830985
 31
0.0
  0
MTEXT
  5
188
330
182
100
AcDbEntity
  8
0
  6
SLD-Durchgehend
 62
   179
370
     0
100
AcDbMText
 10
164.8499182297
 20
187.9694707347
 30
0.0
 40
6.0
 41
0.0
 71
     1
 72
     1
  1
%%c
  7
SLDTEXTSTYLE1
 73
     1
 44
1.0
  0
MTEXT
  5
189
330
182
100
AcDbEntity
  8
0
  6
SLD-Durchgehend
 62
   179
370
     0
100
AcDbMText
 10
176.5978348983
 20
188.0111378739
 30
0.0
 40
6.0
 41
0.0
 71
     1
 72
     1
  1
53
  7
SLDTEXTSTYLE1
 73
     1
 44
1.0
  0
SOLID
  5
18A
330
182
100
AcDbEntity
  8
0
  6
SLD-Durchgehend
 62
   179
370
     0
100
AcDbTrace
 10
150.3072092516
 20
180.684830985
 30
0.0
 11
156.3072092516
 21
179.7617540619
 31
0.0
 12
156.3072092516
 22
181.6079079081
 32
0.0
 13
156.3072092516
 23
181.6079079081
 33
0.0
  0
SOLID
  5
18B
330
182
100
AcDbEntity
  8
0
  6
SLD-Durchgehend
 62
   179
370
     0
100
AcDbTrace
 10
203.3072092516
 20
180.684830985
 30
0.0
 11
197.3072092516
 21
181.6079079081
 31
0.0
 12
197.3072092516
 22
179.7617540619
 32
0.0
 13
197.3072092516
 23
179.7617540619
 33
0.0
  0
ENDBLK
  5
184
330
182
100
AcDbEntity
  8
0
100
AcDbBlockEnd
  0
ENDSEC
  0
SECTION
  2
ENTITIES
  0
LINE
  5
75
330
1F
100
AcDbEntity
  8
0
  6
SLD-Durchgehend
 62
   179
370
     0
100
AcDbLine
 10
155.6072092516
 20
262.4423823392
 30
0.0
 11
155.6072092516
 21
252.9423823392
 31
0.0
  0
LINE
  5
76
330
1F
100
AcDbEntity
  8
0
  6
SLD-Durchgehend
 62
   179
370
     0
100
AcDbLine
 10
156.1072092516
 20
252.4423823392
 30
0.0
 11
157.3072092516
 21
252.4423823392
 31
0.0
  0
LINE
  5
77
330
1F
100
AcDbEntity
  8
0
  6
SLD-Durchgehend
 62
   179
370
     0
100
AcDbLine
 10
157.6072092516
 20
252.1423823392
 30
0.0
 11
157.6072092516
 21
249.2423823392
 31
0.0
  0
LINE
  5
78
330
1F
100
AcDbEntity
  8
0
  6
SLD-Durchgehend
 62
   179
370
     0
100
AcDbLine
 10
157.3072092516
 20
248.9423823392
 30
0.0
 11
156.1072092516
 21
248.9423823392
 31
0.0
  0
LINE
  5
79
330
1F
100
AcDbEntity
  8
0
  6
SLD-Durchgehend
 62
   179
370
     0
100
AcDbLine
 10
155.6072092516
 20
248.4423823392
 30
0.0
 11
155.6072092516
 21
235.6274623257
 31
0.0
  0
LINE
  5
7A
330
1F
100
AcDbEntity
  8
0
  6
SLD-Durchgehend
 62
   179
370
     0
100
AcDbLine
 10
155.6072092516
 20
235.6274623257
 30
0.0
 11
150.5967394026
 21
235.4524928631
 31
0.0
  0
LINE
  5
7B
330
1F
100
AcDbEntity
  8
0
  6
SLD-Durchgehend
 62
   179
370
     0
100
AcDbLine
 10
150.3072092516
 20
235.152675615
 30
0.0
 11
150.3072092516
 21
233.2320888799
 31
0.0
  0
LINE
  5
7C
330
1F
100
AcDbEntity
  8
0
  6
SLD-Durchgehend
 62
   179
370
     0
100
AcDbLine
 10
150.5967394026
 20
232.9322716318
 30
0.0
 11
155.6372092516
 21
232.756254546
 31
0.0
  0
LINE
  5
7D
330
1F
100
AcDbEntity
  8
0
  6
SLD-Durchgehend
 62
   179
370
     0
100
AcDbLine
 10
155.6372092516
 20
232.756254546
 30
0.0
 11
155.6372092516
 21
227.6735375184
 31
0.0
  0
LINE
  5
7E
330
1F
100
AcDbEntity
  8
0
  6
SLD-Durchgehend
 62
   179
370
     0
100
AcDbLine
 10
155.6372092516
 20
227.6735375184
 30
0.0
 11
154.2200535089
 21
227.5495524565
 31
0.0
  0
LINE
  5
7F
330
1F
100
AcDbEntity
  8
0
  6
SLD-Durchgehend
 62
   179
370
     0
100
AcDbLine
 10
153.3072092516
 20
226.5533577584
 30
0.0
 11
153.3072092516
 21
203.9260457414
 31
0.0
  0
LINE
  5
80
330
1F
100
AcDbEntity
  8
0
  6
SLD-Durchgehend
 62
   179
370
     0
100
AcDbLine
 10
152.9366187742
 20
203.4430828283
 30
0.0
 11
150.3072092516
 21
202.7385346701
 31
0.0
  0
LINE
  5
81
330
1F
100
AcDbEntity
  8
0
  6
SLD-Durchgehend
 62
   179
370
     0
100
AcDbLine
 10
150.3072092516
 20
202.7385346701
 30
0.0
 11
150.3072092516
 21
202.1462298247
 31
0.0
  0
LINE
  5
82
330
1F
100
AcDbEntity
  8
0
  6
SLD-Durchgehend
 62
   179
370
     0
100
AcDbLine
 10
150.3072092516
 20
202.1462298247
 30
0.0
 11
150.8072092516
 21
202.0122552285
 31
0.0
  0
LINE
  5
83
330
1F
100
AcDbEntity
  8
0
  6
SLD-Durchgehend
 62
   179
370
     0
100
AcDbLine
 10
150.8072092516
 20
202.0122552285
 30
0.0
 11
150.8072092516
 21
194.9725092663
 31
0.0
  0
LINE
  5
84
330
1F
100
AcDbEntity
  8
0
  6
SLD-Durchgehend
 62
   179
370
     0
100
AcDbLine
 10
150.8072092516
 20
194.9725092663
 30
0.0
 11
150.3072092516
 21
194.8385346701
 31
0.0
  0
LINE
  5
85
330
1F
100
AcDbEntity
  8
0
  6
SLD-Durchgehend
 62
   179
370
     0
100
AcDbLine
 10
150.3072092516
 20
194.8385346701
 30
0.0
 11
150.3072092516
 21
194.2462298247
 31
0.0
  0
LINE
  5
86
330
1F
100
AcDbEntity
  8
0
  6
SLD-Durchgehend
 62
   179
370
     0
100
AcDbLine
 10
150.3072092516
 20
194.2462298247
 30
0.0
 11
153.3072092516
 21
193.4423822474
 31
0.0
  0
LINE
  5
87
330
1F
100
AcDbEntity
  8
0
  6
SLD-Durchgehend
 62
   179
370
     0
100
AcDbLine
 10
153.3072092516
 20
193.4423822474
 30
0.0
 11
153.8533705711
 21
193.4423822474
 31
0.0
  0
LINE
  5
88
330
1F
100
AcDbEntity
  8
0
  6
SLD-Durchgehend
 62
   179
370
     0
100
AcDbLine
 10
154.3457744476
 20
193.8555581586
 30
0.0
 11
155.5072092516
 21
200.4423822474
 31
0.0
  0
LINE
  5
89
330
1F
100
AcDbEntity
  8
0
  6
SLD-Durchgehend
 62
   179
370
     0
100
AcDbLine
 10
155.5072092516
 20
200.4423822474
 30
0.0
 11
155.5072092516
 21
224.5374291756
 31
0.0
  0
LINE
  5
8A
330
1F
100
AcDbEntity
  8
0
  6
SLD-Durchgehend
 62
   179
370
     0
100
AcDbLine
 10
156.4200535089
 20
225.5336238737
 30
0.0
 11
166.8943649944
 21
226.4500073869
 31
0.0
  0
LINE
  5
8B
330
1F
100
AcDbEntity
  8
0
  6
SLD-Durchgehend
 62
   179
370
     0
100
AcDbLine
 10
167.8072092516
 20
227.446202085
 30
0.0
 11
167.8072092516
 21
227.8423823392
 31
0.0
  0
LINE
  5
8C
330
1F
100
AcDbEntity
  8
0
  6
SLD-Durchgehend
 62
   179
370
     0
100
AcDbLine
 10
167.8072092516
 20
227.8423823392
 30
0.0
 11
185.8072092516
 21
227.8423823392
 31
0.0
  0
LINE
  5
8D
330
1F
100
AcDbEntity
  8
0
  6
SLD-Durchgehend
 62
   179
370
     0
100
AcDbLine
 10
185.8072092516
 20
227.8423823392
 30
0.0
 11
185.8072092516
 21
227.446202085
 31
0.0
  0
LINE
  5
8E
330
1F
100
AcDbEntity
  8
0
  6
SLD-Durchgehend
 62
   179
370
     0
100
AcDbLine
 10
186.7200535089
 20
226.4500073869
 30
0.0
 11
197.1943649944
 21
225.5336238737
 31
0.0
  0
LINE
  5
8F
330
1F
100
AcDbEntity
  8
0
  6
SLD-Durchgehend
 62
   179
370
     0
100
AcDbLine
 10
198.1072092516
 20
224.5374291756
 30
0.0
 11
198.1072092516
 21
200.4423822474
 31
0.0
  0
LINE
  5
90
330
1F
100
AcDbEntity
  8
0
  6
SLD-Durchgehend
 62
   179
370
     0
100
AcDbLine
 10
198.1072092516
 20
200.4423822474
 30
0.0
 11
199.2686440557
 21
193.8555581586
 31
0.0
  0
LINE
  5
91
330
1F
100
AcDbEntity
  8
0
  6
SLD-Durchgehend
 62
   179
370
     0
100
AcDbLine
 10
199.7610479322
 20
193.4423822474
 30
0.0
 11
200.3072092516
 21
193.4423822474
 31
0.0
  0
LINE
  5
92
330
1F
100
AcDbEntity
  8
0
  6
SLD-Durchgehend
 62
   179
370
     0
100
AcDbLine
 10
200.3072092516
 20
193.4423822474
 30
0.0
 11
203.3072092516
 21
194.2462298247
 31
0.0
  0
LINE
  5
93
330
1F
100
AcDbEntity
  8
0
  6
SLD-Durchgehend
 62
   179
370
     0
100
AcDbLine
 10
203.3072092516
 20
194.2462298247
 30
0.0
 11
203.3072092516
 21
194.8385346701
 31
0.0
  0
LINE
  5
94
330
1F
100
AcDbEntity
  8
0
  6
SLD-Durchgehend
 62
   179
370
     0
100
AcDbLine
 10
203.3072092516
 20
194.8385346701
 30
0.0
 11
202.8072092516
 21
194.9725092663
 31
0.0
  0
LINE
  5
95
330
1F
100
AcDbEntity
  8
0
  6
SLD-Durchgehend
 62
   179
370
     0
100
AcDbLine
 10
202.8072092516
 20
194.9725092663
 30
0.0
 11
202.8072092516
 21
202.0122552285
 31
0.0
  0
LINE
  5
96
330
1F
100
AcDbEntity
  8
0
  6
SLD-Durchgehend
 62
   179
370
     0
100
AcDbLine
 10
202.8072092516
 20
202.0122552285
 30
0.0
 11
203.3072092516
 21
202.1462298247
 31
0.0
  0
LINE
  5
97
330
1F
100
AcDbEntity
  8
0
  6
SLD-Durchgehend
 62
   179
370
     0
100
AcDbLine
 10
203.3072092516
 20
202.1462298247
 30
0.0
 11
203.3072092516
 21
202.7385346701
 31
0.0
  0
LINE
  5
98
330
1F
100
AcDbEntity
  8
0
  6
SLD-Durchgehend
 62
   179
370
     0
100
AcDbLine
 10
203.3072092516
 20
202.7385346701
 30
0.0
 11
200.6777997291
 21
203.4430828283
 31
0.0
  0
LINE
  5
99
330
1F
100
AcDbEntity
  8
0
  6
SLD-Durchgehend
 62
   179
370
     0
100
AcDbLine
 10
200.3072092516
 20
203.9260457414
 30
0.0
 11
200.3072092516
 21
226.5533577584
 31
0.0
  0
LINE
  5
9A
330
1F
100
AcDbEntity
  8
0
  6
SLD-Durchgehend
 62
   179
370
     0
100
AcDbLine
 10
199.3943649944
 20
227.5495524565
 30
0.0
 11
197.9772092516
 21
227.6735375184
 31
0.0
  0
LINE
  5
9B
330
1F
100
AcDbEntity
  8
0
  6
SLD-Durchgehend
 62
   179
370
     0
100
AcDbLine
 10
197.9772092516
 20
227.6735375184
 30
0.0
 11
197.9772092516
 21
232.756254546
 31
0.0
  0
LINE
  5
9C
330
1F
100
AcDbEntity
  8
0
  6
SLD-Durchgehend
 62
   179
370
     0
100
AcDbLine
 10
197.9772092516
 20
232.756254546
 30
0.0
 11
203.0176791006
 21
232.9322716318
 31
0.0
  0
LINE
  5
9D
330
1F
100
AcDbEntity
  8
0
  6
SLD-Durchgehend
 62
   179
370
     0
100
AcDbLine
 10
203.3072092516
 20
233.2320888799
 30
0.0
 11
203.3072092516
 21
235.152675615
 31
0.0
  0
LINE
  5
9E
330
1F
100
AcDbEntity
  8
0
  6
SLD-Durchgehend
 62
   179
370
     0
100
AcDbLine
 10
203.0176791006
 20
235.4524928631
 30
0.0
 11
198.0072092516
 21
235.6274623257
 31
0.0
  0
LINE
  5
9F
330
1F
100
AcDbEntity
  8
0
  6
SLD-Durchgehend
 62
   179
370
     0
100
AcDbLine
 10
198.0072092516
 20
235.6274623257
 30
0.0
 11
198.0072092516
 21
248.4423823392
 31
0.0
  0
LINE
  5
A0
330
1F
100
AcDbEntity
  8
0
  6
SLD-Durchgehend
 62
   179
370
     0
100
AcDbLine
 10
197.5072092516
 20
248.9423823392
 30
0.0
 11
196.3072092516
 21
248.9423823392
 31
0.0
  0
LINE
  5
A1
330
1F
100
AcDbEntity
  8
0
  6
SLD-Durchgehend
 62
   179
370
     0
100
AcDbLine
 10
196.0072092516
 20
249.2423823392
 30
0.0
 11
196.0072092516
 21
252.1423823392
 31
0.0
  0
LINE
  5
A2
330
1F
100
AcDbEntity
  8
0
  6
SLD-Durchgehend
 62
   179
370
     0
100
AcDbLine
 10
196.3072092516
 20
252.4423823392
 30
0.0
 11
197.5072092516
 21
252.4423823392
 31
0.0
  0
LINE
  5
A3
330
1F
100
AcDbEntity
  8
0
  6
SLD-Durchgehend
 62
   179
370
     0
100
AcDbLine
 10
198.0072092516
 20
252.9423823392
 30
0.0
 11
198.0072092516
 21
262.4423823392
 31
0.0
  0
LINE
  5
A4
330
1F
100
AcDbEntity
  8
0
  6
SLD-Durchgehend
 62
   179
370
     0
100
AcDbLine
 10
198.0072092516
 20
262.4423823392
 30
0.0
 11
197.2033616743
 21
265.4423823392
 31
0.0
  0
LINE
  5
A5
330
1F
100
AcDbEntity
  8
0
  6
SLD-Durchgehend
 62
   179
370
     0
100
AcDbLine
 10
197.2033616743
 20
265.4423823392
 30
0.0
 11
196.5072092516
 21
265.4423823392
 31
0.0
  0
LINE
  5
A6
330
1F
100
AcDbEntity
  8
0
  6
SLD-Durchgehend
 62
   179
370
     0
100
AcDbLine
 10
196.0072092516
 20
264.9423823392
 30
0.0
 11
196.0072092516
 21
255.4026658645
 31
0.0
  0
LINE
  5
A7
330
1F
100
AcDbEntity
  8
0
  6
SLD-Durchgehend
 62
   179
370
     0
100
AcDbLine
 10
195.7939974698
 20
254.9930898423
 30
0.0
 11
194.0204210335
 21
253.751218252
 31
0.0
  0
LINE
  5
A8
330
1F
100
AcDbEntity
  8
0
  6
SLD-Durchgehend
 62
   179
370
     0
100
AcDbLine
 10
193.8072092516
 20
253.3416422299
 30
0.0
 11
193.8072092516
 21
228.9289097789
 31
0.0
  0
LINE
  5
A9
330
1F
100
AcDbEntity
  8
0
  6
SLD-Durchgehend
 62
   179
370
     0
100
AcDbLine
 10
192.7200535089
 20
227.9327150808
 30
0.0
 11
188.3200535089
 21
228.3176652003
 31
0.0
  0
LINE
  5
AA
330
1F
100
AcDbEntity
  8
0
  6
SLD-Durchgehend
 62
   179
370
     0
100
AcDbLine
 10
187.4072092516
 20
229.3138598984
 30
0.0
 11
187.4072092516
 21
233.9423823392
 31
0.0
  0
LINE
  5
AB
330
1F
100
AcDbEntity
  8
0
  6
SLD-Durchgehend
 62
   179
370
     0
100
AcDbLine
 10
187.4072092516
 20
233.9423823392
 30
0.0
 11
186.8612539002
 21
235.4423823392
 31
0.0
  0
LINE
  5
AC
330
1F
100
AcDbEntity
  8
0
  6
SLD-Durchgehend
 62
   179
370
     0
100
AcDbLine
 10
186.8612539002
 20
235.4423823392
 30
0.0
 11
186.353164603
 21
235.4423823392
 31
0.0
  0
LINE
  5
AD
330
1F
100
AcDbEntity
  8
0
  6
SLD-Durchgehend
 62
   179
370
     0
100
AcDbLine
 10
186.353164603
 20
235.4423823392
 30
0.0
 11
185.8072092516
 21
233.9423823392
 31
0.0
  0
LINE
  5
AE
330
1F
100
AcDbEntity
  8
0
  6
SLD-Durchgehend
 62
   179
370
     0
100
AcDbLine
 10
185.8072092516
 20
233.9423823392
 30
0.0
 11
185.8072092516
 21
231.8423823392
 31
0.0
  0
LINE
  5
AF
330
1F
100
AcDbEntity
  8
0
  6
SLD-Durchgehend
 62
   179
370
     0
100
AcDbLine
 10
185.8072092516
 20
231.8423823392
 30
0.0
 11
167.8072092516
 21
231.8423823392
 31
0.0
  0
LINE
  5
B0
330
1F
100
AcDbEntity
  8
0
  6
SLD-Durchgehend
 62
   179
370
     0
100
AcDbLine
 10
167.8072092516
 20
231.8423823392
 30
0.0
 11
167.8072092516
 21
233.9423823392
 31
0.0
  0
LINE
  5
B1
330
1F
100
AcDbEntity
  8
0
  6
SLD-Durchgehend
 62
   179
370
     0
100
AcDbLine
 10
167.8072092516
 20
233.9423823392
 30
0.0
 11
167.2612539002
 21
235.4423823392
 31
0.0
  0
LINE
  5
B2
330
1F
100
AcDbEntity
  8
0
  6
SLD-Durchgehend
 62
   179
370
     0
100
AcDbLine
 10
167.2612539002
 20
235.4423823392
 30
0.0
 11
166.753164603
 21
235.4423823392
 31
0.0
  0
LINE
  5
B3
330
1F
100
AcDbEntity
  8
0
  6
SLD-Durchgehend
 62
   179
370
     0
100
AcDbLine
 10
166.753164603
 20
235.4423823392
 30
0.0
 11
166.2072092516
 21
233.9423823392
 31
0.0
  0
LINE
  5
B4
330
1F
100
AcDbEntity
  8
0
  6
SLD-Durchgehend
 62
   179
370
     0
100
AcDbLine
 10
166.2072092516
 20
233.9423823392
 30
0.0
 11
166.2072092516
 21
229.3138598984
 31
0.0
  0
LINE
  5
B5
330
1F
100
AcDbEntity
  8
0
  6
SLD-Durchgehend
 62
   179
370
     0
100
AcDbLine
 10
165.2943649944
 20
228.3176652003
 30
0.0
 11
160.8943649944
 21
227.9327150808
 31
0.0
  0
LINE
  5
B6
330
1F
100
AcDbEntity
  8
0
  6
SLD-Durchgehend
 62
   179
370
     0
100
AcDbLine
 10
159.8072092516
 20
228.9289097789
 30
0.0
 11
159.8072092516
 21
253.3416422299
 31
0.0
  0
LINE
  5
B7
330
1F
100
AcDbEntity
  8
0
  6
SLD-Durchgehend
 62
   179
370
     0
100
AcDbLine
 10
159.5939974698
 20
253.751218252
 30
0.0
 11
157.8204210335
 21
254.9930898423
 31
0.0
  0
LINE
  5
B8
330
1F
100
AcDbEntity
  8
0
  6
SLD-Durchgehend
 62
   179
370
     0
100
AcDbLine
 10
157.6072092516
 20
255.4026658645
 30
0.0
 11
157.6072092516
 21
264.9423823392
 31
0.0
  0
LINE
  5
B9
330
1F
100
AcDbEntity
  8
0
  6
SLD-Durchgehend
 62
   179
370
     0
100
AcDbLine
 10
157.1072092516
 20
265.4423823392
 30
0.0
 11
156.4110568289
 21
265.4423823392
 31
0.0
  0
LINE
  5
BA
330
1F
100
AcDbEntity
  8
0
  6
SLD-Durchgehend
 62
   179
370
     0
100
AcDbLine
 10
156.4110568289
 20
265.4423823392
 30
0.0
 11
155.6072092516
 21
262.4423823392
 31
0.0
  0
LINE
  5
BB
330
1F
100
AcDbEntity
  8
0
  6
SLD-Durchgehend
 62
   179
370
    15
100
AcDbLine
 10
184.4077229568
 20
147.8569625021
 30
0.0
 11
169.2066955465
 21
147.8569625021
 31
0.0
  0
LINE
  5
BC
330
1F
100
AcDbEntity
  8
0
  6
SLD-Durchgehend
 62
   179
370
    15
100
AcDbLine
 10
169.2066955465
 20
144.8564779899
 30
0.0
 11
184.4077229568
 21
144.8564779899
 31
0.0
  0
LINE
  5
BD
330
1F
100
AcDbEntity
  8
0
  6
SLD-Durchgehend
 62
   179
370
    15
100
AcDbLine
 10
156.5072092516
 20
249.1923823392
 30
0.0
 11
157.6030132408
 21
249.1923823392
 31
0.0
  0
LINE
  5
BE
330
1F
100
AcDbEntity
  8
0
  6
SLD-Durchgehend
 62
   179
370
    15
100
AcDbLine
 10
196.0114052625
 20
249.1923823392
 30
0.0
 11
197.1072092516
 21
249.1923823392
 31
0.0
  0
LINE
  5
BF
330
1F
100
AcDbEntity
  8
0
  6
SLD-Durchgehend
 62
   179
370
    15
100
AcDbLine
 10
197.1072092516
 20
252.1923823392
 30
0.0
 11
196.0114052625
 21
252.1923823392
 31
0.0
  0
LINE
  5
C0
330
1F
100
AcDbEntity
  8
0
  6
SLD-Durchgehend
 62
   179
370
    15
100
AcDbLine
 10
157.6030132408
 20
252.1923823392
 30
0.0
 11
156.5072092516
 21
252.1923823392
 31
0.0
  0
LINE
  5
C1
330
1F
100
AcDbEntity
  8
0
  6
SLD-Durchgehend
 62
   179
370
    15
100
AcDbLine
 10
155.6072092516
 20
262.4423823392
 30
0.0
 11
156.4110568289
 21
265.4423823392
 31
0.0
  0
LINE
  5
C2
330
1F
100
AcDbEntity
  8
0
  6
SLD-Durchgehend
 62
   179
370
    15
100
AcDbLine
 10
157.1072092516
 20
265.4423823392
 30
0.0
 11
156.4110568289
 21
265.4423823392
 31
0.0
  0
LINE
  5
C3
330
1F
100
AcDbEntity
  8
0
  6
SLD-Durchgehend
 62
   179
370
    15
100
AcDbLine
 10
157.6072092516
 20
255.4026658645
 30
0.0
 11
157.6072092516
 21
264.9423823392
 31
0.0
  0
LINE
  5
C4
330
1F
100
AcDbEntity
  8
0
  6
SLD-Durchgehend
 62
   179
370
    15
100
AcDbLine
 10
159.5939974698
 20
253.751218252
 30
0.0
 11
157.8204210335
 21
254.9930898423
 31
0.0
  0
LINE
  5
C5
330
1F
100
AcDbEntity
  8
0
  6
SLD-Durchgehend
 62
   179
370
    15
100
AcDbLine
 10
159.8072092516
 20
228.9289097789
 30
0.0
 11
159.8072092516
 21
253.3416422299
 31
0.0
  0
LINE
  5
C6
330
1F
100
AcDbEntity
  8
0
  6
SLD-Durchgehend
 62
   179
370
    15
100
AcDbLine
 10
160.8943649944
 20
227.9327150808
 30
0.0
 11
165.2943649944
 21
228.3176652003
 31
0.0
  0
LINE
  5
C7
330
1F
100
AcDbEntity
  8
0
  6
SLD-Durchgehend
 62
   179
370
    15
100
AcDbLine
 10
166.2072092516
 20
229.3138598984
 30
0.0
 11
166.2072092516
 21
233.9423823392
 31
0.0
  0
LINE
  5
C8
330
1F
100
AcDbEntity
  8
0
  6
SLD-Durchgehend
 62
   179
370
    15
100
AcDbLine
 10
166.2072092516
 20
233.9423823392
 30
0.0
 11
166.753164603
 21
235.4423823392
 31
0.0
  0
LINE
  5
C9
330
1F
100
AcDbEntity
  8
0
  6
SLD-Durchgehend
 62
   179
370
    15
100
AcDbLine
 10
167.2612539002
 20
235.4423823392
 30
0.0
 11
166.753164603
 21
235.4423823392
 31
0.0
  0
LINE
  5
CA
330
1F
100
AcDbEntity
  8
0
  6
SLD-Durchgehend
 62
   179
370
    15
100
AcDbLine
 10
167.8072092516
 20
233.9423823392
 30
0.0
 11
167.2612539002
 21
235.4423823392
 31
0.0
  0
LINE
  5
CB
330
1F
100
AcDbEntity
  8
0
  6
SLD-Durchgehend
 62
   179
370
    15
100
AcDbLine
 10
167.8072092516
 20
231.8423823392
 30
0.0
 11
167.8072092516
 21
233.9423823392
 31
0.0
  0
LINE
  5
CC
330
1F
100
AcDbEntity
  8
0
  6
SLD-Durchgehend
 62
   179
370
    15
100
AcDbLine
 10
185.8072092516
 20
231.8423823392
 30
0.0
 11
167.8072092516
 21
231.8423823392
 31
0.0
  0
LINE
  5
CD
330
1F
100
AcDbEntity
  8
0
  6
SLD-Durchgehend
 62
   179
370
    15
100
AcDbLine
 10
185.8072092516
 20
233.9423823392
 30
0.0
 11
185.8072092516
 21
231.8423823392
 31
0.0
  0
LINE
  5
CE
330
1F
100
AcDbEntity
  8
0
  6
SLD-Durchgehend
 62
   179
370
    15
100
AcDbLine
 10
186.353164603
 20
235.4423823392
 30
0.0
 11
185.8072092516
 21
233.9423823392
 31
0.0
  0
LINE
  5
CF
330
1F
100
AcDbEntity
  8
0
  6
SLD-Durchgehend
 62
   179
370
    15
100
AcDbLine
 10
186.8612539002
 20
235.4423823392
 30
0.0
 11
186.353164603
 21
235.4423823392
 31
0.0
  0
LINE
  5
D0
330
1F
100
AcDbEntity
  8
0
  6
SLD-Durchgehend
 62
   179
370
    15
100
AcDbLine
 10
186.8612539002
 20
235.4423823392
 30
0.0
 11
187.4072092516
 21
233.9423823392
 31
0.0
  0
LINE
  5
D1
330
1F
100
AcDbEntity
  8
0
  6
SLD-Durchgehend
 62
   179
370
    15
100
AcDbLine
 10
187.4072092516
 20
233.9423823392
 30
0.0
 11
187.4072092516
 21
229.3138598984
 31
0.0
  0
LINE
  5
D2
330
1F
100
AcDbEntity
  8
0
  6
SLD-Durchgehend
 62
   179
370
    15
100
AcDbLine
 10
188.3200535089
 20
228.3176652003
 30
0.0
 11
192.7200535089
 21
227.9327150808
 31
0.0
  0
LINE
  5
D3
330
1F
100
AcDbEntity
  8
0
  6
SLD-Durchgehend
 62
   179
370
    15
100
AcDbLine
 10
193.8072092516
 20
253.3416422299
 30
0.0
 11
193.8072092516
 21
228.9289097789
 31
0.0
  0
LINE
  5
D4
330
1F
100
AcDbEntity
  8
0
  6
SLD-Durchgehend
 62
   179
370
    15
100
AcDbLine
 10
195.7939974698
 20
254.9930898423
 30
0.0
 11
194.0204210335
 21
253.751218252
 31
0.0
  0
LINE
  5
D5
330
1F
100
AcDbEntity
  8
0
  6
SLD-Durchgehend
 62
   179
370
    15
100
AcDbLine
 10
196.0072092516
 20
264.9423823392
 30
0.0
 11
196.0072092516
 21
255.4026658645
 31
0.0
  0
LINE
  5
D6
330
1F
100
AcDbEntity
  8
0
  6
SLD-Durchgehend
 62
   179
370
    15
100
AcDbLine
 10
197.2033616743
 20
265.4423823392
 30
0.0
 11
196.5072092516
 21
265.4423823392
 31
0.0
  0
LINE
  5
D7
330
1F
100
AcDbEntity
  8
0
  6
SLD-Durchgehend
 62
   179
370
    15
100
AcDbLine
 10
197.2033616743
 20
265.4423823392
 30
0.0
 11
198.0072092516
 21
262.4423823392
 31
0.0
  0
LINE
  5
D8
330
1F
100
AcDbEntity
  8
0
  6
SLD-Durchgehend
 62
   179
370
    15
100
AcDbLine
 10
198.0072092516
 20
262.4423823392
 30
0.0
 11
198.0072092516
 21
252.9423823392
 31
0.0
  0
LINE
  5
D9
330
1F
100
AcDbEntity
  8
0
  6
SLD-Durchgehend
 62
   179
370
    15
100
AcDbLine
 10
197.5072092516
 20
252.4423823392
 30
0.0
 11
196.3072092516
 21
252.4423823392
 31
0.0
  0
LINE
  5
DA
330
1F
100
AcDbEntity
  8
0
  6
SLD-Durchgehend
 62
   179
370
    15
100
AcDbLine
 10
196.0072092516
 20
252.1423823392
 30
0.0
 11
196.0072092516
 21
249.2423823392
 31
0.0
  0
LINE
  5
DB
330
1F
100
AcDbEntity
  8
0
  6
SLD-Durchgehend
 62
   179
370
    15
100
AcDbLine
 10
197.5072092516
 20
248.9423823392
 30
0.0
 11
196.3072092516
 21
248.9423823392
 31
0.0
  0
LINE
  5
DC
330
1F
100
AcDbEntity
  8
0
  6
SLD-Durchgehend
 62
   179
370
    15
100
AcDbLine
 10
198.0072092516
 20
248.4423823392
 30
0.0
 11
198.0072092516
 21
235.6274623257
 31
0.0
  0
LINE
  5
DD
330
1F
100
AcDbEntity
  8
0
  6
SLD-Durchgehend
 62
   179
370
    15
100
AcDbLine
 10
198.0072092516
 20
235.6274623257
 30
0.0
 11
203.0176791006
 21
235.4524928631
 31
0.0
  0
LINE
  5
DE
330
1F
100
AcDbEntity
  8
0
  6
SLD-Durchgehend
 62
   179
370
    15
100
AcDbLine
 10
203.3072092516
 20
235.152675615
 30
0.0
 11
203.3072092516
 21
233.2320888799
 31
0.0
  0
LINE
  5
DF
330
1F
100
AcDbEntity
  8
0
  6
SLD-Durchgehend
 62
   179
370
    15
100
AcDbLine
 10
203.0176791006
 20
232.9322716318
 30
0.0
 11
197.9772092516
 21
232.756254546
 31
0.0
  0
LINE
  5
E0
330
1F
100
AcDbEntity
  8
0
  6
SLD-Durchgehend
 62
   179
370
    15
100
AcDbLine
 10
197.9772092516
 20
227.6735375184
 30
0.0
 11
197.9772092516
 21
232.756254546
 31
0.0
  0
LINE
  5
E1
330
1F
100
AcDbEntity
  8
0
  6
SLD-Durchgehend
 62
   179
370
    15
100
AcDbLine
 10
197.9772092516
 20
227.6735375184
 30
0.0
 11
199.3943649944
 21
227.5495524565
 31
0.0
  0
LINE
  5
E2
330
1F
100
AcDbEntity
  8
0
  6
SLD-Durchgehend
 62
   179
370
    15
100
AcDbLine
 10
200.3072092516
 20
226.5533577584
 30
0.0
 11
200.3072092516
 21
203.9260457414
 31
0.0
  0
LINE
  5
E3
330
1F
100
AcDbEntity
  8
0
  6
SLD-Durchgehend
 62
   179
370
    15
100
AcDbLine
 10
200.6777997291
 20
203.4430828283
 30
0.0
 11
203.3072092516
 21
202.7385346701
 31
0.0
  0
LINE
  5
E4
330
1F
100
AcDbEntity
  8
0
  6
SLD-Durchgehend
 62
   179
370
    15
100
AcDbLine
 10
203.3072092516
 20
202.7385346701
 30
0.0
 11
203.3072092516
 21
202.1462298247
 31
0.0
  0
LINE
  5
E5
330
1F
100
AcDbEntity
  8
0
  6
SLD-Durchgehend
 62
   179
370
    15
100
AcDbLine
 10
203.3072092516
 20
202.1462298247
 30
0.0
 11
202.8072092516
 21
202.0122552285
 31
0.0
  0
LINE
  5
E6
330
1F
100
AcDbEntity
  8
0
  6
SLD-Durchgehend
 62
   179
370
    15
100
AcDbLine
 10
202.8072092516
 20
202.0122552285
 30
0.0
 11
202.8072092516
 21
194.9725092663
 31
0.0
  0
LINE
  5
E7
330
1F
100
AcDbEntity
  8
0
  6
SLD-Durchgehend
 62
   179
370
    15
100
AcDbLine
 10
202.8072092516
 20
194.9725092663
 30
0.0
 11
203.3072092516
 21
194.8385346701
 31
0.0
  0
LINE
  5
E8
330
1F
100
AcDbEntity
  8
0
  6
SLD-Durchgehend
 62
   179
370
    15
100
AcDbLine
 10
203.3072092516
 20
194.8385346701
 30
0.0
 11
203.3072092516
 21
194.2462298247
 31
0.0
  0
LINE
  5
E9
330
1F
100
AcDbEntity
  8
0
  6
SLD-Durchgehend
 62
   179
370
    15
100
AcDbLine
 10
203.3072092516
 20
194.2462298247
 30
0.0
 11
200.3072092516
 21
193.4423822474
 31
0.0
  0
LINE
  5
EA
330
1F
100
AcDbEntity
  8
0
  6
SLD-Durchgehend
 62
   179
370
    15
100
AcDbLine
 10
200.3072092516
 20
193.4423822474
 30
0.0
 11
199.7610479322
 21
193.4423822474
 31
0.0
  0
LINE
  5
EB
330
1F
100
AcDbEntity
  8
0
  6
SLD-Durchgehend
 62
   179
370
    15
100
AcDbLine
 10
198.1072092516
 20
200.4423822474
 30
0.0
 11
199.2686440557
 21
193.8555581586
 31
0.0
  0
LINE
  5
EC
330
1F
100
AcDbEntity
  8
0
  6
SLD-Durchgehend
 62
   179
370
    15
100
AcDbLine
 10
198.1072092516
 20
224.5374291756
 30
0.0
 11
198.1072092516
 21
200.4423822474
 31
0.0
  0
LINE
  5
ED
330
1F
100
AcDbEntity
  8
0
  6
SLD-Durchgehend
 62
   179
370
    15
100
AcDbLine
 10
186.7200535089
 20
226.4500073869
 30
0.0
 11
197.1943649944
 21
225.5336238737
 31
0.0
  0
LINE
  5
EE
330
1F
100
AcDbEntity
  8
0
  6
SLD-Durchgehend
 62
   179
370
    15
100
AcDbLine
 10
185.8072092516
 20
227.8423823392
 30
0.0
 11
185.8072092516
 21
227.446202085
 31
0.0
  0
LINE
  5
EF
330
1F
100
AcDbEntity
  8
0
  6
SLD-Durchgehend
 62
   179
370
    15
100
AcDbLine
 10
167.8072092516
 20
227.8423823392
 30
0.0
 11
185.8072092516
 21
227.8423823392
 31
0.0
  0
LINE
  5
F0
330
1F
100
AcDbEntity
  8
0
  6
SLD-Durchgehend
 62
   179
370
    15
100
AcDbLine
 10
167.8072092516
 20
227.446202085
 30
0.0
 11
167.8072092516
 21
227.8423823392
 31
0.0
  0
LINE
  5
F1
330
1F
100
AcDbEntity
  8
0
  6
SLD-Durchgehend
 62
   179
370
    15
100
AcDbLine
 10
156.4200535089
 20
225.5336238737
 30
0.0
 11
166.8943649944
 21
226.4500073869
 31
0.0
  0
LINE
  5
F2
330
1F
100
AcDbEntity
  8
0
  6
SLD-Durchgehend
 62
   179
370
    15
100
AcDbLine
 10
155.5072092516
 20
200.4423822474
 30
0.0
 11
155.5072092516
 21
224.5374291756
 31
0.0
  0
LINE
  5
F3
330
1F
100
AcDbEntity
  8
0
  6
SLD-Durchgehend
 62
   179
370
    15
100
AcDbLine
 10
154.3457744476
 20
193.8555581586
 30
0.0
 11
155.5072092516
 21
200.4423822474
 31
0.0
  0
LINE
  5
F4
330
1F
100
AcDbEntity
  8
0
  6
SLD-Durchgehend
 62
   179
370
    15
100
AcDbLine
 10
153.8533705711
 20
193.4423822474
 30
0.0
 11
153.3072092516
 21
193.4423822474
 31
0.0
  0
LINE
  5
F5
330
1F
100
AcDbEntity
  8
0
  6
SLD-Durchgehend
 62
   179
370
    15
100
AcDbLine
 10
153.3072092516
 20
193.4423822474
 30
0.0
 11
150.3072092516
 21
194.2462298247
 31
0.0
  0
LINE
  5
F6
330
1F
100
AcDbEntity
  8
0
  6
SLD-Durchgehend
 62
   179
370
    15
100
AcDbLine
 10
150.3072092516
 20
194.2462298247
 30
0.0
 11
150.3072092516
 21
194.8385346701
 31
0.0
  0
LINE
  5
F7
330
1F
100
AcDbEntity
  8
0
  6
SLD-Durchgehend
 62
   179
370
    15
100
AcDbLine
 10
150.3072092516
 20
194.8385346701
 30
0.0
 11
150.8072092516
 21
194.9725092663
 31
0.0
  0
LINE
  5
F8
330
1F
100
AcDbEntity
  8
0
  6
SLD-Durchgehend
 62
   179
370
    15
100
AcDbLine
 10
150.8072092516
 20
194.9725092663
 30
0.0
 11
150.8072092516
 21
202.0122552285
 31
0.0
  0
LINE
  5
F9
330
1F
100
AcDbEntity
  8
0
  6
SLD-Durchgehend
 62
   179
370
    15
100
AcDbLine
 10
150.8072092516
 20
202.0122552285
 30
0.0
 11
150.3072092516
 21
202.1462298247
 31
0.0
  0
LINE
  5
FA
330
1F
100
AcDbEntity
  8
0
  6
SLD-Durchgehend
 62
   179
370
    15
100
AcDbLine
 10
150.3072092516
 20
202.1462298247
 30
0.0
 11
150.3072092516
 21
202.7385346701
 31
0.0
  0
LINE
  5
FB
330
1F
100
AcDbEntity
  8
0
  6
SLD-Durchgehend
 62
   179
370
    15
100
AcDbLine
 10
150.3072092516
 20
202.7385346701
 30
0.0
 11
152.9366187742
 21
203.4430828283
 31
0.0
  0
LINE
  5
FC
330
1F
100
AcDbEntity
  8
0
  6
SLD-Durchgehend
 62
   179
370
    15
100
AcDbLine
 10
153.3072092516
 20
203.9260457414
 30
0.0
 11
153.3072092516
 21
226.5533577584
 31
0.0
  0
LINE
  5
FD
330
1F
100
AcDbEntity
  8
0
  6
SLD-Durchgehend
 62
   179
370
    15
100
AcDbLine
 10
154.2200535089
 20
227.5495524565
 30
0.0
 11
155.6372092516
 21
227.6735375184
 31
0.0
  0
LINE
  5
FE
330
1F
100
AcDbEntity
  8
0
  6
SLD-Durchgehend
 62
   179
370
    15
100
AcDbLine
 10
155.6372092516
 20
232.756254546
 30
0.0
 11
155.6372092516
 21
227.6735375184
 31
0.0
  0
LINE
  5
FF
330
1F
100
AcDbEntity
  8
0
  6
SLD-Durchgehend
 62
   179
370
    15
100
AcDbLine
 10
155.6372092516
 20
232.756254546
 30
0.0
 11
150.5967394026
 21
232.9322716318
 31
0.0
  0
LINE
  5
100
330
1F
100
AcDbEntity
  8
0
  6
SLD-Durchgehend
 62
   179
370
    15
100
AcDbLine
 10
150.3072092516
 20
233.2320888799
 30
0.0
 11
150.3072092516
 21
235.152675615
 31
0.0
  0
LINE
  5
101
330
1F
100
AcDbEntity
  8
0
  6
SLD-Durchgehend
 62
   179
370
    15
100
AcDbLine
 10
150.5967394026
 20
235.4524928631
 30
0.0
 11
155.6072092516
 21
235.6274623257
 31
0.0
  0
LINE
  5
102
330
1F
100
AcDbEntity
  8
0
  6
SLD-Durchgehend
 62
   179
370
    15
100
AcDbLine
 10
155.6072092516
 20
235.6274623257
 30
0.0
 11
155.6072092516
 21
248.4423823392
 31
0.0
  0
LINE
  5
103
330
1F
100
AcDbEntity
  8
0
  6
SLD-Durchgehend
 62
   179
370
    15
100
AcDbLine
 10
157.3072092516
 20
248.9423823392
 30
0.0
 11
156.1072092516
 21
248.9423823392
 31
0.0
  0
LINE
  5
104
330
1F
100
AcDbEntity
  8
0
  6
SLD-Durchgehend
 62
   179
370
    15
100
AcDbLine
 10
157.6072092516
 20
249.2423823392
 30
0.0
 11
157.6072092516
 21
252.1423823392
 31
0.0
  0
LINE
  5
105
330
1F
100
AcDbEntity
  8
0
  6
SLD-Durchgehend
 62
   179
370
    15
100
AcDbLine
 10
157.3072092516
 20
252.4423823392
 30
0.0
 11
156.1072092516
 21
252.4423823392
 31
0.0
  0
LINE
  5
106
330
1F
100
AcDbEntity
  8
0
  6
SLD-Durchgehend
 62
   179
370
    15
100
AcDbLine
 10
155.6072092516
 20
252.9423823392
 30
0.0
 11
155.6072092516
 21
262.4423823392
 31
0.0
  0
LINE
  5
107
330
1F
100
AcDbEntity
  8
0
  6
SLD-Durchgehend
 62
   179
370
    15
100
AcDbLine
 10
167.8072092516
 20
233.9423823392
 30
0.0
 11
185.8072092516
 21
233.9423823392
 31
0.0
  0
LINE
  5
108
330
1F
100
AcDbEntity
  8
0
  6
SLD-Durchgehend
 62
   179
370
    15
100
AcDbLine
 10
155.5072092516
 20
200.4423822474
 30
0.0
 11
198.1072092516
 21
200.4423822474
 31
0.0
  0
LINE
  5
109
330
1F
100
AcDbEntity
  8
0
  6
SLD-Durchgehend
 62
   179
370
    15
100
AcDbLine
 10
167.2612539002
 20
235.4423823392
 30
0.0
 11
186.353164603
 21
235.4423823392
 31
0.0
  0
LINE
  5
10A
330
1F
100
AcDbEntity
  8
0
  6
SLD-Punktstrich
 62
   179
370
     0
100
AcDbLine
 10
176.8072092516
 20
265.9960501033
 30
0.0
 11
176.8072092516
 21
198.4423822474
 31
0.0
  0
CIRCLE
  5
10B
330
1F
100
AcDbEntity
  8
0
  6
SLD-Durchgehend
 62
   179
370
     0
100
AcDbCircle
 10
156.5072092516
 20
250.6923823392
 30
0.0
 40
1.5
  0
CIRCLE
  5
10C
330
1F
100
AcDbEntity
  8
0
  6
SLD-Durchgehend
 62
   179
370
     0
100
AcDbCircle
 10
197.1072092516
 20
250.6923823392
 30
0.0
 40
1.5
  0
ARC
  5
10D
330
1F
100
AcDbEntity
  8
0
  6
SLD-Durchgehend
 62
   179
370
     0
100
AcDbCircle
 10
156.1072092516
 20
252.9423823392
 30
0.0
 40
0.5
100
AcDbArc
 50
180.0
 51
270.0
  0
ARC
  5
10E
330
1F
100
AcDbEntity
  8
0
  6
SLD-Durchgehend
 62
   179
370
     0
100
AcDbCircle
 10
157.3072092516
 20
252.1423823392
 30
0.0
 40
0.3000000000000114
100
AcDbArc
 50
0.0
 51
90.0
  0
ARC
  5
10F
330
1F
100
AcDbEntity
  8
0
  6
SLD-Durchgehend
 62
   179
370
     0
100
AcDbCircle
 10
157.3072092516
 20
249.2423823392
 30
0.0
 40
0.3000000000000114
100
AcDbArc
 50
270.0
 51
0.0
  0
ARC
  5
110
330
1F
100
AcDbEntity
  8
0
  6
SLD-Durchgehend
 62
   179
370
     0
100
AcDbCircle
 10
156.1072092516
 20
248.4423823392
 30
0.0
 40
0.5000000000000284
100
AcDbArc
 50
90.0
 51
180.0
  0
ARC
  5
111
330
1F
100
AcDbEntity
  8
0
  6
SLD-Durchgehend
 62
   179
370
     0
100
AcDbCircle
 10
150.6072092516
 20
235.152675615
 30
0.0
 40
0.2999999999999829
100
AcDbArc
 50
92.0
 51
180.0
  0
ARC
  5
112
330
1F
100
AcDbEntity
  8
0
  6
SLD-Durchgehend
 62
   179
370
     0
100
AcDbCircle
 10
150.6072092516
 20
233.2320888799
 30
0.0
 40
0.3000000000000684
100
AcDbArc
 50
180.0
 51
268.0
  0
ARC
  5
113
330
1F
100
AcDbEntity
  8
0
  6
SLD-Durchgehend
 62
   179
370
     0
100
AcDbCircle
 10
154.3072092516
 20
226.5533577584
 30
0.0
 40
1.0
100
AcDbArc
 50
95.0
 51
180.0
  0
ARC
  5
114
330
1F
100
AcDbEntity
  8
0
  6
SLD-Durchgehend
 62
   179
370
     0
100
AcDbCircle
 10
152.8072092516
 20
203.9260457414
 30
0.0
 40
0.5000000000000373
100
AcDbArc
 50
285.0
 51
0.0
  0
ARC
  5
115
330
1F
100
AcDbEntity
  8
0
  6
SLD-Durchgehend
 62
   179
370
     0
100
AcDbCircle
 10
153.8533705711
 20
193.9423822474
 30
0.0
 40
0.4999999999999916
100
AcDbArc
 50
270.0
 51
350.0
  0
ARC
  5
116
330
1F
100
AcDbEntity
  8
0
  6
SLD-Durchgehend
 62
   179
370
     0
100
AcDbCircle
 10
156.5072092516
 20
224.5374291756
 30
0.0
 40
1.0
100
AcDbArc
 50
95.0
 51
180.0
  0
ARC
  5
117
330
1F
100
AcDbEntity
  8
0
  6
SLD-Durchgehend
 62
   179
370
     0
100
AcDbCircle
 10
166.8072092516
 20
227.446202085
 30
0.0
 40
1.000000000000034
100
AcDbArc
 50
275.0
 51
0.0
  0
ARC
  5
118
330
1F
100
AcDbEntity
  8
0
  6
SLD-Durchgehend
 62
   179
370
     0
100
AcDbCircle
 10
186.8072092516
 20
227.446202085
 30
0.0
 40
1.00000000000003
100
AcDbArc
 50
180.0
 51
265.0
  0
ARC
  5
119
330
1F
100
AcDbEntity
  8
0
  6
SLD-Durchgehend
 62
   179
370
     0
100
AcDbCircle
 10
197.1072092516
 20
224.5374291756
 30
0.0
 40
1.000000000000036
100
AcDbArc
 50
0.0
 51
85.0
  0
ARC
  5
11A
330
1F
100
AcDbEntity
  8
0
  6
SLD-Durchgehend
 62
   179
370
     0
100
AcDbCircle
 10
199.7610479322
 20
193.9423822474
 30
0.0
 40
0.5000000000000344
100
AcDbArc
 50
190.0
 51
270.0
  0
ARC
  5
11B
330
1F
100
AcDbEntity
  8
0
  6
SLD-Durchgehend
 62
   179
370
     0
100
AcDbCircle
 10
200.8072092516
 20
203.9260457414
 30
0.0
 40
0.5000000000002842
100
AcDbArc
 50
180.0
 51
255.0
  0
ARC
  5
11C
330
1F
100
AcDbEntity
  8
0
  6
SLD-Durchgehend
 62
   179
370
     0
100
AcDbCircle
 10
199.3072092516
 20
226.5533577584
 30
0.0
 40
1.000000000000064
100
AcDbArc
 50
0.0
 51
85.0
  0
ARC
  5
11D
330
1F
100
AcDbEntity
  8
0
  6
SLD-Durchgehend
 62
   179
370
     0
100
AcDbCircle
 10
203.0072092516
 20
233.2320888799
 30
0.0
 40
0.3000000000000959
100
AcDbArc
 50
272.0
 51
0.0
  0
ARC
  5
11E
330
1F
100
AcDbEntity
  8
0
  6
SLD-Durchgehend
 62
   179
370
     0
100
AcDbCircle
 10
203.0072092516
 20
235.152675615
 30
0.0
 40
0.2999999999999829
100
AcDbArc
 50
0.0
 51
88.0
  0
ARC
  5
11F
330
1F
100
AcDbEntity
  8
0
  6
SLD-Durchgehend
 62
   179
370
     0
100
AcDbCircle
 10
197.5072092516
 20
248.4423823392
 30
0.0
 40
0.5
100
AcDbArc
 50
0.0
 51
90.0
  0
ARC
  5
120
330
1F
100
AcDbEntity
  8
0
  6
SLD-Durchgehend
 62
   179
370
     0
100
AcDbCircle
 10
196.3072092516
 20
249.2423823392
 30
0.0
 40
0.2999999999999829
100
AcDbArc
 50
180.0
 51
270.0
  0
ARC
  5
121
330
1F
100
AcDbEntity
  8
0
  6
SLD-Durchgehend
 62
   179
370
     0
100
AcDbCircle
 10
196.3072092516
 20
252.1423823392
 30
0.0
 40
0.3000000000000114
100
AcDbArc
 50
90.0
 51
180.0
  0
ARC
  5
122
330
1F
100
AcDbEntity
  8
0
  6
SLD-Durchgehend
 62
   179
370
     0
100
AcDbCircle
 10
197.5072092516
 20
252.9423823392
 30
0.0
 40
0.5
100
AcDbArc
 50
270.0
 51
0.0
  0
ARC
  5
123
330
1F
100
AcDbEntity
  8
0
  6
SLD-Durchgehend
 62
   179
370
     0
100
AcDbCircle
 10
196.5072092516
 20
264.9423823392
 30
0.0
 40
0.5000000000001137
100
AcDbArc
 50
90.0
 51
180.0
  0
ARC
  5
124
330
1F
100
AcDbEntity
  8
0
  6
SLD-Durchgehend
 62
   179
370
     0
100
AcDbCircle
 10
195.5072092516
 20
255.4026658645
 30
0.0
 40
0.5
100
AcDbArc
 50
305.0
 51
0.0
  0
ARC
  5
125
330
1F
100
AcDbEntity
  8
0
  6
SLD-Durchgehend
 62
   179
370
     0
100
AcDbCircle
 10
194.3072092516
 20
253.3416422299
 30
0.0
 40
0.5000000000000523
100
AcDbArc
 50
125.0
 51
180.0
  0
ARC
  5
126
330
1F
100
AcDbEntity
  8
0
  6
SLD-Durchgehend
 62
   179
370
     0
100
AcDbCircle
 10
192.8072092516
 20
228.9289097789
 30
0.0
 40
1.0
100
AcDbArc
 50
265.0
 51
0.0
  0
ARC
  5
127
330
1F
100
AcDbEntity
  8
0
  6
SLD-Durchgehend
 62
   179
370
     0
100
AcDbCircle
 10
188.4072092516
 20
229.3138598984
 30
0.0
 40
1.0
100
AcDbArc
 50
180.0
 51
265.0
  0
ARC
  5
128
330
1F
100
AcDbEntity
  8
0
  6
SLD-Durchgehend
 62
   179
370
     0
100
AcDbCircle
 10
165.2072092516
 20
229.3138598984
 30
0.0
 40
1.0
100
AcDbArc
 50
275.0
 51
0.0
  0
ARC
  5
129
330
1F
100
AcDbEntity
  8
0
  6
SLD-Durchgehend
 62
   179
370
     0
100
AcDbCircle
 10
160.8072092516
 20
228.9289097789
 30
0.0
 40
1.000000000000062
100
AcDbArc
 50
180.0
 51
275.0
  0
ARC
  5
12A
330
1F
100
AcDbEntity
  8
0
  6
SLD-Durchgehend
 62
   179
370
     0
100
AcDbCircle
 10
159.3072092516
 20
253.3416422299
 30
0.0
 40
0.5000000000000197
100
AcDbArc
 50
0.0
 51
55.0
  0
ARC
  5
12B
330
1F
100
AcDbEntity
  8
0
  6
SLD-Durchgehend
 62
   179
370
     0
100
AcDbCircle
 10
158.1072092516
 20
255.4026658645
 30
0.0
 40
0.5000000000000058
100
AcDbArc
 50
180.0
 51
235.0
  0
ARC
  5
12C
330
1F
100
AcDbEntity
  8
0
  6
SLD-Durchgehend
 62
   179
370
     0
100
AcDbCircle
 10
157.1072092516
 20
264.9423823392
 30
0.0
 40
0.5
100
AcDbArc
 50
0.0
 51
90.0
  0
CIRCLE
  5
12D
330
1F
100
AcDbEntity
  8
0
  6
SLD-Durchgehend
 62
   179
370
    15
100
AcDbCircle
 10
176.8072092516
 20
146.356720246
 30
0.0
 40
21.80000000000001
  0
CIRCLE
  5
12E
330
1F
100
AcDbEntity
  8
0
  6
SLD-Durchgehend
 62
   179
370
    15
100
AcDbCircle
 10
176.8072092516
 20
146.356720246
 30
0.0
 40
20.39615242270662
  0
CIRCLE
  5
12F
330
1F
100
AcDbEntity
  8
0
  6
SLD-Durchgehend
 62
   179
370
    15
100
AcDbCircle
 10
176.8072092516
 20
146.356720246
 30
0.0
 40
19.20000000000002
  0
CIRCLE
  5
130
330
1F
100
AcDbEntity
  8
0
  6
SLD-Durchgehend
 62
   179
370
    15
100
AcDbCircle
 10
176.8072092516
 20
146.356720246
 30
0.0
 40
21.20000000000002
  0
CIRCLE
  5
131
330
1F
100
AcDbEntity
  8
0
  6
SLD-Durchgehend
 62
   179
370
    15
100
AcDbCircle
 10
176.8072092516
 20
146.356720246
 30
0.0
 40
17.0
  0
CIRCLE
  5
132
330
1F
100
AcDbEntity
  8
0
  6
SLD-Durchgehend
 62
   179
370
    15
100
AcDbCircle
 10
176.8072092516
 20
146.356720246
 30
0.0
 40
26.5
  0
CIRCLE
  5
133
330
1F
100
AcDbEntity
  8
0
  6
SLD-Durchgehend
 62
   179
370
    15
100
AcDbCircle
 10
176.8072092516
 20
146.356720246
 30
0.0
 40
9.5459553513993
  0
CIRCLE
  5
134
330
1F
100
AcDbEntity
  8
0
  6
SLD-Durchgehend
 62
   179
370
    15
100
AcDbCircle
 10
176.8072092516
 20
146.356720246
 30
0.0
 40
10.05404464860072
  0
CIRCLE
  5
135
330
1F
100
AcDbEntity
  8
0
  6
SLD-Durchgehend
 62
   179
370
    15
100
AcDbCircle
 10
176.8072092516
 20
146.356720246
 30
0.0
 40
9.000000000000028
  0
CIRCLE
  5
136
330
1F
100
AcDbEntity
  8
0
  6
SLD-Durchgehend
 62
   179
370
    15
100
AcDbCircle
 10
176.8072092516
 20
146.356720246
 30
0.0
 40
10.60000000000002
  0
ARC
  5
137
330
1F
100
AcDbEntity
  8
0
  6
SLD-Durchgehend
 62
   179
370
    15
100
AcDbCircle
 10
157.1072092516
 20
264.9423823392
 30
0.0
 40
0.5
100
AcDbArc
 50
0.0
 51
90.0
  0
ARC
  5
138
330
1F
100
AcDbEntity
  8
0
  6
SLD-Durchgehend
 62
   179
370
    15
100
AcDbCircle
 10
158.1072092516
 20
255.4026658645
 30
0.0
 40
0.5000000000000058
100
AcDbArc
 50
180.0
 51
235.0
  0
ARC
  5
139
330
1F
100
AcDbEntity
  8
0
  6
SLD-Durchgehend
 62
   179
370
    15
100
AcDbCircle
 10
159.3072092516
 20
253.3416422299
 30
0.0
 40
0.5000000000000197
100
AcDbArc
 50
0.0
 51
55.0
  0
ARC
  5
13A
330
1F
100
AcDbEntity
  8
0
  6
SLD-Durchgehend
 62
   179
370
    15
100
AcDbCircle
 10
160.8072092516
 20
228.9289097789
 30
0.0
 40
1.000000000000062
100
AcDbArc
 50
180.0
 51
275.0
  0
ARC
  5
13B
330
1F
100
AcDbEntity
  8
0
  6
SLD-Durchgehend
 62
   179
370
    15
100
AcDbCircle
 10
165.2072092516
 20
229.3138598984
 30
0.0
 40
1.0
100
AcDbArc
 50
275.0
 51
0.0
  0
ARC
  5
13C
330
1F
100
AcDbEntity
  8
0
  6
SLD-Durchgehend
 62
   179
370
    15
100
AcDbCircle
 10
188.4072092516
 20
229.3138598984
 30
0.0
 40
1.0
100
AcDbArc
 50
180.0
 51
265.0
  0
ARC
  5
13D
330
1F
100
AcDbEntity
  8
0
  6
SLD-Durchgehend
 62
   179
370
    15
100
AcDbCircle
 10
192.8072092516
 20
228.9289097789
 30
0.0
 40
1.0
100
AcDbArc
 50
265.0
 51
0.0
  0
ARC
  5
13E
330
1F
100
AcDbEntity
  8
0
  6
SLD-Durchgehend
 62
   179
370
    15
100
AcDbCircle
 10
194.3072092516
 20
253.3416422299
 30
0.0
 40
0.5000000000000523
100
AcDbArc
 50
125.0
 51
180.0
  0
ARC
  5
13F
330
1F
100
AcDbEntity
  8
0
  6
SLD-Durchgehend
 62
   179
370
    15
100
AcDbCircle
 10
195.5072092516
 20
255.4026658645
 30
0.0
 40
0.5
100
AcDbArc
 50
305.0
 51
0.0
  0
ARC
  5
140
330
1F
100
AcDbEntity
  8
0
  6
SLD-Durchgehend
 62
   179
370
    15
100
AcDbCircle
 10
196.5072092516
 20
264.9423823392
 30
0.0
 40
0.5000000000001137
100
AcDbArc
 50
90.0
 51
180.0
  0
ARC
  5
141
330
1F
100
AcDbEntity
  8
0
  6
SLD-Durchgehend
 62
   179
370
    15
100
AcDbCircle
 10
197.5072092516
 20
252.9423823392
 30
0.0
 40
0.5
100
AcDbArc
 50
270.0
 51
0.0
  0
ARC
  5
142
330
1F
100
AcDbEntity
  8
0
  6
SLD-Durchgehend
 62
   179
370
    15
100
AcDbCircle
 10
196.3072092516
 20
252.1423823392
 30
0.0
 40
0.3000000000000114
100
AcDbArc
 50
90.0
 51
180.0
  0
ARC
  5
143
330
1F
100
AcDbEntity
  8
0
  6
SLD-Durchgehend
 62
   179
370
    15
100
AcDbCircle
 10
196.3072092516
 20
249.2423823392
 30
0.0
 40
0.2999999999999829
100
AcDbArc
 50
180.0
 51
270.0
  0
ARC
  5
144
330
1F
100
AcDbEntity
  8
0
  6
SLD-Durchgehend
 62
   179
370
    15
100
AcDbCircle
 10
197.5072092516
 20
248.4423823392
 30
0.0
 40
0.5
100
AcDbArc
 50
0.0
 51
90.0
  0
ARC
  5
145
330
1F
100
AcDbEntity
  8
0
  6
SLD-Durchgehend
 62
   179
370
    15
100
AcDbCircle
 10
203.0072092516
 20
235.152675615
 30
0.0
 40
0.2999999999999829
100
AcDbArc
 50
0.0
 51
88.0
  0
ARC
  5
146
330
1F
100
AcDbEntity
  8
0
  6
SLD-Durchgehend
 62
   179
370
    15
100
AcDbCircle
 10
203.0072092516
 20
233.2320888799
 30
0.0
 40
0.3000000000000959
100
AcDbArc
 50
272.0
 51
0.0
  0
ARC
  5
147
330
1F
100
AcDbEntity
  8
0
  6
SLD-Durchgehend
 62
   179
370
    15
100
AcDbCircle
 10
199.3072092516
 20
226.5533577584
 30
0.0
 40
1.000000000000064
100
AcDbArc
 50
0.0
 51
85.0
  0
ARC
  5
148
330
1F
100
AcDbEntity
  8
0
  6
SLD-Durchgehend
 62
   179
370
    15
100
AcDbCircle
 10
200.8072092516
 20
203.9260457414
 30
0.0
 40
0.5000000000002842
100
AcDbArc
 50
180.0
 51
255.0
  0
ARC
  5
149
330
1F
100
AcDbEntity
  8
0
  6
SLD-Durchgehend
 62
   179
370
    15
100
AcDbCircle
 10
199.7610479322
 20
193.9423822474
 30
0.0
 40
0.5000000000000344
100
AcDbArc
 50
190.0
 51
270.0
  0
ARC
  5
14A
330
1F
100
AcDbEntity
  8
0
  6
SLD-Durchgehend
 62
   179
370
    15
100
AcDbCircle
 10
197.1072092516
 20
224.5374291756
 30
0.0
 40
1.000000000000036
100
AcDbArc
 50
0.0
 51
85.0
  0
ARC
  5
14B
330
1F
100
AcDbEntity
  8
0
  6
SLD-Durchgehend
 62
   179
370
    15
100
AcDbCircle
 10
186.8072092516
 20
227.446202085
 30
0.0
 40
1.00000000000003
100
AcDbArc
 50
180.0
 51
265.0
  0
ARC
  5
14C
330
1F
100
AcDbEntity
  8
0
  6
SLD-Durchgehend
 62
   179
370
    15
100
AcDbCircle
 10
166.8072092516
 20
227.446202085
 30
0.0
 40
1.000000000000034
100
AcDbArc
 50
275.0
 51
0.0
  0
ARC
  5
14D
330
1F
100
AcDbEntity
  8
0
  6
SLD-Durchgehend
 62
   179
370
    15
100
AcDbCircle
 10
156.5072092516
 20
224.5374291756
 30
0.0
 40
1.0
100
AcDbArc
 50
95.0
 51
180.0
  0
ARC
  5
14E
330
1F
100
AcDbEntity
  8
0
  6
SLD-Durchgehend
 62
   179
370
    15
100
AcDbCircle
 10
153.8533705711
 20
193.9423822474
 30
0.0
 40
0.4999999999999916
100
AcDbArc
 50
270.0
 51
350.0
  0
ARC
  5
14F
330
1F
100
AcDbEntity
  8
0
  6
SLD-Durchgehend
 62
   179
370
    15
100
AcDbCircle
 10
152.8072092516
 20
203.9260457414
 30
0.0
 40
0.5000000000000373
100
AcDbArc
 50
285.0
 51
0.0
  0
ARC
  5
150
330
1F
100
AcDbEntity
  8
0
  6
SLD-Durchgehend
 62
   179
370
    15
100
AcDbCircle
 10
154.3072092516
 20
226.5533577584
 30
0.0
 40
1.0
100
AcDbArc
 50
95.0
 51
180.0
  0
ARC
  5
151
330
1F
100
AcDbEntity
  8
0
  6
SLD-Durchgehend
 62
   179
370
    15
100
AcDbCircle
 10
150.6072092516
 20
233.2320888799
 30
0.0
 40
0.3000000000000684
100
AcDbArc
 50
180.0
 51
268.0
  0
ARC
  5
152
330
1F
100
AcDbEntity
  8
0
  6
SLD-Durchgehend
 62
   179
370
    15
100
AcDbCircle
 10
150.6072092516
 20
235.152675615
 30
0.0
 40
0.2999999999999829
100
AcDbArc
 50
92.0
 51
180.0
  0
ARC
  5
153
330
1F
100
AcDbEntity
  8
0
  6
SLD-Durchgehend
 62
   179
370
    15
100
AcDbCircle
 10
156.1072092516
 20
248.4423823392
 30
0.0
 40
0.5000000000000284
100
AcDbArc
 50
90.0
 51
180.0
  0
ARC
  5
154
330
1F
100
AcDbEntity
  8
0
  6
SLD-Durchgehend
 62
   179
370
    15
100
AcDbCircle
 10
157.3072092516
 20
249.2423823392
 30
0.0
 40
0.3000000000000114
100
AcDbArc
 50
270.0
 51
0.0
  0
ARC
  5
155
330
1F
100
AcDbEntity
  8
0
  6
SLD-Durchgehend
 62
   179
370
    15
100
AcDbCircle
 10
157.3072092516
 20
252.1423823392
 30
0.0
 40
0.3000000000000114
100
AcDbArc
 50
0.0
 51
90.0
  0
ARC
  5
156
330
1F
100
AcDbEntity
  8
0
  6
SLD-Durchgehend
 62
   179
370
    15
100
AcDbCircle
 10
156.1072092516
 20
252.9423823392
 30
0.0
 40
0.5
100
AcDbArc
 50
180.0
 51
270.0
  0
CIRCLE
  5
157
330
1F
100
AcDbEntity
  8
0
  6
SLD-Durchgehend
 62
   179
370
    15
100
AcDbCircle
 10
197.1072092516
 20
250.6923823392
 30
0.0
 40
1.499999999961801
  0
CIRCLE
  5
158
330
1F
100
AcDbEntity
  8
0
  6
SLD-Durchgehend
 62
   179
370
    15
100
AcDbCircle
 10
156.5072092516
 20
250.6923823392
 30
0.0
 40
1.499999999961801
  0
SPLINE
  5
159
330
1F
100
AcDbEntity
  8
0
  6
SLD-Durchgehend
 62
   179
370
    15
100
AcDbSpline
210
0.0
220
0.0
230
1.0
 70
     8
 71
     3
 72
    16
 73
    12
 74
     0
 42
0.000000001
 43
0.00000001
 40
0.0
 40
0.0
 40
0.0
 40
0.0
 40
0.1250000000000001
 40
0.1250000000000001
 40
0.2500000000000001
 40
0.2500000000000001
 40
0.5000000000000001
 40
0.5000000000000001
 40
0.7500000000000001
 40
0.7500000000000001
 40
1.0
 40
1.0
 40
1.0
 40
1.0
 10
184.4077229567748
 20
144.8564779899265
 30
0.0
 10
184.4872291446979
 20
144.8564779899264
 30
0.0
 10
184.5651388118181
 20
144.8471007314132
 30
0.0
 10
184.7178740740974
 20
144.8102317369702
 30
0.0
 10
184.7930858776367
 20
144.7822719284949
 30
0.0
 10
185.0023457493279
 20
144.6747821076141
 30
0.0
 10
185.1251357159071
 20
144.569152997595
 30
0.0
 10
185.3091195902304
 20
144.3131531304242
 30
0.0
 10
185.3703153420922
 20
144.1627647851986
 30
0.0
 10
185.4178524435399
 20
143.8514111382908
 30
0.0
 10
185.4047200319259
 20
143.6906599223364
 30
0.0
 10
185.3549648022682
 20
143.5396503906966
 30
0.0
  0
SPLINE
  5
15A
330
1F
100
AcDbEntity
  8
0
  6
SLD-Durchgehend
 62
   179
370
    15
100
AcDbSpline
210
0.0
220
0.0
230
1.0
 70
     8
 71
     3
 72
    16
 73
    12
 74
     0
 42
0.000000001
 43
0.00000001
 40
0.0
 40
0.0
 40
0.0
 40
0.0
 40
0.1249999999999998
 40
0.1249999999999998
 40
0.2499999999999996
 40
0.2499999999999996
 40
0.4999999999999999
 40
0.4999999999999999
 40
0.7499999999999999
 40
0.7499999999999999
 40
1.0
 40
1.0
 40
1.0
 40
1.0
 10
185.3549648022683
 20
149.173790101375
 30
0.0
 10
185.379844365983
 20
149.0982794205922
 30
0.0
 10
185.3954267331797
 20
149.0213660499119
 30
0.0
 10
185.408648390215
 20
148.8648321943671
 30
0.0
 10
185.4059758717118
 20
148.7846300069008
 30
0.0
 10
185.3706381298964
 20
148.5520181900012
 30
0.0
 10
185.3098678826271
 20
148.4018356565515
 30
0.0
 10
185.1265658902579
 20
148.1457763572623
 30
0.0
 10
185.0037633512466
 20
148.0395320572667
 30
0.0
 10
184.723365381989
 20
147.8952107214918
 30
0.0
 10
184.5667496504877
 20
147.8569625021453
 30
0.0
 10
184.4077229567748
 20
147.8569625021451
 30
0.0
  0
SPLINE
  5
15B
330
1F
100
AcDbEntity
  8
0
  6
SLD-Durchgehend
 62
   179
370
    15
100
AcDbSpline
210
0.0
220
0.0
230
1.0
 70
     8
 71
     3
 72
    16
 73
    12
 74
     0
 42
0.000000001
 43
0.00000001
 40
0.0
 40
0.0
 40
0.0
 40
0.0
 40
0.1250000000000002
 40
0.1250000000000002
 40
0.2500000000000004
 40
0.2500000000000004
 40
0.5000000000000001
 40
0.5000000000000001
 40
0.75
 40
0.75
 40
1.0
 40
1.0
 40
1.0
 40
1.0
 10
168.2594537010073
 20
143.5396503906969
 30
0.0
 10
168.2345741372926
 20
143.6151610714796
 30
0.0
 10
168.2189917700958
 20
143.69207444216
 30
0.0
 10
168.2057701130607
 20
143.8486082977049
 30
0.0
 10
168.2084426315639
 20
143.9288104851711
 30
0.0
 10
168.2437803733793
 20
144.1614223020707
 30
0.0
 10
168.3045506206486
 20
144.3116048355204
 30
0.0
 10
168.4878526130178
 20
144.5676641348095
 30
0.0
 10
168.6106551520292
 20
144.6739084348051
 30
0.0
 10
168.8910531212867
 20
144.8182297705799
 30
0.0
 10
169.0476688527879
 20
144.8564779899264
 30
0.0
 10
169.2066955465008
 20
144.8564779899265
 30
0.0
  0
SPLINE
  5
15C
330
1F
100
AcDbEntity
  8
0
  6
SLD-Durchgehend
 62
   179
370
    15
100
AcDbSpline
210
0.0
220
0.0
230
1.0
 70
     8
 71
     3
 72
    16
 73
    12
 74
     0
 42
0.000000001
 43
0.00000001
 40
0.0
 40
0.0
 40
0.0
 40
0.0
 40
0.1249999999999998
 40
0.1249999999999998
 40
0.2499999999999996
 40
0.2499999999999996
 40
0.4999999999999997
 40
0.4999999999999997
 40
0.7499999999999998
 40
0.7499999999999998
 40
1.0
 40
1.0
 40
1.0
 40
1.0
 10
168.2594537010073
 20
149.1737901013749
 30
0.0
 10
168.2345741372926
 20
149.0982794205921
 30
0.0
 10
168.2189917700958
 20
149.0213660499118
 30
0.0
 10
168.2057701130606
 20
148.864832194367
 30
0.0
 10
168.2084426315638
 20
148.7846300069007
 30
0.0
 10
168.2437803733792
 20
148.5520181900011
 30
0.0
 10
168.3045506206485
 20
148.4018356565514
 30
0.0
 10
168.4878526130178
 20
148.1457763572623
 30
0.0
 10
168.6106551520291
 20
148.0395320572666
 30
0.0
 10
168.8910531212867
 20
147.8952107214918
 30
0.0
 10
169.0476688527879
 20
147.8569625021453
 30
0.0
 10
169.2066955465007
 20
147.8569625021451
 30
0.0
  0
SPLINE
  5
15D
330
1F
100
AcDbEntity
  8
0
  6
SLD-Durchgehend
 62
   179
370
    15
100
AcDbSpline
210
0.0
220
0.0
230
1.0
 70
    24
 71
     3
 72
    47
 73
    43
 74
     0
 42
0.000000001
 43
0.00000001
 40
0.0
 40
0.0
 40
0.0
 40
0.0
 40
0.0064865206026906
 40
0.0129638414728168
 40
0.0194346350442304
 40
0.0259015818429105
 40
0.0323673671791169
 40
0.0388346778098723
 40
0.0453061985924467
 40
0.0517846091496543
 40
0.0582725805675952
 40
0.0891442864795607
 40
0.1200232684983033
 40
0.152181824093252
 40
0.1843476852420216
 40
0.2171905161095492
 40
0.2500408079846023
 40
0.282883639065138
 40
0.3157339311538681
 40
0.3478924873370449
 40
0.3800583490737691
 40
0.4109300545107905
 40
0.4418090361788782
 40
0.5000011042047364
 40
0.5581931722305945
 40
0.5890648781434288
 40
0.6199438601612962
 40
0.6521024157564148
 40
0.6842682769050143
 40
0.7171111077718807
 40
0.7499613996475863
 40
0.7828042307267448
 40
0.8156545228168529
 40
0.8478130789996297
 40
0.8799789407367632
 40
0.9108506461737376
 40
0.9417296278418672
 40
0.9533981811641005
 40
0.9650438425023418
 40
0.9766822561075134
 40
0.9883290954364439
 40
1.0
 40
1.0
 40
1.0
 40
1.0
 10
199.7610479321867
 20
193.4423822474263
 30
0.0
 10
199.7601389783036
 20
193.4423822474263
 30
0.0
 10
199.7583223596928
 20
193.4423822474263
 30
0.0
 10
199.7435984590301
 20
193.4423822474262
 30
0.0
 10
199.7200855205745
 20
193.4423822474262
 30
0.0
 10
199.6869256701171
 20
193.4423822474263
 30
0.0
 10
199.6443485553048
 20
193.4423822474263
 30
0.0
 10
199.5922923997025
 20
193.4423822474263
 30
0.0
 10
199.530774957403
 20
193.4423822474262
 30
0.0
 10
199.459787230352
 20
193.4423822474263
 30
0.0
 10
199.2786403740603
 20
193.4423822474261
 30
0.0
 10
198.9024102957631
 20
193.4423822474262
 30
0.0
 10
198.1727431711133
 20
193.4423822474263
 30
0.0
 10
197.223648419116
 20
193.4423822474263
 30
0.0
 10
196.0437255890081
 20
193.4423822474262
 30
0.0
 10
194.6557123220523
 20
193.4423822474263
 30
0.0
 10
193.0667504058062
 20
193.4423822474261
 30
0.0
 10
191.3060655045216
 20
193.4423822474263
 30
0.0
 10
189.4033534408206
 20
193.4423822474261
 30
0.0
 10
187.3842629531747
 20
193.4423822474263
 30
0.0
 10
185.2990370435888
 20
193.4423822474263
 30
0.0
 10
183.1600525452338
 20
193.4423822474263
 30
0.0
 10
180.3513067757951
 20
193.4423822474261
 30
0.0
 10
176.8072093696343
 20
193.4423822474261
 30
0.0
 10
173.2632864677422
 20
193.4423822474262
 30
0.0
 10
170.4545353224783
 20
193.4423822474262
 30
0.0
 10
168.31570679297
 20
193.4423822474261
 30
0.0
 10
166.2303137210671
 20
193.442382247426
 30
0.0
 10
164.2113614949236
 20
193.4423822474262
 30
0.0
 10
162.3084940192287
 20
193.442382247426
 30
0.0
 10
160.5479214139355
 20
193.4423822474261
 30
0.0
 10
158.9588199548601
 20
193.4423822474261
 30
0.0
 10
157.5708874832499
 20
193.4423822474261
 30
0.0
 10
156.3908497954846
 20
193.442382247426
 30
0.0
 10
155.4418069498845
 20
193.4423822474261
 30
0.0
 10
154.7120493329406
 20
193.4423822474261
 30
0.0
 10
154.3072676095161
 20
193.4423822474261
 30
0.0
 10
154.0936576259123
 20
193.4423822474261
 30
0.0
 10
153.9861409929034
 20
193.4423822474261
 30
0.0
 10
153.9099119460533
 20
193.442382247426
 30
0.0
 10
153.8621906393781
 20
193.4423822474261
 30
0.0
 10
153.8563126160041
 20
193.4423822474261
 30
0.0
 10
153.8533705710902
 20
193.4423822474261
 30
0.0
  0
SPLINE
  5
15E
330
1F
100
AcDbEntity
  8
0
  6
SLD-Durchgehend
 62
   179
370
    15
100
AcDbSpline
210
0.0
220
0.0
230
1.0
 70
    24
 71
     2
 72
     6
 73
     3
 74
     0
 42
0.000000001
 43
0.00000001
 40
0.0
 40
0.0
 40
0.0
 40
0.25
 40
0.25
 40
0.25
 10
196.5072092516382
 20
265.4423823391953
 30
0.0
 10
194.4315749400677
 20
265.4423823391952
 30
0.0
 10
190.7372128410132
 20
265.4423823391951
 30
0.0
  0
SPLINE
  5
15F
330
1F
100
AcDbEntity
  8
0
  6
SLD-Durchgehend
 62
   179
370
    15
100
AcDbSpline
210
0.0
220
0.0
230
1.0
 70
    24
 71
     3
 72
     8
 73
     4
 74
     0
 42
0.000000001
 43
0.00000001
 40
0.25
 40
0.25
 40
0.25
 40
0.25
 40
0.5
 40
0.5
 40
0.5
 40
0.5
 10
190.7372128410128
 20
265.4423823391951
 30
0.0
 10
187.0428507419583
 20
265.4423823391951
 30
0.0
 10
182.0318262364378
 20
265.4423823391951
 30
0.0
 10
176.8072092516378
 20
265.4423823391951
 30
0.0
  0
SPLINE
  5
160
330
1F
100
AcDbEntity
  8
0
  6
SLD-Durchgehend
 62
   179
370
    15
100
AcDbSpline
210
0.0
220
0.0
230
1.0
 70
    24
 71
     3
 72
     8
 73
     4
 74
     0
 42
0.000000001
 43
0.00000001
 40
0.5
 40
0.5
 40
0.5
 40
0.5
 40
0.75
 40
0.75
 40
0.75
 40
0.75
 10
176.8072092516378
 20
265.4423823391951
 30
0.0
 10
171.5825922668378
 20
265.4423823391951
 30
0.0
 10
166.5715677613173
 20
265.4423823391951
 30
0.0
 10
162.8772056622629
 20
265.4423823391951
 30
0.0
  0
SPLINE
  5
161
330
1F
100
AcDbEntity
  8
0
  6
SLD-Durchgehend
 62
   179
370
    15
100
AcDbSpline
210
0.0
220
0.0
230
1.0
 70
    24
 71
     2
 72
     6
 73
     3
 74
     0
 42
0.000000001
 43
0.00000001
 40
0.75
 40
0.75
 40
0.75
 40
1.0
 40
1.0
 40
1.0
 10
162.8772056622629
 20
265.4423823391951
 30
0.0
 10
159.1828435632083
 20
265.4423823391951
 30
0.0
 10
157.1072092516378
 20
265.4423823391951
 30
0.0
  0
HATCH
  5
162
330
1F
100
AcDbEntity
  8
0
 62
   179
100
AcDbHatch
 10
0.0
 20
0.0
 30
0.0
210
0.0
220
0.0
230
1.0
  2
ANSI31
 70
     0
 71
     0
 91
        1
 92
        0
 93
        1
 72
     2
 10
156.5072092516382
 20
250.6923823391948
 40
1.500000000000001
 50
0.0
 51
360.0
 73
     1
 97
        0
 75
     0
 76
     1
 52
0.0
 41
1.0
 77
     0
 78
     1
 53
45.0
 43
0.0
 44
0.0
 45
-2.245064030267288
 46
2.245064030267288
 79
     0
 98
        1
 10
0.0
 20
0.0
  0
HATCH
  5
163
330
1F
100
AcDbEntity
  8
0
 62
   179
100
AcDbHatch
 10
0.0
 20
0.0
 30
0.0
210
0.0
220
0.0
230
1.0
  2
ANSI31
 70
     0
 71
     0
 91
        1
 92
        0
 93
        1
 72
     2
 10
197.1072092516382
 20
250.6923823391949
 40
1.500000000000001
 50
0.0
 51
360.0
 73
     1
 97
        0
 75
     0
 76
     1
 52
0.0
 41
1.0
 77
     0
 78
     1
 53
45.0
 43
0.0
 44
0.0
 45
-2.245064030267288
 46
2.245064030267288
 79
     0
 98
        1
 10
0.0
 20
0.0
  0
HATCH
  5
164
330
1F
100
AcDbEntity
  8
0
 62
   179
100
AcDbHatch
 10
0.0
 20
0.0
 30
0.0
210
0.0
220
0.0
230
1.0
  2
ANSI31
 70
     0
 71
     0
 91
        1
 92
        0
 93
      102
 72
     1
 10
156.4110568289315
 20
265.4423823391951
 11
155.6072092516382
 21
262.4423823391951
 72
     1
 10
155.6072092516382
 20
262.4423823391951
 11
155.6072092516382
 21
252.9423823391951
 72
     2
 10
156.1072092516382
 20
252.9423823391951
 40
0.5000000000000004
 50
180.0
 51
270.0000000000008
 73
     1
 72
     1
 10
156.1072092516382
 20
252.4423823391951
 11
157.3072092516382
 21
252.4423823391951
 72
     2
 10
157.3072092516383
 20
252.1423823391951
 40
0.2999999999999808
 50
269.9999999999953
 51
360.0000000000008
 73
     0
 72
     1
 10
157.6072092516382
 20
252.1423823391951
 11
157.6072092516383
 21
249.2423823391951
 72
     2
 10
157.3072092516383
 20
249.2423823391951
 40
0.2999999999999947
 50
0.0
 51
90.0
 73
     0
 72
     1
 10
157.3072092516383
 20
248.9423823391951
 11
156.1072092516382
 21
248.9423823391951
 72
     2
 10
156.1072092516383
 20
248.4423823391951
 40
0.5000000000000004
 50
90.00000000000651
 51
180.0
 73
     1
 72
     1
 10
155.6072092516383
 20
248.4423823391951
 11
155.6072092516369
 21
235.6274623257324
 72
     1
 10
155.6072092516369
 20
235.6274623257324
 11
150.5967394026277
 21
235.4524928630897
 72
     2
 10
150.6072092516383
 20
235.152675614984
 40
0.2999999999999722
 50
91.99999999997773
 51
180.0
 73
     1
 72
     1
 10
150.3072092516383
 20
235.152675614984
 11
150.3072092516383
 21
233.2320888798683
 72
     2
 10
150.6072092516383
 20
233.2320888798683
 40
0.3000000000000162
 50
180.0
 51
267.9999999999962
 73
     1
 72
     1
 10
150.5967394026275
 20
232.9322716317625
 11
155.6372092516383
 21
232.7562545460352
 72
     1
 10
155.6372092516383
 20
232.7562545460352
 11
155.6372092516383
 21
227.673537518437
 72
     1
 10
155.6372092516383
 20
227.673537518437
 11
154.2200535088907
 21
227.5495524564958
 72
     2
 10
154.3072092516383
 20
226.5533577584041
 40
0.9999999999999779
 50
94.99999999999841
 51
180.0
 73
     1
 72
     1
 10
153.3072092516383
 20
226.5533577584041
 11
153.3072092516384
 21
203.9260457414156
 72
     2
 10
152.8072092516384
 20
203.9260457414156
 40
0.5000000000000139
 50
0.0
 51
74.99999999998983
 73
     0
 72
     1
 10
152.9366187741898
 20
203.4430828282711
 11
150.3072092516387
 21
202.7385346701328
 72
     1
 10
150.3072092516387
 20
202.7385346701328
 11
150.3072092516387
 21
202.1462298247195
 72
     1
 10
150.3072092516387
 20
202.1462298247195
 11
150.8072092516387
 21
202.0122552285131
 72
     1
 10
150.8072092516387
 20
202.0122552285131
 11
150.8072092516389
 21
194.9725092663484
 72
     1
 10
150.8072092516389
 20
194.9725092663484
 11
150.3072092516387
 21
194.8385346701328
 72
     1
 10
150.3072092516387
 20
194.8385346701328
 11
150.3072092516387
 21
194.2462298247194
 72
     1
 10
150.3072092516387
 20
194.2462298247194
 11
153.3072092516387
 21
193.4423822474261
 72
     1
 10
153.3072092516387
 20
193.4423822474261
 11
153.8533705710902
 21
193.4423822474262
 72
     2
 10
153.8533705710902
 20
193.9423822474261
 40
0.4999999999999494
 50
270.0000000000008
 51
350.0000000000048
 73
     1
 72
     1
 10
154.3457744475963
 20
193.8555581585927
 11
155.5072092516387
 21
200.44238224743
 72
     1
 10
155.5072092516387
 20
200.44238224743
 11
155.5072092516386
 21
224.5374291755658
 72
     2
 10
156.5072092516386
 20
224.5374291755658
 40
0.9999999999999792
 50
180.0
 51
264.9999999999993
 73
     0
 72
     1
 10
156.4200535088909
 20
225.5336238736575
 11
166.8943649943859
 21
226.4500073868778
 72
     2
 10
166.8072092516386
 20
227.4462020849696
 40
0.9999999999998637
 50
274.9999999999792
 51
360.0000000000008
 73
     1
 72
     1
 10
167.8072092516385
 20
227.4462020849696
 11
167.8072092516383
 21
227.8423823391951
 72
     1
 10
167.8072092516383
 20
227.8423823391951
 11
185.8072092516383
 21
227.84238233919
 72
     1
 10
185.8072092516383
 20
227.84238233919
 11
185.8072092516383
 21
227.4462020849697
 72
     2
 10
186.8072092516383
 20
227.4462020849697
 40
1.000000000000015
 50
180.0
 51
265.0000000000256
 73
     1
 72
     1
 10
186.7200535088911
 20
226.4500073868779
 11
197.1943649943862
 21
225.5336238736577
 72
     2
 10
197.1072092516386
 20
224.5374291755659
 40
1.000000000000018
 50
274.9999999999988
 51
360.0000000000008
 73
     0
 72
     1
 10
198.1072092516386
 20
224.5374291755659
 11
198.107209251638
 21
200.4423822474301
 72
     1
 10
198.107209251638
 20
200.4423822474301
 11
199.2686440556805
 21
193.8555581585928
 72
     2
 10
199.7610479321866
 20
193.9423822474263
 40
0.4999999999999703
 50
190.0000000000052
 51
270.0000000000008
 73
     1
 72
     1
 10
199.7610479321866
 20
193.4423822474264
 11
200.3072092516387
 21
193.4423822474263
 72
     1
 10
200.3072092516387
 20
193.4423822474263
 11
203.3072092516387
 21
194.2462298247196
 72
     1
 10
203.3072092516387
 20
194.2462298247196
 11
203.3072092516387
 21
194.838534670133
 72
     1
 10
203.3072092516387
 20
194.838534670133
 11
202.8072092516381
 21
194.9725092663487
 72
     1
 10
202.8072092516381
 20
194.9725092663487
 11
202.8072092516383
 21
202.012255228504
 72
     1
 10
202.8072092516383
 20
202.012255228504
 11
203.3072092516387
 21
202.1462298247196
 72
     1
 10
203.3072092516387
 20
202.1462298247196
 11
203.3072092516387
 21
202.7385346701329
 72
     1
 10
203.3072092516387
 20
202.7385346701329
 11
200.6777997290874
 21
203.4430828282712
 72
     2
 10
200.8072092516387
 20
203.9260457414157
 40
0.5000000000001249
 50
105.0000000000016
 51
180.0
 73
     0
 72
     1
 10
200.3072092516385
 20
203.9260457414157
 11
200.3072092516383
 21
226.5533577584042
 72
     2
 10
199.3072092516383
 20
226.5533577584042
 40
1.000000000000032
 50
0.0
 51
85.00000000000203
 73
     1
 72
     1
 10
199.3943649943859
 20
227.549552456496
 11
197.9772092516383
 21
227.6735375184371
 72
     1
 10
197.9772092516383
 20
227.6735375184371
 11
197.9772092516383
 21
232.7562545460353
 72
     1
 10
197.9772092516383
 20
232.7562545460353
 11
203.0176791006491
 21
232.9322716317627
 72
     2
 10
203.0072092516383
 20
233.2320888798685
 40
0.300000000000044
 50
271.9999999999995
 51
360.0000000000008
 73
     1
 72
     1
 10
203.3072092516384
 20
233.2320888798685
 11
203.3072092516383
 21
235.1526756149842
 72
     2
 10
203.0072092516383
 20
235.1526756149842
 40
0.2999999999999861
 50
0.0
 51
88.00000000002771
 73
     1
 72
     1
 10
203.0176791006489
 20
235.4524928630899
 11
198.0072092516382
 21
235.6274623257326
 72
     1
 10
198.0072092516382
 20
235.6274623257326
 11
198.0072092516382
 21
248.4423823391952
 72
     2
 10
197.5072092516382
 20
248.4423823391952
 40
0.5000000000000004
 50
0.0
 51
90.00000000000325
 73
     1
 72
     1
 10
197.5072092516382
 20
248.9423823391952
 11
196.3072092516383
 21
248.9423823391952
 72
     2
 10
196.3072092516383
 20
249.2423823391952
 40
0.299999999999967
 50
89.99999999998914
 51
180.0
 73
     0
 72
     1
 10
196.0072092516383
 20
249.2423823391952
 11
196.0072092516382
 21
252.1423823391953
 72
     2
 10
196.3072092516383
 20
252.1423823391953
 40
0.2999999999999253
 50
180.0
 51
270.0000000000117
 73
     0
 72
     1
 10
196.3072092516383
 20
252.4423823391953
 11
197.5072092516382
 21
252.4423823391952
 72
     2
 10
197.5072092516382
 20
252.9423823391952
 40
0.5000000000000004
 50
269.9999999999976
 51
360.0000000000008
 73
     1
 72
     1
 10
198.0072092516382
 20
252.9423823391952
 11
198.0072092516382
 21
262.4423823391953
 72
     1
 10
198.0072092516382
 20
262.4423823391953
 11
197.2033616743448
 21
265.4423823391953
 72
     1
 10
197.2033616743448
 20
265.4423823391953
 11
196.5072092516382
 21
265.4423823391953
 72
     2
 10
196.5072092516382
 20
264.9423823391952
 40
0.500000000000056
 50
90.00000000000651
 51
180.0
 73
     1
 72
     1
 10
196.0072092516382
 20
264.9423823391952
 11
196.0072092516382
 21
255.402665864471
 72
     2
 10
195.5072092516382
 20
255.402665864471
 40
0.4999999999999749
 50
0.0
 51
54.99999999998904
 73
     0
 72
     1
 10
195.7939974698138
 20
254.9930898423266
 11
194.0204210334627
 21
253.7512182520024
 72
     2
 10
194.3072092516383
 20
253.3416422298579
 40
0.5000000000000204
 50
125.0000000000009
 51
180.0
 73
     1
 72
     1
 10
193.8072092516382
 20
253.3416422298579
 11
193.8072092516383
 21
228.9289097789008
 72
     2
 10
192.8072092516383
 20
228.9289097789008
 40
0.9999999999999755
 50
0.0
 51
94.99999999999665
 73
     0
 72
     1
 10
192.7200535088907
 20
227.9327150808091
 11
188.320053508891
 21
228.3176652003231
 72
     2
 10
188.4072092516383
 20
229.3138598984148
 40
0.9999999999999647
 50
94.99999999998218
 51
180.0
 73
     0
 72
     1
 10
187.4072092516383
 20
229.3138598984148
 11
187.4072092516383
 21
233.9423823391952
 72
     1
 10
187.4072092516383
 20
233.9423823391952
 11
186.861253900239
 21
235.4423823391952
 72
     1
 10
186.861253900239
 20
235.4423823391952
 11
186.3531646030376
 21
235.4423823391952
 72
     1
 10
186.3531646030376
 20
235.4423823391952
 11
185.8072092516383
 21
233.9423823391952
 72
     1
 10
185.8072092516383
 20
233.9423823391952
 11
185.8072092516383
 21
231.8423823391952
 72
     1
 10
185.8072092516383
 20
231.8423823391952
 11
167.8072092516383
 21
231.8423823391951
 72
     1
 10
167.8072092516383
 20
231.8423823391951
 11
167.8072092516383
 21
233.9423823391951
 72
     1
 10
167.8072092516383
 20
233.9423823391951
 11
167.261253900239
 21
235.4423823391951
 72
     1
 10
167.261253900239
 20
235.4423823391951
 11
166.7531646030376
 21
235.4423823391951
 72
     1
 10
166.7531646030376
 20
235.4423823391951
 11
166.2072092516383
 21
233.9423823391951
 72
     1
 10
166.2072092516383
 20
233.9423823391951
 11
166.2072092516383
 21
229.3138598984147
 72
     2
 10
165.2072092516383
 20
229.3138598984147
 40
0.999999999999984
 50
0.0
 51
84.999999999992
 73
     0
 72
     1
 10
165.2943649943861
 20
228.317665200323
 11
160.8943649943859
 21
227.9327150808089
 72
     2
 10
160.8072092516383
 20
228.9289097789007
 40
1.000000000000032
 50
85.00000000000378
 51
180.0
 73
     0
 72
     1
 10
159.8072092516383
 20
228.9289097789007
 11
159.8072092516383
 21
253.3416422298578
 72
     2
 10
159.3072092516383
 20
253.3416422298578
 40
0.4999999999999985
 50
0.0
 51
55.00000000000717
 73
     1
 72
     1
 10
159.5939974698138
 20
253.7512182520023
 11
157.8204210334627
 21
254.9930898423264
 72
     2
 10
158.1072092516383
 20
255.4026658644709
 40
0.4999999999999976
 50
125.0000000000046
 51
180.0
 73
     0
 72
     1
 10
157.6072092516383
 20
255.4026658644709
 11
157.6072092516382
 21
264.9423823391951
 72
     2
 10
157.1072092516382
 20
264.9423823391951
 40
0.5000000000000004
 50
0.0
 51
89.99999999999349
 73
     1
 72
     1
 10
157.1072092516383
 20
265.4423823391951
 11
156.4110568289315
 21
265.4423823391951
 97
        0
 75
     0
 76
     1
 52
0.0
 41
1.0
 77
     0
 78
     1
 53
45.0
 43
0.0
 44
0.0
 45
-2.245064030267288
 46
2.245064030267288
 79
     0
 98
        1
 10
0.0
 20
0.0
  0
DIMENSION
  5
165
330
1F
100
AcDbEntity
  8
0
  6
SLD-Durchgehend
 62
   179
370
     0
100
AcDbDimension
  2
_D
 10
155.6072092516
 20
272.0223933577
 30
0.0
 11
176.8072092516
 21
272.0223933577
 31
0.0
 70
   160
  1
%%c<>
 71
     2
 42
-1.0
  3
SLDDIMSTYLE0
100
AcDbAlignedDimension
 13
198.0072092516
 23
262.4423823392
 33
0.0
 14
155.6072092516
 24
262.4423823392
 34
0.0
100
AcDbRotatedDimension
  0
DIMENSION
  5
176
330
1F
100
AcDbEntity
  8
0
  6
SLD-Durchgehend
 62
   179
370
     0
100
AcDbDimension
  2
_D_1
 10
219.3072092516
 20
193.4423822474
 30
0.0
 11
219.3072092516
 21
231.1293498456
 31
0.0
 70
   160
  1
<>
 71
     2
 42
-1.0
  3
SLDDIMSTYLE1
100
AcDbAlignedDimension
 13
197.2033616743
 23
265.4423823392
 33
0.0
 14
200.3072092516
 24
193.4423822474
 34
0.0
 50
90.0
100
AcDbRotatedDimension
  0
DIMENSION
  5
181
330
1F
100
AcDbEntity
  8
0
  6
SLD-Durchgehend
 62
   179
370
     0
100
AcDbDimension
  2
_D_2
 10
150.3072092516
 20
180.684830985
 30
0.0
 11
176.8072092516
 21
180.684830985
 31
0.0
 70
   160
  1
%%c<>
 71
     2
 42
-1.0
  3
SLDDIMSTYLE1
100
AcDbAlignedDimension
 13
203.3072092516
 23
194.2462298247
 33
0.0
 14
150.3072092516
 24
194.2462298247
 34
0.0
100
AcDbRotatedDimension
  0
ENDSEC
  0
SECTION
  2
OBJECTS
  0
DICTIONARY
  5
C
330
0
100
AcDbDictionary
281
     1
  3
ACAD_GROUP
350
D
  3
ACAD_LAYOUT
350
1A
  3
ACAD_MLINESTYLE
350
17
  3
ACAD_PLOTSETTINGS
350
19
  3
ACAD_PLOTSTYLENAME
350
E
  3
ACAD_SCALELIST
350
47
  0
DICTIONARY
  5
D
102
{ACAD_REACTORS
330
C
102
}
330
C
100
AcDbDictionary
281
     1
  0
DICTIONARY
  5
1A
102
{ACAD_REACTORS
330
C
102
}
330
C
100
AcDbDictionary
281
     1
  3
Layout1
350
1E
  3
Layout2
350
26
  3
Model
350
22
  0
DICTIONARY
  5
17
102
{ACAD_REACTORS
330
C
102
}
330
C
100
AcDbDictionary
281
     1
  3
Standard
350
18
  0
DICTIONARY
  5
19
102
{ACAD_REACTORS
330
C
102
}
330
C
100
AcDbDictionary
281
     1
  0
ACDBDICTIONARYWDFLT
  5
E
102
{ACAD_REACTORS
330
C
102
}
330
C
100
AcDbDictionary
281
     1
  3
Normal
350
F
100
AcDbDictionaryWithDefault
340
F
  0
DICTIONARY
  5
47
102
{ACAD_REACTORS
330
C
102
}
330
C
100
AcDbDictionary
281
     1
  3
A0
350
48
  3
A1
350
49
  3
A2
350
4A
  3
A3
350
4B
  3
A4
350
4C
  3
A5
350
4D
  3
A6
350
4E
  3
A7
350
4F
  3
A8
350
50
  3
A9
350
51
  3
B0
350
52
  3
B1
350
53
  3
B2
350
54
  3
B3
350
55
  3
B4
350
56
  3
B5
350
57
  3
B6
350
58
  3
B7
350
59
  3
B8
350
5A
  3
B9
350
5B
  3
C0
350
5C
  3
C1
350
5D
  3
C2
350
5E
  3
C3
350
5F
  3
C4
350
60
  3
C5
350
61
  3
C6
350
62
  3
C7
350
63
  3
C8
350
64
  3
C9
350
65
  3
D0
350
66
  3
D1
350
67
  3
D2
350
68
  0
LAYOUT
  5
1E
102
{ACAD_REACTORS
330
1A
102
}
330
1A
100
AcDbPlotSettings
  1

  2
none_device
  4

  6

 40
0.0
 41
0.0
 42
0.0
 43
0.0
 44
0.0
 45
0.0
 46
0.0
 47
0.0
 48
0.0
 49
0.0
140
0.0
141
0.0
142
1.0
143
1.0
 70
   688
 72
     1
 73
     0
 74
     5
  7

 75
    16
147
1.0
148
0.0
149
0.0
100
AcDbLayout
  1
Layout1
 70
     1
 71
     1
 10
0.0
 20
0.0
 11
420.0
 21
297.0
 12
0.0
 22
0.0
 32
0.0
 14
1.0000000000E+20
 24
1.0000000000E+20
 34
1.0000000000E+20
 15
-1.0000000000E+20
 25
-1.0000000000E+20
 35
-1.0000000000E+20
146
0.0
 13
0.0
 23
0.0
 33
0.0
 16
1.0
 26
0.0
 36
0.0
 17
0.0
 27
1.0
 37
0.0
 76
     0
330
1B
  0
LAYOUT
  5
26
102
{ACAD_REACTORS
330
1A
102
}
330
1A
100
AcDbPlotSettings
  1

  2
none_device
  4

  6

 40
0.0
 41
0.0
 42
0.0
 43
0.0
 44
0.0
 45
0.0
 46
0.0
 47
0.0
 48
0.0
 49
0.0
140
0.0
141
0.0
142
1.0
143
1.0
 70
   688
 72
     1
 73
     0
 74
     5
  7

 75
    16
147
1.0
148
0.0
149
0.0
100
AcDbLayout
  1
Layout2
 70
     1
 71
     2
 10
0.0
 20
0.0
 11
0.0
 21
0.0
 12
0.0
 22
0.0
 32
0.0
 14
0.0
 24
0.0
 34
0.0
 15
0.0
 25
0.0
 35
0.0
146
0.0
 13
0.0
 23
0.0
 33
0.0
 16
1.0
 26
0.0
 36
0.0
 17
0.0
 27
1.0
 37
0.0
 76
     0
330
23
  0
LAYOUT
  5
22
102
{ACAD_REACTORS
330
1A
102
}
330
1A
100
AcDbPlotSettings
  1

  2
none_device
  4
Letter_(8.50_x_11.00_Inches)
  6

 40
6.35
 41
6.35
 42
6.35000508
 43
6.35000508
 44
215.9
 45
279.4
 46
0.0
 47
0.0
 48
0.0
 49
0.0
140
0.0
141
0.0
142
1.0
143
1.0
 70
  1712
 72
     1
 73
     0
 74
     0
  7

 75
     0
147
1.0
148
0.0
149
0.0
100
AcDbLayout
  1
Model
 70
     1
 71
     0
 10
0.0
 20
0.0
 11
420.0
 21
297.0
 12
0.0
 22
0.0
 32
0.0
 14
0.0
 24
0.0
 34
0.0
 15
420.0
 25
297.0
 35
0.0
146
0.0
 13
0.0
 23
0.0
 33
0.0
 16
1.0
 26
0.0
 36
0.0
 17
0.0
 27
1.0
 37
0.0
 76
     0
330
1F
331
29
  0
MLINESTYLE
  5
18
102
{ACAD_REACTORS
330
17
102
}
330
17
100
AcDbMlineStyle
  2
Standard
 70
     0
  3

 62
   256
 51
90.0
 52
90.0
 71
     2
 49
0.5
 62
   256
  6
BYLAYER
 49
-0.5
 62
   256
  6
BYLAYER
  0
ACDBPLACEHOLDER
  5
F
102
{ACAD_REACTORS
330
E
102
}
330
E
  0
SCALE
  5
48
102
{ACAD_REACTORS
330
47
102
}
330
47
100
AcDbScale
 70
     0
300
1:1
140
1.0
141
1.0
290
     1
  0
SCALE
  5
49
102
{ACAD_REACTORS
330
47
102
}
330
47
100
AcDbScale
 70
     0
300
1:2
140
1.0
141
2.0
290
     0
  0
SCALE
  5
4A
102
{ACAD_REACTORS
330
47
102
}
330
47
100
AcDbScale
 70
     0
300
1:4
140
1.0
141
4.0
290
     0
  0
SCALE
  5
4B
102
{ACAD_REACTORS
330
47
102
}
330
47
100
AcDbScale
 70
     0
300
1:5
140
1.0
141
5.0
290
     0
  0
SCALE
  5
4C
102
{ACAD_REACTORS
330
47
102
}
330
47
100
AcDbScale
 70
     0
300
1:8
140
1.0
141
8.0
290
     0
  0
SCALE
  5
4D
102
{ACAD_REACTORS
330
47
102
}
330
47
100
AcDbScale
 70
     0
300
1:10
140
1.0
141
10.0
290
     0
  0
SCALE
  5
4E
102
{ACAD_REACTORS
330
47
102
}
330
47
100
AcDbScale
 70
     0
300
1:16
140
1.0
141
16.0
290
     0
  0
SCALE
  5
4F
102
{ACAD_REACTORS
330
47
102
}
330
47
100
AcDbScale
 70
     0
300
1:20
140
1.0
141
20.0
290
     0
  0
SCALE
  5
50
102
{ACAD_REACTORS
330
47
102
}
330
47
100
AcDbScale
 70
     0
300
1:30
140
1.0
141
30.0
290
     0
  0
SCALE
  5
51
102
{ACAD_REACTORS
330
47
102
}
330
47
100
AcDbScale
 70
     0
300
1:40
140
1.0
141
40.0
290
     0
  0
SCALE
  5
52
102
{ACAD_REACTORS
330
47
102
}
330
47
100
AcDbScale
 70
     0
300
1:50
140
1.0
141
50.0
290
     0
  0
SCALE
  5
53
102
{ACAD_REACTORS
330
47
102
}
330
47
100
AcDbScale
 70
     0
300
1:100
140
1.0
141
100.0
290
     0
  0
SCALE
  5
54
102
{ACAD_REACTORS
330
47
102
}
330
47
100
AcDbScale
 70
     0
300
2:1
140
2.0
141
1.0
290
     0
  0
SCALE
  5
55
102
{ACAD_REACTORS
330
47
102
}
330
47
100
AcDbScale
 70
     0
300
4:1
140
4.0
141
1.0
290
     0
  0
SCALE
  5
56
102
{ACAD_REACTORS
330
47
102
}
330
47
100
AcDbScale
 70
     0
300
8:1
140
8.0
141
1.0
290
     0
  0
SCALE
  5
57
102
{ACAD_REACTORS
330
47
102
}
330
47
100
AcDbScale
 70
     0
300
10:1
140
10.0
141
1.0
290
     0
  0
SCALE
  5
58
102
{ACAD_REACTORS
330
47
102
}
330
47
100
AcDbScale
 70
     0
300
100:1
140
100.0
141
1.0
290
     0
  0
SCALE
  5
59
102
{ACAD_REACTORS
330
47
102
}
330
47
100
AcDbScale
 70
     0
300
1/128" = 1'-0"
140
0.0078125
141
12.0
290
     0
  0
SCALE
  5
5A
102
{ACAD_REACTORS
330
47
102
}
330
47
100
AcDbScale
 70
     0
300
1/64" = 1'-0"
140
0.015625
141
12.0
290
     0
  0
SCALE
  5
5B
102
{ACAD_REACTORS
330
47
102
}
330
47
100
AcDbScale
 70
     0
300
1/32" = 1'-0"
140
0.03125
141
12.0
290
     0
  0
SCALE
  5
5C
102
{ACAD_REACTORS
330
47
102
}
330
47
100
AcDbScale
 70
     0
300
1/16" = 1'-0"
140
0.0625
141
12.0
290
     0
  0
SCALE
  5
5D
102
{ACAD_REACTORS
330
47
102
}
330
47
100
AcDbScale
 70
     0
300
3/32" = 1'-0"
140
0.09375
141
12.0
290
     0
  0
SCALE
  5
5E
102
{ACAD_REACTORS
330
47
102
}
330
47
100
AcDbScale
 70
     0
300
1/8" = 1'-0"
140
0.125
141
12.0
290
     0
  0
SCALE
  5
5F
102
{ACAD_REACTORS
330
47
102
}
330
47
100
AcDbScale
 70
     0
300
3/16" = 1'-0"
140
0.1875
141
12.0
290
     0
  0
SCALE
  5
60
102
{ACAD_REACTORS
330
47
102
}
330
47
100
AcDbScale
 70
     0
300
1/4" = 1'-0"
140
0.25
141
12.0
290
     0
  0
SCALE
  5
61
102
{ACAD_REACTORS
330
47
102
}
330
47
100
AcDbScale
 70
     0
300
3/8" = 1'-0"
140
0.375
141
12.0
290
     0
  0
SCALE
  5
62
102
{ACAD_REACTORS
330
47
102
}
330
47
100
AcDbScale
 70
     0
300
1/2" = 1'-0"
140
0.5
141
12.0
290
     0
  0
SCALE
  5
63
102
{ACAD_REACTORS
330
47
102
}
330
47
100
AcDbScale
 70
     0
300
3/4" = 1'-0"
140
0.75
141
12.0
290
     0
  0
SCALE
  5
64
102
{ACAD_REACTORS
330
47
102
}
330
47
100
AcDbScale
 70
     0
300
1" = 1'-0"
140
1.0
141
12.0
290
     0
  0
SCALE
  5
65
102
{ACAD_REACTORS
330
47
102
}
330
47
100
AcDbScale
 70
     0
300
1-1/2" = 1'-0"
140
1.5
141
12.0
290
     0
  0
SCALE
  5
66
102
{ACAD_REACTORS
330
47
102
}
330
47
100
AcDbScale
 70
     0
300
3" = 1'-0"
140
3.0
141
12.0
290
     0
  0
SCALE
  5
67
102
{ACAD_REACTORS
330
47
102
}
330
47
100
AcDbScale
 70
     0
300
6" = 1'-0"
140
6.0
141
12.0
290
     0
  0
SCALE
  5
68
102
{ACAD_REACTORS
330
47
102
}
330
47
100
AcDbScale
 70
     0
300
1'-0" = 1'-0"
140
12.0
141
12.0
290
     0
  0
ENDSEC
  0
EOF
