  0
SECTION
  2
HEADER
  9
$ACADVER
  1
AC1015
  9
$ACADMAINTVER
 70
     6
  9
$DWGCODEPAGE
  3
ANSI_1252
  9
$INSBASE
 10
0.0
 20
0.0
 30
0.0
  9
$EXTMIN
 10
0.0
 20
0.0
 30
0.0
  9
$EXTMAX
 10
840.0
 20
594.0
 30
0.0
  9
$LIMMIN
 10
0.0
 20
0.0
  9
$LIMMAX
 10
840.0
 20
594.0
  9
$ORTHOMODE
 70
     0
  9
$REGENMODE
 70
     1
  9
$FILLMODE
 70
     1
  9
$QTEXTMODE
 70
     0
  9
$MIRRTEXT
 70
     1
  9
$LTSCALE
 40
2.0
  9
$ATTMODE
 70
     1
  9
$TEXTSIZE
 40
2.5
  9
$TRACEWID
 40
1.0
  9
$TEXTSTYLE
  7
Standard
  9
$CLAYER
  8
0
  9
$CELTYPE
  6
ByLayer
  9
$CECOLOR
 62
     7
  9
$CELTSCALE
 40
1.0
  9
$DISPSILH
 70
     0
  9
$DIMSCALE
 40
2.0
  9
$DIMASZ
 40
3.5
  9
$DIMEXO
 40
0.625
  9
$DIMDLI
 40
3.75
  9
$DIMRND
 40
0.0
  9
$DIMDLE
 40
0.0
  9
$DIMEXE
 40
1.25
  9
$DIMTP
 40
0.0
  9
$DIMTM
 40
0.0
  9
$DIMTXT
 40
3.5
  9
$DIMCEN
 40
2.5
  9
$DIMTSZ
 40
0.0
  9
$DIMTOL
 70
     0
  9
$DIMLIM
 70
     0
  9
$DIMTIH
 70
     0
  9
$DIMTOH
 70
     0
  9
$DIMSE1
 70
     0
  9
$DIMSE2
 70
     0
  9
$DIMTAD
 70
     1
  9
$DIMZIN
 70
     8
  9
$DIMBLK
  1

  9
$DIMASO
 70
     1
  9
$DIMSHO
 70
     1
  9
$DIMPOST
  1

  9
$DIMAPOST
  1

  9
$DIMALT
 70
     0
  9
$DIMALTD
 70
     3
  9
$DIMALTF
 40
0.03937
  9
$DIMLFAC
 40
1.0
  9
$DIMTOFL
 70
     1
  9
$DIMTVP
 40
0.0
  9
$DIMTIX
 70
     0
  9
$DIMSOXD
 70
     0
  9
$DIMSAH
 70
     0
  9
$DIMBLK1
  1

  9
$DIMBLK2
  1

  9
$DIMSTYLE
  2
ISO-25
  9
$DIMCLRD
 70
     0
  9
$DIMCLRE
 70
     0
  9
$DIMCLRT
 70
     0
  9
$DIMTFAC
 40
1.0
  9
$DIMGAP
 40
0.625
  9
$DIMJUST
 70
     0
  9
$DIMSD1
 70
     0
  9
$DIMSD2
 70
     0
  9
$DIMTOLJ
 70
     0
  9
$DIMTZIN
 70
     8
  9
$DIMALTZ
 70
     0
  9
$DIMALTTZ
 70
     0
  9
$DIMUPT
 70
     0
  9
$DIMDEC
 70
     2
  9
$DIMTDEC
 70
     2
  9
$DIMALTU
 70
     2
  9
$DIMALTTD
 70
     3
  9
$DIMTXSTY
  7
Standard
  9
$DIMAUNIT
 70
     0
  9
$DIMADEC
 70
     0
  9
$DIMALTRND
 40
0.0
  9
$DIMAZIN
 70
     0
  9
$DIMDSEP
 70
    44
  9
$DIMATFIT
 70
     3
  9
$DIMFRAC
 70
     0
  9
$DIMLDRBLK
  1

  9
$DIMLUNIT
 70
     2
  9
$DIMLWD
 70
    -2
  9
$DIMLWE
 70
    -2
  9
$DIMTMOVE
 70
     0
  9
$LUNITS
 70
     2
  9
$LUPREC
 70
     4
  9
$SKETCHINC
 40
1.0
  9
$FILLETRAD
 40
10.0
  9
$AUNITS
 70
     0
  9
$AUPREC
 70
     0
  9
$MENU
  1
.
  9
$ELEVATION
 40
0.0
  9
$PELEVATION
 40
0.0
  9
$THICKNESS
 40
0.0
  9
$LIMCHECK
 70
     0
  9
$CHAMFERA
 40
10.0
  9
$CHAMFERB
 40
10.0
  9
$CHAMFERC
 40
20.0
  9
$CHAMFERD
 40
0.0
  9
$SKPOLY
 70
     0
  9
$TDCREATE
 40
2455355.36682191
  9
$TDUCREATE
 40
2455355.283488576
  9
$TDUPDATE
 40
2455355.366821921
  9
$TDUUPDATE
 40
2455355.283488588
  9
$TDINDWG
 40
0.0000000116
  9
$TDUSRTIMER
 40
0.0000000116
  9
$USRTIMER
 70
     1
  9
$ANGBASE
 50
0.0
  9
$ANGDIR
 70
     0
  9
$PDMODE
 70
     0
  9
$PDSIZE
 40
0.0
  9
$PLINEWID
 40
0.0
  9
$SPLFRAME
 70
     0
  9
$SPLINETYPE
 70
     6
  9
$SPLINESEGS
 70
     8
  9
$HANDSEED
  5
48E
  9
$SURFTAB1
 70
     6
  9
$SURFTAB2
 70
     6
  9
$SURFTYPE
 70
     6
  9
$SURFU
 70
     6
  9
$SURFV
 70
     6
  9
$UCSBASE
  2

  9
$UCSNAME
  2

  9
$UCSORG
 10
0.0
 20
0.0
 30
0.0
  9
$UCSXDIR
 10
1.0
 20
0.0
 30
0.0
  9
$UCSYDIR
 10
0.0
 20
1.0
 30
0.0
  9
$UCSORTHOREF
  2

  9
$UCSORTHOVIEW
 70
     0
  9
$UCSORGTOP
 10
0.0
 20
0.0
 30
0.0
  9
$UCSORGBOTTOM
 10
0.0
 20
0.0
 30
0.0
  9
$UCSORGLEFT
 10
0.0
 20
0.0
 30
0.0
  9
$UCSORGRIGHT
 10
0.0
 20
0.0
 30
0.0
  9
$UCSORGFRONT
 10
0.0
 20
0.0
 30
0.0
  9
$UCSORGBACK
 10
0.0
 20
0.0
 30
0.0
  9
$PUCSBASE
  2

  9
$PUCSNAME
  2

  9
$PUCSORG
 10
0.0
 20
0.0
 30
0.0
  9
$PUCSXDIR
 10
1.0
 20
0.0
 30
0.0
  9
$PUCSYDIR
 10
0.0
 20
1.0
 30
0.0
  9
$PUCSORTHOREF
  2

  9
$PUCSORTHOVIEW
 70
     0
  9
$PUCSORGTOP
 10
0.0
 20
0.0
 30
0.0
  9
$PUCSORGBOTTOM
 10
0.0
 20
0.0
 30
0.0
  9
$PUCSORGLEFT
 10
0.0
 20
0.0
 30
0.0
  9
$PUCSORGRIGHT
 10
0.0
 20
0.0
 30
0.0
  9
$PUCSORGFRONT
 10
0.0
 20
0.0
 30
0.0
  9
$PUCSORGBACK
 10
0.0
 20
0.0
 30
0.0
  9
$USERI1
 70
     0
  9
$USERI2
 70
     0
  9
$USERI3
 70
     0
  9
$USERI4
 70
     0
  9
$USERI5
 70
     0
  9
$USERR1
 40
0.0
  9
$USERR2
 40
0.0
  9
$USERR3
 40
0.0
  9
$USERR4
 40
0.0
  9
$USERR5
 40
0.0
  9
$WORLDVIEW
 70
     1
  9
$SHADEDGE
 70
     3
  9
$SHADEDIF
 70
    70
  9
$TILEMODE
 70
     1
  9
$MAXACTVP
 70
    64
  9
$PINSBASE
 10
0.0
 20
0.0
 30
0.0
  9
$PLIMCHECK
 70
     0
  9
$PEXTMIN
 10
0.0
 20
0.0
 30
0.0
  9
$PEXTMAX
 10
840.0
 20
594.0
 30
0.0
  9
$PLIMMIN
 10
0.0
 20
0.0
  9
$PLIMMAX
 10
840.0
 20
594.0
  9
$UNITMODE
 70
     0
  9
$VISRETAIN
 70
     1
  9
$PLINEGEN
 70
     0
  9
$PSLTSCALE
 70
     1
  9
$TREEDEPTH
 70
  3020
  9
$CMLSTYLE
  2
Standard
  9
$CMLJUST
 70
     0
  9
$CMLSCALE
 40
20.0
  9
$PROXYGRAPHICS
 70
     1
  9
$MEASUREMENT
 70
     1
  9
$CELWEIGHT
370
    -1
  9
$ENDCAPS
280
     0
  9
$JOINSTYLE
280
     0
  9
$LWDISPLAY
290
     0
  9
$INSUNITS
 70
     4
  9
$HYPERLINKBASE
  1

  9
$STYLESHEET
  1

  9
$XEDIT
290
     1
  9
$CEPSNTYPE
380
     0
  9
$PSTYLEMODE
290
     1
  9
$FINGERPRINTGUID
  2
{FAEB1C30-E019-11D5-929B-00C0DF256EC4}
  9
$VERSIONGUID
  2
{FAEB1C32-E019-11D5-929B-00C0DF256EC4}
  9
$EXTNAMES
290
     1
  9
$PSVPSCALE
 40
0.0
  9
$OLESTARTUP
290
     0
  0
ENDSEC
  0
SECTION
  2
CLASSES
  0
CLASS
  1
ACDBDICTIONARYWDFLT
  2
AcDbDictionaryWithDefault
  3
ObjectDBX Classes
 90
        0
280
     0
281
     0
  0
CLASS
  1
ACDBPLACEHOLDER
  2
AcDbPlaceHolder
  3
ObjectDBX Classes
 90
        0
280
     0
281
     0
  0
CLASS
  1
LAYOUT
  2
AcDbLayout
  3
ObjectDBX Classes
 90
        0
280
     0
281
     0
  0
ENDSEC
  0
SECTION
  2
TABLES
  0
TABLE
  2
VPORT
  5
8
330
0
100
AcDbSymbolTable
 70
     2
  0
VPORT
  5
29
330
8
100
AcDbSymbolTableRecord
100
AcDbViewportTableRecord
  2
*ACTIVE
 70
     0
 10
0.0
 20
0.0
 11
1.0
 21
1.0
 12
420.0
 22
297.0
 13
0.0
 23
0.0
 14
1.0
 24
1.0
 15
0.0
 25
0.0
 16
0.0
 26
0.0
 36
1.0
 17
0.0
 27
0.0
 37
0.0
 40
594.0
 41
1.414141
 42
50.0
 43
0.0
 44
0.0
 50
0.0
 51
0.0
 71
    16
 72
   100
 73
     1
 74
     0
 75
     0
 76
     0
 77
     0
 78
     0
281
     0
 65
     0
110
0.0
120
0.0
130
0.0
111
1.0
121
0.0
131
0.0
112
0.0
122
1.0
132
0.0
 79
     0
146
0.0
  0
ENDTAB
  0
TABLE
  2
LTYPE
  5
5
330
0
100
AcDbSymbolTable
 70
     3
  0
LTYPE
  5
14
330
5
100
AcDbSymbolTableRecord
100
AcDbLinetypeTableRecord
  2
ByBlock
 70
     0
  3

 72
    65
 73
     0
 40
0.0
  0
LTYPE
  5
15
330
5
100
AcDbSymbolTableRecord
100
AcDbLinetypeTableRecord
  2
ByLayer
 70
     0
  3

 72
    65
 73
     0
 40
0.0
  0
LTYPE
  5
16
330
5
100
AcDbSymbolTableRecord
100
AcDbLinetypeTableRecord
  2
Continuous
 70
     0
  3
Solid line
 72
    65
 73
     0
 40
0.0
  0
LTYPE
  5
2A
330
5
100
AcDbSymbolTableRecord
100
AcDbLinetypeTableRecord
  2
DASHED
 70
     0
  3
__ __ __ __ __
 72
    65
 73
     2
 40
6.25
 49
5.0
 74
     4
 75
     0
340
0
 46
1.0
 50
0.0
 44
0.0
 45
0.0
 49
-1.25
 74
     4
 75
     0
340
0
 46
1.0
 50
0.0
 44
0.0
 45
0.0
  0
LTYPE
  5
32
330
5
100
AcDbSymbolTableRecord
100
AcDbLinetypeTableRecord
  2
DASHDOT
 70
     0
  3
__ . __ . __ . __ . __
 72
    65
 73
     4
 40
7.5
 49
5.0
 74
     4
 75
     0
340
0
 46
1.0
 50
0.0
 44
0.0
 45
0.0
 49
-1.25
 74
     4
 75
     0
340
0
 46
1.0
 50
0.0
 44
0.0
 45
0.0
 49
0.0
 74
     4
 75
     0
340
0
 46
1.0
 50
0.0
 44
0.0
 45
0.0
 49
-1.25
 74
     4
 75
     0
340
0
 46
1.0
 50
0.0
 44
0.0
 45
0.0
  0
ENDTAB
  0
TABLE
  2
LAYER
  5
2
330
0
100
AcDbSymbolTable
 70
    10
  0
LAYER
  5
10
330
2
100
AcDbSymbolTableRecord
100
AcDbLayerTableRecord
  2
0
 70
     0
 62
     7
  6
Continuous
370
    -3
390
F
  0
LAYER
  5
2B
330
2
100
AcDbSymbolTableRecord
100
AcDbLayerTableRecord
  2
LC-INFO-1-2-mm-A3-0
 70
     1
 62
     7
  6
ByBlock
370
    -3
390
F
  0
LAYER
  5
2C
330
2
100
AcDbSymbolTableRecord
100
AcDbLayerTableRecord
  2
LC-CUT-HIDDEN
 70
     0
 62
     7
  6
DASHED
370
    -3
390
F
  0
LAYER
  5
2D
330
2
100
AcDbSymbolTableRecord
100
AcDbLayerTableRecord
  2
LC-VIEWPORT
 70
     0
 62
     7
  6
ByBlock
370
    -3
390
F
  0
LAYER
  5
2E
330
2
100
AcDbSymbolTableRecord
100
AcDbLayerTableRecord
  2
LC-3D-HIDDEN
 70
     0
 62
     9
  6
DASHED
370
    -3
390
F
  0
LAYER
  5
30
330
2
100
AcDbSymbolTableRecord
100
AcDbLayerTableRecord
  2
LC-001-002-----0
 70
     0
 62
     1
  6
ByBlock
370
    -3
390
F
  0
LAYER
  5
3B
330
2
100
AcDbSymbolTableRecord
100
AcDbLayerTableRecord
  2
LC-002-003-----0
 70
     0
 62
     2
  6
ByBlock
370
    -3
390
F
  0
LAYER
  5
3D
330
2
100
AcDbSymbolTableRecord
100
AcDbLayerTableRecord
  2
Defpoints
 70
     0
 62
     7
  6
Continuous
290
     0
370
    -3
390
F
  0
LAYER
  5
4D
330
2
100
AcDbSymbolTableRecord
100
AcDbLayerTableRecord
  2
LC-003-002-RND-0
 70
     0
 62
     1
  6
ByBlock
370
    -3
390
F
  0
LAYER
  5
8F
330
2
100
AcDbSymbolTableRecord
100
AcDbLayerTableRecord
  2
LC-004-005-----0
 70
     0
 62
     2
  6
ByBlock
370
    -3
390
F
  0
ENDTAB
  0
TABLE
  2
STYLE
  5
3
330
0
100
AcDbSymbolTable
 70
     3
  0
STYLE
  5
11
330
3
100
AcDbSymbolTableRecord
100
AcDbTextStyleTableRecord
  2
Standard
 70
     0
 40
0.0
 41
1.0
 50
0.0
 71
     0
 42
2.5
  3
txt
  4

  0
STYLE
  5
2F
330
3
100
AcDbSymbolTableRecord
100
AcDbTextStyleTableRecord
  2
LCTX15-400-0-0-Arial
 70
     0
 40
0.0
 41
0.9
 50
0.0
 71
     0
 42
3.5
  3

  4

1001
ACAD
1000
Arial
1071
 16777218
  0
STYLE
  5
39
330
3
100
AcDbSymbolTableRecord
100
AcDbTextStyleTableRecord
  2
LCTX15-400-0-0pDIN-Schrift
 70
     0
 40
2.5
 41
0.8
 50
15.0
 71
     0
 42
3.5
  3
STANDARD
  4

  0
ENDTAB
  0
TABLE
  2
VIEW
  5
6
330
0
100
AcDbSymbolTable
 70
     0
  0
ENDTAB
  0
TABLE
  2
UCS
  5
7
330
0
100
AcDbSymbolTable
 70
     0
  0
ENDTAB
  0
TABLE
  2
APPID
  5
9
330
0
100
AcDbSymbolTable
 70
     1
  0
APPID
  5
12
330
9
100
AcDbSymbolTableRecord
100
AcDbRegAppTableRecord
  2
ACAD
 70
     0
  0
ENDTAB
  0
TABLE
  2
DIMSTYLE
  5
A
330
0
100
AcDbSymbolTable
 70
     2
100
AcDbDimStyleTable
  0
DIMSTYLE
105
27
330
A
100
AcDbSymbolTableRecord
100
AcDbDimStyleTableRecord
  2
ISO-25
 70
     0
 41
2.5
 42
0.625
 43
3.75
 44
1.25
 73
     0
 74
     0
 77
     1
 78
     8
140
2.5
141
2.5
143
0.03937
147
0.625
171
     3
172
     1
271
     2
272
     2
274
     3
278
    44
283
     0
284
     8
340
11
  0
DIMSTYLE
105
3A
102
{ACAD_REACTORS
330
3C
330
337
330
347
330
470
330
47D
102
}
330
A
100
AcDbSymbolTableRecord
100
AcDbDimStyleTableRecord
  2
LC-DIM-L-0140-02-02
 70
     0
 40
2.0
 41
14.0
 42
0.0
 43
7.5
 44
1.8
 73
     0
 74
     0
 77
     1
 78
     8
 79
     2
140
14.0
141
0.0
146
0.71
147
1.5
176
     2
177
     2
178
     2
179
     2
271
     2
278
    44
289
     1
340
39
  0
ENDTAB
  0
TABLE
  2
BLOCK_RECORD
  5
1
330
0
100
AcDbSymbolTable
 70
    30
  0
BLOCK_RECORD
  5
1F
330
1
100
AcDbSymbolTableRecord
100
AcDbBlockTableRecord
  2
*Model_Space
340
22
  0
BLOCK_RECORD
  5
1B
330
1
100
AcDbSymbolTableRecord
100
AcDbBlockTableRecord
  2
*Paper_Space
340
1E
  0
BLOCK_RECORD
  5
23
330
1
100
AcDbSymbolTableRecord
100
AcDbBlockTableRecord
  2
*Paper_Space0
340
26
  0
BLOCK_RECORD
  5
3E
330
1
100
AcDbSymbolTableRecord
100
AcDbBlockTableRecord
  2
*D1
340
0
  0
BLOCK_RECORD
  5
8C
330
1
100
AcDbSymbolTableRecord
100
AcDbBlockTableRecord
  2
*X12
340
0
102
{BLKREFS
331
94
102
}
  0
BLOCK_RECORD
  5
95
330
1
100
AcDbSymbolTableRecord
100
AcDbBlockTableRecord
  2
*X23
340
0
102
{BLKREFS
331
9C
102
}
  0
BLOCK_RECORD
  5
AD
330
1
100
AcDbSymbolTableRecord
100
AcDbBlockTableRecord
  2
*X34
340
0
102
{BLKREFS
331
B8
102
}
  0
BLOCK_RECORD
  5
BE
330
1
100
AcDbSymbolTableRecord
100
AcDbBlockTableRecord
  2
*X45
340
0
102
{BLKREFS
331
C8
102
}
  0
BLOCK_RECORD
  5
F4
330
1
100
AcDbSymbolTableRecord
100
AcDbBlockTableRecord
  2
*X56
340
0
102
{BLKREFS
331
FD
102
}
  0
BLOCK_RECORD
  5
FE
330
1
100
AcDbSymbolTableRecord
100
AcDbBlockTableRecord
  2
*X67
340
0
102
{BLKREFS
331
107
102
}
  0
BLOCK_RECORD
  5
10E
330
1
100
AcDbSymbolTableRecord
100
AcDbBlockTableRecord
  2
*X78
340
0
102
{BLKREFS
331
148
102
}
  0
BLOCK_RECORD
  5
149
330
1
100
AcDbSymbolTableRecord
100
AcDbBlockTableRecord
  2
*X89
340
0
102
{BLKREFS
331
176
102
}
  0
BLOCK_RECORD
  5
177
330
1
100
AcDbSymbolTableRecord
100
AcDbBlockTableRecord
  2
*X910
340
0
102
{BLKREFS
331
189
102
}
  0
BLOCK_RECORD
  5
18A
330
1
100
AcDbSymbolTableRecord
100
AcDbBlockTableRecord
  2
*X1011
340
0
102
{BLKREFS
331
1F3
102
}
  0
BLOCK_RECORD
  5
1F4
330
1
100
AcDbSymbolTableRecord
100
AcDbBlockTableRecord
  2
*X1112
340
0
102
{BLKREFS
331
265
102
}
  0
BLOCK_RECORD
  5
2A5
330
1
100
AcDbSymbolTableRecord
100
AcDbBlockTableRecord
  2
*X1213
340
0
102
{BLKREFS
331
2B5
102
}
  0
BLOCK_RECORD
  5
2BA
330
1
100
AcDbSymbolTableRecord
100
AcDbBlockTableRecord
  2
*X1314
340
0
102
{BLKREFS
331
2CA
102
}
  0
BLOCK_RECORD
  5
2CB
330
1
100
AcDbSymbolTableRecord
100
AcDbBlockTableRecord
  2
*X1415
340
0
102
{BLKREFS
331
2E3
102
}
  0
BLOCK_RECORD
  5
2E4
330
1
100
AcDbSymbolTableRecord
100
AcDbBlockTableRecord
  2
*X1516
340
0
102
{BLKREFS
331
2EA
102
}
  0
BLOCK_RECORD
  5
2EB
330
1
100
AcDbSymbolTableRecord
100
AcDbBlockTableRecord
  2
*X1617
340
0
102
{BLKREFS
331
2F1
102
}
  0
BLOCK_RECORD
  5
2F2
330
1
100
AcDbSymbolTableRecord
100
AcDbBlockTableRecord
  2
*X1718
340
0
102
{BLKREFS
331
32B
102
}
  0
BLOCK_RECORD
  5
32C
330
1
100
AcDbSymbolTableRecord
100
AcDbBlockTableRecord
  2
*X1819
340
0
102
{BLKREFS
331
336
102
}
  0
BLOCK_RECORD
  5
338
330
1
100
AcDbSymbolTableRecord
100
AcDbBlockTableRecord
  2
*D20
340
0
  0
BLOCK_RECORD
  5
348
330
1
100
AcDbSymbolTableRecord
100
AcDbBlockTableRecord
  2
*D21
340
0
  0
BLOCK_RECORD
  5
365
330
1
100
AcDbSymbolTableRecord
100
AcDbBlockTableRecord
  2
*X1922
340
0
102
{BLKREFS
331
36D
102
}
  0
BLOCK_RECORD
  5
372
330
1
100
AcDbSymbolTableRecord
100
AcDbBlockTableRecord
  2
*X2023
340
0
102
{BLKREFS
331
377
102
}
  0
BLOCK_RECORD
  5
37C
330
1
100
AcDbSymbolTableRecord
100
AcDbBlockTableRecord
  2
*X2124
340
0
102
{BLKREFS
331
381
102
}
  0
BLOCK_RECORD
  5
392
330
1
100
AcDbSymbolTableRecord
100
AcDbBlockTableRecord
  2
*X2225
340
0
102
{BLKREFS
331
39B
102
}
  0
BLOCK_RECORD
  5
39D
330
1
100
AcDbSymbolTableRecord
100
AcDbBlockTableRecord
  2
*X2326
340
0
102
{BLKREFS
331
406
102
}
  0
BLOCK_RECORD
  5
407
330
1
100
AcDbSymbolTableRecord
100
AcDbBlockTableRecord
  2
*X2427
340
0
102
{BLKREFS
331
46F
102
}
  0
BLOCK_RECORD
  5
471
330
1
100
AcDbSymbolTableRecord
100
AcDbBlockTableRecord
  2
*D28
340
0
  0
BLOCK_RECORD
  5
47E
330
1
100
AcDbSymbolTableRecord
100
AcDbBlockTableRecord
  2
*D29
340
0
  0
ENDTAB
  0
ENDSEC
  0
SECTION
  2
BLOCKS
  0
BLOCK
  5
20
330
1F
100
AcDbEntity
  8
0
100
AcDbBlockBegin
  2
*Model_Space
 70
     0
 71
     0
 10
0.0
 20
0.0
 30
0.0
  3
*Model_Space
  1

  0
ENDBLK
  5
21
330
1F
100
AcDbEntity
  8
0
100
AcDbBlockEnd
  0
BLOCK
  5
1C
330
1B
100
AcDbEntity
 67
     1
  8
0
100
AcDbBlockBegin
  2
*Paper_Space
 70
     0
 71
     0
 10
0.0
 20
0.0
 30
0.0
  3
*Paper_Space
  1

  0
ENDBLK
  5
1D
330
1B
100
AcDbEntity
 67
     1
  8
0
100
AcDbBlockEnd
  0
BLOCK
  5
24
330
23
100
AcDbEntity
  8
0
100
AcDbBlockBegin
  2
*Paper_Space0
 70
     0
 71
     0
 10
0.0
 20
0.0
 30
0.0
  3
*Paper_Space0
  1

  0
ENDBLK
  5
25
330
23
100
AcDbEntity
  8
0
100
AcDbBlockEnd
  0
BLOCK
  5
48
330
3E
100
AcDbEntity
  8
0
100
AcDbBlockBegin
  2
*D1
 70
     1
 71
     0
 10
0.0
 20
0.0
 30
0.0
  3
*D1
  1

  0
LINE
  5
3F
330
3E
100
AcDbEntity
  8
LC-002-003-----0
 62
     2
370
    -2
100
AcDbLine
 10
247.02406
 20
203.742
 30
0.0
 11
247.02406
 21
126.486
 31
0.0
  0
LINE
  5
40
330
3E
100
AcDbEntity
  8
LC-002-003-----0
 62
     2
370
    -2
100
AcDbLine
 10
558.02406
 20
257.242
 30
0.0
 11
558.02406
 21
126.486
 31
0.0
  0
LINE
  5
41
330
3E
100
AcDbEntity
  8
LC-002-003-----0
 62
     2
370
    -2
100
AcDbLine
 10
275.02406
 20
130.086
 30
0.0
 11
530.02406
 21
130.086
 31
0.0
  0
SOLID
  5
42
330
3E
100
AcDbEntity
  8
LC-002-003-----0
 62
     2
100
AcDbTrace
 10
275.02406
 20
134.752667
 30
0.0
 11
275.02406
 21
125.419333
 31
0.0
 12
247.02406
 22
130.086
 32
0.0
 13
247.02406
 23
130.086
 33
0.0
  0
SOLID
  5
43
330
3E
100
AcDbEntity
  8
LC-002-003-----0
 62
     2
100
AcDbTrace
 10
530.02406
 20
125.419333
 30
0.0
 11
530.02406
 21
134.752667
 31
0.0
 12
558.02406
 22
130.086
 32
0.0
 13
558.02406
 23
130.086
 33
0.0
  0
MTEXT
  5
44
330
3E
100
AcDbEntity
  8
LC-002-003-----0
 62
     2
100
AcDbMText
 10
420.0
 20
160.886
 30
0.0
 40
28.0
 41
0.0
 71
     5
 72
     1
  1
\A1;140-310
  7
LCTX15-400-0-0pDIN-Schrift
 73
     1
 44
1.0
  0
POINT
  5
45
330
3E
100
AcDbEntity
  8
Defpoints
 62
     0
100
AcDbPoint
 10
247.02406
 20
203.742
 30
0.0
  0
POINT
  5
46
330
3E
100
AcDbEntity
  8
Defpoints
 62
     0
100
AcDbPoint
 10
558.02406
 20
257.242
 30
0.0
  0
POINT
  5
47
330
3E
100
AcDbEntity
  8
Defpoints
 62
     0
100
AcDbPoint
 10
558.02406
 20
130.086
 30
0.0
  0
ENDBLK
  5
49
330
3E
100
AcDbEntity
  8
0
100
AcDbBlockEnd
  0
BLOCK
  5
8D
330
8C
100
AcDbEntity
  8
0
100
AcDbBlockBegin
  2
*X12
 70
     1
 71
     0
 10
0.0
 20
0.0
 30
0.0
  3
*X12
  1

  4
*X1
  0
LINE
  5
90
330
8C
100
AcDbEntity
  8
LC-004-005-----0
 62
     7
370
    25
100
AcDbLine
 10
275.834067
 20
241.892941
 30
0.0
 11
276.723119
 21
242.781993
 31
0.0
  0
LINE
  5
91
330
8C
100
AcDbEntity
  8
LC-004-005-----0
 62
     7
370
    25
100
AcDbLine
 10
275.407157
 20
242.031717
 30
0.0
 11
276.584343
 21
243.208903
 31
0.0
  0
LINE
  5
92
330
8C
100
AcDbEntity
  8
LC-004-005-----0
 62
     7
370
    25
100
AcDbLine
 10
275.133874
 20
242.324119
 30
0.0
 11
276.291941
 21
243.482186
 31
0.0
  0
LINE
  5
93
330
8C
100
AcDbEntity
  8
LC-004-005-----0
 62
     7
370
    25
100
AcDbLine
 10
275.02495
 20
242.78088
 30
0.0
 11
275.83518
 21
243.59111
 31
0.0
  0
ENDBLK
  5
8E
330
8C
100
AcDbEntity
  8
0
100
AcDbBlockEnd
  0
BLOCK
  5
96
330
95
100
AcDbEntity
  8
0
100
AcDbBlockBegin
  2
*X23
 70
     1
 71
     0
 10
0.0
 20
0.0
 30
0.0
  3
*X23
  1

  4
*X2
  0
LINE
  5
98
330
95
100
AcDbEntity
  8
LC-004-005-----0
 62
     7
370
    25
100
AcDbLine
 10
305.252384
 20
241.895616
 30
0.0
 11
306.020444
 21
242.663676
 31
0.0
  0
LINE
  5
99
330
95
100
AcDbEntity
  8
LC-004-005-----0
 62
     7
370
    25
100
AcDbLine
 10
304.779963
 20
241.988881
 30
0.0
 11
305.927179
 21
243.136097
 31
0.0
  0
LINE
  5
9A
330
95
100
AcDbEntity
  8
LC-004-005-----0
 62
     7
370
    25
100
AcDbLine
 10
304.478637
 20
242.25324
 30
0.0
 11
305.66282
 21
243.437423
 31
0.0
  0
LINE
  5
9B
330
95
100
AcDbEntity
  8
LC-004-005-----0
 62
     7
370
    25
100
AcDbLine
 10
304.327321
 20
242.66761
 30
0.0
 11
305.24845
 21
243.588739
 31
0.0
  0
ENDBLK
  5
97
330
95
100
AcDbEntity
  8
0
100
AcDbBlockEnd
  0
BLOCK
  5
AE
330
AD
100
AcDbEntity
  8
0
100
AcDbBlockBegin
  2
*X34
 70
     1
 71
     0
 10
0.0
 20
0.0
 30
0.0
  3
*X34
  1

  4
*X3
  0
LINE
  5
B0
330
AD
100
AcDbEntity
  8
LC-004-005-----0
 62
     7
370
    25
100
AcDbLine
 10
230.874343
 20
273.30075
 30
0.0
 11
231.02406
 21
273.450467
 31
0.0
  0
LINE
  5
B1
330
AD
100
AcDbEntity
  8
LC-004-005-----0
 62
     7
370
    25
100
AcDbLine
 10
230.575485
 20
274.416105
 30
0.0
 11
231.02406
 21
274.86468
 31
0.0
  0
LINE
  5
B2
330
AD
100
AcDbEntity
  8
LC-004-005-----0
 62
     7
370
    25
100
AcDbLine
 10
230.276626
 20
275.53146
 30
0.0
 11
231.02406
 21
276.278894
 31
0.0
  0
LINE
  5
B3
330
AD
100
AcDbEntity
  8
LC-004-005-----0
 62
     7
370
    25
100
AcDbLine
 10
229.977768
 20
276.646815
 30
0.0
 11
231.02406
 21
277.693108
 31
0.0
  0
LINE
  5
B4
330
AD
100
AcDbEntity
  8
LC-004-005-----0
 62
     7
370
    25
100
AcDbLine
 10
229.678909
 20
277.76217
 30
0.0
 11
231.02406
 21
279.107321
 31
0.0
  0
LINE
  5
B5
330
AD
100
AcDbEntity
  8
LC-004-005-----0
 62
     7
370
    25
100
AcDbLine
 10
229.380051
 20
278.877526
 30
0.0
 11
231.02406
 21
280.521535
 31
0.0
  0
LINE
  5
B6
330
AD
100
AcDbEntity
  8
LC-004-005-----0
 62
     7
370
    25
100
AcDbLine
 10
229.081192
 20
279.992881
 30
0.0
 11
230.830312
 21
281.742
 31
0.0
  0
LINE
  5
B7
330
AD
100
AcDbEntity
  8
LC-004-005-----0
 62
     7
370
    25
100
AcDbLine
 10
228.782334
 20
281.108236
 30
0.0
 11
229.416098
 21
281.742
 31
0.0
  0
ENDBLK
  5
AF
330
AD
100
AcDbEntity
  8
0
100
AcDbBlockEnd
  0
BLOCK
  5
BF
330
BE
100
AcDbEntity
  8
0
100
AcDbBlockBegin
  2
*X45
 70
     1
 71
     0
 10
0.0
 20
0.0
 30
0.0
  3
*X45
  1

  4
*X4
  0
LINE
  5
C1
330
BE
100
AcDbEntity
  8
LC-004-005-----0
 62
     7
370
    25
100
AcDbLine
 10
263.02406
 20
272.923555
 30
0.0
 11
263.090514
 21
272.990009
 31
0.0
  0
LINE
  5
C2
330
BE
100
AcDbEntity
  8
LC-004-005-----0
 62
     7
370
    25
100
AcDbLine
 10
263.02406
 20
274.337768
 30
0.0
 11
263.608152
 21
274.92186
 31
0.0
  0
LINE
  5
C3
330
BE
100
AcDbEntity
  8
LC-004-005-----0
 62
     7
370
    25
100
AcDbLine
 10
263.02406
 20
275.751982
 30
0.0
 11
264.12579
 21
276.853712
 31
0.0
  0
LINE
  5
C4
330
BE
100
AcDbEntity
  8
LC-004-005-----0
 62
     7
370
    25
100
AcDbLine
 10
263.02406
 20
277.166196
 30
0.0
 11
264.643428
 21
278.785564
 31
0.0
  0
LINE
  5
C5
330
BE
100
AcDbEntity
  8
LC-004-005-----0
 62
     7
370
    25
100
AcDbLine
 10
263.02406
 20
278.580409
 30
0.0
 11
265.161066
 21
280.717415
 31
0.0
  0
LINE
  5
C6
330
BE
100
AcDbEntity
  8
LC-004-005-----0
 62
     7
370
    25
100
AcDbLine
 10
263.02406
 20
279.994623
 30
0.0
 11
264.771437
 21
281.742
 31
0.0
  0
LINE
  5
C7
330
BE
100
AcDbEntity
  8
LC-004-005-----0
 62
     7
370
    25
100
AcDbLine
 10
263.02406
 20
281.408836
 30
0.0
 11
263.357224
 21
281.742
 31
0.0
  0
ENDBLK
  5
C0
330
BE
100
AcDbEntity
  8
0
100
AcDbBlockEnd
  0
BLOCK
  5
F5
330
F4
100
AcDbEntity
  8
0
100
AcDbBlockBegin
  2
*X56
 70
     1
 71
     0
 10
0.0
 20
0.0
 30
0.0
  3
*X56
  1

  4
*X5
  0
LINE
  5
F7
330
F4
100
AcDbEntity
  8
LC-004-005-----0
 62
     7
370
    25
100
AcDbLine
 10
269.024049
 20
265.548679
 30
0.0
 11
269.330744
 21
265.241985
 31
0.0
  0
LINE
  5
F8
330
F4
100
AcDbEntity
  8
LC-004-005-----0
 62
     7
370
    25
100
AcDbLine
 10
269.024052
 20
269.791315
 30
0.0
 11
271.024051
 21
267.791319
 31
0.0
  0
LINE
  5
F9
330
F4
100
AcDbEntity
  8
LC-004-005-----0
 62
     7
370
    25
100
AcDbLine
 10
269.024055
 20
274.03395
 30
0.0
 11
271.024054
 21
272.033954
 31
0.0
  0
LINE
  5
FA
330
F4
100
AcDbEntity
  8
LC-004-005-----0
 62
     7
370
    25
100
AcDbLine
 10
265.52406
 20
281.776578
 30
0.0
 11
265.55865
 21
281.741988
 31
0.0
  0
LINE
  5
FB
330
F4
100
AcDbEntity
  8
LC-004-005-----0
 62
     7
370
    25
100
AcDbLine
 10
269.024058
 20
278.276585
 30
0.0
 11
271.024056
 21
276.276589
 31
0.0
  0
LINE
  5
FC
330
F4
100
AcDbEntity
  8
LC-004-005-----0
 62
     7
370
    25
100
AcDbLine
 10
268.315481
 20
283.227798
 30
0.0
 11
271.009871
 21
280.533412
 31
0.0
  0
ENDBLK
  5
F6
330
F4
100
AcDbEntity
  8
0
100
AcDbBlockEnd
  0
BLOCK
  5
FF
330
FE
100
AcDbEntity
  8
0
100
AcDbBlockBegin
  2
*X67
 70
     1
 71
     0
 10
0.0
 20
0.0
 30
0.0
  3
*X67
  1

  4
*X6
  0
LINE
  5
101
330
FE
100
AcDbEntity
  8
LC-004-005-----0
 62
     7
370
    25
100
AcDbLine
 10
222.022024
 20
265.881626
 30
0.0
 11
222.664002
 21
265.239649
 31
0.0
  0
LINE
  5
102
330
FE
100
AcDbEntity
  8
LC-004-005-----0
 62
     7
370
    25
100
AcDbLine
 10
223.022009
 20
269.12428
 30
0.0
 11
225.022018
 21
267.124273
 31
0.0
  0
LINE
  5
103
330
FE
100
AcDbEntity
  8
LC-004-005-----0
 62
     7
370
    25
100
AcDbLine
 10
223.021989
 20
273.366938
 30
0.0
 11
225.021999
 21
271.366931
 31
0.0
  0
LINE
  5
104
330
FE
100
AcDbEntity
  8
LC-004-005-----0
 62
     7
370
    25
100
AcDbLine
 10
223.021969
 20
277.609595
 30
0.0
 11
225.021979
 21
275.609589
 31
0.0
  0
LINE
  5
105
330
FE
100
AcDbEntity
  8
LC-004-005-----0
 62
     7
370
    25
100
AcDbLine
 10
223.323562
 20
281.550642
 30
0.0
 11
225.021959
 21
279.852246
 31
0.0
  0
LINE
  5
106
330
FE
100
AcDbEntity
  8
LC-004-005-----0
 62
     7
370
    25
100
AcDbLine
 10
225.880516
 20
283.236328
 30
0.0
 11
227.377176
 21
281.739671
 31
0.0
  0
ENDBLK
  5
100
330
FE
100
AcDbEntity
  8
0
100
AcDbBlockEnd
  0
BLOCK
  5
10F
330
10E
100
AcDbEntity
  8
0
100
AcDbBlockBegin
  2
*X78
 70
     1
 71
     0
 10
0.0
 20
0.0
 30
0.0
  3
*X78
  1

  4
*X7
  0
LINE
  5
111
330
10E
100
AcDbEntity
  8
LC-004-005-----0
 62
     7
370
    25
100
AcDbLine
 10
230.100799
 20
276.187656
 30
0.0
 11
228.52406
 21
277.764395
 31
0.0
  0
LINE
  5
112
330
10E
100
AcDbEntity
  8
LC-004-005-----0
 62
     7
370
    25
100
AcDbLine
 10
231.02406
 20
272.435968
 30
0.0
 11
228.52406
 21
274.935968
 31
0.0
  0
LINE
  5
113
330
10E
100
AcDbEntity
  8
LC-004-005-----0
 62
     7
370
    25
100
AcDbLine
 10
231.02406
 20
269.607541
 30
0.0
 11
228.52406
 21
272.107541
 31
0.0
  0
LINE
  5
114
330
10E
100
AcDbEntity
  8
LC-004-005-----0
 62
     7
370
    25
100
AcDbLine
 10
231.02406
 20
266.779114
 30
0.0
 11
228.52406
 21
269.279114
 31
0.0
  0
LINE
  5
115
330
10E
100
AcDbEntity
  8
LC-004-005-----0
 62
     7
370
    25
100
AcDbLine
 10
231.02406
 20
263.950687
 30
0.0
 11
228.52406
 21
266.450687
 31
0.0
  0
LINE
  5
116
330
10E
100
AcDbEntity
  8
LC-004-005-----0
 62
     7
370
    25
100
AcDbLine
 10
312.40432
 20
179.742
 30
0.0
 11
309.90432
 21
182.242
 31
0.0
  0
LINE
  5
117
330
10E
100
AcDbEntity
  8
LC-004-005-----0
 62
     7
370
    25
100
AcDbLine
 10
231.02406
 20
261.12226
 30
0.0
 11
228.52406
 21
263.62226
 31
0.0
  0
LINE
  5
118
330
10E
100
AcDbEntity
  8
LC-004-005-----0
 62
     7
370
    25
100
AcDbLine
 10
309.575893
 20
179.742
 30
0.0
 11
307.075893
 21
182.242
 31
0.0
  0
LINE
  5
119
330
10E
100
AcDbEntity
  8
LC-004-005-----0
 62
     7
370
    25
100
AcDbLine
 10
231.02406
 20
258.293833
 30
0.0
 11
228.52406
 21
260.793833
 31
0.0
  0
LINE
  5
11A
330
10E
100
AcDbEntity
  8
LC-004-005-----0
 62
     7
370
    25
100
AcDbLine
 10
306.747465
 20
179.742
 30
0.0
 11
304.247465
 21
182.242
 31
0.0
  0
LINE
  5
11B
330
10E
100
AcDbEntity
  8
LC-004-005-----0
 62
     7
370
    25
100
AcDbLine
 10
231.02406
 20
255.465405
 30
0.0
 11
228.52406
 21
257.965405
 31
0.0
  0
LINE
  5
11C
330
10E
100
AcDbEntity
  8
LC-004-005-----0
 62
     7
370
    25
100
AcDbLine
 10
303.919038
 20
179.742
 30
0.0
 11
301.419038
 21
182.242
 31
0.0
  0
LINE
  5
11D
330
10E
100
AcDbEntity
  8
LC-004-005-----0
 62
     7
370
    25
100
AcDbLine
 10
231.02406
 20
252.636978
 30
0.0
 11
228.52406
 21
255.136978
 31
0.0
  0
LINE
  5
11E
330
10E
100
AcDbEntity
  8
LC-004-005-----0
 62
     7
370
    25
100
AcDbLine
 10
301.090611
 20
179.742
 30
0.0
 11
298.590611
 21
182.242
 31
0.0
  0
LINE
  5
11F
330
10E
100
AcDbEntity
  8
LC-004-005-----0
 62
     7
370
    25
100
AcDbLine
 10
231.02406
 20
249.808551
 30
0.0
 11
228.52406
 21
252.308551
 31
0.0
  0
LINE
  5
120
330
10E
100
AcDbEntity
  8
LC-004-005-----0
 62
     7
370
    25
100
AcDbLine
 10
298.262184
 20
179.742
 30
0.0
 11
295.762184
 21
182.242
 31
0.0
  0
LINE
  5
121
330
10E
100
AcDbEntity
  8
LC-004-005-----0
 62
     7
370
    25
100
AcDbLine
 10
231.02406
 20
246.980124
 30
0.0
 11
228.52406
 21
249.480124
 31
0.0
  0
LINE
  5
122
330
10E
100
AcDbEntity
  8
LC-004-005-----0
 62
     7
370
    25
100
AcDbLine
 10
295.433757
 20
179.742
 30
0.0
 11
292.933757
 21
182.242
 31
0.0
  0
LINE
  5
123
330
10E
100
AcDbEntity
  8
LC-004-005-----0
 62
     7
370
    25
100
AcDbLine
 10
231.02406
 20
244.151697
 30
0.0
 11
228.52406
 21
246.651697
 31
0.0
  0
LINE
  5
124
330
10E
100
AcDbEntity
  8
LC-004-005-----0
 62
     7
370
    25
100
AcDbLine
 10
292.60533
 20
179.742
 30
0.0
 11
290.10533
 21
182.242
 31
0.0
  0
LINE
  5
125
330
10E
100
AcDbEntity
  8
LC-004-005-----0
 62
     7
370
    25
100
AcDbLine
 10
231.02406
 20
241.32327
 30
0.0
 11
228.52406
 21
243.82327
 31
0.0
  0
LINE
  5
126
330
10E
100
AcDbEntity
  8
LC-004-005-----0
 62
     7
370
    25
100
AcDbLine
 10
289.776903
 20
179.742
 30
0.0
 11
287.276903
 21
182.242
 31
0.0
  0
LINE
  5
127
330
10E
100
AcDbEntity
  8
LC-004-005-----0
 62
     7
370
    25
100
AcDbLine
 10
231.02406
 20
238.494843
 30
0.0
 11
228.52406
 21
240.994843
 31
0.0
  0
LINE
  5
128
330
10E
100
AcDbEntity
  8
LC-004-005-----0
 62
     7
370
    25
100
AcDbLine
 10
286.948476
 20
179.742
 30
0.0
 11
284.448476
 21
182.242
 31
0.0
  0
LINE
  5
129
330
10E
100
AcDbEntity
  8
LC-004-005-----0
 62
     7
370
    25
100
AcDbLine
 10
231.02406
 20
235.666416
 30
0.0
 11
228.52406
 21
238.166416
 31
0.0
  0
LINE
  5
12A
330
10E
100
AcDbEntity
  8
LC-004-005-----0
 62
     7
370
    25
100
AcDbLine
 10
284.120048
 20
179.742
 30
0.0
 11
281.620048
 21
182.242
 31
0.0
  0
LINE
  5
12B
330
10E
100
AcDbEntity
  8
LC-004-005-----0
 62
     7
370
    25
100
AcDbLine
 10
231.02406
 20
232.837988
 30
0.0
 11
228.52406
 21
235.337988
 31
0.0
  0
LINE
  5
12C
330
10E
100
AcDbEntity
  8
LC-004-005-----0
 62
     7
370
    25
100
AcDbLine
 10
281.291621
 20
179.742
 30
0.0
 11
278.791621
 21
182.242
 31
0.0
  0
LINE
  5
12D
330
10E
100
AcDbEntity
  8
LC-004-005-----0
 62
     7
370
    25
100
AcDbLine
 10
231.02406
 20
230.009561
 30
0.0
 11
228.52406
 21
232.509561
 31
0.0
  0
LINE
  5
12E
330
10E
100
AcDbEntity
  8
LC-004-005-----0
 62
     7
370
    25
100
AcDbLine
 10
278.463194
 20
179.742
 30
0.0
 11
275.963194
 21
182.242
 31
0.0
  0
LINE
  5
12F
330
10E
100
AcDbEntity
  8
LC-004-005-----0
 62
     7
370
    25
100
AcDbLine
 10
231.02406
 20
227.181134
 30
0.0
 11
228.52406
 21
229.681134
 31
0.0
  0
LINE
  5
130
330
10E
100
AcDbEntity
  8
LC-004-005-----0
 62
     7
370
    25
100
AcDbLine
 10
275.634767
 20
179.742
 30
0.0
 11
273.134767
 21
182.242
 31
0.0
  0
LINE
  5
131
330
10E
100
AcDbEntity
  8
LC-004-005-----0
 62
     7
370
    25
100
AcDbLine
 10
231.02406
 20
224.352707
 30
0.0
 11
228.52406
 21
226.852707
 31
0.0
  0
LINE
  5
132
330
10E
100
AcDbEntity
  8
LC-004-005-----0
 62
     7
370
    25
100
AcDbLine
 10
272.80634
 20
179.742
 30
0.0
 11
270.30634
 21
182.242
 31
0.0
  0
LINE
  5
133
330
10E
100
AcDbEntity
  8
LC-004-005-----0
 62
     7
370
    25
100
AcDbLine
 10
231.02406
 20
221.52428
 30
0.0
 11
228.52406
 21
224.02428
 31
0.0
  0
LINE
  5
134
330
10E
100
AcDbEntity
  8
LC-004-005-----0
 62
     7
370
    25
100
AcDbLine
 10
269.977913
 20
179.742
 30
0.0
 11
267.477913
 21
182.242
 31
0.0
  0
LINE
  5
135
330
10E
100
AcDbEntity
  8
LC-004-005-----0
 62
     7
370
    25
100
AcDbLine
 10
231.02406
 20
218.695853
 30
0.0
 11
228.52406
 21
221.195853
 31
0.0
  0
LINE
  5
136
330
10E
100
AcDbEntity
  8
LC-004-005-----0
 62
     7
370
    25
100
AcDbLine
 10
267.149486
 20
179.742
 30
0.0
 11
264.649486
 21
182.242
 31
0.0
  0
LINE
  5
137
330
10E
100
AcDbEntity
  8
LC-004-005-----0
 62
     7
370
    25
100
AcDbLine
 10
231.02406
 20
215.867426
 30
0.0
 11
228.52406
 21
218.367426
 31
0.0
  0
LINE
  5
138
330
10E
100
AcDbEntity
  8
LC-004-005-----0
 62
     7
370
    25
100
AcDbLine
 10
264.321059
 20
179.742
 30
0.0
 11
261.821059
 21
182.242
 31
0.0
  0
LINE
  5
139
330
10E
100
AcDbEntity
  8
LC-004-005-----0
 62
     7
370
    25
100
AcDbLine
 10
231.02406
 20
213.038999
 30
0.0
 11
228.52406
 21
215.538999
 31
0.0
  0
LINE
  5
13A
330
10E
100
AcDbEntity
  8
LC-004-005-----0
 62
     7
370
    25
100
AcDbLine
 10
261.492631
 20
179.742
 30
0.0
 11
258.992631
 21
182.242
 31
0.0
  0
LINE
  5
13B
330
10E
100
AcDbEntity
  8
LC-004-005-----0
 62
     7
370
    25
100
AcDbLine
 10
231.02406
 20
210.210571
 30
0.0
 11
228.52406
 21
212.710571
 31
0.0
  0
LINE
  5
13C
330
10E
100
AcDbEntity
  8
LC-004-005-----0
 62
     7
370
    25
100
AcDbLine
 10
258.664204
 20
179.742
 30
0.0
 11
256.164204
 21
182.242
 31
0.0
  0
LINE
  5
13D
330
10E
100
AcDbEntity
  8
LC-004-005-----0
 62
     7
370
    25
100
AcDbLine
 10
233.52406
 20
204.882144
 30
0.0
 11
232.664204
 21
205.742
 31
0.0
  0
LINE
  5
13E
330
10E
100
AcDbEntity
  8
LC-004-005-----0
 62
     7
370
    25
100
AcDbLine
 10
231.02406
 20
207.382144
 30
0.0
 11
228.52406
 21
209.882144
 31
0.0
  0
LINE
  5
13F
330
10E
100
AcDbEntity
  8
LC-004-005-----0
 62
     7
370
    25
100
AcDbLine
 10
255.835777
 20
179.742
 30
0.0
 11
253.335777
 21
182.242
 31
0.0
  0
LINE
  5
140
330
10E
100
AcDbEntity
  8
LC-004-005-----0
 62
     7
370
    25
100
AcDbLine
 10
231.835777
 20
203.742
 30
0.0
 11
228.52406
 21
207.053717
 31
0.0
  0
LINE
  5
141
330
10E
100
AcDbEntity
  8
LC-004-005-----0
 62
     7
370
    25
100
AcDbLine
 10
253.00735
 20
179.742
 30
0.0
 11
250.40241
 21
182.34694
 31
0.0
  0
LINE
  5
142
330
10E
100
AcDbEntity
  8
LC-004-005-----0
 62
     7
370
    25
100
AcDbLine
 10
231.129
 20
201.62035
 30
0.0
 11
228.52406
 21
204.22529
 31
0.0
  0
LINE
  5
143
330
10E
100
AcDbEntity
  8
LC-004-005-----0
 62
     7
370
    25
100
AcDbLine
 10
250.051185
 20
179.869738
 30
0.0
 11
246.941514
 21
182.979409
 31
0.0
  0
LINE
  5
144
330
10E
100
AcDbEntity
  8
LC-004-005-----0
 62
     7
370
    25
100
AcDbLine
 10
231.761469
 20
198.159454
 30
0.0
 11
228.651798
 21
201.269125
 31
0.0
  0
LINE
  5
145
330
10E
100
AcDbEntity
  8
LC-004-005-----0
 62
     7
370
    25
100
AcDbLine
 10
246.610558
 20
180.481938
 30
0.0
 11
242.22106
 21
184.871436
 31
0.0
  0
LINE
  5
146
330
10E
100
AcDbEntity
  8
LC-004-005-----0
 62
     7
370
    25
100
AcDbLine
 10
233.653496
 20
193.439
 30
0.0
 11
229.263998
 21
197.828498
 31
0.0
  0
LINE
  5
147
330
10E
100
AcDbEntity
  8
LC-004-005-----0
 62
     7
370
    25
100
AcDbLine
 10
242.177102
 20
182.086967
 30
0.0
 11
230.869027
 21
193.395042
 31
0.0
  0
ENDBLK
  5
110
330
10E
100
AcDbEntity
  8
0
100
AcDbBlockEnd
  0
BLOCK
  5
14A
330
149
100
AcDbEntity
  8
0
100
AcDbBlockBegin
  2
*X89
 70
     1
 71
     0
 10
0.0
 20
0.0
 30
0.0
  3
*X89
  1

  4
*X8
  0
LINE
  5
14C
330
149
100
AcDbEntity
  8
LC-004-005-----0
 62
     7
370
    25
100
AcDbLine
 10
265.52406
 20
277.533948
 30
0.0
 11
264.56503
 21
278.492978
 31
0.0
  0
LINE
  5
14D
330
149
100
AcDbEntity
  8
LC-004-005-----0
 62
     7
370
    25
100
AcDbLine
 10
265.52406
 20
274.705521
 30
0.0
 11
263.967313
 21
276.262268
 31
0.0
  0
LINE
  5
14E
330
149
100
AcDbEntity
  8
LC-004-005-----0
 62
     7
370
    25
100
AcDbLine
 10
265.52406
 20
271.877094
 30
0.0
 11
263.369596
 21
274.031558
 31
0.0
  0
LINE
  5
14F
330
149
100
AcDbEntity
  8
LC-004-005-----0
 62
     7
370
    25
100
AcDbLine
 10
278.22406
 20
256.348667
 30
0.0
 11
277.330727
 21
257.242
 31
0.0
  0
LINE
  5
150
330
149
100
AcDbEntity
  8
LC-004-005-----0
 62
     7
370
    25
100
AcDbLine
 10
265.52406
 20
269.048667
 30
0.0
 11
263.02406
 21
271.548667
 31
0.0
  0
LINE
  5
151
330
149
100
AcDbEntity
  8
LC-004-005-----0
 62
     7
370
    25
100
AcDbLine
 10
278.22406
 20
253.520239
 30
0.0
 11
275.61318
 21
256.13112
 31
0.0
  0
LINE
  5
152
330
149
100
AcDbEntity
  8
LC-004-005-----0
 62
     7
370
    25
100
AcDbLine
 10
265.52406
 20
266.220239
 30
0.0
 11
263.02406
 21
268.720239
 31
0.0
  0
LINE
  5
153
330
149
100
AcDbEntity
  8
LC-004-005-----0
 62
     7
370
    25
100
AcDbLine
 10
278.22406
 20
250.691812
 30
0.0
 11
276.72406
 21
252.191812
 31
0.0
  0
LINE
  5
154
330
149
100
AcDbEntity
  8
LC-004-005-----0
 62
     7
370
    25
100
AcDbLine
 10
265.52406
 20
263.391812
 30
0.0
 11
263.02406
 21
265.891812
 31
0.0
  0
LINE
  5
155
330
149
100
AcDbEntity
  8
LC-004-005-----0
 62
     7
370
    25
100
AcDbLine
 10
278.22406
 20
247.863385
 30
0.0
 11
276.72406
 21
249.363385
 31
0.0
  0
LINE
  5
156
330
149
100
AcDbEntity
  8
LC-004-005-----0
 62
     7
370
    25
100
AcDbLine
 10
265.52406
 20
260.563385
 30
0.0
 11
263.02406
 21
263.063385
 31
0.0
  0
LINE
  5
157
330
149
100
AcDbEntity
  8
LC-004-005-----0
 62
     7
370
    25
100
AcDbLine
 10
278.22406
 20
245.034958
 30
0.0
 11
275.370539
 21
247.888479
 31
0.0
  0
LINE
  5
158
330
149
100
AcDbEntity
  8
LC-004-005-----0
 62
     7
370
    25
100
AcDbLine
 10
265.52406
 20
257.734958
 30
0.0
 11
263.02406
 21
260.234958
 31
0.0
  0
LINE
  5
159
330
149
100
AcDbEntity
  8
LC-004-005-----0
 62
     7
370
    25
100
AcDbLine
 10
278.22406
 20
242.206531
 30
0.0
 11
276.72406
 21
243.706531
 31
0.0
  0
LINE
  5
15A
330
149
100
AcDbEntity
  8
LC-004-005-----0
 62
     7
370
    25
100
AcDbLine
 10
265.52406
 20
254.906531
 30
0.0
 11
263.02406
 21
257.406531
 31
0.0
  0
LINE
  5
15B
330
149
100
AcDbEntity
  8
LC-004-005-----0
 62
     7
370
    25
100
AcDbLine
 10
278.22406
 20
239.378104
 30
0.0
 11
276.542112
 21
241.060052
 31
0.0
  0
LINE
  5
15C
330
149
100
AcDbEntity
  8
LC-004-005-----0
 62
     7
370
    25
100
AcDbLine
 10
265.52406
 20
252.078104
 30
0.0
 11
263.02406
 21
254.578104
 31
0.0
  0
LINE
  5
15D
330
149
100
AcDbEntity
  8
LC-004-005-----0
 62
     7
370
    25
100
AcDbLine
 10
278.22406
 20
236.549677
 30
0.0
 11
275.22406
 21
239.549677
 31
0.0
  0
LINE
  5
15E
330
149
100
AcDbEntity
  8
LC-004-005-----0
 62
     7
370
    25
100
AcDbLine
 10
265.52406
 20
249.249677
 30
0.0
 11
263.02406
 21
251.749677
 31
0.0
  0
LINE
  5
15F
330
149
100
AcDbEntity
  8
LC-004-005-----0
 62
     7
370
    25
100
AcDbLine
 10
278.22406
 20
233.72125
 30
0.0
 11
276.72406
 21
235.22125
 31
0.0
  0
LINE
  5
160
330
149
100
AcDbEntity
  8
LC-004-005-----0
 62
     7
370
    25
100
AcDbLine
 10
265.52406
 20
246.42125
 30
0.0
 11
263.02406
 21
248.92125
 31
0.0
  0
LINE
  5
161
330
149
100
AcDbEntity
  8
LC-004-005-----0
 62
     7
370
    25
100
AcDbLine
 10
278.22406
 20
230.892822
 30
0.0
 11
276.299471
 21
232.817411
 31
0.0
  0
LINE
  5
162
330
149
100
AcDbEntity
  8
LC-004-005-----0
 62
     7
370
    25
100
AcDbLine
 10
265.52406
 20
243.592822
 30
0.0
 11
263.02406
 21
246.092822
 31
0.0
  0
LINE
  5
163
330
149
100
AcDbEntity
  8
LC-004-005-----0
 62
     7
370
    25
100
AcDbLine
 10
278.22406
 20
228.064395
 30
0.0
 11
275.22406
 21
231.064395
 31
0.0
  0
LINE
  5
164
330
149
100
AcDbEntity
  8
LC-004-005-----0
 62
     7
370
    25
100
AcDbLine
 10
265.52406
 20
240.764395
 30
0.0
 11
263.02406
 21
243.264395
 31
0.0
  0
LINE
  5
165
330
149
100
AcDbEntity
  8
LC-004-005-----0
 62
     7
370
    25
100
AcDbLine
 10
278.218028
 20
225.242
 30
0.0
 11
275.718028
 21
227.742
 31
0.0
  0
LINE
  5
166
330
149
100
AcDbEntity
  8
LC-004-005-----0
 62
     7
370
    25
100
AcDbLine
 10
265.52406
 20
237.935968
 30
0.0
 11
263.02406
 21
240.435968
 31
0.0
  0
LINE
  5
167
330
149
100
AcDbEntity
  8
LC-004-005-----0
 62
     7
370
    25
100
AcDbLine
 10
275.389601
 20
225.242
 30
0.0
 11
272.889601
 21
227.742
 31
0.0
  0
LINE
  5
168
330
149
100
AcDbEntity
  8
LC-004-005-----0
 62
     7
370
    25
100
AcDbLine
 10
265.52406
 20
235.107541
 30
0.0
 11
263.02406
 21
237.607541
 31
0.0
  0
LINE
  5
169
330
149
100
AcDbEntity
  8
LC-004-005-----0
 62
     7
370
    25
100
AcDbLine
 10
272.561174
 20
225.242
 30
0.0
 11
270.061174
 21
227.742
 31
0.0
  0
LINE
  5
16A
330
149
100
AcDbEntity
  8
LC-004-005-----0
 62
     7
370
    25
100
AcDbLine
 10
265.52406
 20
232.279114
 30
0.0
 11
263.02406
 21
234.779114
 31
0.0
  0
LINE
  5
16B
330
149
100
AcDbEntity
  8
LC-004-005-----0
 62
     7
370
    25
100
AcDbLine
 10
269.732747
 20
225.242
 30
0.0
 11
267.232747
 21
227.742
 31
0.0
  0
LINE
  5
16C
330
149
100
AcDbEntity
  8
LC-004-005-----0
 62
     7
370
    25
100
AcDbLine
 10
265.52406
 20
229.450687
 30
0.0
 11
263.02406
 21
231.950687
 31
0.0
  0
LINE
  5
16D
330
149
100
AcDbEntity
  8
LC-004-005-----0
 62
     7
370
    25
100
AcDbLine
 10
266.90432
 20
225.242
 30
0.0
 11
263.02406
 21
229.12226
 31
0.0
  0
LINE
  5
16E
330
149
100
AcDbEntity
  8
LC-004-005-----0
 62
     7
370
    25
100
AcDbLine
 10
265.52406
 20
223.793833
 30
0.0
 11
263.02406
 21
226.293833
 31
0.0
  0
LINE
  5
16F
330
149
100
AcDbEntity
  8
LC-004-005-----0
 62
     7
370
    25
100
AcDbLine
 10
265.52406
 20
220.965405
 30
0.0
 11
263.02406
 21
223.465405
 31
0.0
  0
LINE
  5
170
330
149
100
AcDbEntity
  8
LC-004-005-----0
 62
     7
370
    25
100
AcDbLine
 10
265.52406
 20
218.136978
 30
0.0
 11
263.02406
 21
220.636978
 31
0.0
  0
LINE
  5
171
330
149
100
AcDbEntity
  8
LC-004-005-----0
 62
     7
370
    25
100
AcDbLine
 10
265.52406
 20
215.308551
 30
0.0
 11
263.02406
 21
217.808551
 31
0.0
  0
LINE
  5
172
330
149
100
AcDbEntity
  8
LC-004-005-----0
 62
     7
370
    25
100
AcDbLine
 10
265.52406
 20
212.480124
 30
0.0
 11
263.02406
 21
214.980124
 31
0.0
  0
LINE
  5
173
330
149
100
AcDbEntity
  8
LC-004-005-----0
 62
     7
370
    25
100
AcDbLine
 10
265.52406
 20
209.651697
 30
0.0
 11
263.02406
 21
212.151697
 31
0.0
  0
LINE
  5
174
330
149
100
AcDbEntity
  8
LC-004-005-----0
 62
     7
370
    25
100
AcDbLine
 10
265.52406
 20
206.82327
 30
0.0
 11
263.02406
 21
209.32327
 31
0.0
  0
LINE
  5
175
330
149
100
AcDbEntity
  8
LC-004-005-----0
 62
     7
370
    25
100
AcDbLine
 10
263.776903
 20
205.742
 30
0.0
 11
263.02406
 21
206.494843
 31
0.0
  0
ENDBLK
  5
14B
330
149
100
AcDbEntity
  8
0
100
AcDbBlockEnd
  0
BLOCK
  5
178
330
177
100
AcDbEntity
  8
0
100
AcDbBlockBegin
  2
*X910
 70
     1
 71
     0
 10
0.0
 20
0.0
 30
0.0
  3
*X910
  1

  4
*X9
  0
LINE
  5
17A
330
177
100
AcDbEntity
  8
LC-004-005-----0
 62
     7
370
    25
100
AcDbLine
 10
305.82406
 20
254.204511
 30
0.0
 11
302.82406
 21
257.204511
 31
0.0
  0
LINE
  5
17B
330
177
100
AcDbEntity
  8
LC-004-005-----0
 62
     7
370
    25
100
AcDbLine
 10
304.641102
 20
252.559042
 30
0.0
 11
302.82406
 21
254.376084
 31
0.0
  0
LINE
  5
17C
330
177
100
AcDbEntity
  8
LC-004-005-----0
 62
     7
370
    25
100
AcDbLine
 10
304.32406
 20
250.047656
 30
0.0
 11
302.82406
 21
251.547656
 31
0.0
  0
LINE
  5
17D
330
177
100
AcDbEntity
  8
LC-004-005-----0
 62
     7
370
    25
100
AcDbLine
 10
305.812675
 20
245.730615
 30
0.0
 11
302.82406
 21
248.719229
 31
0.0
  0
LINE
  5
17E
330
177
100
AcDbEntity
  8
LC-004-005-----0
 62
     7
370
    25
100
AcDbLine
 10
304.398461
 20
244.316401
 30
0.0
 11
302.82406
 21
245.890802
 31
0.0
  0
LINE
  5
17F
330
177
100
AcDbEntity
  8
LC-004-005-----0
 62
     7
370
    25
100
AcDbLine
 10
304.32406
 20
241.562375
 30
0.0
 11
302.82406
 21
243.062375
 31
0.0
  0
LINE
  5
180
330
177
100
AcDbEntity
  8
LC-004-005-----0
 62
     7
370
    25
100
AcDbLine
 10
305.570034
 20
237.487974
 30
0.0
 11
302.82406
 21
240.233948
 31
0.0
  0
LINE
  5
181
330
177
100
AcDbEntity
  8
LC-004-005-----0
 62
     7
370
    25
100
AcDbLine
 10
312.52406
 20
227.705521
 30
0.0
 11
312.487581
 21
227.742
 31
0.0
  0
LINE
  5
182
330
177
100
AcDbEntity
  8
LC-004-005-----0
 62
     7
370
    25
100
AcDbLine
 10
304.32406
 20
235.905521
 30
0.0
 11
302.82406
 21
237.405521
 31
0.0
  0
LINE
  5
183
330
177
100
AcDbEntity
  8
LC-004-005-----0
 62
     7
370
    25
100
AcDbLine
 10
312.159154
 20
225.242
 30
0.0
 11
309.659154
 21
227.742
 31
0.0
  0
LINE
  5
184
330
177
100
AcDbEntity
  8
LC-004-005-----0
 62
     7
370
    25
100
AcDbLine
 10
305.82406
 20
231.577094
 30
0.0
 11
302.82406
 21
234.577094
 31
0.0
  0
LINE
  5
185
330
177
100
AcDbEntity
  8
LC-004-005-----0
 62
     7
370
    25
100
AcDbLine
 10
309.330727
 20
225.242
 30
0.0
 11
306.830727
 21
227.742
 31
0.0
  0
LINE
  5
186
330
177
100
AcDbEntity
  8
LC-004-005-----0
 62
     7
370
    25
100
AcDbLine
 10
305.327393
 20
229.245333
 30
0.0
 11
302.82406
 21
231.748667
 31
0.0
  0
LINE
  5
187
330
177
100
AcDbEntity
  8
LC-004-005-----0
 62
     7
370
    25
100
AcDbLine
 10
306.502299
 20
225.242
 30
0.0
 11
302.82406
 21
228.920239
 31
0.0
  0
LINE
  5
188
330
177
100
AcDbEntity
  8
LC-004-005-----0
 62
     7
370
    25
100
AcDbLine
 10
303.673872
 20
225.242
 30
0.0
 11
302.82406
 21
226.091812
 31
0.0
  0
ENDBLK
  5
179
330
177
100
AcDbEntity
  8
0
100
AcDbBlockEnd
  0
BLOCK
  5
18B
330
18A
100
AcDbEntity
  8
0
100
AcDbBlockBegin
  2
*X1011
 70
     1
 71
     0
 10
0.0
 20
0.0
 30
0.0
  3
*X1011
  1

  4
*X10
  0
LINE
  5
18D
330
18A
100
AcDbEntity
  8
LC-004-005-----0
 62
     7
370
    25
100
AcDbLine
 10
555.432726
 20
255.619451
 30
0.0
 11
557.055275
 21
257.242
 31
0.0
  0
LINE
  5
18E
330
18A
100
AcDbEntity
  8
LC-004-005-----0
 62
     7
370
    25
100
AcDbLine
 10
552.226848
 20
255.242
 30
0.0
 11
554.226848
 21
257.242
 31
0.0
  0
LINE
  5
18F
330
18A
100
AcDbEntity
  8
LC-004-005-----0
 62
     7
370
    25
100
AcDbLine
 10
549.398421
 20
255.242
 30
0.0
 11
551.398421
 21
257.242
 31
0.0
  0
LINE
  5
190
330
18A
100
AcDbEntity
  8
LC-004-005-----0
 62
     7
370
    25
100
AcDbLine
 10
546.569994
 20
255.242
 30
0.0
 11
548.569994
 21
257.242
 31
0.0
  0
LINE
  5
191
330
18A
100
AcDbEntity
  8
LC-004-005-----0
 62
     7
370
    25
100
AcDbLine
 10
543.741567
 20
255.242
 30
0.0
 11
545.741567
 21
257.242
 31
0.0
  0
LINE
  5
192
330
18A
100
AcDbEntity
  8
LC-004-005-----0
 62
     7
370
    25
100
AcDbLine
 10
540.91314
 20
255.242
 30
0.0
 11
542.91314
 21
257.242
 31
0.0
  0
LINE
  5
193
330
18A
100
AcDbEntity
  8
LC-004-005-----0
 62
     7
370
    25
100
AcDbLine
 10
538.084712
 20
255.242
 30
0.0
 11
540.084712
 21
257.242
 31
0.0
  0
LINE
  5
194
330
18A
100
AcDbEntity
  8
LC-004-005-----0
 62
     7
370
    25
100
AcDbLine
 10
535.256285
 20
255.242
 30
0.0
 11
537.256285
 21
257.242
 31
0.0
  0
LINE
  5
195
330
18A
100
AcDbEntity
  8
LC-004-005-----0
 62
     7
370
    25
100
AcDbLine
 10
532.427858
 20
255.242
 30
0.0
 11
534.427858
 21
257.242
 31
0.0
  0
LINE
  5
196
330
18A
100
AcDbEntity
  8
LC-004-005-----0
 62
     7
370
    25
100
AcDbLine
 10
529.599431
 20
255.242
 30
0.0
 11
531.599431
 21
257.242
 31
0.0
  0
LINE
  5
197
330
18A
100
AcDbEntity
  8
LC-004-005-----0
 62
     7
370
    25
100
AcDbLine
 10
526.771004
 20
255.242
 30
0.0
 11
528.771004
 21
257.242
 31
0.0
  0
LINE
  5
198
330
18A
100
AcDbEntity
  8
LC-004-005-----0
 62
     7
370
    25
100
AcDbLine
 10
523.942577
 20
255.242
 30
0.0
 11
525.942577
 21
257.242
 31
0.0
  0
LINE
  5
199
330
18A
100
AcDbEntity
  8
LC-004-005-----0
 62
     7
370
    25
100
AcDbLine
 10
521.11415
 20
255.242
 30
0.0
 11
523.11415
 21
257.242
 31
0.0
  0
LINE
  5
19A
330
18A
100
AcDbEntity
  8
LC-004-005-----0
 62
     7
370
    25
100
AcDbLine
 10
518.285723
 20
255.242
 30
0.0
 11
520.285723
 21
257.242
 31
0.0
  0
LINE
  5
19B
330
18A
100
AcDbEntity
  8
LC-004-005-----0
 62
     7
370
    25
100
AcDbLine
 10
515.457295
 20
255.242
 30
0.0
 11
517.457295
 21
257.242
 31
0.0
  0
LINE
  5
19C
330
18A
100
AcDbEntity
  8
LC-004-005-----0
 62
     7
370
    25
100
AcDbLine
 10
512.628868
 20
255.242
 30
0.0
 11
514.628868
 21
257.242
 31
0.0
  0
LINE
  5
19D
330
18A
100
AcDbEntity
  8
LC-004-005-----0
 62
     7
370
    25
100
AcDbLine
 10
509.800441
 20
255.242
 30
0.0
 11
511.800441
 21
257.242
 31
0.0
  0
LINE
  5
19E
330
18A
100
AcDbEntity
  8
LC-004-005-----0
 62
     7
370
    25
100
AcDbLine
 10
506.972014
 20
255.242
 30
0.0
 11
508.972014
 21
257.242
 31
0.0
  0
LINE
  5
19F
330
18A
100
AcDbEntity
  8
LC-004-005-----0
 62
     7
370
    25
100
AcDbLine
 10
504.143587
 20
255.242
 30
0.0
 11
506.143587
 21
257.242
 31
0.0
  0
LINE
  5
1A0
330
18A
100
AcDbEntity
  8
LC-004-005-----0
 62
     7
370
    25
100
AcDbLine
 10
501.31516
 20
255.242
 30
0.0
 11
503.31516
 21
257.242
 31
0.0
  0
LINE
  5
1A1
330
18A
100
AcDbEntity
  8
LC-004-005-----0
 62
     7
370
    25
100
AcDbLine
 10
498.486733
 20
255.242
 30
0.0
 11
500.486733
 21
257.242
 31
0.0
  0
LINE
  5
1A2
330
18A
100
AcDbEntity
  8
LC-004-005-----0
 62
     7
370
    25
100
AcDbLine
 10
495.658306
 20
255.242
 30
0.0
 11
497.658306
 21
257.242
 31
0.0
  0
LINE
  5
1A3
330
18A
100
AcDbEntity
  8
LC-004-005-----0
 62
     7
370
    25
100
AcDbLine
 10
492.829878
 20
255.242
 30
0.0
 11
494.829878
 21
257.242
 31
0.0
  0
LINE
  5
1A4
330
18A
100
AcDbEntity
  8
LC-004-005-----0
 62
     7
370
    25
100
AcDbLine
 10
490.001451
 20
255.242
 30
0.0
 11
492.001451
 21
257.242
 31
0.0
  0
LINE
  5
1A5
330
18A
100
AcDbEntity
  8
LC-004-005-----0
 62
     7
370
    25
100
AcDbLine
 10
487.173024
 20
255.242
 30
0.0
 11
489.173024
 21
257.242
 31
0.0
  0
LINE
  5
1A6
330
18A
100
AcDbEntity
  8
LC-004-005-----0
 62
     7
370
    25
100
AcDbLine
 10
484.344597
 20
255.242
 30
0.0
 11
486.344597
 21
257.242
 31
0.0
  0
LINE
  5
1A7
330
18A
100
AcDbEntity
  8
LC-004-005-----0
 62
     7
370
    25
100
AcDbLine
 10
481.51617
 20
255.242
 30
0.0
 11
483.51617
 21
257.242
 31
0.0
  0
LINE
  5
1A8
330
18A
100
AcDbEntity
  8
LC-004-005-----0
 62
     7
370
    25
100
AcDbLine
 10
478.687743
 20
255.242
 30
0.0
 11
480.687743
 21
257.242
 31
0.0
  0
LINE
  5
1A9
330
18A
100
AcDbEntity
  8
LC-004-005-----0
 62
     7
370
    25
100
AcDbLine
 10
475.859316
 20
255.242
 30
0.0
 11
477.859316
 21
257.242
 31
0.0
  0
LINE
  5
1AA
330
18A
100
AcDbEntity
  8
LC-004-005-----0
 62
     7
370
    25
100
AcDbLine
 10
473.030889
 20
255.242
 30
0.0
 11
475.030889
 21
257.242
 31
0.0
  0
LINE
  5
1AB
330
18A
100
AcDbEntity
  8
LC-004-005-----0
 62
     7
370
    25
100
AcDbLine
 10
470.202461
 20
255.242
 30
0.0
 11
472.202461
 21
257.242
 31
0.0
  0
LINE
  5
1AC
330
18A
100
AcDbEntity
  8
LC-004-005-----0
 62
     7
370
    25
100
AcDbLine
 10
467.374034
 20
255.242
 30
0.0
 11
469.374034
 21
257.242
 31
0.0
  0
LINE
  5
1AD
330
18A
100
AcDbEntity
  8
LC-004-005-----0
 62
     7
370
    25
100
AcDbLine
 10
464.545607
 20
255.242
 30
0.0
 11
466.545607
 21
257.242
 31
0.0
  0
LINE
  5
1AE
330
18A
100
AcDbEntity
  8
LC-004-005-----0
 62
     7
370
    25
100
AcDbLine
 10
461.71718
 20
255.242
 30
0.0
 11
463.71718
 21
257.242
 31
0.0
  0
LINE
  5
1AF
330
18A
100
AcDbEntity
  8
LC-004-005-----0
 62
     7
370
    25
100
AcDbLine
 10
458.888753
 20
255.242
 30
0.0
 11
460.888753
 21
257.242
 31
0.0
  0
LINE
  5
1B0
330
18A
100
AcDbEntity
  8
LC-004-005-----0
 62
     7
370
    25
100
AcDbLine
 10
456.060326
 20
255.242
 30
0.0
 11
458.060326
 21
257.242
 31
0.0
  0
LINE
  5
1B1
330
18A
100
AcDbEntity
  8
LC-004-005-----0
 62
     7
370
    25
100
AcDbLine
 10
453.231899
 20
255.242
 30
0.0
 11
455.231899
 21
257.242
 31
0.0
  0
LINE
  5
1B2
330
18A
100
AcDbEntity
  8
LC-004-005-----0
 62
     7
370
    25
100
AcDbLine
 10
450.403472
 20
255.242
 30
0.0
 11
452.403472
 21
257.242
 31
0.0
  0
LINE
  5
1B3
330
18A
100
AcDbEntity
  8
LC-004-005-----0
 62
     7
370
    25
100
AcDbLine
 10
447.575044
 20
255.242
 30
0.0
 11
449.575044
 21
257.242
 31
0.0
  0
LINE
  5
1B4
330
18A
100
AcDbEntity
  8
LC-004-005-----0
 62
     7
370
    25
100
AcDbLine
 10
444.746617
 20
255.242
 30
0.0
 11
446.746617
 21
257.242
 31
0.0
  0
LINE
  5
1B5
330
18A
100
AcDbEntity
  8
LC-004-005-----0
 62
     7
370
    25
100
AcDbLine
 10
441.91819
 20
255.242
 30
0.0
 11
443.91819
 21
257.242
 31
0.0
  0
LINE
  5
1B6
330
18A
100
AcDbEntity
  8
LC-004-005-----0
 62
     7
370
    25
100
AcDbLine
 10
439.089763
 20
255.242
 30
0.0
 11
441.089763
 21
257.242
 31
0.0
  0
LINE
  5
1B7
330
18A
100
AcDbEntity
  8
LC-004-005-----0
 62
     7
370
    25
100
AcDbLine
 10
436.261336
 20
255.242
 30
0.0
 11
438.261336
 21
257.242
 31
0.0
  0
LINE
  5
1B8
330
18A
100
AcDbEntity
  8
LC-004-005-----0
 62
     7
370
    25
100
AcDbLine
 10
433.432909
 20
255.242
 30
0.0
 11
435.432909
 21
257.242
 31
0.0
  0
LINE
  5
1B9
330
18A
100
AcDbEntity
  8
LC-004-005-----0
 62
     7
370
    25
100
AcDbLine
 10
430.604482
 20
255.242
 30
0.0
 11
432.604482
 21
257.242
 31
0.0
  0
LINE
  5
1BA
330
18A
100
AcDbEntity
  8
LC-004-005-----0
 62
     7
370
    25
100
AcDbLine
 10
427.776055
 20
255.242
 30
0.0
 11
429.776055
 21
257.242
 31
0.0
  0
LINE
  5
1BB
330
18A
100
AcDbEntity
  8
LC-004-005-----0
 62
     7
370
    25
100
AcDbLine
 10
424.947627
 20
255.242
 30
0.0
 11
426.947627
 21
257.242
 31
0.0
  0
LINE
  5
1BC
330
18A
100
AcDbEntity
  8
LC-004-005-----0
 62
     7
370
    25
100
AcDbLine
 10
422.1192
 20
255.242
 30
0.0
 11
424.1192
 21
257.242
 31
0.0
  0
LINE
  5
1BD
330
18A
100
AcDbEntity
  8
LC-004-005-----0
 62
     7
370
    25
100
AcDbLine
 10
419.290773
 20
255.242
 30
0.0
 11
421.290773
 21
257.242
 31
0.0
  0
LINE
  5
1BE
330
18A
100
AcDbEntity
  8
LC-004-005-----0
 62
     7
370
    25
100
AcDbLine
 10
416.462346
 20
255.242
 30
0.0
 11
418.462346
 21
257.242
 31
0.0
  0
LINE
  5
1BF
330
18A
100
AcDbEntity
  8
LC-004-005-----0
 62
     7
370
    25
100
AcDbLine
 10
413.633919
 20
255.242
 30
0.0
 11
415.633919
 21
257.242
 31
0.0
  0
LINE
  5
1C0
330
18A
100
AcDbEntity
  8
LC-004-005-----0
 62
     7
370
    25
100
AcDbLine
 10
410.805492
 20
255.242
 30
0.0
 11
412.805492
 21
257.242
 31
0.0
  0
LINE
  5
1C1
330
18A
100
AcDbEntity
  8
LC-004-005-----0
 62
     7
370
    25
100
AcDbLine
 10
407.977065
 20
255.242
 30
0.0
 11
409.977065
 21
257.242
 31
0.0
  0
LINE
  5
1C2
330
18A
100
AcDbEntity
  8
LC-004-005-----0
 62
     7
370
    25
100
AcDbLine
 10
405.148638
 20
255.242
 30
0.0
 11
407.148638
 21
257.242
 31
0.0
  0
LINE
  5
1C3
330
18A
100
AcDbEntity
  8
LC-004-005-----0
 62
     7
370
    25
100
AcDbLine
 10
402.32021
 20
255.242
 30
0.0
 11
404.32021
 21
257.242
 31
0.0
  0
LINE
  5
1C4
330
18A
100
AcDbEntity
  8
LC-004-005-----0
 62
     7
370
    25
100
AcDbLine
 10
399.491783
 20
255.242
 30
0.0
 11
401.491783
 21
257.242
 31
0.0
  0
LINE
  5
1C5
330
18A
100
AcDbEntity
  8
LC-004-005-----0
 62
     7
370
    25
100
AcDbLine
 10
396.663356
 20
255.242
 30
0.0
 11
398.663356
 21
257.242
 31
0.0
  0
LINE
  5
1C6
330
18A
100
AcDbEntity
  8
LC-004-005-----0
 62
     7
370
    25
100
AcDbLine
 10
393.834929
 20
255.242
 30
0.0
 11
395.834929
 21
257.242
 31
0.0
  0
LINE
  5
1C7
330
18A
100
AcDbEntity
  8
LC-004-005-----0
 62
     7
370
    25
100
AcDbLine
 10
391.006502
 20
255.242
 30
0.0
 11
393.006502
 21
257.242
 31
0.0
  0
LINE
  5
1C8
330
18A
100
AcDbEntity
  8
LC-004-005-----0
 62
     7
370
    25
100
AcDbLine
 10
388.178075
 20
255.242
 30
0.0
 11
390.178075
 21
257.242
 31
0.0
  0
LINE
  5
1C9
330
18A
100
AcDbEntity
  8
LC-004-005-----0
 62
     7
370
    25
100
AcDbLine
 10
385.349648
 20
255.242
 30
0.0
 11
387.349648
 21
257.242
 31
0.0
  0
LINE
  5
1CA
330
18A
100
AcDbEntity
  8
LC-004-005-----0
 62
     7
370
    25
100
AcDbLine
 10
382.521221
 20
255.242
 30
0.0
 11
384.521221
 21
257.242
 31
0.0
  0
LINE
  5
1CB
330
18A
100
AcDbEntity
  8
LC-004-005-----0
 62
     7
370
    25
100
AcDbLine
 10
379.692793
 20
255.242
 30
0.0
 11
381.692793
 21
257.242
 31
0.0
  0
LINE
  5
1CC
330
18A
100
AcDbEntity
  8
LC-004-005-----0
 62
     7
370
    25
100
AcDbLine
 10
376.864366
 20
255.242
 30
0.0
 11
378.864366
 21
257.242
 31
0.0
  0
LINE
  5
1CD
330
18A
100
AcDbEntity
  8
LC-004-005-----0
 62
     7
370
    25
100
AcDbLine
 10
374.035939
 20
255.242
 30
0.0
 11
376.035939
 21
257.242
 31
0.0
  0
LINE
  5
1CE
330
18A
100
AcDbEntity
  8
LC-004-005-----0
 62
     7
370
    25
100
AcDbLine
 10
371.207512
 20
255.242
 30
0.0
 11
373.207512
 21
257.242
 31
0.0
  0
LINE
  5
1CF
330
18A
100
AcDbEntity
  8
LC-004-005-----0
 62
     7
370
    25
100
AcDbLine
 10
368.379085
 20
255.242
 30
0.0
 11
370.379085
 21
257.242
 31
0.0
  0
LINE
  5
1D0
330
18A
100
AcDbEntity
  8
LC-004-005-----0
 62
     7
370
    25
100
AcDbLine
 10
365.550658
 20
255.242
 30
0.0
 11
367.550658
 21
257.242
 31
0.0
  0
LINE
  5
1D1
330
18A
100
AcDbEntity
  8
LC-004-005-----0
 62
     7
370
    25
100
AcDbLine
 10
362.722231
 20
255.242
 30
0.0
 11
364.722231
 21
257.242
 31
0.0
  0
LINE
  5
1D2
330
18A
100
AcDbEntity
  8
LC-004-005-----0
 62
     7
370
    25
100
AcDbLine
 10
359.893804
 20
255.242
 30
0.0
 11
361.893804
 21
257.242
 31
0.0
  0
LINE
  5
1D3
330
18A
100
AcDbEntity
  8
LC-004-005-----0
 62
     7
370
    25
100
AcDbLine
 10
357.065376
 20
255.242
 30
0.0
 11
359.065376
 21
257.242
 31
0.0
  0
LINE
  5
1D4
330
18A
100
AcDbEntity
  8
LC-004-005-----0
 62
     7
370
    25
100
AcDbLine
 10
354.236949
 20
255.242
 30
0.0
 11
356.236949
 21
257.242
 31
0.0
  0
LINE
  5
1D5
330
18A
100
AcDbEntity
  8
LC-004-005-----0
 62
     7
370
    25
100
AcDbLine
 10
351.408522
 20
255.242
 30
0.0
 11
353.408522
 21
257.242
 31
0.0
  0
LINE
  5
1D6
330
18A
100
AcDbEntity
  8
LC-004-005-----0
 62
     7
370
    25
100
AcDbLine
 10
348.580095
 20
255.242
 30
0.0
 11
350.580095
 21
257.242
 31
0.0
  0
LINE
  5
1D7
330
18A
100
AcDbEntity
  8
LC-004-005-----0
 62
     7
370
    25
100
AcDbLine
 10
345.751668
 20
255.242
 30
0.0
 11
347.751668
 21
257.242
 31
0.0
  0
LINE
  5
1D8
330
18A
100
AcDbEntity
  8
LC-004-005-----0
 62
     7
370
    25
100
AcDbLine
 10
342.923241
 20
255.242
 30
0.0
 11
344.923241
 21
257.242
 31
0.0
  0
LINE
  5
1D9
330
18A
100
AcDbEntity
  8
LC-004-005-----0
 62
     7
370
    25
100
AcDbLine
 10
340.094814
 20
255.242
 30
0.0
 11
342.094814
 21
257.242
 31
0.0
  0
LINE
  5
1DA
330
18A
100
AcDbEntity
  8
LC-004-005-----0
 62
     7
370
    25
100
AcDbLine
 10
337.266387
 20
255.242
 30
0.0
 11
339.266387
 21
257.242
 31
0.0
  0
LINE
  5
1DB
330
18A
100
AcDbEntity
  8
LC-004-005-----0
 62
     7
370
    25
100
AcDbLine
 10
307.24873
 20
228.05277
 30
0.0
 11
308.02406
 21
228.8281
 31
0.0
  0
LINE
  5
1DC
330
18A
100
AcDbEntity
  8
LC-004-005-----0
 62
     7
370
    25
100
AcDbLine
 10
334.437959
 20
255.242
 30
0.0
 11
336.437959
 21
257.242
 31
0.0
  0
LINE
  5
1DD
330
18A
100
AcDbEntity
  8
LC-004-005-----0
 62
     7
370
    25
100
AcDbLine
 10
306.02406
 20
229.656528
 30
0.0
 11
308.02406
 21
231.656528
 31
0.0
  0
LINE
  5
1DE
330
18A
100
AcDbEntity
  8
LC-004-005-----0
 62
     7
370
    25
100
AcDbLine
 10
331.609532
 20
255.242
 30
0.0
 11
333.609532
 21
257.242
 31
0.0
  0
LINE
  5
1DF
330
18A
100
AcDbEntity
  8
LC-004-005-----0
 62
     7
370
    25
100
AcDbLine
 10
306.02406
 20
232.484955
 30
0.0
 11
308.02406
 21
234.484955
 31
0.0
  0
LINE
  5
1E0
330
18A
100
AcDbEntity
  8
LC-004-005-----0
 62
     7
370
    25
100
AcDbLine
 10
328.781105
 20
255.242
 30
0.0
 11
330.781105
 21
257.242
 31
0.0
  0
LINE
  5
1E1
330
18A
100
AcDbEntity
  8
LC-004-005-----0
 62
     7
370
    25
100
AcDbLine
 10
306.02406
 20
235.313382
 30
0.0
 11
308.02406
 21
237.313382
 31
0.0
  0
LINE
  5
1E2
330
18A
100
AcDbEntity
  8
LC-004-005-----0
 62
     7
370
    25
100
AcDbLine
 10
325.952678
 20
255.242
 30
0.0
 11
327.952678
 21
257.242
 31
0.0
  0
LINE
  5
1E3
330
18A
100
AcDbEntity
  8
LC-004-005-----0
 62
     7
370
    25
100
AcDbLine
 10
306.02406
 20
238.141809
 30
0.0
 11
308.02406
 21
240.141809
 31
0.0
  0
LINE
  5
1E4
330
18A
100
AcDbEntity
  8
LC-004-005-----0
 62
     7
370
    25
100
AcDbLine
 10
323.124251
 20
255.242
 30
0.0
 11
325.124251
 21
257.242
 31
0.0
  0
LINE
  5
1E5
330
18A
100
AcDbEntity
  8
LC-004-005-----0
 62
     7
370
    25
100
AcDbLine
 10
306.02406
 20
240.970236
 30
0.0
 11
308.02406
 21
242.970236
 31
0.0
  0
LINE
  5
1E6
330
18A
100
AcDbEntity
  8
LC-004-005-----0
 62
     7
370
    25
100
AcDbLine
 10
320.295824
 20
255.242
 30
0.0
 11
322.295824
 21
257.242
 31
0.0
  0
LINE
  5
1E7
330
18A
100
AcDbEntity
  8
LC-004-005-----0
 62
     7
370
    25
100
AcDbLine
 10
306.02406
 20
243.798663
 30
0.0
 11
308.02406
 21
245.798663
 31
0.0
  0
LINE
  5
1E8
330
18A
100
AcDbEntity
  8
LC-004-005-----0
 62
     7
370
    25
100
AcDbLine
 10
317.467397
 20
255.242
 30
0.0
 11
319.467397
 21
257.242
 31
0.0
  0
LINE
  5
1E9
330
18A
100
AcDbEntity
  8
LC-004-005-----0
 62
     7
370
    25
100
AcDbLine
 10
306.02406
 20
246.62709
 30
0.0
 11
308.02406
 21
248.62709
 31
0.0
  0
LINE
  5
1EA
330
18A
100
AcDbEntity
  8
LC-004-005-----0
 62
     7
370
    25
100
AcDbLine
 10
314.63897
 20
255.242
 30
0.0
 11
316.63897
 21
257.242
 31
0.0
  0
LINE
  5
1EB
330
18A
100
AcDbEntity
  8
LC-004-005-----0
 62
     7
370
    25
100
AcDbLine
 10
306.02406
 20
249.455517
 30
0.0
 11
308.02406
 21
251.455517
 31
0.0
  0
LINE
  5
1EC
330
18A
100
AcDbEntity
  8
LC-004-005-----0
 62
     7
370
    25
100
AcDbLine
 10
311.810542
 20
255.242
 30
0.0
 11
313.810542
 21
257.242
 31
0.0
  0
LINE
  5
1ED
330
18A
100
AcDbEntity
  8
LC-004-005-----0
 62
     7
370
    25
100
AcDbLine
 10
306.02406
 20
252.283945
 30
0.0
 11
308.02406
 21
254.283945
 31
0.0
  0
LINE
  5
1EE
330
18A
100
AcDbEntity
  8
LC-004-005-----0
 62
     7
370
    25
100
AcDbLine
 10
308.982115
 20
255.242
 30
0.0
 11
310.982115
 21
257.242
 31
0.0
  0
LINE
  5
1EF
330
18A
100
AcDbEntity
  8
LC-004-005-----0
 62
     7
370
    25
100
AcDbLine
 10
306.02406
 20
255.112372
 30
0.0
 11
308.153688
 21
257.242
 31
0.0
  0
LINE
  5
1F0
330
18A
100
AcDbEntity
  8
LC-004-005-----0
 62
     7
370
    25
100
AcDbLine
 10
306.02406
 20
257.940799
 30
0.0
 11
308.02406
 21
259.940799
 31
0.0
  0
LINE
  5
1F1
330
18A
100
AcDbEntity
  8
LC-004-005-----0
 62
     7
370
    25
100
AcDbLine
 10
306.02406
 20
260.769226
 30
0.0
 11
308.02406
 21
262.769226
 31
0.0
  0
LINE
  5
1F2
330
18A
100
AcDbEntity
  8
LC-004-005-----0
 62
     7
370
    25
100
AcDbLine
 10
306.02406
 20
263.597653
 30
0.0
 11
307.668407
 21
265.242
 31
0.0
  0
ENDBLK
  5
18C
330
18A
100
AcDbEntity
  8
0
100
AcDbBlockEnd
  0
BLOCK
  5
1F5
330
1F4
100
AcDbEntity
  8
0
100
AcDbBlockBegin
  2
*X1112
 70
     1
 71
     0
 10
0.0
 20
0.0
 30
0.0
  3
*X1112
  1

  4
*X11
  0
LINE
  5
1F7
330
1F4
100
AcDbEntity
  8
LC-004-005-----0
 62
     7
370
    25
100
AcDbLine
 10
556.285723
 20
293.242
 30
0.0
 11
557.385127
 21
294.341405
 31
0.0
  0
LINE
  5
1F8
330
1F4
100
AcDbEntity
  8
LC-004-005-----0
 62
     7
370
    25
100
AcDbLine
 10
553.457295
 20
293.242
 30
0.0
 11
555.154417
 21
294.939122
 31
0.0
  0
LINE
  5
1F9
330
1F4
100
AcDbEntity
  8
LC-004-005-----0
 62
     7
370
    25
100
AcDbLine
 10
550.628868
 20
293.242
 30
0.0
 11
552.628868
 21
295.242
 31
0.0
  0
LINE
  5
1FA
330
1F4
100
AcDbEntity
  8
LC-004-005-----0
 62
     7
370
    25
100
AcDbLine
 10
547.800441
 20
293.242
 30
0.0
 11
549.800441
 21
295.242
 31
0.0
  0
LINE
  5
1FB
330
1F4
100
AcDbEntity
  8
LC-004-005-----0
 62
     7
370
    25
100
AcDbLine
 10
544.972014
 20
293.242
 30
0.0
 11
546.972014
 21
295.242
 31
0.0
  0
LINE
  5
1FC
330
1F4
100
AcDbEntity
  8
LC-004-005-----0
 62
     7
370
    25
100
AcDbLine
 10
542.143587
 20
293.242
 30
0.0
 11
544.143587
 21
295.242
 31
0.0
  0
LINE
  5
1FD
330
1F4
100
AcDbEntity
  8
LC-004-005-----0
 62
     7
370
    25
100
AcDbLine
 10
539.31516
 20
293.242
 30
0.0
 11
541.31516
 21
295.242
 31
0.0
  0
LINE
  5
1FE
330
1F4
100
AcDbEntity
  8
LC-004-005-----0
 62
     7
370
    25
100
AcDbLine
 10
536.486733
 20
293.242
 30
0.0
 11
538.486733
 21
295.242
 31
0.0
  0
LINE
  5
1FF
330
1F4
100
AcDbEntity
  8
LC-004-005-----0
 62
     7
370
    25
100
AcDbLine
 10
533.658306
 20
293.242
 30
0.0
 11
535.658306
 21
295.242
 31
0.0
  0
LINE
  5
200
330
1F4
100
AcDbEntity
  8
LC-004-005-----0
 62
     7
370
    25
100
AcDbLine
 10
530.829878
 20
293.242
 30
0.0
 11
532.829878
 21
295.242
 31
0.0
  0
LINE
  5
201
330
1F4
100
AcDbEntity
  8
LC-004-005-----0
 62
     7
370
    25
100
AcDbLine
 10
528.001451
 20
293.242
 30
0.0
 11
530.001451
 21
295.242
 31
0.0
  0
LINE
  5
202
330
1F4
100
AcDbEntity
  8
LC-004-005-----0
 62
     7
370
    25
100
AcDbLine
 10
525.173024
 20
293.242
 30
0.0
 11
527.173024
 21
295.242
 31
0.0
  0
LINE
  5
203
330
1F4
100
AcDbEntity
  8
LC-004-005-----0
 62
     7
370
    25
100
AcDbLine
 10
522.344597
 20
293.242
 30
0.0
 11
524.344597
 21
295.242
 31
0.0
  0
LINE
  5
204
330
1F4
100
AcDbEntity
  8
LC-004-005-----0
 62
     7
370
    25
100
AcDbLine
 10
519.51617
 20
293.242
 30
0.0
 11
521.51617
 21
295.242
 31
0.0
  0
LINE
  5
205
330
1F4
100
AcDbEntity
  8
LC-004-005-----0
 62
     7
370
    25
100
AcDbLine
 10
516.687743
 20
293.242
 30
0.0
 11
518.687743
 21
295.242
 31
0.0
  0
LINE
  5
206
330
1F4
100
AcDbEntity
  8
LC-004-005-----0
 62
     7
370
    25
100
AcDbLine
 10
513.859316
 20
293.242
 30
0.0
 11
515.859316
 21
295.242
 31
0.0
  0
LINE
  5
207
330
1F4
100
AcDbEntity
  8
LC-004-005-----0
 62
     7
370
    25
100
AcDbLine
 10
511.030889
 20
293.242
 30
0.0
 11
513.030889
 21
295.242
 31
0.0
  0
LINE
  5
208
330
1F4
100
AcDbEntity
  8
LC-004-005-----0
 62
     7
370
    25
100
AcDbLine
 10
508.202461
 20
293.242
 30
0.0
 11
510.202461
 21
295.242
 31
0.0
  0
LINE
  5
209
330
1F4
100
AcDbEntity
  8
LC-004-005-----0
 62
     7
370
    25
100
AcDbLine
 10
505.374034
 20
293.242
 30
0.0
 11
507.374034
 21
295.242
 31
0.0
  0
LINE
  5
20A
330
1F4
100
AcDbEntity
  8
LC-004-005-----0
 62
     7
370
    25
100
AcDbLine
 10
502.545607
 20
293.242
 30
0.0
 11
504.545607
 21
295.242
 31
0.0
  0
LINE
  5
20B
330
1F4
100
AcDbEntity
  8
LC-004-005-----0
 62
     7
370
    25
100
AcDbLine
 10
499.71718
 20
293.242
 30
0.0
 11
501.71718
 21
295.242
 31
0.0
  0
LINE
  5
20C
330
1F4
100
AcDbEntity
  8
LC-004-005-----0
 62
     7
370
    25
100
AcDbLine
 10
496.888753
 20
293.242
 30
0.0
 11
498.888753
 21
295.242
 31
0.0
  0
LINE
  5
20D
330
1F4
100
AcDbEntity
  8
LC-004-005-----0
 62
     7
370
    25
100
AcDbLine
 10
494.060326
 20
293.242
 30
0.0
 11
496.060326
 21
295.242
 31
0.0
  0
LINE
  5
20E
330
1F4
100
AcDbEntity
  8
LC-004-005-----0
 62
     7
370
    25
100
AcDbLine
 10
491.231899
 20
293.242
 30
0.0
 11
493.231899
 21
295.242
 31
0.0
  0
LINE
  5
20F
330
1F4
100
AcDbEntity
  8
LC-004-005-----0
 62
     7
370
    25
100
AcDbLine
 10
488.403472
 20
293.242
 30
0.0
 11
490.403472
 21
295.242
 31
0.0
  0
LINE
  5
210
330
1F4
100
AcDbEntity
  8
LC-004-005-----0
 62
     7
370
    25
100
AcDbLine
 10
485.575044
 20
293.242
 30
0.0
 11
487.575044
 21
295.242
 31
0.0
  0
LINE
  5
211
330
1F4
100
AcDbEntity
  8
LC-004-005-----0
 62
     7
370
    25
100
AcDbLine
 10
482.746617
 20
293.242
 30
0.0
 11
484.746617
 21
295.242
 31
0.0
  0
LINE
  5
212
330
1F4
100
AcDbEntity
  8
LC-004-005-----0
 62
     7
370
    25
100
AcDbLine
 10
479.91819
 20
293.242
 30
0.0
 11
481.91819
 21
295.242
 31
0.0
  0
LINE
  5
213
330
1F4
100
AcDbEntity
  8
LC-004-005-----0
 62
     7
370
    25
100
AcDbLine
 10
477.089763
 20
293.242
 30
0.0
 11
479.089763
 21
295.242
 31
0.0
  0
LINE
  5
214
330
1F4
100
AcDbEntity
  8
LC-004-005-----0
 62
     7
370
    25
100
AcDbLine
 10
474.261336
 20
293.242
 30
0.0
 11
476.261336
 21
295.242
 31
0.0
  0
LINE
  5
215
330
1F4
100
AcDbEntity
  8
LC-004-005-----0
 62
     7
370
    25
100
AcDbLine
 10
471.432909
 20
293.242
 30
0.0
 11
473.432909
 21
295.242
 31
0.0
  0
LINE
  5
216
330
1F4
100
AcDbEntity
  8
LC-004-005-----0
 62
     7
370
    25
100
AcDbLine
 10
468.604482
 20
293.242
 30
0.0
 11
470.604482
 21
295.242
 31
0.0
  0
LINE
  5
217
330
1F4
100
AcDbEntity
  8
LC-004-005-----0
 62
     7
370
    25
100
AcDbLine
 10
465.776055
 20
293.242
 30
0.0
 11
467.776055
 21
295.242
 31
0.0
  0
LINE
  5
218
330
1F4
100
AcDbEntity
  8
LC-004-005-----0
 62
     7
370
    25
100
AcDbLine
 10
462.947627
 20
293.242
 30
0.0
 11
464.947627
 21
295.242
 31
0.0
  0
LINE
  5
219
330
1F4
100
AcDbEntity
  8
LC-004-005-----0
 62
     7
370
    25
100
AcDbLine
 10
460.1192
 20
293.242
 30
0.0
 11
462.1192
 21
295.242
 31
0.0
  0
LINE
  5
21A
330
1F4
100
AcDbEntity
  8
LC-004-005-----0
 62
     7
370
    25
100
AcDbLine
 10
457.290773
 20
293.242
 30
0.0
 11
459.290773
 21
295.242
 31
0.0
  0
LINE
  5
21B
330
1F4
100
AcDbEntity
  8
LC-004-005-----0
 62
     7
370
    25
100
AcDbLine
 10
454.462346
 20
293.242
 30
0.0
 11
456.462346
 21
295.242
 31
0.0
  0
LINE
  5
21C
330
1F4
100
AcDbEntity
  8
LC-004-005-----0
 62
     7
370
    25
100
AcDbLine
 10
451.633919
 20
293.242
 30
0.0
 11
453.633919
 21
295.242
 31
0.0
  0
LINE
  5
21D
330
1F4
100
AcDbEntity
  8
LC-004-005-----0
 62
     7
370
    25
100
AcDbLine
 10
448.805492
 20
293.242
 30
0.0
 11
450.805492
 21
295.242
 31
0.0
  0
LINE
  5
21E
330
1F4
100
AcDbEntity
  8
LC-004-005-----0
 62
     7
370
    25
100
AcDbLine
 10
445.977065
 20
293.242
 30
0.0
 11
447.977065
 21
295.242
 31
0.0
  0
LINE
  5
21F
330
1F4
100
AcDbEntity
  8
LC-004-005-----0
 62
     7
370
    25
100
AcDbLine
 10
443.148638
 20
293.242
 30
0.0
 11
445.148638
 21
295.242
 31
0.0
  0
LINE
  5
220
330
1F4
100
AcDbEntity
  8
LC-004-005-----0
 62
     7
370
    25
100
AcDbLine
 10
440.32021
 20
293.242
 30
0.0
 11
442.32021
 21
295.242
 31
0.0
  0
LINE
  5
221
330
1F4
100
AcDbEntity
  8
LC-004-005-----0
 62
     7
370
    25
100
AcDbLine
 10
437.491783
 20
293.242
 30
0.0
 11
439.491783
 21
295.242
 31
0.0
  0
LINE
  5
222
330
1F4
100
AcDbEntity
  8
LC-004-005-----0
 62
     7
370
    25
100
AcDbLine
 10
434.663356
 20
293.242
 30
0.0
 11
436.663356
 21
295.242
 31
0.0
  0
LINE
  5
223
330
1F4
100
AcDbEntity
  8
LC-004-005-----0
 62
     7
370
    25
100
AcDbLine
 10
431.834929
 20
293.242
 30
0.0
 11
433.834929
 21
295.242
 31
0.0
  0
LINE
  5
224
330
1F4
100
AcDbEntity
  8
LC-004-005-----0
 62
     7
370
    25
100
AcDbLine
 10
429.006502
 20
293.242
 30
0.0
 11
431.006502
 21
295.242
 31
0.0
  0
LINE
  5
225
330
1F4
100
AcDbEntity
  8
LC-004-005-----0
 62
     7
370
    25
100
AcDbLine
 10
426.178075
 20
293.242
 30
0.0
 11
428.178075
 21
295.242
 31
0.0
  0
LINE
  5
226
330
1F4
100
AcDbEntity
  8
LC-004-005-----0
 62
     7
370
    25
100
AcDbLine
 10
423.349648
 20
293.242
 30
0.0
 11
425.349648
 21
295.242
 31
0.0
  0
LINE
  5
227
330
1F4
100
AcDbEntity
  8
LC-004-005-----0
 62
     7
370
    25
100
AcDbLine
 10
420.521221
 20
293.242
 30
0.0
 11
422.521221
 21
295.242
 31
0.0
  0
LINE
  5
228
330
1F4
100
AcDbEntity
  8
LC-004-005-----0
 62
     7
370
    25
100
AcDbLine
 10
417.692793
 20
293.242
 30
0.0
 11
419.692793
 21
295.242
 31
0.0
  0
LINE
  5
229
330
1F4
100
AcDbEntity
  8
LC-004-005-----0
 62
     7
370
    25
100
AcDbLine
 10
414.864366
 20
293.242
 30
0.0
 11
416.864366
 21
295.242
 31
0.0
  0
LINE
  5
22A
330
1F4
100
AcDbEntity
  8
LC-004-005-----0
 62
     7
370
    25
100
AcDbLine
 10
412.035939
 20
293.242
 30
0.0
 11
414.035939
 21
295.242
 31
0.0
  0
LINE
  5
22B
330
1F4
100
AcDbEntity
  8
LC-004-005-----0
 62
     7
370
    25
100
AcDbLine
 10
409.207512
 20
293.242
 30
0.0
 11
411.207512
 21
295.242
 31
0.0
  0
LINE
  5
22C
330
1F4
100
AcDbEntity
  8
LC-004-005-----0
 62
     7
370
    25
100
AcDbLine
 10
406.379085
 20
293.242
 30
0.0
 11
408.379085
 21
295.242
 31
0.0
  0
LINE
  5
22D
330
1F4
100
AcDbEntity
  8
LC-004-005-----0
 62
     7
370
    25
100
AcDbLine
 10
403.550658
 20
293.242
 30
0.0
 11
405.550658
 21
295.242
 31
0.0
  0
LINE
  5
22E
330
1F4
100
AcDbEntity
  8
LC-004-005-----0
 62
     7
370
    25
100
AcDbLine
 10
400.722231
 20
293.242
 30
0.0
 11
402.722231
 21
295.242
 31
0.0
  0
LINE
  5
22F
330
1F4
100
AcDbEntity
  8
LC-004-005-----0
 62
     7
370
    25
100
AcDbLine
 10
397.893804
 20
293.242
 30
0.0
 11
399.893804
 21
295.242
 31
0.0
  0
LINE
  5
230
330
1F4
100
AcDbEntity
  8
LC-004-005-----0
 62
     7
370
    25
100
AcDbLine
 10
395.065376
 20
293.242
 30
0.0
 11
397.065376
 21
295.242
 31
0.0
  0
LINE
  5
231
330
1F4
100
AcDbEntity
  8
LC-004-005-----0
 62
     7
370
    25
100
AcDbLine
 10
392.236949
 20
293.242
 30
0.0
 11
394.236949
 21
295.242
 31
0.0
  0
LINE
  5
232
330
1F4
100
AcDbEntity
  8
LC-004-005-----0
 62
     7
370
    25
100
AcDbLine
 10
389.408522
 20
293.242
 30
0.0
 11
391.408522
 21
295.242
 31
0.0
  0
LINE
  5
233
330
1F4
100
AcDbEntity
  8
LC-004-005-----0
 62
     7
370
    25
100
AcDbLine
 10
386.580095
 20
293.242
 30
0.0
 11
388.580095
 21
295.242
 31
0.0
  0
LINE
  5
234
330
1F4
100
AcDbEntity
  8
LC-004-005-----0
 62
     7
370
    25
100
AcDbLine
 10
383.751668
 20
293.242
 30
0.0
 11
385.751668
 21
295.242
 31
0.0
  0
LINE
  5
235
330
1F4
100
AcDbEntity
  8
LC-004-005-----0
 62
     7
370
    25
100
AcDbLine
 10
380.923241
 20
293.242
 30
0.0
 11
382.923241
 21
295.242
 31
0.0
  0
LINE
  5
236
330
1F4
100
AcDbEntity
  8
LC-004-005-----0
 62
     7
370
    25
100
AcDbLine
 10
378.094814
 20
293.242
 30
0.0
 11
380.094814
 21
295.242
 31
0.0
  0
LINE
  5
237
330
1F4
100
AcDbEntity
  8
LC-004-005-----0
 62
     7
370
    25
100
AcDbLine
 10
375.266387
 20
293.242
 30
0.0
 11
377.266387
 21
295.242
 31
0.0
  0
LINE
  5
238
330
1F4
100
AcDbEntity
  8
LC-004-005-----0
 62
     7
370
    25
100
AcDbLine
 10
372.437959
 20
293.242
 30
0.0
 11
374.437959
 21
295.242
 31
0.0
  0
LINE
  5
239
330
1F4
100
AcDbEntity
  8
LC-004-005-----0
 62
     7
370
    25
100
AcDbLine
 10
369.609532
 20
293.242
 30
0.0
 11
371.609532
 21
295.242
 31
0.0
  0
LINE
  5
23A
330
1F4
100
AcDbEntity
  8
LC-004-005-----0
 62
     7
370
    25
100
AcDbLine
 10
366.781105
 20
293.242
 30
0.0
 11
368.781105
 21
295.242
 31
0.0
  0
LINE
  5
23B
330
1F4
100
AcDbEntity
  8
LC-004-005-----0
 62
     7
370
    25
100
AcDbLine
 10
363.952678
 20
293.242
 30
0.0
 11
365.952678
 21
295.242
 31
0.0
  0
LINE
  5
23C
330
1F4
100
AcDbEntity
  8
LC-004-005-----0
 62
     7
370
    25
100
AcDbLine
 10
361.124251
 20
293.242
 30
0.0
 11
363.124251
 21
295.242
 31
0.0
  0
LINE
  5
23D
330
1F4
100
AcDbEntity
  8
LC-004-005-----0
 62
     7
370
    25
100
AcDbLine
 10
358.295824
 20
293.242
 30
0.0
 11
360.295824
 21
295.242
 31
0.0
  0
LINE
  5
23E
330
1F4
100
AcDbEntity
  8
LC-004-005-----0
 62
     7
370
    25
100
AcDbLine
 10
355.467397
 20
293.242
 30
0.0
 11
357.467397
 21
295.242
 31
0.0
  0
LINE
  5
23F
330
1F4
100
AcDbEntity
  8
LC-004-005-----0
 62
     7
370
    25
100
AcDbLine
 10
352.63897
 20
293.242
 30
0.0
 11
354.63897
 21
295.242
 31
0.0
  0
LINE
  5
240
330
1F4
100
AcDbEntity
  8
LC-004-005-----0
 62
     7
370
    25
100
AcDbLine
 10
349.810542
 20
293.242
 30
0.0
 11
351.810542
 21
295.242
 31
0.0
  0
LINE
  5
241
330
1F4
100
AcDbEntity
  8
LC-004-005-----0
 62
     7
370
    25
100
AcDbLine
 10
346.982115
 20
293.242
 30
0.0
 11
348.982115
 21
295.242
 31
0.0
  0
LINE
  5
242
330
1F4
100
AcDbEntity
  8
LC-004-005-----0
 62
     7
370
    25
100
AcDbLine
 10
344.153688
 20
293.242
 30
0.0
 11
346.153688
 21
295.242
 31
0.0
  0
LINE
  5
243
330
1F4
100
AcDbEntity
  8
LC-004-005-----0
 62
     7
370
    25
100
AcDbLine
 10
341.325261
 20
293.242
 30
0.0
 11
343.325261
 21
295.242
 31
0.0
  0
LINE
  5
244
330
1F4
100
AcDbEntity
  8
LC-004-005-----0
 62
     7
370
    25
100
AcDbLine
 10
273.307604
 20
228.05277
 30
0.0
 11
275.02406
 21
229.769226
 31
0.0
  0
LINE
  5
245
330
1F4
100
AcDbEntity
  8
LC-004-005-----0
 62
     7
370
    25
100
AcDbLine
 10
338.496834
 20
293.242
 30
0.0
 11
340.496834
 21
295.242
 31
0.0
  0
LINE
  5
246
330
1F4
100
AcDbEntity
  8
LC-004-005-----0
 62
     7
370
    25
100
AcDbLine
 10
273.02406
 20
230.597653
 30
0.0
 11
275.02406
 21
232.597653
 31
0.0
  0
LINE
  5
247
330
1F4
100
AcDbEntity
  8
LC-004-005-----0
 62
     7
370
    25
100
AcDbLine
 10
335.668407
 20
293.242
 30
0.0
 11
337.668407
 21
295.242
 31
0.0
  0
LINE
  5
248
330
1F4
100
AcDbEntity
  8
LC-004-005-----0
 62
     7
370
    25
100
AcDbLine
 10
273.02406
 20
233.42608
 30
0.0
 11
275.02406
 21
235.42608
 31
0.0
  0
LINE
  5
249
330
1F4
100
AcDbEntity
  8
LC-004-005-----0
 62
     7
370
    25
100
AcDbLine
 10
332.83998
 20
293.242
 30
0.0
 11
334.83998
 21
295.242
 31
0.0
  0
LINE
  5
24A
330
1F4
100
AcDbEntity
  8
LC-004-005-----0
 62
     7
370
    25
100
AcDbLine
 10
273.02406
 20
236.254507
 30
0.0
 11
275.02406
 21
238.254507
 31
0.0
  0
LINE
  5
24B
330
1F4
100
AcDbEntity
  8
LC-004-005-----0
 62
     7
370
    25
100
AcDbLine
 10
330.011553
 20
293.242
 30
0.0
 11
332.011553
 21
295.242
 31
0.0
  0
LINE
  5
24C
330
1F4
100
AcDbEntity
  8
LC-004-005-----0
 62
     7
370
    25
100
AcDbLine
 10
273.02406
 20
239.082934
 30
0.0
 11
275.02406
 21
241.082934
 31
0.0
  0
LINE
  5
24D
330
1F4
100
AcDbEntity
  8
LC-004-005-----0
 62
     7
370
    25
100
AcDbLine
 10
327.183125
 20
293.242
 30
0.0
 11
329.183125
 21
295.242
 31
0.0
  0
LINE
  5
24E
330
1F4
100
AcDbEntity
  8
LC-004-005-----0
 62
     7
370
    25
100
AcDbLine
 10
273.02406
 20
241.911362
 30
0.0
 11
275.02406
 21
243.911362
 31
0.0
  0
LINE
  5
24F
330
1F4
100
AcDbEntity
  8
LC-004-005-----0
 62
     7
370
    25
100
AcDbLine
 10
324.354698
 20
293.242
 30
0.0
 11
326.354698
 21
295.242
 31
0.0
  0
LINE
  5
250
330
1F4
100
AcDbEntity
  8
LC-004-005-----0
 62
     7
370
    25
100
AcDbLine
 10
273.02406
 20
244.739789
 30
0.0
 11
275.02406
 21
246.739789
 31
0.0
  0
LINE
  5
251
330
1F4
100
AcDbEntity
  8
LC-004-005-----0
 62
     7
370
    25
100
AcDbLine
 10
321.526271
 20
293.242
 30
0.0
 11
323.526271
 21
295.242
 31
0.0
  0
LINE
  5
252
330
1F4
100
AcDbEntity
  8
LC-004-005-----0
 62
     7
370
    25
100
AcDbLine
 10
273.02406
 20
247.568216
 30
0.0
 11
275.02406
 21
249.568216
 31
0.0
  0
LINE
  5
253
330
1F4
100
AcDbEntity
  8
LC-004-005-----0
 62
     7
370
    25
100
AcDbLine
 10
318.697844
 20
293.242
 30
0.0
 11
320.697844
 21
295.242
 31
0.0
  0
LINE
  5
254
330
1F4
100
AcDbEntity
  8
LC-004-005-----0
 62
     7
370
    25
100
AcDbLine
 10
273.02406
 20
250.396643
 30
0.0
 11
275.02406
 21
252.396643
 31
0.0
  0
LINE
  5
255
330
1F4
100
AcDbEntity
  8
LC-004-005-----0
 62
     7
370
    25
100
AcDbLine
 10
315.869417
 20
293.242
 30
0.0
 11
317.869417
 21
295.242
 31
0.0
  0
LINE
  5
256
330
1F4
100
AcDbEntity
  8
LC-004-005-----0
 62
     7
370
    25
100
AcDbLine
 10
273.02406
 20
253.22507
 30
0.0
 11
275.02406
 21
255.22507
 31
0.0
  0
LINE
  5
257
330
1F4
100
AcDbEntity
  8
LC-004-005-----0
 62
     7
370
    25
100
AcDbLine
 10
313.04099
 20
293.242
 30
0.0
 11
315.04099
 21
295.242
 31
0.0
  0
LINE
  5
258
330
1F4
100
AcDbEntity
  8
LC-004-005-----0
 62
     7
370
    25
100
AcDbLine
 10
273.02406
 20
256.053497
 30
0.0
 11
275.02406
 21
258.053497
 31
0.0
  0
LINE
  5
259
330
1F4
100
AcDbEntity
  8
LC-004-005-----0
 62
     7
370
    25
100
AcDbLine
 10
310.212563
 20
293.242
 30
0.0
 11
312.212563
 21
295.242
 31
0.0
  0
LINE
  5
25A
330
1F4
100
AcDbEntity
  8
LC-004-005-----0
 62
     7
370
    25
100
AcDbLine
 10
273.02406
 20
258.881924
 30
0.0
 11
275.030389
 21
260.888253
 31
0.0
  0
LINE
  5
25B
330
1F4
100
AcDbEntity
  8
LC-004-005-----0
 62
     7
370
    25
100
AcDbLine
 10
307.377807
 20
293.235671
 30
0.0
 11
309.384136
 21
295.242
 31
0.0
  0
LINE
  5
25C
330
1F4
100
AcDbEntity
  8
LC-004-005-----0
 62
     7
370
    25
100
AcDbLine
 10
273.05624
 20
261.742532
 30
0.0
 11
275.229155
 21
263.915447
 31
0.0
  0
LINE
  5
25D
330
1F4
100
AcDbEntity
  8
LC-004-005-----0
 62
     7
370
    25
100
AcDbLine
 10
304.350613
 20
293.036905
 30
0.0
 11
306.523528
 21
295.20982
 31
0.0
  0
LINE
  5
25E
330
1F4
100
AcDbEntity
  8
LC-004-005-----0
 62
     7
370
    25
100
AcDbLine
 10
273.327721
 20
264.842439
 30
0.0
 11
275.788344
 21
267.303062
 31
0.0
  0
LINE
  5
25F
330
1F4
100
AcDbEntity
  8
LC-004-005-----0
 62
     7
370
    25
100
AcDbLine
 10
300.962998
 20
292.477716
 30
0.0
 11
303.423621
 21
294.938339
 31
0.0
  0
LINE
  5
260
330
1F4
100
AcDbEntity
  8
LC-004-005-----0
 62
     7
370
    25
100
AcDbLine
 10
273.966583
 20
268.309728
 30
0.0
 11
276.918213
 21
271.261358
 31
0.0
  0
LINE
  5
261
330
1F4
100
AcDbEntity
  8
LC-004-005-----0
 62
     7
370
    25
100
AcDbLine
 10
297.004702
 20
291.347847
 30
0.0
 11
299.956332
 21
294.299477
 31
0.0
  0
LINE
  5
262
330
1F4
100
AcDbEntity
  8
LC-004-005-----0
 62
     7
370
    25
100
AcDbLine
 10
275.189023
 20
272.360596
 30
0.0
 11
279.278853
 21
276.450426
 31
0.0
  0
LINE
  5
263
330
1F4
100
AcDbEntity
  8
LC-004-005-----0
 62
     7
370
    25
100
AcDbLine
 10
291.815634
 20
288.987207
 30
0.0
 11
295.905464
 21
293.077037
 31
0.0
  0
LINE
  5
264
330
1F4
100
AcDbEntity
  8
LC-004-005-----0
 62
     7
370
    25
100
AcDbLine
 10
277.67403
 20
277.67403
 30
0.0
 11
290.59203
 21
290.59203
 31
0.0
  0
ENDBLK
  5
1F6
330
1F4
100
AcDbEntity
  8
0
100
AcDbBlockEnd
  0
BLOCK
  5
2A6
330
2A5
100
AcDbEntity
  8
0
100
AcDbBlockBegin
  2
*X1213
 70
     1
 71
     0
 10
0.0
 20
0.0
 30
0.0
  3
*X1213
  1

  4
*X12
  0
LINE
  5
2A8
330
2A5
100
AcDbEntity
  8
LC-004-005-----0
 62
     7
370
    25
100
AcDbLine
 10
315.62406
 20
225.171206
 30
0.0
 11
315.453266
 21
225.342
 31
0.0
  0
LINE
  5
2A9
330
2A5
100
AcDbEntity
  8
LC-004-005-----0
  6
DASHED
 62
     7
370
    25
100
AcDbLine
 10
315.62406
 20
224.039835
 30
0.0
 11
314.321895
 21
225.342
 31
0.0
  0
LINE
  5
2AA
330
2A5
100
AcDbEntity
  8
LC-004-005-----0
  6
DASHED
 62
     7
370
    25
100
AcDbLine
 10
315.62406
 20
223.47415
 30
0.0
 11
313.75621
 21
225.342
 31
0.0
  0
LINE
  5
2AB
330
2A5
100
AcDbEntity
  8
LC-004-005-----0
 62
     7
370
    25
100
AcDbLine
 10
315.62406
 20
222.342779
 30
0.0
 11
312.624839
 21
225.342
 31
0.0
  0
LINE
  5
2AC
330
2A5
100
AcDbEntity
  8
LC-004-005-----0
 62
     7
370
    25
100
AcDbLine
 10
315.559154
 20
221.842
 30
0.0
 11
312.059154
 21
225.342
 31
0.0
  0
LINE
  5
2AD
330
2A5
100
AcDbEntity
  8
LC-004-005-----0
  6
DASHED
 62
     7
370
    25
100
AcDbLine
 10
314.427783
 20
221.842
 30
0.0
 11
310.927783
 21
225.342
 31
0.0
  0
LINE
  5
2AE
330
2A5
100
AcDbEntity
  8
LC-004-005-----0
  6
DASHED
 62
     7
370
    25
100
AcDbLine
 10
313.862097
 20
221.842
 30
0.0
 11
310.362097
 21
225.342
 31
0.0
  0
LINE
  5
2AF
330
2A5
100
AcDbEntity
  8
LC-004-005-----0
 62
     7
370
    25
100
AcDbLine
 10
312.730727
 20
221.842
 30
0.0
 11
309.230727
 21
225.342
 31
0.0
  0
LINE
  5
2B0
330
2A5
100
AcDbEntity
  8
LC-004-005-----0
 62
     7
370
    25
100
AcDbLine
 10
312.165041
 20
221.842
 30
0.0
 11
308.665041
 21
225.342
 31
0.0
  0
LINE
  5
2B1
330
2A5
100
AcDbEntity
  8
LC-004-005-----0
  6
DASHED
 62
     7
370
    25
100
AcDbLine
 10
311.03367
 20
221.842
 30
0.0
 11
308.12406
 21
224.75161
 31
0.0
  0
LINE
  5
2B2
330
2A5
100
AcDbEntity
  8
LC-004-005-----0
  6
DASHED
 62
     7
370
    25
100
AcDbLine
 10
310.467985
 20
221.842
 30
0.0
 11
308.12406
 21
224.185925
 31
0.0
  0
LINE
  5
2B3
330
2A5
100
AcDbEntity
  8
LC-004-005-----0
 62
     7
370
    25
100
AcDbLine
 10
309.336614
 20
221.842
 30
0.0
 11
308.12406
 21
223.054554
 31
0.0
  0
LINE
  5
2B4
330
2A5
100
AcDbEntity
  8
LC-004-005-----0
 62
     7
370
    25
100
AcDbLine
 10
308.770929
 20
221.842
 30
0.0
 11
308.12406
 21
222.488869
 31
0.0
  0
ENDBLK
  5
2A7
330
2A5
100
AcDbEntity
  8
0
100
AcDbBlockEnd
  0
BLOCK
  5
2BB
330
2BA
100
AcDbEntity
  8
0
100
AcDbBlockBegin
  2
*X1314
 70
     1
 71
     0
 10
0.0
 20
0.0
 30
0.0
  3
*X1314
  1

  4
*X13
  0
LINE
  5
2BD
330
2BA
100
AcDbEntity
  8
LC-004-005-----0
 62
     7
370
    25
100
AcDbLine
 10
315.62406
 20
185.573227
 30
0.0
 11
315.555287
 21
185.642
 31
0.0
  0
LINE
  5
2BE
330
2BA
100
AcDbEntity
  8
LC-004-005-----0
  6
DASHED
 62
     7
370
    25
100
AcDbLine
 10
315.62406
 20
184.441856
 30
0.0
 11
314.423916
 21
185.642
 31
0.0
  0
LINE
  5
2BF
330
2BA
100
AcDbEntity
  8
LC-004-005-----0
  6
DASHED
 62
     7
370
    25
100
AcDbLine
 10
315.62406
 20
183.87617
 30
0.0
 11
313.85823
 21
185.642
 31
0.0
  0
LINE
  5
2C0
330
2BA
100
AcDbEntity
  8
LC-004-005-----0
 62
     7
370
    25
100
AcDbLine
 10
315.62406
 20
182.744799
 30
0.0
 11
312.726859
 21
185.642
 31
0.0
  0
LINE
  5
2C1
330
2BA
100
AcDbEntity
  8
LC-004-005-----0
 62
     7
370
    25
100
AcDbLine
 10
315.62406
 20
182.179114
 30
0.0
 11
312.161174
 21
185.642
 31
0.0
  0
LINE
  5
2C2
330
2BA
100
AcDbEntity
  8
LC-004-005-----0
  6
DASHED
 62
     7
370
    25
100
AcDbLine
 10
314.529803
 20
182.142
 30
0.0
 11
311.029803
 21
185.642
 31
0.0
  0
LINE
  5
2C3
330
2BA
100
AcDbEntity
  8
LC-004-005-----0
  6
DASHED
 62
     7
370
    25
100
AcDbLine
 10
313.964118
 20
182.142
 30
0.0
 11
310.464118
 21
185.642
 31
0.0
  0
LINE
  5
2C4
330
2BA
100
AcDbEntity
  8
LC-004-005-----0
 62
     7
370
    25
100
AcDbLine
 10
312.832747
 20
182.142
 30
0.0
 11
309.332747
 21
185.642
 31
0.0
  0
LINE
  5
2C5
330
2BA
100
AcDbEntity
  8
LC-004-005-----0
 62
     7
370
    25
100
AcDbLine
 10
312.267061
 20
182.142
 30
0.0
 11
308.767061
 21
185.642
 31
0.0
  0
LINE
  5
2C6
330
2BA
100
AcDbEntity
  8
LC-004-005-----0
  6
DASHED
 62
     7
370
    25
100
AcDbLine
 10
311.135691
 20
182.142
 30
0.0
 11
308.12406
 21
185.153631
 31
0.0
  0
LINE
  5
2C7
330
2BA
100
AcDbEntity
  8
LC-004-005-----0
  6
DASHED
 62
     7
370
    25
100
AcDbLine
 10
310.570005
 20
182.142
 30
0.0
 11
308.12406
 21
184.587945
 31
0.0
  0
LINE
  5
2C8
330
2BA
100
AcDbEntity
  8
LC-004-005-----0
 62
     7
370
    25
100
AcDbLine
 10
309.438634
 20
182.142
 30
0.0
 11
308.12406
 21
183.456574
 31
0.0
  0
LINE
  5
2C9
330
2BA
100
AcDbEntity
  8
LC-004-005-----0
 62
     7
370
    25
100
AcDbLine
 10
308.872949
 20
182.142
 30
0.0
 11
308.12406
 21
182.890889
 31
0.0
  0
ENDBLK
  5
2BC
330
2BA
100
AcDbEntity
  8
0
100
AcDbBlockEnd
  0
BLOCK
  5
2CC
330
2CB
100
AcDbEntity
  8
0
100
AcDbBlockBegin
  2
*X1415
 70
     1
 71
     0
 10
0.0
 20
0.0
 30
0.0
  3
*X1415
  1

  4
*X14
  0
LINE
  5
2CE
330
2CB
100
AcDbEntity
  8
LC-004-005-----0
 62
     7
370
    25
100
AcDbLine
 10
322.972862
 20
225.742
 30
0.0
 11
320.972862
 21
227.742
 31
0.0
  0
LINE
  5
2CF
330
2CB
100
AcDbEntity
  8
LC-004-005-----0
 62
     7
370
    25
100
AcDbLine
 10
320.144435
 20
225.742
 30
0.0
 11
318.144435
 21
227.742
 31
0.0
  0
LINE
  5
2D0
330
2CB
100
AcDbEntity
  8
LC-004-005-----0
 62
     7
370
    25
100
AcDbLine
 10
318.02406
 20
225.033948
 30
0.0
 11
317.02406
 21
226.033948
 31
0.0
  0
LINE
  5
2D1
330
2CB
100
AcDbEntity
  8
LC-004-005-----0
 62
     7
370
    25
100
AcDbLine
 10
318.02406
 20
222.205521
 30
0.0
 11
317.02406
 21
223.205521
 31
0.0
  0
LINE
  5
2D2
330
2CB
100
AcDbEntity
  8
LC-004-005-----0
 62
     7
370
    25
100
AcDbLine
 10
318.02406
 20
219.377094
 30
0.0
 11
317.02406
 21
220.377094
 31
0.0
  0
LINE
  5
2D3
330
2CB
100
AcDbEntity
  8
LC-004-005-----0
 62
     7
370
    25
100
AcDbLine
 10
318.02406
 20
216.548667
 30
0.0
 11
317.02406
 21
217.548667
 31
0.0
  0
LINE
  5
2D4
330
2CB
100
AcDbEntity
  8
LC-004-005-----0
 62
     7
370
    25
100
AcDbLine
 10
318.02406
 20
213.720239
 30
0.0
 11
317.02406
 21
214.720239
 31
0.0
  0
LINE
  5
2D5
330
2CB
100
AcDbEntity
  8
LC-004-005-----0
 62
     7
370
    25
100
AcDbLine
 10
321.33428
 20
207.581592
 30
0.0
 11
317.02406
 21
211.891812
 31
0.0
  0
LINE
  5
2D6
330
2CB
100
AcDbEntity
  8
LC-004-005-----0
 62
     7
370
    25
100
AcDbLine
 10
322.019236
 20
204.06821
 30
0.0
 11
319.593143
 21
206.494302
 31
0.0
  0
LINE
  5
2D7
330
2CB
100
AcDbEntity
  8
LC-004-005-----0
 62
     7
370
    25
100
AcDbLine
 10
321.787808
 20
201.47121
 30
0.0
 11
320.009377
 21
203.249641
 31
0.0
  0
LINE
  5
2D8
330
2CB
100
AcDbEntity
  8
LC-004-005-----0
 62
     7
370
    25
100
AcDbLine
 10
321.102502
 20
199.328089
 30
0.0
 11
319.555591
 21
200.875
 31
0.0
  0
LINE
  5
2D9
330
2CB
100
AcDbEntity
  8
LC-004-005-----0
 62
     7
370
    25
100
AcDbLine
 10
320.093873
 20
197.508291
 30
0.0
 11
318.648626
 21
198.953537
 31
0.0
  0
LINE
  5
2DA
330
2CB
100
AcDbEntity
  8
LC-004-005-----0
 62
     7
370
    25
100
AcDbLine
 10
318.812521
 20
195.961216
 30
0.0
 11
317.397418
 21
197.376319
 31
0.0
  0
LINE
  5
2DB
330
2CB
100
AcDbEntity
  8
LC-004-005-----0
 62
     7
370
    25
100
AcDbLine
 10
318.02406
 20
193.92125
 30
0.0
 11
317.02406
 21
194.92125
 31
0.0
  0
LINE
  5
2DC
330
2CB
100
AcDbEntity
  8
LC-004-005-----0
 62
     7
370
    25
100
AcDbLine
 10
318.02406
 20
191.092822
 30
0.0
 11
317.02406
 21
192.092822
 31
0.0
  0
LINE
  5
2DD
330
2CB
100
AcDbEntity
  8
LC-004-005-----0
 62
     7
370
    25
100
AcDbLine
 10
318.02406
 20
188.264395
 30
0.0
 11
317.02406
 21
189.264395
 31
0.0
  0
LINE
  5
2DE
330
2CB
100
AcDbEntity
  8
LC-004-005-----0
 62
     7
370
    25
100
AcDbLine
 10
323.561396
 20
179.898632
 30
0.0
 11
321.718028
 21
181.742
 31
0.0
  0
LINE
  5
2DF
330
2CB
100
AcDbEntity
  8
LC-004-005-----0
 62
     7
370
    25
100
AcDbLine
 10
318.02406
 20
185.435968
 30
0.0
 11
317.02406
 21
186.435968
 31
0.0
  0
LINE
  5
2E0
330
2CB
100
AcDbEntity
  8
LC-004-005-----0
 62
     7
370
    25
100
AcDbLine
 10
320.889601
 20
179.742
 30
0.0
 11
318.889601
 21
181.742
 31
0.0
  0
LINE
  5
2E1
330
2CB
100
AcDbEntity
  8
LC-004-005-----0
 62
     7
370
    25
100
AcDbLine
 10
318.02406
 20
182.607541
 30
0.0
 11
317.02406
 21
183.607541
 31
0.0
  0
LINE
  5
2E2
330
2CB
100
AcDbEntity
  8
LC-004-005-----0
 62
     7
370
    25
100
AcDbLine
 10
318.061174
 20
179.742
 30
0.0
 11
317.02406
 21
180.779114
 31
0.0
  0
ENDBLK
  5
2CD
330
2CB
100
AcDbEntity
  8
0
100
AcDbBlockEnd
  0
BLOCK
  5
2E5
330
2E4
100
AcDbEntity
  8
0
100
AcDbBlockBegin
  2
*X1516
 70
     1
 71
     0
 10
0.0
 20
0.0
 30
0.0
  3
*X1516
  1

  4
*X15
  0
LINE
  5
2E7
330
2E4
100
AcDbEntity
  8
LC-004-005-----0
 62
     7
370
    25
100
AcDbLine
 10
315.114289
 20
210.462485
 30
0.0
 11
315.893804
 21
211.242
 31
0.0
  0
LINE
  5
2E8
330
2E4
100
AcDbEntity
  8
LC-004-005-----0
 62
     7
370
    25
100
AcDbLine
 10
312.285862
 20
210.462485
 30
0.0
 11
313.065376
 21
211.242
 31
0.0
  0
LINE
  5
2E9
330
2E4
100
AcDbEntity
  8
LC-004-005-----0
 62
     7
370
    25
100
AcDbLine
 10
310.02406
 20
211.029111
 30
0.0
 11
310.236949
 21
211.242
 31
0.0
  0
ENDBLK
  5
2E6
330
2E4
100
AcDbEntity
  8
0
100
AcDbBlockEnd
  0
BLOCK
  5
2EC
330
2EB
100
AcDbEntity
  8
0
100
AcDbBlockBegin
  2
*X1617
 70
     1
 71
     0
 10
0.0
 20
0.0
 30
0.0
  3
*X1617
  1

  4
*X16
  0
LINE
  5
2EE
330
2EB
100
AcDbEntity
  8
LC-004-005-----0
 62
     7
370
    25
100
AcDbLine
 10
315.035939
 20
196.242
 30
0.0
 11
315.815454
 21
197.021515
 31
0.0
  0
LINE
  5
2EF
330
2EB
100
AcDbEntity
  8
LC-004-005-----0
 62
     7
370
    25
100
AcDbLine
 10
312.207512
 20
196.242
 30
0.0
 11
312.987027
 21
197.021515
 31
0.0
  0
LINE
  5
2F0
330
2EB
100
AcDbEntity
  8
LC-004-005-----0
 62
     7
370
    25
100
AcDbLine
 10
310.02406
 20
196.886975
 30
0.0
 11
310.1586
 21
197.021515
 31
0.0
  0
ENDBLK
  5
2ED
330
2EB
100
AcDbEntity
  8
0
100
AcDbBlockEnd
  0
BLOCK
  5
2F3
330
2F2
100
AcDbEntity
  8
0
100
AcDbBlockBegin
  2
*X1718
 70
     1
 71
     0
 10
0.0
 20
0.0
 30
0.0
  3
*X1718
  1

  4
*X17
  0
LINE
  5
2F5
330
2F2
100
AcDbEntity
  8
LC-004-005-----0
 62
     7
370
    25
100
AcDbLine
 10
307.192793
 20
182.742
 30
0.0
 11
308.02406
 21
183.573266
 31
0.0
  0
LINE
  5
2F6
330
2F2
100
AcDbEntity
  8
LC-004-005-----0
 62
     7
370
    25
100
AcDbLine
 10
306.02406
 20
184.401694
 30
0.0
 11
309.364366
 21
187.742
 31
0.0
  0
LINE
  5
2F7
330
2F2
100
AcDbEntity
  8
LC-004-005-----0
 62
     7
370
    25
100
AcDbLine
 10
301.535939
 20
182.742
 30
0.0
 11
302.52406
 21
183.730121
 31
0.0
  0
LINE
  5
2F8
330
2F2
100
AcDbEntity
  8
LC-004-005-----0
 62
     7
370
    25
100
AcDbLine
 10
304.362572
 20
185.568633
 30
0.0
 11
306.535939
 21
187.742
 31
0.0
  0
LINE
  5
2F9
330
2F2
100
AcDbEntity
  8
LC-004-005-----0
 62
     7
370
    25
100
AcDbLine
 10
298.707512
 20
182.742
 30
0.0
 11
303.707512
 21
187.742
 31
0.0
  0
LINE
  5
2FA
330
2F2
100
AcDbEntity
  8
LC-004-005-----0
 62
     7
370
    25
100
AcDbLine
 10
309.207512
 20
193.242
 30
0.0
 11
310.02406
 21
194.058548
 31
0.0
  0
LINE
  5
2FB
330
2F2
100
AcDbEntity
  8
LC-004-005-----0
 62
     7
370
    25
100
AcDbLine
 10
295.879085
 20
182.742
 30
0.0
 11
297.879085
 21
184.742
 31
0.0
  0
LINE
  5
2FC
330
2F2
100
AcDbEntity
  8
LC-004-005-----0
 62
     7
370
    25
100
AcDbLine
 10
300.02406
 20
186.886975
 30
0.0
 11
302.02406
 21
188.886975
 31
0.0
  0
LINE
  5
2FD
330
2F2
100
AcDbEntity
  8
LC-004-005-----0
 62
     7
370
    25
100
AcDbLine
 10
306.379085
 20
193.242
 30
0.0
 11
308.379085
 21
195.242
 31
0.0
  0
LINE
  5
2FE
330
2F2
100
AcDbEntity
  8
LC-004-005-----0
 62
     7
370
    25
100
AcDbLine
 10
293.050658
 20
182.742
 30
0.0
 11
295.050658
 21
184.742
 31
0.0
  0
LINE
  5
2FF
330
2F2
100
AcDbEntity
  8
LC-004-005-----0
 62
     7
370
    25
100
AcDbLine
 10
300.02406
 20
189.715402
 30
0.0
 11
302.02406
 21
191.715402
 31
0.0
  0
LINE
  5
300
330
2F2
100
AcDbEntity
  8
LC-004-005-----0
 62
     7
370
    25
100
AcDbLine
 10
303.550658
 20
193.242
 30
0.0
 11
305.550658
 21
195.242
 31
0.0
  0
LINE
  5
301
330
2F2
100
AcDbEntity
  8
LC-004-005-----0
 62
     7
370
    25
100
AcDbLine
 10
290.222231
 20
182.742
 30
0.0
 11
292.222231
 21
184.742
 31
0.0
  0
LINE
  5
302
330
2F2
100
AcDbEntity
  8
LC-004-005-----0
 62
     7
370
    25
100
AcDbLine
 10
300.02406
 20
192.543829
 30
0.0
 11
302.722231
 21
195.242
 31
0.0
  0
LINE
  5
303
330
2F2
100
AcDbEntity
  8
LC-004-005-----0
 62
     7
370
    25
100
AcDbLine
 10
287.393804
 20
182.742
 30
0.0
 11
289.393804
 21
184.742
 31
0.0
  0
LINE
  5
304
330
2F2
100
AcDbEntity
  8
LC-004-005-----0
 62
     7
370
    25
100
AcDbLine
 10
300.02406
 20
195.372256
 30
0.0
 11
302.02406
 21
197.372256
 31
0.0
  0
LINE
  5
305
330
2F2
100
AcDbEntity
  8
LC-004-005-----0
 62
     7
370
    25
100
AcDbLine
 10
284.565376
 20
182.742
 30
0.0
 11
286.565376
 21
184.742
 31
0.0
  0
LINE
  5
306
330
2F2
100
AcDbEntity
  8
LC-004-005-----0
 62
     7
370
    25
100
AcDbLine
 10
300.02406
 20
198.200683
 30
0.0
 11
302.02406
 21
200.200683
 31
0.0
  0
LINE
  5
307
330
2F2
100
AcDbEntity
  8
LC-004-005-----0
 62
     7
370
    25
100
AcDbLine
 10
281.736949
 20
182.742
 30
0.0
 11
283.736949
 21
184.742
 31
0.0
  0
LINE
  5
308
330
2F2
100
AcDbEntity
  8
LC-004-005-----0
 62
     7
370
    25
100
AcDbLine
 10
300.02406
 20
201.029111
 30
0.0
 11
302.02406
 21
203.029111
 31
0.0
  0
LINE
  5
309
330
2F2
100
AcDbEntity
  8
LC-004-005-----0
 62
     7
370
    25
100
AcDbLine
 10
278.908522
 20
182.742
 30
0.0
 11
280.908522
 21
184.742
 31
0.0
  0
LINE
  5
30A
330
2F2
100
AcDbEntity
  8
LC-004-005-----0
 62
     7
370
    25
100
AcDbLine
 10
300.02406
 20
203.857538
 30
0.0
 11
302.02406
 21
205.857538
 31
0.0
  0
LINE
  5
30B
330
2F2
100
AcDbEntity
  8
LC-004-005-----0
 62
     7
370
    25
100
AcDbLine
 10
308.408522
 20
212.242
 30
0.0
 11
310.02406
 21
213.857538
 31
0.0
  0
LINE
  5
30C
330
2F2
100
AcDbEntity
  8
LC-004-005-----0
 62
     7
370
    25
100
AcDbLine
 10
276.080095
 20
182.742
 30
0.0
 11
278.080095
 21
184.742
 31
0.0
  0
LINE
  5
30D
330
2F2
100
AcDbEntity
  8
LC-004-005-----0
 62
     7
370
    25
100
AcDbLine
 10
300.02406
 20
206.685965
 30
0.0
 11
302.02406
 21
208.685965
 31
0.0
  0
LINE
  5
30E
330
2F2
100
AcDbEntity
  8
LC-004-005-----0
 62
     7
370
    25
100
AcDbLine
 10
305.580095
 20
212.242
 30
0.0
 11
307.580095
 21
214.242
 31
0.0
  0
LINE
  5
30F
330
2F2
100
AcDbEntity
  8
LC-004-005-----0
 62
     7
370
    25
100
AcDbLine
 10
273.251668
 20
182.742
 30
0.0
 11
275.251668
 21
184.742
 31
0.0
  0
LINE
  5
310
330
2F2
100
AcDbEntity
  8
LC-004-005-----0
 62
     7
370
    25
100
AcDbLine
 10
300.02406
 20
209.514392
 30
0.0
 11
304.751668
 21
214.242
 31
0.0
  0
LINE
  5
311
330
2F2
100
AcDbEntity
  8
LC-004-005-----0
 62
     7
370
    25
100
AcDbLine
 10
270.423241
 20
182.742
 30
0.0
 11
272.423241
 21
184.742
 31
0.0
  0
LINE
  5
312
330
2F2
100
AcDbEntity
  8
LC-004-005-----0
 62
     7
370
    25
100
AcDbLine
 10
301.485719
 20
213.804479
 30
0.0
 11
306.84544
 21
219.164199
 31
0.0
  0
LINE
  5
313
330
2F2
100
AcDbEntity
  8
LC-004-005-----0
 62
     7
370
    25
100
AcDbLine
 10
307.423241
 20
219.742
 30
0.0
 11
309.423241
 21
221.742
 31
0.0
  0
LINE
  5
314
330
2F2
100
AcDbEntity
  8
LC-004-005-----0
 62
     7
370
    25
100
AcDbLine
 10
267.594814
 20
182.742
 30
0.0
 11
269.594814
 21
184.742
 31
0.0
  0
LINE
  5
315
330
2F2
100
AcDbEntity
  8
LC-004-005-----0
 62
     7
370
    25
100
AcDbLine
 10
305.241284
 20
220.38847
 30
0.0
 11
308.02406
 21
223.171246
 31
0.0
  0
LINE
  5
316
330
2F2
100
AcDbEntity
  8
LC-004-005-----0
 62
     7
370
    25
100
AcDbLine
 10
264.766387
 20
182.742
 30
0.0
 11
266.766387
 21
184.742
 31
0.0
  0
LINE
  5
317
330
2F2
100
AcDbEntity
  8
LC-004-005-----0
 62
     7
370
    25
100
AcDbLine
 10
306.02406
 20
223.999673
 30
0.0
 11
306.766387
 21
224.742
 31
0.0
  0
LINE
  5
318
330
2F2
100
AcDbEntity
  8
LC-004-005-----0
 62
     7
370
    25
100
AcDbLine
 10
261.937959
 20
182.742
 30
0.0
 11
263.937959
 21
184.742
 31
0.0
  0
LINE
  5
319
330
2F2
100
AcDbEntity
  8
LC-004-005-----0
 62
     7
370
    25
100
AcDbLine
 10
259.109532
 20
182.742
 30
0.0
 11
261.109532
 21
184.742
 31
0.0
  0
LINE
  5
31A
330
2F2
100
AcDbEntity
  8
LC-004-005-----0
 62
     7
370
    25
100
AcDbLine
 10
256.281105
 20
182.742
 30
0.0
 11
258.281105
 21
184.742
 31
0.0
  0
LINE
  5
31B
330
2F2
100
AcDbEntity
  8
LC-004-005-----0
 62
     7
370
    25
100
AcDbLine
 10
253.452678
 20
182.742
 30
0.0
 11
255.452678
 21
184.742
 31
0.0
  0
LINE
  5
31C
330
2F2
100
AcDbEntity
  8
LC-004-005-----0
 62
     7
370
    25
100
AcDbLine
 10
250.668075
 20
182.785824
 30
0.0
 11
252.624251
 21
184.742
 31
0.0
  0
LINE
  5
31D
330
2F2
100
AcDbEntity
  8
LC-004-005-----0
 62
     7
370
    25
100
AcDbLine
 10
248.15527
 20
183.101446
 30
0.0
 11
249.913419
 21
184.859596
 31
0.0
  0
LINE
  5
31E
330
2F2
100
AcDbEntity
  8
LC-004-005-----0
 62
     7
370
    25
100
AcDbLine
 10
245.884823
 20
183.659426
 30
0.0
 11
247.511137
 21
185.28574
 31
0.0
  0
LINE
  5
31F
330
2F2
100
AcDbEntity
  8
LC-004-005-----0
 62
     7
370
    25
100
AcDbLine
 10
243.81145
 20
184.41448
 30
0.0
 11
245.349806
 21
185.952837
 31
0.0
  0
LINE
  5
320
330
2F2
100
AcDbEntity
  8
LC-004-005-----0
 62
     7
370
    25
100
AcDbLine
 10
241.907794
 20
185.339251
 30
0.0
 11
243.3871
 21
186.818557
 31
0.0
  0
LINE
  5
321
330
2F2
100
AcDbEntity
  8
LC-004-005-----0
 62
     7
370
    25
100
AcDbLine
 10
240.156773
 20
186.416657
 30
0.0
 11
241.598149
 21
187.858034
 31
0.0
  0
LINE
  5
322
330
2F2
100
AcDbEntity
  8
LC-004-005-----0
 62
     7
370
    25
100
AcDbLine
 10
238.547956
 20
187.636268
 30
0.0
 11
239.968337
 21
189.056649
 31
0.0
  0
LINE
  5
323
330
2F2
100
AcDbEntity
  8
LC-004-005-----0
 62
     7
370
    25
100
AcDbLine
 10
237.075751
 20
188.99249
 30
0.0
 11
238.489999
 21
190.406738
 31
0.0
  0
LINE
  5
324
330
2F2
100
AcDbEntity
  8
LC-004-005-----0
 62
     7
370
    25
100
AcDbLine
 10
235.738549
 20
190.483715
 30
0.0
 11
237.160954
 21
191.90612
 31
0.0
  0
LINE
  5
325
330
2F2
100
AcDbEntity
  8
LC-004-005-----0
 62
     7
370
    25
100
AcDbLine
 10
234.538492
 20
192.112085
 30
0.0
 11
235.984108
 21
193.557701
 31
0.0
  0
LINE
  5
326
330
2F2
100
AcDbEntity
  8
LC-004-005-----0
 62
     7
370
    25
100
AcDbLine
 10
233.481784
 20
193.883805
 30
0.0
 11
234.967985
 21
195.370005
 31
0.0
  0
LINE
  5
327
330
2F2
100
AcDbEntity
  8
LC-004-005-----0
 62
     7
370
    25
100
AcDbLine
 10
232.579653
 20
195.8101
 30
0.0
 11
234.128385
 21
197.358833
 31
0.0
  0
LINE
  5
328
330
2F2
100
AcDbEntity
  8
LC-004-005-----0
 62
     7
370
    25
100
AcDbLine
 10
231.850347
 20
197.909222
 30
0.0
 11
233.492061
 21
199.550936
 31
0.0
  0
LINE
  5
329
330
2F2
100
AcDbEntity
  8
LC-004-005-----0
 62
     7
370
    25
100
AcDbLine
 10
231.32314
 20
200.210441
 30
0.0
 11
233.104813
 21
201.992115
 31
0.0
  0
LINE
  5
32A
330
2F2
100
AcDbEntity
  8
LC-004-005-----0
 62
     7
370
    25
100
AcDbLine
 10
231.046909
 20
202.762638
 30
0.0
 11
232.026271
 21
203.742
 31
0.0
  0
ENDBLK
  5
2F4
330
2F2
100
AcDbEntity
  8
0
100
AcDbBlockEnd
  0
BLOCK
  5
32D
330
32C
100
AcDbEntity
  8
0
100
AcDbBlockBegin
  2
*X1819
 70
     1
 71
     0
 10
0.0
 20
0.0
 30
0.0
  3
*X1819
  1

  4
*X18
  0
LINE
  5
32F
330
32C
100
AcDbEntity
  8
LC-004-005-----0
 62
     7
370
    25
100
AcDbLine
 10
319.649112
 20
203.609906
 30
0.0
 11
317.517018
 21
205.742
 31
0.0
  0
LINE
  5
330
330
32C
100
AcDbEntity
  8
LC-004-005-----0
 62
     7
370
    25
100
AcDbLine
 10
318.688591
 20
201.742
 30
0.0
 11
314.688591
 21
205.742
 31
0.0
  0
LINE
  5
331
330
32C
100
AcDbEntity
  8
LC-004-005-----0
 62
     7
370
    25
100
AcDbLine
 10
315.860164
 20
201.742
 30
0.0
 11
311.860164
 21
205.742
 31
0.0
  0
LINE
  5
332
330
32C
100
AcDbEntity
  8
LC-004-005-----0
 62
     7
370
    25
100
AcDbLine
 10
313.031737
 20
201.742
 30
0.0
 11
309.031737
 21
205.742
 31
0.0
  0
LINE
  5
333
330
32C
100
AcDbEntity
  8
LC-004-005-----0
 62
     7
370
    25
100
AcDbLine
 10
310.20331
 20
201.742
 30
0.0
 11
306.20331
 21
205.742
 31
0.0
  0
LINE
  5
334
330
32C
100
AcDbEntity
  8
LC-004-005-----0
 62
     7
370
    25
100
AcDbLine
 10
307.374882
 20
201.742
 30
0.0
 11
303.374882
 21
205.742
 31
0.0
  0
LINE
  5
335
330
32C
100
AcDbEntity
  8
LC-004-005-----0
 62
     7
370
    25
100
AcDbLine
 10
304.546455
 20
201.742
 30
0.0
 11
302.02406
 21
204.264395
 31
0.0
  0
ENDBLK
  5
32E
330
32C
100
AcDbEntity
  8
0
100
AcDbBlockEnd
  0
BLOCK
  5
343
330
338
100
AcDbEntity
  8
0
100
AcDbBlockBegin
  2
*D20
 70
     1
 71
     0
 10
0.0
 20
0.0
 30
0.0
  3
*D20
  1

  0
LINE
  5
339
330
338
100
AcDbEntity
  8
LC-002-003-----0
 62
     2
370
    -2
100
AcDbLine
 10
554.02406
 20
295.242
 30
0.0
 11
612.419029
 21
295.242
 31
0.0
  0
LINE
  5
33A
330
338
100
AcDbEntity
  8
LC-002-003-----0
 62
     2
370
    -2
100
AcDbLine
 10
554.02406
 20
255.242
 30
0.0
 11
612.419029
 21
255.242
 31
0.0
  0
LINE
  5
33B
330
338
100
AcDbEntity
  8
LC-002-003-----0
 62
     2
370
    -2
100
AcDbLine
 10
608.819029
 20
323.242
 30
0.0
 11
608.819029
 21
351.242
 31
0.0
  0
LINE
  5
33C
330
338
100
AcDbEntity
  8
LC-002-003-----0
 62
     2
370
    -2
100
AcDbLine
 10
608.819029
 20
227.242
 30
0.0
 11
608.819029
 21
154.141242
 31
0.0
  0
SOLID
  5
33D
330
338
100
AcDbEntity
  8
LC-002-003-----0
 62
     2
100
AcDbTrace
 10
604.152363
 20
323.242
 30
0.0
 11
613.485696
 21
323.242
 31
0.0
 12
608.819029
 22
295.242
 32
0.0
 13
608.819029
 23
295.242
 33
0.0
  0
SOLID
  5
33E
330
338
100
AcDbEntity
  8
LC-002-003-----0
 62
     2
100
AcDbTrace
 10
613.485696
 20
227.242
 30
0.0
 11
604.152363
 21
227.242
 31
0.0
 12
608.819029
 22
255.242
 32
0.0
 13
608.819029
 23
255.242
 33
0.0
  0
MTEXT
  5
33F
330
338
100
AcDbEntity
  8
LC-002-003-----0
 62
     2
100
AcDbMText
 10
578.019029
 20
200.178
 30
0.0
 40
28.0
 41
0.0
 71
     5
 72
     1
  1
\A1;DN40
  7
LCTX15-400-0-0pDIN-Schrift
 11
6.123031769111886E-17
 21
1.0
 31
0.0
 73
     1
 44
1.0
  0
POINT
  5
340
330
338
100
AcDbEntity
  8
Defpoints
 62
     0
100
AcDbPoint
 10
554.02406
 20
295.242
 30
0.0
  0
POINT
  5
341
330
338
100
AcDbEntity
  8
Defpoints
 62
     0
100
AcDbPoint
 10
554.02406
 20
255.242
 30
0.0
  0
POINT
  5
342
330
338
100
AcDbEntity
  8
Defpoints
 62
     0
100
AcDbPoint
 10
608.819029
 20
255.242
 30
0.0
  0
ENDBLK
  5
344
330
338
100
AcDbEntity
  8
0
100
AcDbBlockEnd
  0
BLOCK
  5
352
330
348
100
AcDbEntity
  8
0
100
AcDbBlockBegin
  2
*D21
 70
     1
 71
     0
 10
0.0
 20
0.0
 30
0.0
  3
*D21
  1

  0
LINE
  5
349
330
348
100
AcDbEntity
  8
LC-002-003-----0
 62
     2
370
    -2
100
AcDbLine
 10
316.628131
 20
179.742
 30
0.0
 11
393.459873
 21
179.742
 31
0.0
  0
LINE
  5
34A
330
348
100
AcDbEntity
  8
LC-002-003-----0
 62
     2
370
    -2
100
AcDbLine
 10
290.52406
 20
275.242
 30
0.0
 11
393.459873
 21
275.242
 31
0.0
  0
LINE
  5
34B
330
348
100
AcDbEntity
  8
LC-002-003-----0
 62
     2
370
    -2
100
AcDbLine
 10
389.859873
 20
207.742
 30
0.0
 11
389.859873
 21
247.242
 31
0.0
  0
SOLID
  5
34C
330
348
100
AcDbEntity
  8
LC-002-003-----0
 62
     2
100
AcDbTrace
 10
385.193207
 20
207.742
 30
0.0
 11
394.52654
 21
207.742
 31
0.0
 12
389.859873
 22
179.742
 32
0.0
 13
389.859873
 23
179.742
 33
0.0
  0
SOLID
  5
34D
330
348
100
AcDbEntity
  8
LC-002-003-----0
 62
     2
100
AcDbTrace
 10
394.52654
 20
247.242
 30
0.0
 11
385.193207
 21
247.242
 31
0.0
 12
389.859873
 22
275.242
 32
0.0
 13
389.859873
 23
275.242
 33
0.0
  0
MTEXT
  5
34E
330
348
100
AcDbEntity
  8
LC-002-003-----0
 62
     2
100
AcDbMText
 10
359.059873
 20
202.554
 30
0.0
 40
28.0
 41
0.0
 71
     5
 72
     1
  1
\A1;95
  7
LCTX15-400-0-0pDIN-Schrift
 11
6.123031769111886E-17
 21
1.0
 31
0.0
 73
     1
 44
1.0
  0
POINT
  5
34F
330
348
100
AcDbEntity
  8
Defpoints
 62
     0
100
AcDbPoint
 10
316.628131
 20
179.742
 30
0.0
  0
POINT
  5
350
330
348
100
AcDbEntity
  8
Defpoints
 62
     0
100
AcDbPoint
 10
290.52406
 20
275.242
 30
0.0
  0
POINT
  5
351
330
348
100
AcDbEntity
  8
Defpoints
 62
     0
100
AcDbPoint
 10
389.859873
 20
275.242
 30
0.0
  0
ENDBLK
  5
353
330
348
100
AcDbEntity
  8
0
100
AcDbBlockEnd
  0
BLOCK
  5
366
330
365
100
AcDbEntity
  8
0
100
AcDbBlockBegin
  2
*X1922
 70
     1
 71
     0
 10
0.0
 20
0.0
 30
0.0
  3
*X1922
  1

  4
*X19
  0
LINE
  5
368
330
365
100
AcDbEntity
  8
LC-004-005-----0
 62
     7
370
    25
100
AcDbLine
 10
224.02196
 20
488.7415
 30
0.0
 11
226.02195
 21
486.741512
 31
0.0
  0
LINE
  5
369
330
365
100
AcDbEntity
  8
LC-004-005-----0
 62
     7
370
    25
100
AcDbLine
 10
227.021443
 20
485.74202
 30
0.0
 11
228.521452
 21
484.242013
 31
0.0
  0
LINE
  5
36A
330
365
100
AcDbEntity
  8
LC-004-005-----0
 62
     7
370
    25
100
AcDbLine
 10
224.021979
 20
492.984118
 30
0.0
 11
226.02197
 21
490.98413
 31
0.0
  0
LINE
  5
36B
330
365
100
AcDbEntity
  8
LC-004-005-----0
 62
     7
370
    25
100
AcDbLine
 10
224.021999
 20
497.226737
 30
0.0
 11
226.02199
 21
495.226748
 31
0.0
  0
LINE
  5
36C
330
365
100
AcDbEntity
  8
LC-004-005-----0
 62
     7
370
    25
100
AcDbLine
 10
223.249335
 20
502.242038
 30
0.0
 11
226.022009
 21
499.469367
 31
0.0
  0
ENDBLK
  5
367
330
365
100
AcDbEntity
  8
0
100
AcDbBlockEnd
  0
BLOCK
  5
373
330
372
100
AcDbEntity
  8
0
100
AcDbBlockBegin
  2
*X2023
 70
     1
 71
     0
 10
0.0
 20
0.0
 30
0.0
  3
*X2023
  1

  4
*X20
  0
LINE
  5
375
330
372
100
AcDbEntity
  8
LC-004-005-----0
 62
     7
370
    25
100
AcDbLine
 10
232.02406
 20
487.810643
 30
0.0
 11
231.292703
 21
488.542
 31
0.0
  0
LINE
  5
376
330
372
100
AcDbEntity
  8
LC-004-005-----0
 62
     7
370
    25
100
AcDbLine
 10
230.67849
 20
487.742
 30
0.0
 11
229.87849
 21
488.542
 31
0.0
  0
ENDBLK
  5
374
330
372
100
AcDbEntity
  8
0
100
AcDbBlockEnd
  0
BLOCK
  5
37D
330
37C
100
AcDbEntity
  8
0
100
AcDbBlockBegin
  2
*X2124
 70
     1
 71
     0
 10
0.0
 20
0.0
 30
0.0
  3
*X2124
  1

  4
*X21
  0
LINE
  5
37F
330
37C
100
AcDbEntity
  8
LC-004-005-----0
 62
     7
370
    25
100
AcDbLine
 10
264.435603
 20
487.926012
 30
0.0
 11
263.819615
 21
488.542
 31
0.0
  0
LINE
  5
380
330
37C
100
AcDbEntity
  8
LC-004-005-----0
 62
     7
370
    25
100
AcDbLine
 10
263.205402
 20
487.742
 30
0.0
 11
262.405402
 21
488.542
 31
0.0
  0
ENDBLK
  5
37E
330
37C
100
AcDbEntity
  8
0
100
AcDbBlockEnd
  0
BLOCK
  5
393
330
392
100
AcDbEntity
  8
0
100
AcDbBlockBegin
  2
*X2225
 70
     1
 71
     0
 10
0.0
 20
0.0
 30
0.0
  3
*X2225
  1

  4
*X22
  0
LINE
  5
395
330
392
100
AcDbEntity
  8
LC-004-005-----0
 62
     7
370
    25
100
AcDbLine
 10
265.205243
 20
485.742012
 30
0.0
 11
266.705238
 21
484.242019
 31
0.0
  0
LINE
  5
396
330
392
100
AcDbEntity
  8
LC-004-005-----0
 62
     7
370
    25
100
AcDbLine
 10
268.026168
 20
487.163729
 30
0.0
 11
269.557678
 21
485.632221
 31
0.0
  0
LINE
  5
397
330
392
100
AcDbEntity
  8
LC-004-005-----0
 62
     7
370
    25
100
AcDbLine
 10
268.026148
 20
491.406387
 30
0.0
 11
270.026157
 21
489.40638
 31
0.0
  0
LINE
  5
398
330
392
100
AcDbEntity
  8
LC-004-005-----0
 62
     7
370
    25
100
AcDbLine
 10
268.026128
 20
495.649044
 30
0.0
 11
270.026138
 21
493.649038
 31
0.0
  0
LINE
  5
399
330
392
100
AcDbEntity
  8
LC-004-005-----0
 62
     7
370
    25
100
AcDbLine
 10
268.026108
 20
499.891702
 30
0.0
 11
270.026118
 21
497.891695
 31
0.0
  0
LINE
  5
39A
330
392
100
AcDbEntity
  8
LC-004-005-----0
 62
     7
370
    25
100
AcDbLine
 10
269.918417
 20
502.242034
 30
0.0
 11
270.918414
 21
501.242038
 31
0.0
  0
ENDBLK
  5
394
330
392
100
AcDbEntity
  8
0
100
AcDbBlockEnd
  0
BLOCK
  5
39E
330
39D
100
AcDbEntity
  8
0
100
AcDbBlockBegin
  2
*X2326
 70
     1
 71
     0
 10
0.0
 20
0.0
 30
0.0
  3
*X2326
  1

  4
*X23
  0
LINE
  5
3A0
330
39D
100
AcDbEntity
  8
LC-004-005-----0
 62
     7
370
    25
100
AcDbLine
 10
231.800422
 20
206.344578
 30
0.0
 11
233.02406
 21
207.568216
 31
0.0
  0
LINE
  5
3A1
330
39D
100
AcDbEntity
  8
LC-004-005-----0
 62
     7
370
    25
100
AcDbLine
 10
231.202705
 20
208.575288
 30
0.0
 11
233.02406
 21
210.396643
 31
0.0
  0
LINE
  5
3A2
330
39D
100
AcDbEntity
  8
LC-004-005-----0
 62
     7
370
    25
100
AcDbLine
 10
231.02406
 20
211.22507
 30
0.0
 11
233.02406
 21
213.22507
 31
0.0
  0
LINE
  5
3A3
330
39D
100
AcDbEntity
  8
LC-004-005-----0
 62
     7
370
    25
100
AcDbLine
 10
231.02406
 20
214.053497
 30
0.0
 11
233.02406
 21
216.053497
 31
0.0
  0
LINE
  5
3A4
330
39D
100
AcDbEntity
  8
LC-004-005-----0
 62
     7
370
    25
100
AcDbLine
 10
231.02406
 20
216.881924
 30
0.0
 11
233.02406
 21
218.881924
 31
0.0
  0
LINE
  5
3A5
330
39D
100
AcDbEntity
  8
LC-004-005-----0
 62
     7
370
    25
100
AcDbLine
 10
231.02406
 20
219.710351
 30
0.0
 11
233.02406
 21
221.710351
 31
0.0
  0
LINE
  5
3A6
330
39D
100
AcDbEntity
  8
LC-004-005-----0
 62
     7
370
    25
100
AcDbLine
 10
231.02406
 20
222.538779
 30
0.0
 11
233.02406
 21
224.538779
 31
0.0
  0
LINE
  5
3A7
330
39D
100
AcDbEntity
  8
LC-004-005-----0
 62
     7
370
    25
100
AcDbLine
 10
231.02406
 20
225.367206
 30
0.0
 11
233.02406
 21
227.367206
 31
0.0
  0
LINE
  5
3A8
330
39D
100
AcDbEntity
  8
LC-004-005-----0
 62
     7
370
    25
100
AcDbLine
 10
231.02406
 20
228.195633
 30
0.0
 11
233.02406
 21
230.195633
 31
0.0
  0
LINE
  5
3A9
330
39D
100
AcDbEntity
  8
LC-004-005-----0
 62
     7
370
    25
100
AcDbLine
 10
231.02406
 20
231.02406
 30
0.0
 11
233.02406
 21
233.02406
 31
0.0
  0
LINE
  5
3AA
330
39D
100
AcDbEntity
  8
LC-004-005-----0
 62
     7
370
    25
100
AcDbLine
 10
231.02406
 20
233.852487
 30
0.0
 11
233.02406
 21
235.852487
 31
0.0
  0
LINE
  5
3AB
330
39D
100
AcDbEntity
  8
LC-004-005-----0
 62
     7
370
    25
100
AcDbLine
 10
231.02406
 20
236.680914
 30
0.0
 11
233.02406
 21
238.680914
 31
0.0
  0
LINE
  5
3AC
330
39D
100
AcDbEntity
  8
LC-004-005-----0
 62
     7
370
    25
100
AcDbLine
 10
231.02406
 20
239.509341
 30
0.0
 11
233.02406
 21
241.509341
 31
0.0
  0
LINE
  5
3AD
330
39D
100
AcDbEntity
  8
LC-004-005-----0
 62
     7
370
    25
100
AcDbLine
 10
231.02406
 20
242.337768
 30
0.0
 11
233.02406
 21
244.337768
 31
0.0
  0
LINE
  5
3AE
330
39D
100
AcDbEntity
  8
LC-004-005-----0
 62
     7
370
    25
100
AcDbLine
 10
231.02406
 20
245.166196
 30
0.0
 11
233.02406
 21
247.166196
 31
0.0
  0
LINE
  5
3AF
330
39D
100
AcDbEntity
  8
LC-004-005-----0
 62
     7
370
    25
100
AcDbLine
 10
231.02406
 20
247.994623
 30
0.0
 11
233.02406
 21
249.994623
 31
0.0
  0
LINE
  5
3B0
330
39D
100
AcDbEntity
  8
LC-004-005-----0
 62
     7
370
    25
100
AcDbLine
 10
231.02406
 20
250.82305
 30
0.0
 11
233.02406
 21
252.82305
 31
0.0
  0
LINE
  5
3B1
330
39D
100
AcDbEntity
  8
LC-004-005-----0
 62
     7
370
    25
100
AcDbLine
 10
231.02406
 20
253.651477
 30
0.0
 11
233.02406
 21
255.651477
 31
0.0
  0
LINE
  5
3B2
330
39D
100
AcDbEntity
  8
LC-004-005-----0
 62
     7
370
    25
100
AcDbLine
 10
231.02406
 20
256.479904
 30
0.0
 11
233.02406
 21
258.479904
 31
0.0
  0
LINE
  5
3B3
330
39D
100
AcDbEntity
  8
LC-004-005-----0
 62
     7
370
    25
100
AcDbLine
 10
231.02406
 20
259.308331
 30
0.0
 11
233.02406
 21
261.308331
 31
0.0
  0
LINE
  5
3B4
330
39D
100
AcDbEntity
  8
LC-004-005-----0
 62
     7
370
    25
100
AcDbLine
 10
231.02406
 20
262.136758
 30
0.0
 11
233.02406
 21
264.136758
 31
0.0
  0
LINE
  5
3B5
330
39D
100
AcDbEntity
  8
LC-004-005-----0
 62
     7
370
    25
100
AcDbLine
 10
231.02406
 20
264.965185
 30
0.0
 11
233.02406
 21
266.965185
 31
0.0
  0
LINE
  5
3B6
330
39D
100
AcDbEntity
  8
LC-004-005-----0
 62
     7
370
    25
100
AcDbLine
 10
231.02406
 20
267.793613
 30
0.0
 11
233.02406
 21
269.793613
 31
0.0
  0
LINE
  5
3B7
330
39D
100
AcDbEntity
  8
LC-004-005-----0
 62
     7
370
    25
100
AcDbLine
 10
231.02406
 20
270.62204
 30
0.0
 11
233.02406
 21
272.62204
 31
0.0
  0
LINE
  5
3B8
330
39D
100
AcDbEntity
  8
LC-004-005-----0
 62
     7
370
    25
100
AcDbLine
 10
231.02406
 20
273.450467
 30
0.0
 11
233.02406
 21
275.450467
 31
0.0
  0
LINE
  5
3B9
330
39D
100
AcDbEntity
  8
LC-004-005-----0
 62
     7
370
    25
100
AcDbLine
 10
231.02406
 20
276.278894
 30
0.0
 11
233.02406
 21
278.278894
 31
0.0
  0
LINE
  5
3BA
330
39D
100
AcDbEntity
  8
LC-004-005-----0
 62
     7
370
    25
100
AcDbLine
 10
231.02406
 20
279.107321
 30
0.0
 11
233.02406
 21
281.107321
 31
0.0
  0
LINE
  5
3BB
330
39D
100
AcDbEntity
  8
LC-004-005-----0
 62
     7
370
    25
100
AcDbLine
 10
231.02406
 20
281.935748
 30
0.0
 11
233.02406
 21
283.935748
 31
0.0
  0
LINE
  5
3BC
330
39D
100
AcDbEntity
  8
LC-004-005-----0
 62
     7
370
    25
100
AcDbLine
 10
231.02406
 20
284.764175
 30
0.0
 11
233.02406
 21
286.764175
 31
0.0
  0
LINE
  5
3BD
330
39D
100
AcDbEntity
  8
LC-004-005-----0
 62
     7
370
    25
100
AcDbLine
 10
231.02406
 20
287.592602
 30
0.0
 11
233.02406
 21
289.592602
 31
0.0
  0
LINE
  5
3BE
330
39D
100
AcDbEntity
  8
LC-004-005-----0
 62
     7
370
    25
100
AcDbLine
 10
231.02406
 20
290.42103
 30
0.0
 11
233.02406
 21
292.42103
 31
0.0
  0
LINE
  5
3BF
330
39D
100
AcDbEntity
  8
LC-004-005-----0
 62
     7
370
    25
100
AcDbLine
 10
231.02406
 20
293.249457
 30
0.0
 11
233.02406
 21
295.249457
 31
0.0
  0
LINE
  5
3C0
330
39D
100
AcDbEntity
  8
LC-004-005-----0
 62
     7
370
    25
100
AcDbLine
 10
231.02406
 20
296.077884
 30
0.0
 11
233.02406
 21
298.077884
 31
0.0
  0
LINE
  5
3C1
330
39D
100
AcDbEntity
  8
LC-004-005-----0
 62
     7
370
    25
100
AcDbLine
 10
231.02406
 20
298.906311
 30
0.0
 11
233.02406
 21
300.906311
 31
0.0
  0
LINE
  5
3C2
330
39D
100
AcDbEntity
  8
LC-004-005-----0
 62
     7
370
    25
100
AcDbLine
 10
231.02406
 20
301.734738
 30
0.0
 11
233.02406
 21
303.734738
 31
0.0
  0
LINE
  5
3C3
330
39D
100
AcDbEntity
  8
LC-004-005-----0
 62
     7
370
    25
100
AcDbLine
 10
231.02406
 20
304.563165
 30
0.0
 11
233.02406
 21
306.563165
 31
0.0
  0
LINE
  5
3C4
330
39D
100
AcDbEntity
  8
LC-004-005-----0
 62
     7
370
    25
100
AcDbLine
 10
231.02406
 20
307.391592
 30
0.0
 11
233.02406
 21
309.391592
 31
0.0
  0
LINE
  5
3C5
330
39D
100
AcDbEntity
  8
LC-004-005-----0
 62
     7
370
    25
100
AcDbLine
 10
231.02406
 20
310.220019
 30
0.0
 11
233.02406
 21
312.220019
 31
0.0
  0
LINE
  5
3C6
330
39D
100
AcDbEntity
  8
LC-004-005-----0
 62
     7
370
    25
100
AcDbLine
 10
231.02406
 20
313.048447
 30
0.0
 11
233.02406
 21
315.048447
 31
0.0
  0
LINE
  5
3C7
330
39D
100
AcDbEntity
  8
LC-004-005-----0
 62
     7
370
    25
100
AcDbLine
 10
231.02406
 20
315.876874
 30
0.0
 11
233.02406
 21
317.876874
 31
0.0
  0
LINE
  5
3C8
330
39D
100
AcDbEntity
  8
LC-004-005-----0
 62
     7
370
    25
100
AcDbLine
 10
231.02406
 20
318.705301
 30
0.0
 11
233.02406
 21
320.705301
 31
0.0
  0
LINE
  5
3C9
330
39D
100
AcDbEntity
  8
LC-004-005-----0
 62
     7
370
    25
100
AcDbLine
 10
231.02406
 20
321.533728
 30
0.0
 11
233.02406
 21
323.533728
 31
0.0
  0
LINE
  5
3CA
330
39D
100
AcDbEntity
  8
LC-004-005-----0
 62
     7
370
    25
100
AcDbLine
 10
231.02406
 20
324.362155
 30
0.0
 11
233.02406
 21
326.362155
 31
0.0
  0
LINE
  5
3CB
330
39D
100
AcDbEntity
  8
LC-004-005-----0
 62
     7
370
    25
100
AcDbLine
 10
231.02406
 20
327.190582
 30
0.0
 11
233.02406
 21
329.190582
 31
0.0
  0
LINE
  5
3CC
330
39D
100
AcDbEntity
  8
LC-004-005-----0
 62
     7
370
    25
100
AcDbLine
 10
231.02406
 20
330.019009
 30
0.0
 11
233.02406
 21
332.019009
 31
0.0
  0
LINE
  5
3CD
330
39D
100
AcDbEntity
  8
LC-004-005-----0
 62
     7
370
    25
100
AcDbLine
 10
231.02406
 20
332.847436
 30
0.0
 11
233.02406
 21
334.847436
 31
0.0
  0
LINE
  5
3CE
330
39D
100
AcDbEntity
  8
LC-004-005-----0
 62
     7
370
    25
100
AcDbLine
 10
231.02406
 20
335.675864
 30
0.0
 11
233.02406
 21
337.675864
 31
0.0
  0
LINE
  5
3CF
330
39D
100
AcDbEntity
  8
LC-004-005-----0
 62
     7
370
    25
100
AcDbLine
 10
231.02406
 20
338.504291
 30
0.0
 11
233.02406
 21
340.504291
 31
0.0
  0
LINE
  5
3D0
330
39D
100
AcDbEntity
  8
LC-004-005-----0
 62
     7
370
    25
100
AcDbLine
 10
231.02406
 20
341.332718
 30
0.0
 11
233.02406
 21
343.332718
 31
0.0
  0
LINE
  5
3D1
330
39D
100
AcDbEntity
  8
LC-004-005-----0
 62
     7
370
    25
100
AcDbLine
 10
231.02406
 20
344.161145
 30
0.0
 11
233.02406
 21
346.161145
 31
0.0
  0
LINE
  5
3D2
330
39D
100
AcDbEntity
  8
LC-004-005-----0
 62
     7
370
    25
100
AcDbLine
 10
231.02406
 20
346.989572
 30
0.0
 11
233.02406
 21
348.989572
 31
0.0
  0
LINE
  5
3D3
330
39D
100
AcDbEntity
  8
LC-004-005-----0
 62
     7
370
    25
100
AcDbLine
 10
231.02406
 20
349.817999
 30
0.0
 11
233.02406
 21
351.817999
 31
0.0
  0
LINE
  5
3D4
330
39D
100
AcDbEntity
  8
LC-004-005-----0
 62
     7
370
    25
100
AcDbLine
 10
231.02406
 20
352.646426
 30
0.0
 11
233.02406
 21
354.646426
 31
0.0
  0
LINE
  5
3D5
330
39D
100
AcDbEntity
  8
LC-004-005-----0
 62
     7
370
    25
100
AcDbLine
 10
231.02406
 20
355.474853
 30
0.0
 11
233.02406
 21
357.474853
 31
0.0
  0
LINE
  5
3D6
330
39D
100
AcDbEntity
  8
LC-004-005-----0
 62
     7
370
    25
100
AcDbLine
 10
231.02406
 20
358.303281
 30
0.0
 11
233.02406
 21
360.303281
 31
0.0
  0
LINE
  5
3D7
330
39D
100
AcDbEntity
  8
LC-004-005-----0
 62
     7
370
    25
100
AcDbLine
 10
231.02406
 20
361.131708
 30
0.0
 11
233.02406
 21
363.131708
 31
0.0
  0
LINE
  5
3D8
330
39D
100
AcDbEntity
  8
LC-004-005-----0
 62
     7
370
    25
100
AcDbLine
 10
231.02406
 20
363.960135
 30
0.0
 11
233.02406
 21
365.960135
 31
0.0
  0
LINE
  5
3D9
330
39D
100
AcDbEntity
  8
LC-004-005-----0
 62
     7
370
    25
100
AcDbLine
 10
231.02406
 20
366.788562
 30
0.0
 11
233.02406
 21
368.788562
 31
0.0
  0
LINE
  5
3DA
330
39D
100
AcDbEntity
  8
LC-004-005-----0
 62
     7
370
    25
100
AcDbLine
 10
231.02406
 20
369.616989
 30
0.0
 11
233.02406
 21
371.616989
 31
0.0
  0
LINE
  5
3DB
330
39D
100
AcDbEntity
  8
LC-004-005-----0
 62
     7
370
    25
100
AcDbLine
 10
231.02406
 20
372.445416
 30
0.0
 11
233.02406
 21
374.445416
 31
0.0
  0
LINE
  5
3DC
330
39D
100
AcDbEntity
  8
LC-004-005-----0
 62
     7
370
    25
100
AcDbLine
 10
231.02406
 20
375.273843
 30
0.0
 11
233.02406
 21
377.273843
 31
0.0
  0
LINE
  5
3DD
330
39D
100
AcDbEntity
  8
LC-004-005-----0
 62
     7
370
    25
100
AcDbLine
 10
231.02406
 20
378.10227
 30
0.0
 11
233.02406
 21
380.10227
 31
0.0
  0
LINE
  5
3DE
330
39D
100
AcDbEntity
  8
LC-004-005-----0
 62
     7
370
    25
100
AcDbLine
 10
231.02406
 20
380.930698
 30
0.0
 11
233.02406
 21
382.930698
 31
0.0
  0
LINE
  5
3DF
330
39D
100
AcDbEntity
  8
LC-004-005-----0
 62
     7
370
    25
100
AcDbLine
 10
231.02406
 20
383.759125
 30
0.0
 11
233.02406
 21
385.759125
 31
0.0
  0
LINE
  5
3E0
330
39D
100
AcDbEntity
  8
LC-004-005-----0
 62
     7
370
    25
100
AcDbLine
 10
231.02406
 20
386.587552
 30
0.0
 11
233.02406
 21
388.587552
 31
0.0
  0
LINE
  5
3E1
330
39D
100
AcDbEntity
  8
LC-004-005-----0
 62
     7
370
    25
100
AcDbLine
 10
231.02406
 20
389.415979
 30
0.0
 11
233.02406
 21
391.415979
 31
0.0
  0
LINE
  5
3E2
330
39D
100
AcDbEntity
  8
LC-004-005-----0
 62
     7
370
    25
100
AcDbLine
 10
231.02406
 20
392.244406
 30
0.0
 11
233.02406
 21
394.244406
 31
0.0
  0
LINE
  5
3E3
330
39D
100
AcDbEntity
  8
LC-004-005-----0
 62
     7
370
    25
100
AcDbLine
 10
231.02406
 20
395.072833
 30
0.0
 11
233.02406
 21
397.072833
 31
0.0
  0
LINE
  5
3E4
330
39D
100
AcDbEntity
  8
LC-004-005-----0
 62
     7
370
    25
100
AcDbLine
 10
231.02406
 20
397.90126
 30
0.0
 11
233.02406
 21
399.90126
 31
0.0
  0
LINE
  5
3E5
330
39D
100
AcDbEntity
  8
LC-004-005-----0
 62
     7
370
    25
100
AcDbLine
 10
231.02406
 20
400.729687
 30
0.0
 11
233.02406
 21
402.729687
 31
0.0
  0
LINE
  5
3E6
330
39D
100
AcDbEntity
  8
LC-004-005-----0
 62
     7
370
    25
100
AcDbLine
 10
231.02406
 20
403.558115
 30
0.0
 11
233.02406
 21
405.558115
 31
0.0
  0
LINE
  5
3E7
330
39D
100
AcDbEntity
  8
LC-004-005-----0
 62
     7
370
    25
100
AcDbLine
 10
231.02406
 20
406.386542
 30
0.0
 11
233.02406
 21
408.386542
 31
0.0
  0
LINE
  5
3E8
330
39D
100
AcDbEntity
  8
LC-004-005-----0
 62
     7
370
    25
100
AcDbLine
 10
231.02406
 20
409.214969
 30
0.0
 11
233.02406
 21
411.214969
 31
0.0
  0
LINE
  5
3E9
330
39D
100
AcDbEntity
  8
LC-004-005-----0
 62
     7
370
    25
100
AcDbLine
 10
231.02406
 20
412.043396
 30
0.0
 11
233.02406
 21
414.043396
 31
0.0
  0
LINE
  5
3EA
330
39D
100
AcDbEntity
  8
LC-004-005-----0
 62
     7
370
    25
100
AcDbLine
 10
231.02406
 20
414.871823
 30
0.0
 11
233.02406
 21
416.871823
 31
0.0
  0
LINE
  5
3EB
330
39D
100
AcDbEntity
  8
LC-004-005-----0
 62
     7
370
    25
100
AcDbLine
 10
231.02406
 20
417.70025
 30
0.0
 11
233.02406
 21
419.70025
 31
0.0
  0
LINE
  5
3EC
330
39D
100
AcDbEntity
  8
LC-004-005-----0
 62
     7
370
    25
100
AcDbLine
 10
231.02406
 20
420.528677
 30
0.0
 11
233.02406
 21
422.528677
 31
0.0
  0
LINE
  5
3ED
330
39D
100
AcDbEntity
  8
LC-004-005-----0
 62
     7
370
    25
100
AcDbLine
 10
231.02406
 20
423.357104
 30
0.0
 11
233.02406
 21
425.357104
 31
0.0
  0
LINE
  5
3EE
330
39D
100
AcDbEntity
  8
LC-004-005-----0
 62
     7
370
    25
100
AcDbLine
 10
231.02406
 20
426.185532
 30
0.0
 11
233.02406
 21
428.185532
 31
0.0
  0
LINE
  5
3EF
330
39D
100
AcDbEntity
  8
LC-004-005-----0
 62
     7
370
    25
100
AcDbLine
 10
231.02406
 20
429.013959
 30
0.0
 11
233.02406
 21
431.013959
 31
0.0
  0
LINE
  5
3F0
330
39D
100
AcDbEntity
  8
LC-004-005-----0
 62
     7
370
    25
100
AcDbLine
 10
231.02406
 20
431.842386
 30
0.0
 11
233.02406
 21
433.842386
 31
0.0
  0
LINE
  5
3F1
330
39D
100
AcDbEntity
  8
LC-004-005-----0
 62
     7
370
    25
100
AcDbLine
 10
231.02406
 20
434.670813
 30
0.0
 11
233.02406
 21
436.670813
 31
0.0
  0
LINE
  5
3F2
330
39D
100
AcDbEntity
  8
LC-004-005-----0
 62
     7
370
    25
100
AcDbLine
 10
231.02406
 20
437.49924
 30
0.0
 11
233.02406
 21
439.49924
 31
0.0
  0
LINE
  5
3F3
330
39D
100
AcDbEntity
  8
LC-004-005-----0
 62
     7
370
    25
100
AcDbLine
 10
231.02406
 20
440.327667
 30
0.0
 11
233.02406
 21
442.327667
 31
0.0
  0
LINE
  5
3F4
330
39D
100
AcDbEntity
  8
LC-004-005-----0
 62
     7
370
    25
100
AcDbLine
 10
231.02406
 20
443.156094
 30
0.0
 11
233.02406
 21
445.156094
 31
0.0
  0
LINE
  5
3F5
330
39D
100
AcDbEntity
  8
LC-004-005-----0
 62
     7
370
    25
100
AcDbLine
 10
231.02406
 20
445.984521
 30
0.0
 11
233.02406
 21
447.984521
 31
0.0
  0
LINE
  5
3F6
330
39D
100
AcDbEntity
  8
LC-004-005-----0
 62
     7
370
    25
100
AcDbLine
 10
231.02406
 20
448.812949
 30
0.0
 11
233.02406
 21
450.812949
 31
0.0
  0
LINE
  5
3F7
330
39D
100
AcDbEntity
  8
LC-004-005-----0
 62
     7
370
    25
100
AcDbLine
 10
231.02406
 20
451.641376
 30
0.0
 11
233.02406
 21
453.641376
 31
0.0
  0
LINE
  5
3F8
330
39D
100
AcDbEntity
  8
LC-004-005-----0
 62
     7
370
    25
100
AcDbLine
 10
231.02406
 20
454.469803
 30
0.0
 11
233.02406
 21
456.469803
 31
0.0
  0
LINE
  5
3F9
330
39D
100
AcDbEntity
  8
LC-004-005-----0
 62
     7
370
    25
100
AcDbLine
 10
231.02406
 20
457.29823
 30
0.0
 11
233.02406
 21
459.29823
 31
0.0
  0
LINE
  5
3FA
330
39D
100
AcDbEntity
  8
LC-004-005-----0
 62
     7
370
    25
100
AcDbLine
 10
231.02406
 20
460.126657
 30
0.0
 11
233.02406
 21
462.126657
 31
0.0
  0
LINE
  5
3FB
330
39D
100
AcDbEntity
  8
LC-004-005-----0
 62
     7
370
    25
100
AcDbLine
 10
231.02406
 20
462.955084
 30
0.0
 11
233.02406
 21
464.955084
 31
0.0
  0
LINE
  5
3FC
330
39D
100
AcDbEntity
  8
LC-004-005-----0
 62
     7
370
    25
100
AcDbLine
 10
231.02406
 20
465.783511
 30
0.0
 11
233.02406
 21
467.783511
 31
0.0
  0
LINE
  5
3FD
330
39D
100
AcDbEntity
  8
LC-004-005-----0
 62
     7
370
    25
100
AcDbLine
 10
231.02406
 20
468.611938
 30
0.0
 11
233.02406
 21
470.611938
 31
0.0
  0
LINE
  5
3FE
330
39D
100
AcDbEntity
  8
LC-004-005-----0
 62
     7
370
    25
100
AcDbLine
 10
231.02406
 20
471.440366
 30
0.0
 11
233.02406
 21
473.440366
 31
0.0
  0
LINE
  5
3FF
330
39D
100
AcDbEntity
  8
LC-004-005-----0
 62
     7
370
    25
100
AcDbLine
 10
231.02406
 20
474.268793
 30
0.0
 11
233.02406
 21
476.268793
 31
0.0
  0
LINE
  5
400
330
39D
100
AcDbEntity
  8
LC-004-005-----0
 62
     7
370
    25
100
AcDbLine
 10
231.02406
 20
477.09722
 30
0.0
 11
233.02406
 21
479.09722
 31
0.0
  0
LINE
  5
401
330
39D
100
AcDbEntity
  8
LC-004-005-----0
 62
     7
370
    25
100
AcDbLine
 10
231.02406
 20
479.925647
 30
0.0
 11
233.02406
 21
481.925647
 31
0.0
  0
LINE
  5
402
330
39D
100
AcDbEntity
  8
LC-004-005-----0
 62
     7
370
    25
100
AcDbLine
 10
231.02406
 20
482.754074
 30
0.0
 11
233.02406
 21
484.754074
 31
0.0
  0
LINE
  5
403
330
39D
100
AcDbEntity
  8
LC-004-005-----0
 62
     7
370
    25
100
AcDbLine
 10
231.02406
 20
485.582501
 30
0.0
 11
233.02406
 21
487.582501
 31
0.0
  0
LINE
  5
404
330
39D
100
AcDbEntity
  8
LC-004-005-----0
 62
     7
370
    25
100
AcDbLine
 10
228.355132
 20
485.742
 30
0.0
 11
230.355132
 21
487.742
 31
0.0
  0
LINE
  5
405
330
39D
100
AcDbEntity
  8
LC-004-005-----0
 62
     7
370
    25
100
AcDbLine
 10
227.524054
 20
487.739349
 30
0.0
 11
227.526705
 21
487.742
 31
0.0
  0
ENDBLK
  5
39F
330
39D
100
AcDbEntity
  8
0
100
AcDbBlockEnd
  0
BLOCK
  5
408
330
407
100
AcDbEntity
  8
0
100
AcDbBlockBegin
  2
*X2427
 70
     1
 71
     0
 10
0.0
 20
0.0
 30
0.0
  3
*X2427
  1

  4
*X24
  0
LINE
  5
40A
330
407
100
AcDbEntity
  8
LC-004-005-----0
 62
     7
370
    25
100
AcDbLine
 10
261.02406
 20
207.283945
 30
0.0
 11
263.02406
 21
209.283945
 31
0.0
  0
LINE
  5
40B
330
407
100
AcDbEntity
  8
LC-004-005-----0
 62
     7
370
    25
100
AcDbLine
 10
261.02406
 20
210.112372
 30
0.0
 11
263.02406
 21
212.112372
 31
0.0
  0
LINE
  5
40C
330
407
100
AcDbEntity
  8
LC-004-005-----0
 62
     7
370
    25
100
AcDbLine
 10
261.02406
 20
212.940799
 30
0.0
 11
263.02406
 21
214.940799
 31
0.0
  0
LINE
  5
40D
330
407
100
AcDbEntity
  8
LC-004-005-----0
 62
     7
370
    25
100
AcDbLine
 10
261.02406
 20
215.769226
 30
0.0
 11
263.02406
 21
217.769226
 31
0.0
  0
LINE
  5
40E
330
407
100
AcDbEntity
  8
LC-004-005-----0
 62
     7
370
    25
100
AcDbLine
 10
261.02406
 20
218.597653
 30
0.0
 11
263.02406
 21
220.597653
 31
0.0
  0
LINE
  5
40F
330
407
100
AcDbEntity
  8
LC-004-005-----0
 62
     7
370
    25
100
AcDbLine
 10
261.02406
 20
221.42608
 30
0.0
 11
263.02406
 21
223.42608
 31
0.0
  0
LINE
  5
410
330
407
100
AcDbEntity
  8
LC-004-005-----0
 62
     7
370
    25
100
AcDbLine
 10
261.02406
 20
224.254507
 30
0.0
 11
263.02406
 21
226.254507
 31
0.0
  0
LINE
  5
411
330
407
100
AcDbEntity
  8
LC-004-005-----0
 62
     7
370
    25
100
AcDbLine
 10
261.02406
 20
227.082934
 30
0.0
 11
263.02406
 21
229.082934
 31
0.0
  0
LINE
  5
412
330
407
100
AcDbEntity
  8
LC-004-005-----0
 62
     7
370
    25
100
AcDbLine
 10
261.02406
 20
229.911362
 30
0.0
 11
263.02406
 21
231.911362
 31
0.0
  0
LINE
  5
413
330
407
100
AcDbEntity
  8
LC-004-005-----0
 62
     7
370
    25
100
AcDbLine
 10
261.02406
 20
232.739789
 30
0.0
 11
263.02406
 21
234.739789
 31
0.0
  0
LINE
  5
414
330
407
100
AcDbEntity
  8
LC-004-005-----0
 62
     7
370
    25
100
AcDbLine
 10
261.02406
 20
235.568216
 30
0.0
 11
263.02406
 21
237.568216
 31
0.0
  0
LINE
  5
415
330
407
100
AcDbEntity
  8
LC-004-005-----0
 62
     7
370
    25
100
AcDbLine
 10
261.02406
 20
238.396643
 30
0.0
 11
263.02406
 21
240.396643
 31
0.0
  0
LINE
  5
416
330
407
100
AcDbEntity
  8
LC-004-005-----0
 62
     7
370
    25
100
AcDbLine
 10
261.02406
 20
241.22507
 30
0.0
 11
263.02406
 21
243.22507
 31
0.0
  0
LINE
  5
417
330
407
100
AcDbEntity
  8
LC-004-005-----0
 62
     7
370
    25
100
AcDbLine
 10
261.02406
 20
244.053497
 30
0.0
 11
263.02406
 21
246.053497
 31
0.0
  0
LINE
  5
418
330
407
100
AcDbEntity
  8
LC-004-005-----0
 62
     7
370
    25
100
AcDbLine
 10
261.02406
 20
246.881924
 30
0.0
 11
263.02406
 21
248.881924
 31
0.0
  0
LINE
  5
419
330
407
100
AcDbEntity
  8
LC-004-005-----0
 62
     7
370
    25
100
AcDbLine
 10
261.02406
 20
249.710351
 30
0.0
 11
263.02406
 21
251.710351
 31
0.0
  0
LINE
  5
41A
330
407
100
AcDbEntity
  8
LC-004-005-----0
 62
     7
370
    25
100
AcDbLine
 10
261.02406
 20
252.538779
 30
0.0
 11
263.02406
 21
254.538779
 31
0.0
  0
LINE
  5
41B
330
407
100
AcDbEntity
  8
LC-004-005-----0
 62
     7
370
    25
100
AcDbLine
 10
261.02406
 20
255.367206
 30
0.0
 11
263.02406
 21
257.367206
 31
0.0
  0
LINE
  5
41C
330
407
100
AcDbEntity
  8
LC-004-005-----0
 62
     7
370
    25
100
AcDbLine
 10
261.02406
 20
258.195633
 30
0.0
 11
263.02406
 21
260.195633
 31
0.0
  0
LINE
  5
41D
330
407
100
AcDbEntity
  8
LC-004-005-----0
 62
     7
370
    25
100
AcDbLine
 10
261.02406
 20
261.02406
 30
0.0
 11
263.02406
 21
263.02406
 31
0.0
  0
LINE
  5
41E
330
407
100
AcDbEntity
  8
LC-004-005-----0
 62
     7
370
    25
100
AcDbLine
 10
261.02406
 20
263.852487
 30
0.0
 11
263.02406
 21
265.852487
 31
0.0
  0
LINE
  5
41F
330
407
100
AcDbEntity
  8
LC-004-005-----0
 62
     7
370
    25
100
AcDbLine
 10
261.02406
 20
266.680914
 30
0.0
 11
263.02406
 21
268.680914
 31
0.0
  0
LINE
  5
420
330
407
100
AcDbEntity
  8
LC-004-005-----0
 62
     7
370
    25
100
AcDbLine
 10
261.02406
 20
269.509341
 30
0.0
 11
263.02406
 21
271.509341
 31
0.0
  0
LINE
  5
421
330
407
100
AcDbEntity
  8
LC-004-005-----0
 62
     7
370
    25
100
AcDbLine
 10
261.02406
 20
272.337768
 30
0.0
 11
263.02406
 21
274.337768
 31
0.0
  0
LINE
  5
422
330
407
100
AcDbEntity
  8
LC-004-005-----0
 62
     7
370
    25
100
AcDbLine
 10
261.02406
 20
275.166196
 30
0.0
 11
263.02406
 21
277.166196
 31
0.0
  0
LINE
  5
423
330
407
100
AcDbEntity
  8
LC-004-005-----0
 62
     7
370
    25
100
AcDbLine
 10
261.02406
 20
277.994623
 30
0.0
 11
263.02406
 21
279.994623
 31
0.0
  0
LINE
  5
424
330
407
100
AcDbEntity
  8
LC-004-005-----0
 62
     7
370
    25
100
AcDbLine
 10
261.02406
 20
280.82305
 30
0.0
 11
263.02406
 21
282.82305
 31
0.0
  0
LINE
  5
425
330
407
100
AcDbEntity
  8
LC-004-005-----0
 62
     7
370
    25
100
AcDbLine
 10
261.02406
 20
283.651477
 30
0.0
 11
263.02406
 21
285.651477
 31
0.0
  0
LINE
  5
426
330
407
100
AcDbEntity
  8
LC-004-005-----0
 62
     7
370
    25
100
AcDbLine
 10
261.02406
 20
286.479904
 30
0.0
 11
263.02406
 21
288.479904
 31
0.0
  0
LINE
  5
427
330
407
100
AcDbEntity
  8
LC-004-005-----0
 62
     7
370
    25
100
AcDbLine
 10
261.02406
 20
289.308331
 30
0.0
 11
263.02406
 21
291.308331
 31
0.0
  0
LINE
  5
428
330
407
100
AcDbEntity
  8
LC-004-005-----0
 62
     7
370
    25
100
AcDbLine
 10
261.02406
 20
292.136758
 30
0.0
 11
263.02406
 21
294.136758
 31
0.0
  0
LINE
  5
429
330
407
100
AcDbEntity
  8
LC-004-005-----0
 62
     7
370
    25
100
AcDbLine
 10
261.02406
 20
294.965185
 30
0.0
 11
263.02406
 21
296.965185
 31
0.0
  0
LINE
  5
42A
330
407
100
AcDbEntity
  8
LC-004-005-----0
 62
     7
370
    25
100
AcDbLine
 10
261.02406
 20
297.793613
 30
0.0
 11
263.02406
 21
299.793613
 31
0.0
  0
LINE
  5
42B
330
407
100
AcDbEntity
  8
LC-004-005-----0
 62
     7
370
    25
100
AcDbLine
 10
261.02406
 20
300.62204
 30
0.0
 11
263.02406
 21
302.62204
 31
0.0
  0
LINE
  5
42C
330
407
100
AcDbEntity
  8
LC-004-005-----0
 62
     7
370
    25
100
AcDbLine
 10
261.02406
 20
303.450467
 30
0.0
 11
263.02406
 21
305.450467
 31
0.0
  0
LINE
  5
42D
330
407
100
AcDbEntity
  8
LC-004-005-----0
 62
     7
370
    25
100
AcDbLine
 10
261.02406
 20
306.278894
 30
0.0
 11
263.02406
 21
308.278894
 31
0.0
  0
LINE
  5
42E
330
407
100
AcDbEntity
  8
LC-004-005-----0
 62
     7
370
    25
100
AcDbLine
 10
261.02406
 20
309.107321
 30
0.0
 11
263.02406
 21
311.107321
 31
0.0
  0
LINE
  5
42F
330
407
100
AcDbEntity
  8
LC-004-005-----0
 62
     7
370
    25
100
AcDbLine
 10
261.02406
 20
311.935748
 30
0.0
 11
263.02406
 21
313.935748
 31
0.0
  0
LINE
  5
430
330
407
100
AcDbEntity
  8
LC-004-005-----0
 62
     7
370
    25
100
AcDbLine
 10
261.02406
 20
314.764175
 30
0.0
 11
263.02406
 21
316.764175
 31
0.0
  0
LINE
  5
431
330
407
100
AcDbEntity
  8
LC-004-005-----0
 62
     7
370
    25
100
AcDbLine
 10
261.02406
 20
317.592602
 30
0.0
 11
263.02406
 21
319.592602
 31
0.0
  0
LINE
  5
432
330
407
100
AcDbEntity
  8
LC-004-005-----0
 62
     7
370
    25
100
AcDbLine
 10
261.02406
 20
320.42103
 30
0.0
 11
263.02406
 21
322.42103
 31
0.0
  0
LINE
  5
433
330
407
100
AcDbEntity
  8
LC-004-005-----0
 62
     7
370
    25
100
AcDbLine
 10
261.02406
 20
323.249457
 30
0.0
 11
263.02406
 21
325.249457
 31
0.0
  0
LINE
  5
434
330
407
100
AcDbEntity
  8
LC-004-005-----0
 62
     7
370
    25
100
AcDbLine
 10
261.02406
 20
326.077884
 30
0.0
 11
263.02406
 21
328.077884
 31
0.0
  0
LINE
  5
435
330
407
100
AcDbEntity
  8
LC-004-005-----0
 62
     7
370
    25
100
AcDbLine
 10
261.02406
 20
328.906311
 30
0.0
 11
263.02406
 21
330.906311
 31
0.0
  0
LINE
  5
436
330
407
100
AcDbEntity
  8
LC-004-005-----0
 62
     7
370
    25
100
AcDbLine
 10
261.02406
 20
331.734738
 30
0.0
 11
263.02406
 21
333.734738
 31
0.0
  0
LINE
  5
437
330
407
100
AcDbEntity
  8
LC-004-005-----0
 62
     7
370
    25
100
AcDbLine
 10
261.02406
 20
334.563165
 30
0.0
 11
263.02406
 21
336.563165
 31
0.0
  0
LINE
  5
438
330
407
100
AcDbEntity
  8
LC-004-005-----0
 62
     7
370
    25
100
AcDbLine
 10
261.02406
 20
337.391592
 30
0.0
 11
263.02406
 21
339.391592
 31
0.0
  0
LINE
  5
439
330
407
100
AcDbEntity
  8
LC-004-005-----0
 62
     7
370
    25
100
AcDbLine
 10
261.02406
 20
340.220019
 30
0.0
 11
263.02406
 21
342.220019
 31
0.0
  0
LINE
  5
43A
330
407
100
AcDbEntity
  8
LC-004-005-----0
 62
     7
370
    25
100
AcDbLine
 10
261.02406
 20
343.048447
 30
0.0
 11
263.02406
 21
345.048447
 31
0.0
  0
LINE
  5
43B
330
407
100
AcDbEntity
  8
LC-004-005-----0
 62
     7
370
    25
100
AcDbLine
 10
261.02406
 20
345.876874
 30
0.0
 11
263.02406
 21
347.876874
 31
0.0
  0
LINE
  5
43C
330
407
100
AcDbEntity
  8
LC-004-005-----0
 62
     7
370
    25
100
AcDbLine
 10
261.02406
 20
348.705301
 30
0.0
 11
263.02406
 21
350.705301
 31
0.0
  0
LINE
  5
43D
330
407
100
AcDbEntity
  8
LC-004-005-----0
 62
     7
370
    25
100
AcDbLine
 10
261.02406
 20
351.533728
 30
0.0
 11
263.02406
 21
353.533728
 31
0.0
  0
LINE
  5
43E
330
407
100
AcDbEntity
  8
LC-004-005-----0
 62
     7
370
    25
100
AcDbLine
 10
261.02406
 20
354.362155
 30
0.0
 11
263.02406
 21
356.362155
 31
0.0
  0
LINE
  5
43F
330
407
100
AcDbEntity
  8
LC-004-005-----0
 62
     7
370
    25
100
AcDbLine
 10
261.02406
 20
357.190582
 30
0.0
 11
263.02406
 21
359.190582
 31
0.0
  0
LINE
  5
440
330
407
100
AcDbEntity
  8
LC-004-005-----0
 62
     7
370
    25
100
AcDbLine
 10
261.02406
 20
360.019009
 30
0.0
 11
263.02406
 21
362.019009
 31
0.0
  0
LINE
  5
441
330
407
100
AcDbEntity
  8
LC-004-005-----0
 62
     7
370
    25
100
AcDbLine
 10
261.02406
 20
362.847436
 30
0.0
 11
263.02406
 21
364.847436
 31
0.0
  0
LINE
  5
442
330
407
100
AcDbEntity
  8
LC-004-005-----0
 62
     7
370
    25
100
AcDbLine
 10
261.02406
 20
365.675864
 30
0.0
 11
263.02406
 21
367.675864
 31
0.0
  0
LINE
  5
443
330
407
100
AcDbEntity
  8
LC-004-005-----0
 62
     7
370
    25
100
AcDbLine
 10
261.02406
 20
368.504291
 30
0.0
 11
263.02406
 21
370.504291
 31
0.0
  0
LINE
  5
444
330
407
100
AcDbEntity
  8
LC-004-005-----0
 62
     7
370
    25
100
AcDbLine
 10
261.02406
 20
371.332718
 30
0.0
 11
263.02406
 21
373.332718
 31
0.0
  0
LINE
  5
445
330
407
100
AcDbEntity
  8
LC-004-005-----0
 62
     7
370
    25
100
AcDbLine
 10
261.02406
 20
374.161145
 30
0.0
 11
263.02406
 21
376.161145
 31
0.0
  0
LINE
  5
446
330
407
100
AcDbEntity
  8
LC-004-005-----0
 62
     7
370
    25
100
AcDbLine
 10
261.02406
 20
376.989572
 30
0.0
 11
263.02406
 21
378.989572
 31
0.0
  0
LINE
  5
447
330
407
100
AcDbEntity
  8
LC-004-005-----0
 62
     7
370
    25
100
AcDbLine
 10
261.02406
 20
379.817999
 30
0.0
 11
263.02406
 21
381.817999
 31
0.0
  0
LINE
  5
448
330
407
100
AcDbEntity
  8
LC-004-005-----0
 62
     7
370
    25
100
AcDbLine
 10
261.02406
 20
382.646426
 30
0.0
 11
263.02406
 21
384.646426
 31
0.0
  0
LINE
  5
449
330
407
100
AcDbEntity
  8
LC-004-005-----0
 62
     7
370
    25
100
AcDbLine
 10
261.02406
 20
385.474853
 30
0.0
 11
263.02406
 21
387.474853
 31
0.0
  0
LINE
  5
44A
330
407
100
AcDbEntity
  8
LC-004-005-----0
 62
     7
370
    25
100
AcDbLine
 10
261.02406
 20
388.303281
 30
0.0
 11
263.02406
 21
390.303281
 31
0.0
  0
LINE
  5
44B
330
407
100
AcDbEntity
  8
LC-004-005-----0
 62
     7
370
    25
100
AcDbLine
 10
261.02406
 20
391.131708
 30
0.0
 11
263.02406
 21
393.131708
 31
0.0
  0
LINE
  5
44C
330
407
100
AcDbEntity
  8
LC-004-005-----0
 62
     7
370
    25
100
AcDbLine
 10
261.02406
 20
393.960135
 30
0.0
 11
263.02406
 21
395.960135
 31
0.0
  0
LINE
  5
44D
330
407
100
AcDbEntity
  8
LC-004-005-----0
 62
     7
370
    25
100
AcDbLine
 10
261.02406
 20
396.788562
 30
0.0
 11
263.02406
 21
398.788562
 31
0.0
  0
LINE
  5
44E
330
407
100
AcDbEntity
  8
LC-004-005-----0
 62
     7
370
    25
100
AcDbLine
 10
261.02406
 20
399.616989
 30
0.0
 11
263.02406
 21
401.616989
 31
0.0
  0
LINE
  5
44F
330
407
100
AcDbEntity
  8
LC-004-005-----0
 62
     7
370
    25
100
AcDbLine
 10
261.02406
 20
402.445416
 30
0.0
 11
263.02406
 21
404.445416
 31
0.0
  0
LINE
  5
450
330
407
100
AcDbEntity
  8
LC-004-005-----0
 62
     7
370
    25
100
AcDbLine
 10
261.02406
 20
405.273843
 30
0.0
 11
263.02406
 21
407.273843
 31
0.0
  0
LINE
  5
451
330
407
100
AcDbEntity
  8
LC-004-005-----0
 62
     7
370
    25
100
AcDbLine
 10
261.02406
 20
408.10227
 30
0.0
 11
263.02406
 21
410.10227
 31
0.0
  0
LINE
  5
452
330
407
100
AcDbEntity
  8
LC-004-005-----0
 62
     7
370
    25
100
AcDbLine
 10
261.02406
 20
410.930698
 30
0.0
 11
263.02406
 21
412.930698
 31
0.0
  0
LINE
  5
453
330
407
100
AcDbEntity
  8
LC-004-005-----0
 62
     7
370
    25
100
AcDbLine
 10
261.02406
 20
413.759125
 30
0.0
 11
263.02406
 21
415.759125
 31
0.0
  0
LINE
  5
454
330
407
100
AcDbEntity
  8
LC-004-005-----0
 62
     7
370
    25
100
AcDbLine
 10
261.02406
 20
416.587552
 30
0.0
 11
263.02406
 21
418.587552
 31
0.0
  0
LINE
  5
455
330
407
100
AcDbEntity
  8
LC-004-005-----0
 62
     7
370
    25
100
AcDbLine
 10
261.02406
 20
419.415979
 30
0.0
 11
263.02406
 21
421.415979
 31
0.0
  0
LINE
  5
456
330
407
100
AcDbEntity
  8
LC-004-005-----0
 62
     7
370
    25
100
AcDbLine
 10
261.02406
 20
422.244406
 30
0.0
 11
263.02406
 21
424.244406
 31
0.0
  0
LINE
  5
457
330
407
100
AcDbEntity
  8
LC-004-005-----0
 62
     7
370
    25
100
AcDbLine
 10
261.02406
 20
425.072833
 30
0.0
 11
263.02406
 21
427.072833
 31
0.0
  0
LINE
  5
458
330
407
100
AcDbEntity
  8
LC-004-005-----0
 62
     7
370
    25
100
AcDbLine
 10
261.02406
 20
427.90126
 30
0.0
 11
263.02406
 21
429.90126
 31
0.0
  0
LINE
  5
459
330
407
100
AcDbEntity
  8
LC-004-005-----0
 62
     7
370
    25
100
AcDbLine
 10
261.02406
 20
430.729687
 30
0.0
 11
263.02406
 21
432.729687
 31
0.0
  0
LINE
  5
45A
330
407
100
AcDbEntity
  8
LC-004-005-----0
 62
     7
370
    25
100
AcDbLine
 10
261.02406
 20
433.558115
 30
0.0
 11
263.02406
 21
435.558115
 31
0.0
  0
LINE
  5
45B
330
407
100
AcDbEntity
  8
LC-004-005-----0
 62
     7
370
    25
100
AcDbLine
 10
261.02406
 20
436.386542
 30
0.0
 11
263.02406
 21
438.386542
 31
0.0
  0
LINE
  5
45C
330
407
100
AcDbEntity
  8
LC-004-005-----0
 62
     7
370
    25
100
AcDbLine
 10
261.02406
 20
439.214969
 30
0.0
 11
263.02406
 21
441.214969
 31
0.0
  0
LINE
  5
45D
330
407
100
AcDbEntity
  8
LC-004-005-----0
 62
     7
370
    25
100
AcDbLine
 10
261.02406
 20
442.043396
 30
0.0
 11
263.02406
 21
444.043396
 31
0.0
  0
LINE
  5
45E
330
407
100
AcDbEntity
  8
LC-004-005-----0
 62
     7
370
    25
100
AcDbLine
 10
261.02406
 20
444.871823
 30
0.0
 11
263.02406
 21
446.871823
 31
0.0
  0
LINE
  5
45F
330
407
100
AcDbEntity
  8
LC-004-005-----0
 62
     7
370
    25
100
AcDbLine
 10
261.02406
 20
447.70025
 30
0.0
 11
263.02406
 21
449.70025
 31
0.0
  0
LINE
  5
460
330
407
100
AcDbEntity
  8
LC-004-005-----0
 62
     7
370
    25
100
AcDbLine
 10
261.02406
 20
450.528677
 30
0.0
 11
263.02406
 21
452.528677
 31
0.0
  0
LINE
  5
461
330
407
100
AcDbEntity
  8
LC-004-005-----0
 62
     7
370
    25
100
AcDbLine
 10
261.02406
 20
453.357104
 30
0.0
 11
263.02406
 21
455.357104
 31
0.0
  0
LINE
  5
462
330
407
100
AcDbEntity
  8
LC-004-005-----0
 62
     7
370
    25
100
AcDbLine
 10
261.02406
 20
456.185532
 30
0.0
 11
263.02406
 21
458.185532
 31
0.0
  0
LINE
  5
463
330
407
100
AcDbEntity
  8
LC-004-005-----0
 62
     7
370
    25
100
AcDbLine
 10
261.02406
 20
459.013959
 30
0.0
 11
263.02406
 21
461.013959
 31
0.0
  0
LINE
  5
464
330
407
100
AcDbEntity
  8
LC-004-005-----0
 62
     7
370
    25
100
AcDbLine
 10
261.02406
 20
461.842386
 30
0.0
 11
263.02406
 21
463.842386
 31
0.0
  0
LINE
  5
465
330
407
100
AcDbEntity
  8
LC-004-005-----0
 62
     7
370
    25
100
AcDbLine
 10
261.02406
 20
464.670813
 30
0.0
 11
263.02406
 21
466.670813
 31
0.0
  0
LINE
  5
466
330
407
100
AcDbEntity
  8
LC-004-005-----0
 62
     7
370
    25
100
AcDbLine
 10
261.02406
 20
467.49924
 30
0.0
 11
263.02406
 21
469.49924
 31
0.0
  0
LINE
  5
467
330
407
100
AcDbEntity
  8
LC-004-005-----0
 62
     7
370
    25
100
AcDbLine
 10
261.02406
 20
470.327667
 30
0.0
 11
263.02406
 21
472.327667
 31
0.0
  0
LINE
  5
468
330
407
100
AcDbEntity
  8
LC-004-005-----0
 62
     7
370
    25
100
AcDbLine
 10
261.02406
 20
473.156094
 30
0.0
 11
263.02406
 21
475.156094
 31
0.0
  0
LINE
  5
469
330
407
100
AcDbEntity
  8
LC-004-005-----0
 62
     7
370
    25
100
AcDbLine
 10
261.02406
 20
475.984521
 30
0.0
 11
263.02406
 21
477.984521
 31
0.0
  0
LINE
  5
46A
330
407
100
AcDbEntity
  8
LC-004-005-----0
 62
     7
370
    25
100
AcDbLine
 10
261.02406
 20
478.812949
 30
0.0
 11
263.02406
 21
480.812949
 31
0.0
  0
LINE
  5
46B
330
407
100
AcDbEntity
  8
LC-004-005-----0
 62
     7
370
    25
100
AcDbLine
 10
261.02406
 20
481.641376
 30
0.0
 11
263.02406
 21
483.641376
 31
0.0
  0
LINE
  5
46C
330
407
100
AcDbEntity
  8
LC-004-005-----0
 62
     7
370
    25
100
AcDbLine
 10
265.124696
 20
485.742012
 30
0.0
 11
266.524066
 21
487.141382
 31
0.0
  0
LINE
  5
46D
330
407
100
AcDbEntity
  8
LC-004-005-----0
 62
     7
370
    25
100
AcDbLine
 10
261.02406
 20
484.469803
 30
0.0
 11
264.296257
 21
487.742
 31
0.0
  0
LINE
  5
46E
330
407
100
AcDbEntity
  8
LC-004-005-----0
 62
     7
370
    25
100
AcDbLine
 10
261.02406
 20
487.29823
 30
0.0
 11
261.46783
 21
487.742
 31
0.0
  0
ENDBLK
  5
409
330
407
100
AcDbEntity
  8
0
100
AcDbBlockEnd
  0
BLOCK
  5
47B
330
471
100
AcDbEntity
  8
0
100
AcDbBlockBegin
  2
*D28
 70
     1
 71
     0
 10
0.0
 20
0.0
 30
0.0
  3
*D28
  1

  0
LINE
  5
472
330
471
100
AcDbEntity
  8
LC-002-003-----0
 62
     2
370
    -2
100
AcDbLine
 10
290.52406
 20
275.242
 30
0.0
 11
350.909106
 21
275.242
 31
0.0
  0
LINE
  5
473
330
471
100
AcDbEntity
  8
LC-002-003-----0
 62
     2
370
    -2
100
AcDbLine
 10
261.02406
 20
488.542
 30
0.0
 11
350.909106
 21
488.542
 31
0.0
  0
LINE
  5
474
330
471
100
AcDbEntity
  8
LC-002-003-----0
 62
     2
370
    -2
100
AcDbLine
 10
347.309106
 20
303.242
 30
0.0
 11
347.309106
 21
460.542
 31
0.0
  0
SOLID
  5
475
330
471
100
AcDbEntity
  8
LC-002-003-----0
 62
     2
100
AcDbTrace
 10
342.642439
 20
303.242
 30
0.0
 11
351.975773
 21
303.242
 31
0.0
 12
347.309106
 22
275.242
 32
0.0
 13
347.309106
 23
275.242
 33
0.0
  0
SOLID
  5
476
330
471
100
AcDbEntity
  8
LC-002-003-----0
 62
     2
100
AcDbTrace
 10
351.975773
 20
460.542
 30
0.0
 11
342.642439
 21
460.542
 31
0.0
 12
347.309106
 22
488.542
 32
0.0
 13
347.309106
 23
488.542
 33
0.0
  0
MTEXT
  5
477
330
471
100
AcDbEntity
  8
LC-002-003-----0
 62
     2
100
AcDbMText
 10
316.509106
 20
379.566
 30
0.0
 40
28.0
 41
0.0
 71
     5
 72
     1
  1
\A1;15-240
  7
LCTX15-400-0-0pDIN-Schrift
 11
6.123031769111886E-17
 21
1.0
 31
0.0
 73
     1
 44
1.0
  0
POINT
  5
478
330
471
100
AcDbEntity
  8
Defpoints
 62
     0
100
AcDbPoint
 10
290.52406
 20
275.242
 30
0.0
  0
POINT
  5
479
330
471
100
AcDbEntity
  8
Defpoints
 62
     0
100
AcDbPoint
 10
261.02406
 20
488.542
 30
0.0
  0
POINT
  5
47A
330
471
100
AcDbEntity
  8
Defpoints
 62
     0
100
AcDbPoint
 10
347.309106
 20
488.542
 30
0.0
  0
ENDBLK
  5
47C
330
471
100
AcDbEntity
  8
0
100
AcDbBlockEnd
  0
BLOCK
  5
489
330
47E
100
AcDbEntity
  8
0
100
AcDbBlockBegin
  2
*D29
 70
     1
 71
     0
 10
0.0
 20
0.0
 30
0.0
  3
*D29
  1

  0
LINE
  5
47F
330
47E
100
AcDbEntity
  8
LC-002-003-----0
 62
     2
370
    -2
100
AcDbLine
 10
227.524046
 20
500.739673
 30
0.0
 11
227.524046
 21
519.192
 31
0.0
  0
LINE
  5
480
330
47E
100
AcDbEntity
  8
LC-002-003-----0
 62
     2
370
    -2
100
AcDbLine
 10
266.524074
 20
500.739673
 30
0.0
 11
266.524074
 21
519.192
 31
0.0
  0
LINE
  5
481
330
47E
100
AcDbEntity
  8
LC-002-003-----0
 62
     2
370
    -2
100
AcDbLine
 10
199.524046
 20
515.592
 30
0.0
 11
171.524046
 21
515.592
 31
0.0
  0
LINE
  5
482
330
47E
100
AcDbEntity
  8
LC-002-003-----0
 62
     2
370
    -2
100
AcDbLine
 10
294.524074
 20
515.592
 30
0.0
 11
351.019757
 21
515.592
 31
0.0
  0
SOLID
  5
483
330
47E
100
AcDbEntity
  8
LC-002-003-----0
 62
     2
100
AcDbTrace
 10
199.524046
 20
510.925333
 30
0.0
 11
199.524046
 21
520.258667
 31
0.0
 12
227.524046
 22
515.592
 32
0.0
 13
227.524046
 23
515.592
 33
0.0
  0
SOLID
  5
484
330
47E
100
AcDbEntity
  8
LC-002-003-----0
 62
     2
100
AcDbTrace
 10
294.524074
 20
520.258667
 30
0.0
 11
294.524074
 21
510.925333
 31
0.0
 12
266.524074
 22
515.592
 32
0.0
 13
266.524074
 23
515.592
 33
0.0
  0
MTEXT
  5
485
330
47E
100
AcDbEntity
  8
LC-002-003-----0
 62
     2
100
AcDbMText
 10
288.801801
 20
546.392
 30
0.0
 40
28.0
 41
0.0
 71
     5
 72
     1
  1
\A1;1 1/4"
  7
LCTX15-400-0-0pDIN-Schrift
 73
     1
 44
1.0
  0
POINT
  5
486
330
47E
100
AcDbEntity
  8
Defpoints
 62
     0
100
AcDbPoint
 10
227.524046
 20
500.739673
 30
0.0
  0
POINT
  5
487
330
47E
100
AcDbEntity
  8
Defpoints
 62
     0
100
AcDbPoint
 10
266.524074
 20
500.739673
 30
0.0
  0
POINT
  5
488
330
47E
100
AcDbEntity
  8
Defpoints
 62
     0
100
AcDbPoint
 10
266.524074
 20
515.592
 30
0.0
  0
ENDBLK
  5
48A
330
47E
100
AcDbEntity
  8
0
100
AcDbBlockEnd
  0
ENDSEC
  0
SECTION
  2
ENTITIES
  0
LINE
  5
31
330
1F
100
AcDbEntity
  8
LC-001-002-----0
 62
     7
370
    50
100
AcDbLine
 10
227.524054
 20
487.742
 30
0.0
 11
227.524054
 21
485.742018
 31
0.0
  0
LINE
  5
33
330
1F
100
AcDbEntity
  8
LC-001-002-----0
  6
DASHDOT
 62
     7
370
    25
100
AcDbLine
 10
247.02406
 20
203.742
 30
0.0
 11
324.02406
 21
203.742
 31
0.0
  0
LINE
  5
34
330
1F
100
AcDbEntity
  8
LC-001-002-----0
 62
     7
370
    50
100
AcDbLine
 10
265.52406
 20
227.742
 30
0.0
 11
276.72406
 21
227.742
 31
0.0
  0
LINE
  5
35
330
1F
100
AcDbEntity
  8
LC-001-002-----0
 62
     7
370
    50
100
AcDbLine
 10
252.52406
 20
179.742
 30
0.0
 11
316.628131
 21
179.742
 31
0.0
  0
LINE
  5
36
330
1F
100
AcDbEntity
  8
LC-001-002-----0
 62
     7
370
    50
100
AcDbLine
 10
265.52406
 20
225.242
 30
0.0
 11
278.22406
 21
225.242
 31
0.0
  0
LINE
  5
37
330
1F
100
AcDbEntity
  8
LC-001-002-----0
 62
     7
370
    50
100
AcDbLine
 10
252.52406
 20
182.242
 30
0.0
 11
316.628131
 21
182.242
 31
0.0
  0
LINE
  5
38
330
1F
100
AcDbEntity
  8
LC-001-002-----0
 62
     7
370
    50
100
AcDbLine
 10
228.52406
 20
279.742
 30
0.0
 11
228.52406
 21
203.742
 31
0.0
  0
DIMENSION
  5
3C
330
1F
100
AcDbEntity
  8
LC-002-003-----0
 62
     7
370
    25
100
AcDbDimension
  2
*D1
 10
558.02406
 20
130.086
 30
0.0
 11
420.0
 21
160.886
 31
0.0
 70
   160
  1
140-310
 71
     5
 42
311.0
  3
LC-DIM-L-0140-02-02
100
AcDbAlignedDimension
 13
247.02406
 23
203.742
 33
0.0
 14
558.02406
 24
257.242
 34
0.0
100
AcDbRotatedDimension
  0
LINE
  5
4A
330
1F
100
AcDbEntity
  8
LC-001-002-----0
 62
     7
370
    50
100
AcDbLine
 10
265.52406
 20
279.742
 30
0.0
 11
265.52406
 21
227.742
 31
0.0
  0
LINE
  5
4B
330
1F
100
AcDbEntity
  8
LC-001-002-----0
 62
     7
370
    50
100
AcDbLine
 10
231.02406
 20
272.742
 30
0.0
 11
231.02406
 21
205.742
 31
0.0
  0
LINE
  5
4C
330
1F
100
AcDbEntity
  8
LC-001-002-----0
 62
     7
370
    50
100
AcDbLine
 10
263.02406
 20
272.742
 30
0.0
 11
263.02406
 21
205.742
 31
0.0
  0
ARC
  5
4E
330
1F
100
AcDbEntity
  8
LC-003-002-RND-0
 62
     7
370
    50
100
AcDbCircle
 10
252.52406
 20
203.742
 30
0.0
 40
24.0
100
AcDbArc
 50
180.0
 51
270.0
  0
ARC
  5
4F
330
1F
100
AcDbEntity
  8
LC-003-002-RND-0
 62
     7
370
    50
100
AcDbCircle
 10
252.52406
 20
203.742
 30
0.0
 40
21.5
100
AcDbArc
 50
180.0
 51
270.0
  0
LINE
  5
50
330
1F
100
AcDbEntity
  8
LC-001-002-----0
 62
     7
370
    50
100
AcDbLine
 10
231.02406
 20
203.742
 30
0.0
 11
233.52406
 21
203.742
 31
0.0
  0
LINE
  5
51
330
1F
100
AcDbEntity
  8
LC-001-002-----0
 62
     7
370
    50
100
AcDbLine
 10
233.52406
 20
205.742
 30
0.0
 11
233.52406
 21
203.742
 31
0.0
  0
LINE
  5
52
330
1F
100
AcDbEntity
  8
LC-001-002-----0
 62
     7
370
    50
100
AcDbLine
 10
231.02406
 20
205.742
 30
0.0
 11
233.52406
 21
205.742
 31
0.0
  0
LINE
  5
53
330
1F
100
AcDbEntity
  8
LC-001-002-----0
  6
DASHDOT
 62
     7
370
    25
100
AcDbLine
 10
290.52406
 20
275.242
 30
0.0
 11
290.52406
 21
221.854084
 31
0.0
  0
LINE
  5
54
330
1F
100
AcDbEntity
  8
LC-001-002-----0
 62
     7
370
    50
100
AcDbLine
 10
308.02406
 20
255.242
 30
0.0
 11
554.02406
 21
255.242
 31
0.0
  0
LINE
  5
55
330
1F
100
AcDbEntity
  8
LC-001-002-----0
 62
     7
370
    50
100
AcDbLine
 10
308.02406
 20
295.242
 30
0.0
 11
554.02406
 21
295.242
 31
0.0
  0
LINE
  5
56
330
1F
100
AcDbEntity
  8
LC-001-002-----0
  6
DASHDOT
 62
     7
370
    25
100
AcDbLine
 10
290.52406
 20
275.242
 30
0.0
 11
558.02406
 21
275.242
 31
0.0
  0
LINE
  5
57
330
1F
100
AcDbEntity
  8
LC-001-002-----0
 62
     7
370
    50
100
AcDbLine
 10
308.02406
 20
255.242
 30
0.0
 11
308.02406
 21
228.05277
 31
0.0
  0
LINE
  5
58
330
1F
100
AcDbEntity
  8
LC-001-002-----0
 62
     7
370
    50
100
AcDbLine
 10
273.02406
 20
260.242
 30
0.0
 11
273.02406
 21
228.05277
 31
0.0
  0
LINE
  5
59
330
1F
100
AcDbEntity
  8
LC-001-002-----0
 62
     7
370
    50
100
AcDbLine
 10
558.02406
 20
294.170203
 30
0.0
 11
558.02406
 21
256.313797
 31
0.0
  0
LINE
  5
5A
330
1F
100
AcDbEntity
  8
LC-001-002-----0
 62
     7
370
    50
100
AcDbLine
 10
308.02406
 20
293.242
 30
0.0
 11
558.02406
 21
293.242
 31
0.0
  0
LINE
  5
5B
330
1F
100
AcDbEntity
  8
LC-001-002-----0
 62
     7
370
    50
100
AcDbLine
 10
308.02406
 20
257.242
 30
0.0
 11
558.02406
 21
257.242
 31
0.0
  0
ARC
  5
5C
330
1F
100
AcDbEntity
  8
LC-003-002-RND-0
 62
     7
370
    50
100
AcDbCircle
 10
308.02406
 20
260.242
 30
0.0
 40
35.0
100
AcDbArc
 50
90.0
 51
180.0
  0
LINE
  5
5D
330
1F
100
AcDbEntity
  8
LC-001-002-----0
 62
     7
370
    50
100
AcDbLine
 10
554.02406
 20
255.242
 30
0.0
 11
558.02406
 21
256.313797
 31
0.0
  0
LINE
  5
5E
330
1F
100
AcDbEntity
  8
LC-001-002-----0
 62
     7
370
    50
100
AcDbLine
 10
554.02406
 20
295.242
 30
0.0
 11
558.02406
 21
294.170203
 31
0.0
  0
LINE
  5
5F
330
1F
100
AcDbEntity
  8
LC-001-002-----0
 62
     7
370
    50
100
AcDbLine
 10
275.02406
 20
260.242
 30
0.0
 11
275.02406
 21
228.05277
 31
0.0
  0
LINE
  5
60
330
1F
100
AcDbEntity
  8
LC-001-002-----0
 62
     7
370
    50
100
AcDbLine
 10
306.02406
 20
265.242
 30
0.0
 11
306.02406
 21
228.05277
 31
0.0
  0
ARC
  5
61
330
1F
100
AcDbEntity
  8
LC-003-002-RND-0
 62
     7
370
    50
100
AcDbCircle
 10
308.02406
 20
260.242
 30
0.0
 40
33.0
100
AcDbArc
 50
90.0
 51
180.0
  0
LINE
  5
62
330
1F
100
AcDbEntity
  8
LC-001-002-----0
 62
     7
370
    50
100
AcDbLine
 10
299.866972
 20
265.242
 30
0.0
 11
307.962741
 21
265.242
 31
0.0
  0
LINE
  5
63
330
1F
100
AcDbEntity
  8
LC-001-002-----0
 62
     7
370
    50
100
AcDbLine
 10
308.02406
 20
265.242
 30
0.0
 11
308.02406
 21
257.242
 31
0.0
  0
LINE
  5
64
330
1F
100
AcDbEntity
  8
LC-001-002-----0
 62
     7
370
    50
100
AcDbLine
 10
304.32406
 20
227.742
 30
0.0
 11
316.628131
 21
227.742
 31
0.0
  0
LINE
  5
65
330
1F
100
AcDbEntity
  8
LC-001-002-----0
 62
     7
370
    50
100
AcDbLine
 10
304.32406
 20
257.242
 30
0.0
 11
302.82406
 21
257.242
 31
0.0
  0
LINE
  5
66
330
1F
100
AcDbEntity
  8
LC-001-002-----0
 62
     7
370
    50
100
AcDbLine
 10
273.02406
 20
228.05277
 30
0.0
 11
275.02406
 21
228.05277
 31
0.0
  0
LINE
  5
67
330
1F
100
AcDbEntity
  8
LC-001-002-----0
 62
     7
370
    50
100
AcDbLine
 10
308.02406
 20
228.05277
 30
0.0
 11
306.02406
 21
228.05277
 31
0.0
  0
LINE
  5
68
330
1F
100
AcDbEntity
  8
LC-001-002-----0
 62
     7
370
    50
100
AcDbLine
 10
275.22406
 20
255.742
 30
0.0
 11
275.22406
 21
253.742
 31
0.0
  0
LINE
  5
69
330
1F
100
AcDbEntity
  8
LC-001-002-----0
 62
     7
370
    50
100
AcDbLine
 10
304.32406
 20
257.242
 30
0.0
 11
305.82406
 21
255.742
 31
0.0
  0
LINE
  5
6A
330
1F
100
AcDbEntity
  8
LC-001-002-----0
 62
     7
370
    50
100
AcDbLine
 10
278.22406
 20
257.242
 30
0.0
 11
278.22406
 21
225.242
 31
0.0
  0
LINE
  5
6B
330
1F
100
AcDbEntity
  8
LC-001-002-----0
 62
     7
370
    50
100
AcDbLine
 10
302.82406
 20
257.242
 30
0.0
 11
302.82406
 21
225.242
 31
0.0
  0
ARC
  5
6C
330
1F
100
AcDbEntity
  8
LC-001-002-----0
 62
     7
370
    50
100
AcDbCircle
 10
290.52406
 20
245.87593
 30
0.0
 40
24.02184533476245
100
AcDbArc
 50
239.200596
 51
300.799404
  0
LINE
  5
6D
330
1F
100
AcDbEntity
  8
LC-001-002-----0
 62
     7
370
    50
100
AcDbLine
 10
302.82406
 20
225.242
 30
0.0
 11
316.628131
 21
225.242
 31
0.0
  0
LINE
  5
6E
330
1F
100
AcDbEntity
  8
LC-001-002-----0
 62
     7
370
    50
100
AcDbLine
 10
276.72406
 20
252.242
 30
0.0
 11
276.72406
 21
249.242
 31
0.0
  0
LINE
  5
6F
330
1F
100
AcDbEntity
  8
LC-001-002-----0
 62
     7
370
    50
100
AcDbLine
 10
276.72406
 20
257.242
 30
0.0
 11
275.22406
 21
255.742
 31
0.0
  0
LINE
  5
70
330
1F
100
AcDbEntity
  8
LC-001-002-----0
 62
     7
370
    50
100
AcDbLine
 10
276.72406
 20
244.242
 30
0.0
 11
276.72406
 21
241.242
 31
0.0
  0
LINE
  5
71
330
1F
100
AcDbEntity
  8
LC-001-002-----0
 62
     7
370
    50
100
AcDbLine
 10
276.72406
 20
236.242
 30
0.0
 11
276.72406
 21
233.242
 31
0.0
  0
LINE
  5
72
330
1F
100
AcDbEntity
  8
LC-001-002-----0
 62
     7
370
    50
100
AcDbLine
 10
275.22406
 20
253.742
 30
0.0
 11
276.72406
 21
252.242
 31
0.0
  0
LINE
  5
73
330
1F
100
AcDbEntity
  8
LC-001-002-----0
 62
     7
370
    50
100
AcDbLine
 10
276.72406
 20
249.242
 30
0.0
 11
275.22406
 21
247.742
 31
0.0
  0
LINE
  5
74
330
1F
100
AcDbEntity
  8
LC-001-002-----0
 62
     7
370
    50
100
AcDbLine
 10
275.22406
 20
247.742
 30
0.0
 11
275.22406
 21
245.742
 31
0.0
  0
LINE
  5
75
330
1F
100
AcDbEntity
  8
LC-001-002-----0
 62
     7
370
    50
100
AcDbLine
 10
275.22406
 20
245.742
 30
0.0
 11
276.72406
 21
244.242
 31
0.0
  0
LINE
  5
76
330
1F
100
AcDbEntity
  8
LC-001-002-----0
 62
     7
370
    50
100
AcDbLine
 10
276.72406
 20
241.242
 30
0.0
 11
275.22406
 21
239.742
 31
0.0
  0
LINE
  5
77
330
1F
100
AcDbEntity
  8
LC-001-002-----0
 62
     7
370
    50
100
AcDbLine
 10
275.22406
 20
239.742
 30
0.0
 11
275.22406
 21
237.742
 31
0.0
  0
LINE
  5
78
330
1F
100
AcDbEntity
  8
LC-001-002-----0
 62
     7
370
    50
100
AcDbLine
 10
275.22406
 20
237.742
 30
0.0
 11
276.72406
 21
236.242
 31
0.0
  0
LINE
  5
79
330
1F
100
AcDbEntity
  8
LC-001-002-----0
 62
     7
370
    50
100
AcDbLine
 10
276.72406
 20
233.242
 30
0.0
 11
275.22406
 21
231.742
 31
0.0
  0
LINE
  5
7A
330
1F
100
AcDbEntity
  8
LC-001-002-----0
 62
     7
370
    50
100
AcDbLine
 10
275.22406
 20
231.742
 30
0.0
 11
275.22406
 21
229.742
 31
0.0
  0
LINE
  5
7B
330
1F
100
AcDbEntity
  8
LC-001-002-----0
 62
     7
370
    50
100
AcDbLine
 10
275.22406
 20
229.742
 30
0.0
 11
276.72406
 21
228.242
 31
0.0
  0
LINE
  5
7C
330
1F
100
AcDbEntity
  8
LC-001-002-----0
 62
     7
370
    50
100
AcDbLine
 10
276.72406
 20
228.242
 30
0.0
 11
276.72406
 21
227.742
 31
0.0
  0
LINE
  5
7D
330
1F
100
AcDbEntity
  8
LC-001-002-----0
 62
     7
370
    50
100
AcDbLine
 10
305.82406
 20
255.742
 30
0.0
 11
305.82406
 21
253.742
 31
0.0
  0
LINE
  5
7E
330
1F
100
AcDbEntity
  8
LC-001-002-----0
 62
     7
370
    50
100
AcDbLine
 10
305.82406
 20
253.742
 30
0.0
 11
304.32406
 21
252.242
 31
0.0
  0
LINE
  5
7F
330
1F
100
AcDbEntity
  8
LC-001-002-----0
 62
     7
370
    50
100
AcDbLine
 10
304.32406
 20
252.242
 30
0.0
 11
304.32406
 21
249.242
 31
0.0
  0
LINE
  5
80
330
1F
100
AcDbEntity
  8
LC-001-002-----0
 62
     7
370
    50
100
AcDbLine
 10
304.32406
 20
249.242
 30
0.0
 11
305.82406
 21
247.742
 31
0.0
  0
LINE
  5
81
330
1F
100
AcDbEntity
  8
LC-001-002-----0
 62
     7
370
    50
100
AcDbLine
 10
305.82406
 20
247.742
 30
0.0
 11
305.82406
 21
245.742
 31
0.0
  0
LINE
  5
82
330
1F
100
AcDbEntity
  8
LC-001-002-----0
 62
     7
370
    50
100
AcDbLine
 10
305.82406
 20
245.742
 30
0.0
 11
304.32406
 21
244.242
 31
0.0
  0
LINE
  5
83
330
1F
100
AcDbEntity
  8
LC-001-002-----0
 62
     7
370
    50
100
AcDbLine
 10
304.32406
 20
244.242
 30
0.0
 11
304.32406
 21
241.242
 31
0.0
  0
LINE
  5
84
330
1F
100
AcDbEntity
  8
LC-001-002-----0
 62
     7
370
    50
100
AcDbLine
 10
304.32406
 20
241.242
 30
0.0
 11
305.82406
 21
239.742
 31
0.0
  0
LINE
  5
85
330
1F
100
AcDbEntity
  8
LC-001-002-----0
 62
     7
370
    50
100
AcDbLine
 10
305.82406
 20
239.742
 30
0.0
 11
305.82406
 21
237.742
 31
0.0
  0
LINE
  5
86
330
1F
100
AcDbEntity
  8
LC-001-002-----0
 62
     7
370
    50
100
AcDbLine
 10
305.82406
 20
237.742
 30
0.0
 11
304.32406
 21
236.242
 31
0.0
  0
LINE
  5
87
330
1F
100
AcDbEntity
  8
LC-001-002-----0
 62
     7
370
    50
100
AcDbLine
 10
304.32406
 20
236.242
 30
0.0
 11
304.32406
 21
233.242
 31
0.0
  0
LINE
  5
88
330
1F
100
AcDbEntity
  8
LC-001-002-----0
 62
     7
370
    50
100
AcDbLine
 10
304.32406
 20
233.242
 30
0.0
 11
305.82406
 21
231.742
 31
0.0
  0
LINE
  5
89
330
1F
100
AcDbEntity
  8
LC-001-002-----0
 62
     7
370
    50
100
AcDbLine
 10
305.82406
 20
231.742
 30
0.0
 11
305.82406
 21
229.742
 31
0.0
  0
LINE
  5
8A
330
1F
100
AcDbEntity
  8
LC-001-002-----0
 62
     7
370
    50
100
AcDbLine
 10
305.82406
 20
229.742
 30
0.0
 11
304.32406
 21
228.242
 31
0.0
  0
LINE
  5
8B
330
1F
100
AcDbEntity
  8
LC-001-002-----0
 62
     7
370
    50
100
AcDbLine
 10
304.32406
 20
228.242
 30
0.0
 11
304.32406
 21
227.742
 31
0.0
  0
INSERT
  5
94
330
1F
100
AcDbEntity
  8
LC-004-005-----0
 62
     7
370
    25
100
AcDbBlockReference
  2
*X12
 10
0.0
 20
0.0
 30
0.0
  0
INSERT
  5
9C
330
1F
100
AcDbEntity
  8
LC-004-005-----0
 62
     7
370
    25
100
AcDbBlockReference
  2
*X23
 10
0.0
 20
0.0
 30
0.0
  0
CIRCLE
  5
9D
330
1F
100
AcDbEntity
  8
LC-001-002-----0
 62
     7
370
    50
100
AcDbCircle
 10
275.87406
 20
242.742
 30
0.0
 40
0.8499999999999659
  0
CIRCLE
  5
9E
330
1F
100
AcDbEntity
  8
LC-001-002-----0
 62
     7
370
    50
100
AcDbCircle
 10
305.17406
 20
242.742
 30
0.0
 40
0.8499999999999659
  0
LINE
  5
9F
330
1F
100
AcDbEntity
  8
LC-001-002-----0
 62
     7
370
    50
100
AcDbLine
 10
227.021939
 20
484.24202
 30
0.0
 11
229.895013
 21
484.24202
 31
0.0
  0
LINE
  5
A0
330
1F
100
AcDbEntity
  8
LC-001-002-----0
 62
     7
370
    50
100
AcDbLine
 10
227.524046
 20
500.739673
 30
0.0
 11
266.524074
 21
500.739673
 31
0.0
  0
LINE
  5
A1
330
1F
100
AcDbEntity
  8
LC-001-002-----0
 62
     7
370
    50
100
AcDbLine
 10
228.52406
 20
279.742
 30
0.0
 11
229.148416
 21
279.742
 31
0.0
  0
LINE
  5
A2
330
1F
100
AcDbEntity
  8
LC-001-002-----0
 62
     7
370
    50
100
AcDbLine
 10
265.52406
 20
205.742
 30
0.0
 11
233.52406
 21
205.742
 31
0.0
  0
LINE
  5
A3
330
1F
100
AcDbEntity
  8
LC-001-002-----0
 62
     7
370
    50
100
AcDbLine
 10
231.02406
 20
272.742
 30
0.0
 11
229.148416
 21
279.742
 31
0.0
  0
LINE
  5
A4
330
1F
100
AcDbEntity
  8
LC-001-002-----0
 62
     7
370
    50
100
AcDbLine
 10
263.02406
 20
272.742
 30
0.0
 11
264.899704
 21
279.742
 31
0.0
  0
LINE
  5
A5
330
1F
100
AcDbEntity
  8
LC-001-002-----0
 62
     7
370
    50
100
AcDbLine
 10
228.52406
 20
279.742
 30
0.0
 11
227.02406
 21
278.242
 31
0.0
  0
LINE
  5
A6
330
1F
100
AcDbEntity
  8
LC-001-002-----0
 62
     7
370
    50
100
AcDbLine
 10
227.02406
 20
278.242
 30
0.0
 11
227.02406
 21
271.242
 31
0.0
  0
LINE
  5
A7
330
1F
100
AcDbEntity
  8
LC-001-002-----0
 62
     7
370
    50
100
AcDbLine
 10
228.52406
 20
269.742
 30
0.0
 11
227.02406
 21
271.242
 31
0.0
  0
LINE
  5
A8
330
1F
100
AcDbEntity
  8
LC-001-002-----0
 62
     7
370
    50
100
AcDbLine
 10
265.52406
 20
279.742
 30
0.0
 11
267.02406
 21
278.242
 31
0.0
  0
LINE
  5
A9
330
1F
100
AcDbEntity
  8
LC-001-002-----0
 62
     7
370
    50
100
AcDbLine
 10
267.02406
 20
278.242
 30
0.0
 11
267.02406
 21
271.242
 31
0.0
  0
LINE
  5
AA
330
1F
100
AcDbEntity
  8
LC-001-002-----0
 62
     7
370
    50
100
AcDbLine
 10
265.52406
 20
269.742
 30
0.0
 11
267.02406
 21
271.242
 31
0.0
  0
LINE
  5
AB
330
1F
100
AcDbEntity
  8
LC-001-002-----0
 62
     7
370
    50
100
AcDbLine
 10
228.612517
 20
281.742
 30
0.0
 11
231.02406
 21
281.742
 31
0.0
  0
LINE
  5
AC
330
1F
100
AcDbEntity
  8
LC-001-002-----0
 62
     7
370
    50
100
AcDbLine
 10
231.02406
 20
281.742
 30
0.0
 11
231.02406
 21
272.742
 31
0.0
  0
INSERT
  5
B8
330
1F
100
AcDbEntity
  8
LC-004-005-----0
 62
     7
370
    25
100
AcDbBlockReference
  2
*X34
 10
0.0
 20
0.0
 30
0.0
  0
LINE
  5
B9
330
1F
100
AcDbEntity
  8
LC-001-002-----0
 62
     7
370
    50
100
AcDbLine
 10
265.435603
 20
281.742
 30
0.0
 11
263.02406
 21
281.742
 31
0.0
  0
LINE
  5
BA
330
1F
100
AcDbEntity
  8
LC-001-002-----0
 62
     7
370
    50
100
AcDbLine
 10
265.52406
 20
225.242
 30
0.0
 11
265.52406
 21
205.742
 31
0.0
  0
LINE
  5
BB
330
1F
100
AcDbEntity
  8
LC-001-002-----0
 62
     7
370
    50
100
AcDbLine
 10
231.02406
 20
272.742
 30
0.0
 11
228.612517
 21
281.742
 31
0.0
  0
LINE
  5
BC
330
1F
100
AcDbEntity
  8
LC-001-002-----0
 62
     7
370
    50
100
AcDbLine
 10
266.77406
 20
281.741997
 30
0.0
 11
266.77406
 21
281.741997
 31
0.0
  0
LINE
  5
BD
330
1F
100
AcDbEntity
  8
LC-001-002-----0
 62
     7
370
    50
100
AcDbLine
 10
263.02406
 20
272.742
 30
0.0
 11
265.435603
 21
281.742
 31
0.0
  0
INSERT
  5
C8
330
1F
100
AcDbEntity
  8
LC-004-005-----0
 62
     7
370
    25
100
AcDbBlockReference
  2
*X45
 10
0.0
 20
0.0
 30
0.0
  0
LINE
  5
C9
330
1F
100
AcDbEntity
  8
LC-001-002-----0
 62
     7
370
    50
100
AcDbLine
 10
263.02406
 20
281.742
 30
0.0
 11
263.02406
 21
272.742
 31
0.0
  0
LINE
  5
CA
330
1F
100
AcDbEntity
  8
LC-001-002-----0
 62
     7
370
    50
100
AcDbLine
 10
264.899704
 20
279.742
 30
0.0
 11
265.52406
 21
279.742
 31
0.0
  0
LINE
  5
CB
330
1F
100
AcDbEntity
  8
LC-001-002-----0
 62
     7
370
    50
100
AcDbLine
 10
227.27406
 20
281.742003
 30
0.0
 11
227.27406
 21
281.742003
 31
0.0
  0
LINE
  5
CC
330
1F
100
AcDbEntity
  8
LC-001-002-----0
  6
DASHDOT
 62
     7
370
    25
100
AcDbLine
 10
247.02406
 20
502.241956
 30
0.0
 11
247.02406
 21
205.742
 31
0.0
  0
LINE
  5
CD
330
1F
100
AcDbEntity
  8
LC-001-002-----0
 62
     7
370
    50
100
AcDbLine
 10
231.02406
 20
485.742
 30
0.0
 11
231.02406
 21
209.242
 31
0.0
  0
LINE
  5
CE
330
1F
100
AcDbEntity
  8
LC-001-002-----0
 62
     7
370
    50
100
AcDbLine
 10
263.02406
 20
485.742
 30
0.0
 11
263.02406
 21
209.242
 31
0.0
  0
LINE
  5
CF
330
1F
100
AcDbEntity
  8
LC-001-002-----0
 62
     7
370
    50
100
AcDbLine
 10
266.77406
 20
281.741997
 30
0.0
 11
263.650993
 21
281.741997
 31
0.0
  0
LINE
  5
D0
330
1F
100
AcDbEntity
  8
LC-001-002-----0
 62
     7
370
    50
100
AcDbLine
 10
233.02406
 20
487.742
 30
0.0
 11
233.02406
 21
205.742
 31
0.0
  0
LINE
  5
D1
330
1F
100
AcDbEntity
  8
LC-001-002-----0
 62
     7
370
    50
100
AcDbLine
 10
261.02406
 20
487.742
 30
0.0
 11
261.02406
 21
205.742
 31
0.0
  0
LINE
  5
D2
330
1F
100
AcDbEntity
  8
LC-001-002-----0
 62
     7
370
    50
100
AcDbLine
 10
231.961882
 20
205.742
 30
0.0
 11
262.086238
 21
205.742
 31
0.0
  0
LINE
  5
D3
330
1F
100
AcDbEntity
  8
LC-001-002-----0
 62
     7
370
    50
100
AcDbLine
 10
266.524066
 20
487.742
 30
0.0
 11
266.524066
 21
485.74202
 31
0.0
  0
LINE
  5
D4
330
1F
100
AcDbEntity
  8
LC-001-002-----0
 62
     7
370
    50
100
AcDbLine
 10
231.02406
 20
209.242
 30
0.0
 11
231.961882
 21
205.742
 31
0.0
  0
LINE
  5
D5
330
1F
100
AcDbEntity
  8
LC-001-002-----0
 62
     7
370
    50
100
AcDbLine
 10
263.02406
 20
209.242
 30
0.0
 11
262.086238
 21
205.742
 31
0.0
  0
LINE
  5
D6
330
1F
100
AcDbEntity
  8
LC-001-002-----0
 62
     7
370
    50
100
AcDbLine
 10
227.021946
 20
485.742
 30
0.0
 11
231.02406
 21
485.742
 31
0.0
  0
LINE
  5
D7
330
1F
100
AcDbEntity
  8
LC-001-002-----0
 62
     7
370
    50
100
AcDbLine
 10
227.524054
 20
487.742
 30
0.0
 11
266.524066
 21
487.742
 31
0.0
  0
LINE
  5
D8
330
1F
100
AcDbEntity
  8
LC-001-002-----0
 62
     7
370
    50
100
AcDbLine
 10
269.024049
 20
265.241986
 30
0.0
 11
267.52405
 21
266.741985
 31
0.0
  0
LINE
  5
D9
330
1F
100
AcDbEntity
  8
LC-001-002-----0
 62
     7
370
    50
100
AcDbLine
 10
269.024059
 20
280.741986
 30
0.0
 11
267.524058
 21
279.241985
 31
0.0
  0
LINE
  5
DA
330
1F
100
AcDbEntity
  8
LC-001-002-----0
 62
     7
370
    50
100
AcDbLine
 10
267.524058
 20
279.241985
 30
0.0
 11
267.52405
 21
266.741985
 31
0.0
  0
LINE
  5
DB
330
1F
100
AcDbEntity
  8
LC-001-002-----0
 62
     7
370
    50
100
AcDbLine
 10
226.524058
 20
279.242011
 30
0.0
 11
226.52405
 21
266.742011
 31
0.0
  0
LINE
  5
DC
330
1F
100
AcDbEntity
  8
LC-001-002-----0
 62
     7
370
    50
100
AcDbLine
 10
225.024049
 20
265.242014
 30
0.0
 11
226.52405
 21
266.742011
 31
0.0
  0
LINE
  5
DD
330
1F
100
AcDbEntity
  8
LC-001-002-----0
 62
     7
370
    50
100
AcDbLine
 10
225.024059
 20
280.742014
 30
0.0
 11
226.524058
 21
279.242011
 31
0.0
  0
LINE
  5
DE
330
1F
100
AcDbEntity
  8
LC-001-002-----0
 62
     7
370
    50
100
AcDbLine
 10
271.024057
 20
277.739739
 30
0.0
 11
271.524057
 21
277.739739
 31
0.0
  0
LINE
  5
DF
330
1F
100
AcDbEntity
  8
LC-001-002-----0
 62
     7
370
    50
100
AcDbLine
 10
271.524057
 20
277.739739
 30
0.0
 11
271.52405
 21
266.241984
 31
0.0
  0
LINE
  5
E0
330
1F
100
AcDbEntity
  8
LC-001-002-----0
 62
     7
370
    50
100
AcDbLine
 10
223.024057
 20
277.73977
 30
0.0
 11
222.524057
 21
277.739771
 31
0.0
  0
LINE
  5
E1
330
1F
100
AcDbEntity
  8
LC-001-002-----0
 62
     7
370
    50
100
AcDbLine
 10
222.524057
 20
277.739771
 30
0.0
 11
222.52405
 21
266.242016
 31
0.0
  0
LINE
  5
E2
102
{ACAD_REACTORS
330
48D
102
}
330
1F
100
AcDbEntity
  8
LC-001-002-----0
 62
     7
370
    50
100
AcDbLine
 10
271.02405
 20
266.241984
 30
0.0
 11
272.02405
 21
266.241984
 31
0.0
  0
LINE
  5
E3
102
{ACAD_REACTORS
330
48D
102
}
330
1F
100
AcDbEntity
  8
LC-001-002-----0
 62
     7
370
    50
100
AcDbLine
 10
272.02405
 20
266.241984
 30
0.0
 11
272.024049
 21
265.241984
 31
0.0
  0
LINE
  5
E4
102
{ACAD_REACTORS
330
48D
102
}
330
1F
100
AcDbEntity
  8
LC-001-002-----0
 62
     7
370
    50
100
AcDbLine
 10
272.024049
 20
265.241984
 30
0.0
 11
265.52406
 21
265.241988
 31
0.0
  0
LINE
  5
E5
102
{ACAD_REACTORS
330
48D
102
}
330
1F
100
AcDbEntity
  8
LC-001-002-----0
 62
     7
370
    50
100
AcDbLine
 10
269.024049
 20
265.241986
 30
0.0
 11
269.02405
 21
266.241986
 31
0.0
  0
ARC
  5
E6
102
{ACAD_REACTORS
330
48D
102
}
330
1F
100
AcDbEntity
  8
LC-001-002-----0
 62
     7
370
    50
100
AcDbCircle
 10
268.024059
 20
280.241986
 30
0.0
 40
3.000000000000186
100
AcDbArc
 50
359.999963
 51
89.999963
  0
LINE
  5
E7
102
{ACAD_REACTORS
330
48D
102
}
330
1F
100
AcDbEntity
  8
LC-001-002-----0
 62
     7
370
    50
100
AcDbLine
 10
271.024059
 20
280.241984
 30
0.0
 11
271.02405
 21
266.241984
 31
0.0
  0
LINE
  5
E8
102
{ACAD_REACTORS
330
48D
102
}
330
1F
100
AcDbEntity
  8
LC-001-002-----0
 62
     7
370
    50
100
AcDbLine
 10
265.52406
 20
281.741988
 30
0.0
 11
268.02406
 21
281.741986
 31
0.0
  0
ARC
  5
E9
102
{ACAD_REACTORS
330
48D
102
}
330
1F
100
AcDbEntity
  8
LC-001-002-----0
 62
     7
370
    50
100
AcDbCircle
 10
268.024059
 20
280.741986
 30
0.0
 40
1.0000000000001
100
AcDbArc
 50
359.999963
 51
89.999963
  0
LINE
  5
EA
102
{ACAD_REACTORS
330
48D
102
}
330
1F
100
AcDbEntity
  8
LC-001-002-----0
 62
     7
370
    50
100
AcDbLine
 10
269.024059
 20
280.741986
 30
0.0
 11
269.02405
 21
266.241986
 31
0.0
  0
LINE
  5
EB
102
{ACAD_REACTORS
330
48D
102
}
330
1F
100
AcDbEntity
  8
LC-001-002-----0
 62
     7
370
    50
100
AcDbLine
 10
223.021957
 20
280.239651
 30
0.0
 11
223.022022
 21
266.239651
 31
0.0
  0
LINE
  5
EC
102
{ACAD_REACTORS
330
48D
102
}
330
1F
100
AcDbEntity
  8
LC-001-002-----0
 62
     7
370
    50
100
AcDbLine
 10
223.022022
 20
266.239651
 30
0.0
 11
222.022022
 21
266.239646
 31
0.0
  0
LINE
  5
ED
102
{ACAD_REACTORS
330
48D
102
}
330
1F
100
AcDbEntity
  8
LC-001-002-----0
 62
     7
370
    50
100
AcDbLine
 10
222.022022
 20
266.239646
 30
0.0
 11
222.022027
 21
265.239646
 31
0.0
  0
LINE
  5
EE
102
{ACAD_REACTORS
330
48D
102
}
330
1F
100
AcDbEntity
  8
LC-001-002-----0
 62
     7
370
    50
100
AcDbLine
 10
222.022027
 20
265.239646
 30
0.0
 11
228.52406
 21
265.239668
 31
0.0
  0
LINE
  5
EF
102
{ACAD_REACTORS
330
48D
102
}
330
1F
100
AcDbEntity
  8
LC-001-002-----0
 62
     7
370
    50
100
AcDbLine
 10
225.021955
 20
280.73966
 30
0.0
 11
225.022022
 21
266.23966
 31
0.0
  0
LINE
  5
F0
102
{ACAD_REACTORS
330
48D
102
}
330
1F
100
AcDbEntity
  8
LC-001-002-----0
 62
     7
370
    50
100
AcDbLine
 10
225.022027
 20
265.23966
 30
0.0
 11
225.022022
 21
266.23966
 31
0.0
  0
ARC
  5
F1
102
{ACAD_REACTORS
330
48D
102
}
330
1F
100
AcDbEntity
  8
LC-001-002-----0
 62
     7
370
    50
100
AcDbCircle
 10
226.021957
 20
280.239664
 30
0.0
 40
3.000000000000197
100
AcDbArc
 50
90.000267
 51
180.000229
  0
LINE
  5
F2
102
{ACAD_REACTORS
330
48D
102
}
330
1F
100
AcDbEntity
  8
LC-001-002-----0
 62
     7
370
    50
100
AcDbLine
 10
230.395017
 20
281.739685
 30
0.0
 11
226.02195
 21
281.739664
 31
0.0
  0
ARC
  5
F3
102
{ACAD_REACTORS
330
48D
102
}
330
1F
100
AcDbEntity
  8
LC-001-002-----0
 62
     7
370
    50
100
AcDbCircle
 10
226.021955
 20
280.739664
 30
0.0
 40
1.000000000000028
100
AcDbArc
 50
90.000267
 51
180.000229
  0
INSERT
  5
FD
330
1F
100
AcDbEntity
  8
LC-004-005-----0
 62
     7
370
    25
100
AcDbBlockReference
  2
*X56
 10
0.0
 20
0.0
 30
0.0
  0
INSERT
  5
107
330
1F
100
AcDbEntity
  8
LC-004-005-----0
 62
     7
370
    25
100
AcDbBlockReference
  2
*X67
 10
0.0
 20
0.0
 30
0.0
  0
LINE
  5
108
102
{ACAD_REACTORS
330
48D
102
}
330
1F
100
AcDbEntity
  8
LC-001-002-----0
 62
     7
370
    50
100
AcDbLine
 10
265.150993
 20
283.241988
 30
0.0
 11
268.024061
 21
283.241986
 31
0.0
  0
ARC
  5
109
102
{ACAD_REACTORS
330
48D
102
}
330
1F
100
AcDbEntity
  8
LC-001-002-----0
 62
     7
370
    50
100
AcDbCircle
 10
265.150993
 20
281.741987
 30
0.0
 40
1.500000000000036
100
AcDbArc
 50
89.999963
 51
179.999811
  0
LINE
  5
10A
102
{ACAD_REACTORS
330
48D
102
}
330
1F
100
AcDbEntity
  8
LC-001-002-----0
 62
     7
370
    50
100
AcDbLine
 10
265.52406
 20
281.741988
 30
0.0
 11
265.52406
 21
281.741988
 31
0.0
  0
LINE
  5
10B
102
{ACAD_REACTORS
330
48D
102
}
330
1F
100
AcDbEntity
  8
LC-001-002-----0
 62
     7
370
    50
100
AcDbLine
 10
228.89501
 20
283.239678
 30
0.0
 11
226.021943
 21
283.239664
 31
0.0
  0
ARC
  5
10C
102
{ACAD_REACTORS
330
48D
102
}
330
1F
100
AcDbEntity
  8
LC-001-002-----0
 62
     7
370
    50
100
AcDbCircle
 10
228.895017
 20
281.739669
 30
0.0
 40
1.499999999999928
100
AcDbArc
 50
0.000267
 51
90.000267
  0
LINE
  5
10D
102
{ACAD_REACTORS
330
48D
102
}
330
1F
100
AcDbEntity
  8
LC-001-002-----0
 62
     7
370
    50
100
AcDbLine
 10
228.52195
 20
281.739676
 30
0.0
 11
228.52195
 21
281.739676
 31
0.0
  0
INSERT
  5
148
330
1F
100
AcDbEntity
  8
LC-004-005-----0
 62
     7
370
    25
100
AcDbBlockReference
  2
*X78
 10
0.0
 20
0.0
 30
0.0
  0
INSERT
  5
176
330
1F
100
AcDbEntity
  8
LC-004-005-----0
 62
     7
370
    25
100
AcDbBlockReference
  2
*X89
 10
0.0
 20
0.0
 30
0.0
  0
INSERT
  5
189
330
1F
100
AcDbEntity
  8
LC-004-005-----0
 62
     7
370
    25
100
AcDbBlockReference
  2
*X910
 10
0.0
 20
0.0
 30
0.0
  0
INSERT
  5
1F3
330
1F
100
AcDbEntity
  8
LC-004-005-----0
 62
     7
370
    25
100
AcDbBlockReference
  2
*X1011
 10
0.0
 20
0.0
 30
0.0
  0
INSERT
  5
265
330
1F
100
AcDbEntity
  8
LC-004-005-----0
 62
     7
370
    25
100
AcDbBlockReference
  2
*X1112
 10
0.0
 20
0.0
 30
0.0
  0
LINE
  5
266
102
{ACAD_REACTORS
330
48B
102
}
330
1F
100
AcDbEntity
  8
LC-001-002-----0
 62
     7
370
    50
100
AcDbLine
 10
317.02406
 20
227.742
 30
0.0
 11
323.02406
 21
227.742
 31
0.0
  0
LINE
  5
267
102
{ACAD_REACTORS
330
48B
102
}
330
1F
100
AcDbEntity
  8
LC-001-002-----0
 62
     7
370
    50
100
AcDbLine
 10
317.02406
 20
179.742
 30
0.0
 11
323.02406
 21
179.742
 31
0.0
  0
LINE
  5
268
102
{ACAD_REACTORS
330
48B
102
}
330
1F
100
AcDbEntity
  8
LC-001-002-----0
 62
     7
370
    50
100
AcDbLine
 10
324.02406
 20
226.742
 30
0.0
 11
324.02406
 21
180.742
 31
0.0
  0
LINE
  5
269
102
{ACAD_REACTORS
330
48B
102
}
330
1F
100
AcDbEntity
  8
LC-001-002-----0
 62
     7
370
    50
100
AcDbLine
 10
317.02406
 20
227.742
 30
0.0
 11
317.02406
 21
210.462485
 31
0.0
  0
LINE
  5
26A
102
{ACAD_REACTORS
330
48B
102
}
330
1F
100
AcDbEntity
  8
LC-001-002-----0
 62
     7
370
    50
100
AcDbLine
 10
318.02406
 20
225.742
 30
0.0
 11
318.02406
 21
212.242
 31
0.0
  0
LINE
  5
26B
102
{ACAD_REACTORS
330
48B
102
}
330
1F
100
AcDbEntity
  8
LC-001-002-----0
 62
     7
370
    50
100
AcDbLine
 10
318.02406
 20
225.742
 30
0.0
 11
324.02406
 21
225.742
 31
0.0
  0
ARC
  5
26C
102
{ACAD_REACTORS
330
48B
102
}
330
1F
100
AcDbEntity
  8
LC-003-002-RND-0
 62
     7
370
    50
100
AcDbCircle
 10
323.02406
 20
226.742
 30
0.0
 40
1.0
100
AcDbArc
 50
0.0
 51
90.0
  0
LINE
  5
26D
102
{ACAD_REACTORS
330
48B
102
}
330
1F
100
AcDbEntity
  8
LC-001-002-----0
 62
     7
370
    50
100
AcDbLine
 10
318.02406
 20
181.742
 30
0.0
 11
324.02406
 21
181.742
 31
0.0
  0
LINE
  5
26E
102
{ACAD_REACTORS
330
48B
102
}
330
1F
100
AcDbEntity
  8
LC-001-002-----0
 62
     7
370
    50
100
AcDbLine
 10
322.02406
 20
225.742
 30
0.0
 11
322.02406
 21
181.742
 31
0.0
  0
ARC
  5
26F
102
{ACAD_REACTORS
330
48B
102
}
330
1F
100
AcDbEntity
  8
LC-001-002-----0
 62
     7
370
    50
100
AcDbCircle
 10
310.99281
 20
203.742
 30
0.0
 40
11.03125
100
AcDbArc
 50
309.597753
 51
50.402247
  0
ARC
  5
270
102
{ACAD_REACTORS
330
48B
102
}
330
1F
100
AcDbEntity
  8
LC-003-002-RND-0
 62
     7
370
    50
100
AcDbCircle
 10
323.02406
 20
180.742
 30
0.0
 40
1.0
100
AcDbArc
 50
270.0
 51
0.0
  0
LINE
  5
271
102
{ACAD_REACTORS
330
48B
102
}
330
1F
100
AcDbEntity
  8
LC-001-002-----0
 62
     7
370
    50
100
AcDbLine
 10
318.02406
 20
195.242
 30
0.0
 11
318.02406
 21
181.742
 31
0.0
  0
LINE
  5
272
102
{ACAD_REACTORS
330
48B
102
}
330
1F
100
AcDbEntity
  8
LC-001-002-----0
 62
     7
370
    50
100
AcDbLine
 10
310.02406
 20
221.742
 30
0.0
 11
310.02406
 21
205.742
 31
0.0
  0
LINE
  5
273
102
{ACAD_REACTORS
330
48B
102
}
330
1F
100
AcDbEntity
  8
LC-001-002-----0
 62
     7
370
    50
100
AcDbLine
 10
311.02406
 20
212.242
 30
0.0
 11
315.957123
 21
212.242
 31
0.0
  0
LINE
  5
274
102
{ACAD_REACTORS
330
48B
102
}
330
1F
100
AcDbEntity
  8
LC-001-002-----0
 62
     7
370
    50
100
AcDbLine
 10
306.02406
 20
185.568633
 30
0.0
 11
302.52406
 21
185.568633
 31
0.0
  0
LINE
  5
275
102
{ACAD_REACTORS
330
48B
102
}
330
1F
100
AcDbEntity
  8
LC-001-002-----0
 62
     7
370
    50
100
AcDbLine
 10
308.02406
 20
224.742
 30
0.0
 11
308.02406
 21
221.742
 31
0.0
  0
LINE
  5
276
102
{ACAD_REACTORS
330
48B
102
}
330
1F
100
AcDbEntity
  8
LC-001-002-----0
 62
     7
370
    50
100
AcDbLine
 10
307.175023
 20
219.742
 30
0.0
 11
310.02406
 21
219.742
 31
0.0
  0
LINE
  5
277
102
{ACAD_REACTORS
330
48B
102
}
330
1F
100
AcDbEntity
  8
LC-001-002-----0
 62
     7
370
    50
100
AcDbLine
 10
302.02406
 20
187.742
 30
0.0
 11
310.02406
 21
187.742
 31
0.0
  0
LINE
  5
278
102
{ACAD_REACTORS
330
48B
102
}
330
1F
100
AcDbEntity
  8
LC-001-002-----0
 62
     7
370
    50
100
AcDbLine
 10
306.02406
 20
224.742
 30
0.0
 11
308.02406
 21
224.742
 31
0.0
  0
LINE
  5
279
102
{ACAD_REACTORS
330
48B
102
}
330
1F
100
AcDbEntity
  8
LC-001-002-----0
 62
     7
370
    50
100
AcDbLine
 10
306.02406
 20
182.742
 30
0.0
 11
306.02406
 21
185.568633
 31
0.0
  0
LINE
  5
27A
102
{ACAD_REACTORS
330
48B
102
}
330
1F
100
AcDbEntity
  8
LC-001-002-----0
 62
     7
370
    50
100
AcDbLine
 10
306.02406
 20
224.742
 30
0.0
 11
306.02406
 21
221.760778
 31
0.0
  0
LINE
  5
27B
102
{ACAD_REACTORS
330
48B
102
}
330
1F
100
AcDbEntity
  8
LC-001-002-----0
 62
     7
370
    50
100
AcDbLine
 10
308.02406
 20
221.742
 30
0.0
 11
310.02406
 21
221.742
 31
0.0
  0
LINE
  5
27C
102
{ACAD_REACTORS
330
48B
102
}
330
1F
100
AcDbEntity
  8
LC-001-002-----0
 62
     7
370
    50
100
AcDbLine
 10
306.02406
 20
182.742
 30
0.0
 11
308.02406
 21
182.742
 31
0.0
  0
LINE
  5
27D
102
{ACAD_REACTORS
330
48B
102
}
330
1F
100
AcDbEntity
  8
LC-001-002-----0
 62
     7
370
    50
100
AcDbLine
 10
308.02406
 20
182.742
 30
0.0
 11
308.02406
 21
185.742
 31
0.0
  0
LINE
  5
27E
102
{ACAD_REACTORS
330
48B
102
}
330
1F
100
AcDbEntity
  8
LC-001-002-----0
 62
     7
370
    50
100
AcDbLine
 10
308.02406
 20
185.742
 30
0.0
 11
310.02406
 21
185.742
 31
0.0
  0
LINE
  5
27F
102
{ACAD_REACTORS
330
48B
102
}
330
1F
100
AcDbEntity
  8
LC-001-002-----0
 62
     7
370
    50
100
AcDbLine
 10
302.52406
 20
185.568633
 30
0.0
 11
302.52406
 21
182.742
 31
0.0
  0
LINE
  5
280
102
{ACAD_REACTORS
330
48B
102
}
330
1F
100
AcDbEntity
  8
LC-001-002-----0
 62
     7
370
    50
100
AcDbLine
 10
300.02406
 20
211.242
 30
0.0
 11
300.02406
 21
184.742
 31
0.0
  0
LINE
  5
281
102
{ACAD_REACTORS
330
48B
102
}
330
1F
100
AcDbEntity
  8
LC-001-002-----0
 62
     7
370
    50
100
AcDbLine
 10
311.02406
 20
195.242
 30
0.0
 11
316.02406
 21
195.242
 31
0.0
  0
LINE
  5
282
102
{ACAD_REACTORS
330
48B
102
}
330
1F
100
AcDbEntity
  8
LC-001-002-----0
 62
     7
370
    50
100
AcDbLine
 10
231.02406
 20
203.742
 30
0.0
 11
231.02406
 21
203.742
 31
0.0
  0
LINE
  5
283
102
{ACAD_REACTORS
330
48B
102
}
330
1F
100
AcDbEntity
  8
LC-001-002-----0
 62
     7
370
    50
100
AcDbLine
 10
233.02406
 20
203.742
 30
0.0
 11
300.02406
 21
203.742
 31
0.0
  0
ARC
  5
284
102
{ACAD_REACTORS
330
48B
102
}
330
1F
100
AcDbEntity
  8
LC-003-002-RND-0
 62
     7
370
    50
100
AcDbCircle
 10
252.02406
 20
203.742
 30
0.0
 40
21.0
100
AcDbArc
 50
180.0
 51
270.0
  0
LINE
  5
285
102
{ACAD_REACTORS
330
48B
102
}
330
1F
100
AcDbEntity
  8
LC-001-002-----0
 62
     7
370
    50
100
AcDbLine
 10
233.02406
 20
203.742
 30
0.0
 11
231.02406
 21
203.742
 31
0.0
  0
LINE
  5
286
102
{ACAD_REACTORS
330
48B
102
}
330
1F
100
AcDbEntity
  8
LC-001-002-----0
 62
     7
370
    50
100
AcDbLine
 10
302.52406
 20
182.742
 30
0.0
 11
252.02406
 21
182.742
 31
0.0
  0
LINE
  5
287
102
{ACAD_REACTORS
330
48B
102
}
330
1F
100
AcDbEntity
  8
LC-001-002-----0
 62
     7
370
    50
100
AcDbLine
 10
300.02406
 20
184.742
 30
0.0
 11
252.02406
 21
184.742
 31
0.0
  0
LINE
  5
288
102
{ACAD_REACTORS
330
48B
102
}
330
1F
100
AcDbEntity
  8
LC-001-002-----0
 62
     7
370
    50
100
AcDbLine
 10
300.02406
 20
211.242
 30
0.0
 11
306.02406
 21
221.760778
 31
0.0
  0
ARC
  5
289
102
{ACAD_REACTORS
330
48B
102
}
330
1F
100
AcDbEntity
  8
LC-003-002-RND-0
 62
     7
370
    50
100
AcDbCircle
 10
252.02406
 20
203.742
 30
0.0
 40
19.0
100
AcDbArc
 50
180.0
 51
270.0
  0
LINE
  5
28A
102
{ACAD_REACTORS
330
48B
102
}
330
1F
100
AcDbEntity
  8
LC-001-002-----0
 62
     7
370
    50
100
AcDbLine
 10
302.02406
 20
210.711695
 30
0.0
 11
302.02406
 21
195.242
 31
0.0
  0
LINE
  5
28B
102
{ACAD_REACTORS
330
48B
102
}
330
1F
100
AcDbEntity
  8
LC-001-002-----0
 62
     7
370
    50
100
AcDbLine
 10
302.02406
 20
210.711695
 30
0.0
 11
302.896959
 21
212.242
 31
0.0
  0
LINE
  5
28C
102
{ACAD_REACTORS
330
48B
102
}
330
1F
100
AcDbEntity
  8
LC-001-002-----0
 62
     7
370
    50
100
AcDbLine
 10
302.02406
 20
205.742
 30
0.0
 11
319.415934
 21
205.742
 31
0.0
  0
LINE
  5
28D
102
{ACAD_REACTORS
330
48B
102
}
330
1F
100
AcDbEntity
  8
LC-001-002-----0
 62
     7
370
    50
100
AcDbLine
 10
302.02406
 20
201.742
 30
0.0
 11
319.415934
 21
201.742
 31
0.0
  0
LINE
  5
28E
102
{ACAD_REACTORS
330
48B
102
}
330
1F
100
AcDbEntity
  8
LC-001-002-----0
 62
     7
370
    50
100
AcDbLine
 10
310.02406
 20
201.742
 30
0.0
 11
310.02406
 21
185.742
 31
0.0
  0
LINE
  5
28F
102
{ACAD_REACTORS
330
48B
102
}
330
1F
100
AcDbEntity
  8
LC-001-002-----0
 62
     7
370
    50
100
AcDbLine
 10
310.02406
 20
212.242
 30
0.0
 11
302.896959
 21
212.242
 31
0.0
  0
LINE
  5
290
102
{ACAD_REACTORS
330
48B
102
}
330
1F
100
AcDbEntity
  8
LC-001-002-----0
 62
     7
370
    50
100
AcDbLine
 10
310.02406
 20
214.242
 30
0.0
 11
304.037776
 21
214.242
 31
0.0
  0
LINE
  5
291
102
{ACAD_REACTORS
330
48B
102
}
330
1F
100
AcDbEntity
  8
LC-001-002-----0
 62
     7
370
    50
100
AcDbLine
 10
304.037776
 20
214.242
 30
0.0
 11
307.175023
 21
219.742
 31
0.0
  0
LINE
  5
292
102
{ACAD_REACTORS
330
48B
102
}
330
1F
100
AcDbEntity
  8
LC-001-002-----0
 62
     7
370
    50
100
AcDbLine
 10
310.02406
 20
195.242
 30
0.0
 11
302.02406
 21
195.242
 31
0.0
  0
LINE
  5
293
102
{ACAD_REACTORS
330
48B
102
}
330
1F
100
AcDbEntity
  8
LC-001-002-----0
 62
     7
370
    50
100
AcDbLine
 10
310.02406
 20
193.242
 30
0.0
 11
302.02406
 21
193.242
 31
0.0
  0
LINE
  5
294
102
{ACAD_REACTORS
330
48B
102
}
330
1F
100
AcDbEntity
  8
LC-001-002-----0
 62
     7
370
    50
100
AcDbLine
 10
302.02406
 20
193.242
 30
0.0
 11
302.02406
 21
187.742
 31
0.0
  0
LINE
  5
295
102
{ACAD_REACTORS
330
48B
102
}
330
1F
100
AcDbEntity
  8
LC-001-002-----0
 62
     7
370
    50
100
AcDbLine
 10
317.02406
 20
210.462485
 30
0.0
 11
310.02406
 21
210.462485
 31
0.0
  0
ARC
  5
296
102
{ACAD_REACTORS
330
48B
102
}
330
1F
100
AcDbEntity
  8
LC-001-002-----0
 62
     7
370
    50
100
AcDbCircle
 10
310.99281
 20
203.742
 30
0.0
 40
9.029999999999971
100
AcDbArc
 50
311.906155
 51
48.093845
  0
LINE
  5
297
102
{ACAD_REACTORS
330
48B
102
}
330
1F
100
AcDbEntity
  8
LC-001-002-----0
 62
     7
370
    50
100
AcDbLine
 10
317.02406
 20
197.021515
 30
0.0
 11
317.02406
 21
179.742
 31
0.0
  0
ARC
  5
298
102
{ACAD_REACTORS
330
48B
102
}
330
1F
100
AcDbEntity
  8
LC-001-002-----0
 62
     7
370
    50
100
AcDbCircle
 10
310.99281
 20
203.742
 30
0.0
 40
8.657310292828919
100
AcDbArc
 50
346.64295
 51
13.35705
  0
LINE
  5
299
102
{ACAD_REACTORS
330
48B
102
}
330
1F
100
AcDbEntity
  8
LC-001-002-----0
 62
     7
370
    50
100
AcDbLine
 10
317.02406
 20
197.021515
 30
0.0
 11
310.02406
 21
197.021515
 31
0.0
  0
LINE
  5
29A
102
{ACAD_REACTORS
330
48B
102
}
330
1F
100
AcDbEntity
  8
LC-001-002-----0
 62
     7
370
    50
100
AcDbLine
 10
311.02406
 20
212.242
 30
0.0
 11
310.02406
 21
211.242
 31
0.0
  0
LINE
  5
29B
102
{ACAD_REACTORS
330
48B
102
}
330
1F
100
AcDbEntity
  8
LC-001-002-----0
 62
     7
370
    50
100
AcDbLine
 10
316.02406
 20
212.242
 30
0.0
 11
317.02406
 21
211.242
 31
0.0
  0
LINE
  5
29C
102
{ACAD_REACTORS
330
48B
102
}
330
1F
100
AcDbEntity
  8
LC-001-002-----0
 62
     7
370
    50
100
AcDbLine
 10
310.02406
 20
211.242
 30
0.0
 11
317.02406
 21
211.242
 31
0.0
  0
LINE
  5
29D
102
{ACAD_REACTORS
330
48B
102
}
330
1F
100
AcDbEntity
  8
LC-001-002-----0
 62
     7
370
    50
100
AcDbLine
 10
310.02406
 20
196.242
 30
0.0
 11
317.008473
 21
196.242
 31
0.0
  0
LINE
  5
29E
102
{ACAD_REACTORS
330
48B
102
}
330
1F
100
AcDbEntity
  8
LC-001-002-----0
 62
     7
370
    50
100
AcDbLine
 10
311.02406
 20
195.242
 30
0.0
 11
310.02406
 21
196.242
 31
0.0
  0
LINE
  5
29F
102
{ACAD_REACTORS
330
48B
102
}
330
1F
100
AcDbEntity
  8
LC-001-002-----0
 62
     7
370
    50
100
AcDbLine
 10
311.02406
 20
195.242
 30
0.0
 11
315.957123
 21
195.242
 31
0.0
  0
LINE
  5
2A0
102
{ACAD_REACTORS
330
48B
102
}
330
1F
100
AcDbEntity
  8
LC-001-002-----0
 62
     7
370
    50
100
AcDbLine
 10
316.02406
 20
195.242
 30
0.0
 11
317.02406
 21
196.242
 31
0.0
  0
LINE
  5
2A1
102
{ACAD_REACTORS
330
48B
102
}
330
1F
100
AcDbEntity
  8
LC-001-002-----0
 62
     7
370
    50
100
AcDbLine
 10
308.12406
 20
221.842
 30
0.0
 11
315.62406
 21
221.842
 31
0.0
  0
LINE
  5
2A2
102
{ACAD_REACTORS
330
48B
102
}
330
1F
100
AcDbEntity
  8
LC-001-002-----0
 62
     7
370
    50
100
AcDbLine
 10
308.12406
 20
225.342
 30
0.0
 11
308.12406
 21
221.842
 31
0.0
  0
LINE
  5
2A3
102
{ACAD_REACTORS
330
48B
102
}
330
1F
100
AcDbEntity
  8
LC-001-002-----0
 62
     7
370
    50
100
AcDbLine
 10
315.62406
 20
225.342
 30
0.0
 11
315.62406
 21
221.842
 31
0.0
  0
LINE
  5
2A4
102
{ACAD_REACTORS
330
48B
102
}
330
1F
100
AcDbEntity
  8
LC-001-002-----0
 62
     7
370
    50
100
AcDbLine
 10
308.12406
 20
225.342
 30
0.0
 11
315.62406
 21
225.342
 31
0.0
  0
INSERT
  5
2B5
102
{ACAD_REACTORS
330
48B
102
}
330
1F
100
AcDbEntity
  8
LC-004-005-----0
 62
     7
370
    25
100
AcDbBlockReference
  2
*X1213
 10
0.0
 20
0.0
 30
0.0
  0
LINE
  5
2B6
102
{ACAD_REACTORS
330
48B
102
}
330
1F
100
AcDbEntity
  8
LC-001-002-----0
 62
     7
370
    50
100
AcDbLine
 10
308.12406
 20
185.642
 30
0.0
 11
315.62406
 21
185.642
 31
0.0
  0
LINE
  5
2B7
102
{ACAD_REACTORS
330
48B
102
}
330
1F
100
AcDbEntity
  8
LC-001-002-----0
 62
     7
370
    50
100
AcDbLine
 10
308.12406
 20
182.142
 30
0.0
 11
315.62406
 21
182.142
 31
0.0
  0
LINE
  5
2B8
102
{ACAD_REACTORS
330
48B
102
}
330
1F
100
AcDbEntity
  8
LC-001-002-----0
 62
     7
370
    50
100
AcDbLine
 10
315.62406
 20
182.142
 30
0.0
 11
315.62406
 21
185.642
 31
0.0
  0
LINE
  5
2B9
102
{ACAD_REACTORS
330
48B
102
}
330
1F
100
AcDbEntity
  8
LC-001-002-----0
 62
     7
370
    50
100
AcDbLine
 10
308.12406
 20
182.142
 30
0.0
 11
308.12406
 21
185.642
 31
0.0
  0
INSERT
  5
2CA
102
{ACAD_REACTORS
330
48B
102
}
330
1F
100
AcDbEntity
  8
LC-004-005-----0
 62
     7
370
    25
100
AcDbBlockReference
  2
*X1314
 10
0.0
 20
0.0
 30
0.0
  0
INSERT
  5
2E3
102
{ACAD_REACTORS
330
48B
102
}
330
1F
100
AcDbEntity
  8
LC-004-005-----0
 62
     7
370
    25
100
AcDbBlockReference
  2
*X1415
 10
0.0
 20
0.0
 30
0.0
  0
INSERT
  5
2EA
102
{ACAD_REACTORS
330
48B
102
}
330
1F
100
AcDbEntity
  8
LC-004-005-----0
 62
     7
370
    25
100
AcDbBlockReference
  2
*X1516
 10
0.0
 20
0.0
 30
0.0
  0
INSERT
  5
2F1
102
{ACAD_REACTORS
330
48B
102
}
330
1F
100
AcDbEntity
  8
LC-004-005-----0
 62
     7
370
    25
100
AcDbBlockReference
  2
*X1617
 10
0.0
 20
0.0
 30
0.0
  0
INSERT
  5
32B
102
{ACAD_REACTORS
330
48B
102
}
330
1F
100
AcDbEntity
  8
LC-004-005-----0
 62
     7
370
    25
100
AcDbBlockReference
  2
*X1718
 10
0.0
 20
0.0
 30
0.0
  0
INSERT
  5
336
102
{ACAD_REACTORS
330
48B
102
}
330
1F
100
AcDbEntity
  8
LC-004-005-----0
 62
     7
370
    25
100
AcDbBlockReference
  2
*X1819
 10
0.0
 20
0.0
 30
0.0
  0
DIMENSION
  5
337
330
1F
100
AcDbEntity
  8
LC-002-003-----0
 62
     7
370
    25
100
AcDbDimension
  2
*D20
 10
608.819029
 20
255.242
 30
0.0
 11
578.019029
 21
200.178
 31
0.0
 70
   160
  1
DN40
 71
     5
 42
40.0
 53
90.0
  3
LC-DIM-L-0140-02-02
100
AcDbAlignedDimension
 13
554.02406
 23
295.242
 33
0.0
 14
554.02406
 24
255.242
 34
0.0
 50
90.0
100
AcDbRotatedDimension
  0
LINE
  5
345
330
1F
100
AcDbEntity
  8
LC-001-002-----0
 62
     7
370
    50
100
AcDbLine
 10
316.628131
 20
182.242
 30
0.0
 11
316.628131
 21
179.742
 31
0.0
  0
LINE
  5
346
330
1F
100
AcDbEntity
  8
LC-001-002-----0
 62
     7
370
    50
100
AcDbLine
 10
316.628131
 20
227.742
 30
0.0
 11
316.628131
 21
225.242
 31
0.0
  0
DIMENSION
  5
347
330
1F
100
AcDbEntity
  8
LC-002-003-----0
 62
     7
370
    25
100
AcDbDimension
  2
*D21
 10
389.859873
 20
275.242
 30
0.0
 11
359.059873
 21
202.554
 31
0.0
 70
   160
  1
95
 71
     5
 42
95.5
 53
90.0
  3
LC-DIM-L-0140-02-02
100
AcDbAlignedDimension
 13
316.628131
 23
179.742
 33
0.0
 14
290.52406
 24
275.242
 34
0.0
 50
90.0
100
AcDbRotatedDimension
  0
CIRCLE
  5
354
330
1F
100
AcDbEntity
  8
LC-001-002-----0
 62
     7
370
    50
100
AcDbCircle
 10
290.52406
 20
257.242
 30
0.0
 40
12.29999999999996
  0
LINE
  5
355
330
1F
100
AcDbEntity
  8
LC-001-002-----0
 62
     7
370
    50
100
AcDbLine
 10
278.22406
 20
257.242
 30
0.0
 11
276.72406
 21
257.242
 31
0.0
  0
LINE
  5
356
330
1F
100
AcDbEntity
  8
LC-001-002-----0
  6
DASHDOT
 62
     7
370
    25
100
AcDbLine
 10
278.22406
 20
257.242
 30
0.0
 11
302.82406
 21
257.242
 31
0.0
  0
LINE
  5
357
330
1F
100
AcDbEntity
  8
LC-001-002-----0
 62
     7
370
    50
100
AcDbLine
 10
229.612517
 20
488.542
 30
0.0
 11
233.02406
 21
488.542
 31
0.0
  0
LINE
  5
358
330
1F
100
AcDbEntity
  8
LC-001-002-----0
 62
     7
370
    50
100
AcDbLine
 10
227.524054
 20
488.239673
 30
0.0
 11
227.524046
 21
500.739673
 31
0.0
  0
LINE
  5
359
330
1F
100
AcDbEntity
  8
LC-001-002-----0
 62
     7
370
    50
100
AcDbLine
 10
226.024045
 20
502.23967
 30
0.0
 11
227.524046
 21
500.739673
 31
0.0
  0
LINE
  5
35A
330
1F
100
AcDbEntity
  8
LC-001-002-----0
 62
     7
370
    50
100
AcDbLine
 10
226.024055
 20
486.73967
 30
0.0
 11
227.524054
 21
488.239673
 31
0.0
  0
LINE
  5
35B
330
1F
100
AcDbEntity
  8
LC-001-002-----0
 62
     7
370
    50
100
AcDbLine
 10
224.024053
 20
489.741914
 30
0.0
 11
223.524053
 21
489.741914
 31
0.0
  0
LINE
  5
35C
330
1F
100
AcDbEntity
  8
LC-001-002-----0
 62
     7
370
    50
100
AcDbLine
 10
223.524053
 20
489.741914
 30
0.0
 11
223.524045
 21
501.239668
 31
0.0
  0
LINE
  5
35D
102
{ACAD_REACTORS
330
48C
102
}
330
1F
100
AcDbEntity
  8
LC-001-002-----0
 62
     7
370
    50
100
AcDbLine
 10
224.021953
 20
487.242034
 30
0.0
 11
224.022018
 21
501.242034
 31
0.0
  0
LINE
  5
35E
102
{ACAD_REACTORS
330
48C
102
}
330
1F
100
AcDbEntity
  8
LC-001-002-----0
 62
     7
370
    50
100
AcDbLine
 10
224.022018
 20
501.242034
 30
0.0
 11
223.022018
 21
501.242039
 31
0.0
  0
LINE
  5
35F
102
{ACAD_REACTORS
330
48C
102
}
330
1F
100
AcDbEntity
  8
LC-001-002-----0
 62
     7
370
    50
100
AcDbLine
 10
223.022018
 20
501.242039
 30
0.0
 11
223.022022
 21
502.242039
 31
0.0
  0
LINE
  5
360
102
{ACAD_REACTORS
330
48C
102
}
330
1F
100
AcDbEntity
  8
LC-001-002-----0
 62
     7
370
    50
100
AcDbLine
 10
223.022022
 20
502.242039
 30
0.0
 11
264.524065
 21
502.241895
 31
0.0
  0
LINE
  5
361
102
{ACAD_REACTORS
330
48C
102
}
330
1F
100
AcDbEntity
  8
LC-001-002-----0
 62
     7
370
    50
100
AcDbLine
 10
226.02195
 20
486.742025
 30
0.0
 11
226.022018
 21
501.242025
 31
0.0
  0
LINE
  5
362
102
{ACAD_REACTORS
330
48C
102
}
330
1F
100
AcDbEntity
  8
LC-001-002-----0
 62
     7
370
    50
100
AcDbLine
 10
226.022022
 20
502.242025
 30
0.0
 11
226.022018
 21
501.242025
 31
0.0
  0
ARC
  5
363
102
{ACAD_REACTORS
330
48C
102
}
330
1F
100
AcDbEntity
  8
LC-001-002-----0
 62
     7
370
    50
100
AcDbCircle
 10
227.021953
 20
487.24202
 30
0.0
 40
3.000000000000353
100
AcDbArc
 50
179.999771
 51
269.999733
  0
ARC
  5
364
102
{ACAD_REACTORS
330
48C
102
}
330
1F
100
AcDbEntity
  8
LC-001-002-----0
 62
     7
370
    50
100
AcDbCircle
 10
227.02195
 20
486.74202
 30
0.0
 40
1.000000000000042
100
AcDbArc
 50
179.999771
 51
269.999733
  0
INSERT
  5
36D
330
1F
100
AcDbEntity
  8
LC-004-005-----0
 62
     7
370
    25
100
AcDbBlockReference
  2
*X1922
 10
0.0
 20
0.0
 30
0.0
  0
ARC
  5
36E
102
{ACAD_REACTORS
330
48C
102
}
330
1F
100
AcDbEntity
  8
LC-001-002-----0
 62
     7
370
    50
100
AcDbCircle
 10
229.895013
 20
485.742016
 30
0.0
 40
1.499999999999871
100
AcDbArc
 50
269.999733
 51
318.824654
  0
LINE
  5
36F
330
1F
100
AcDbEntity
  8
LC-001-002-----0
 62
     7
370
    50
100
AcDbLine
 10
229.612517
 20
487.742
 30
0.0
 11
232.02406
 21
487.742
 31
0.0
  0
LINE
  5
370
330
1F
100
AcDbEntity
  8
LC-001-002-----0
 62
     7
370
    50
100
AcDbLine
 10
229.612517
 20
488.542
 30
0.0
 11
229.612517
 21
487.742
 31
0.0
  0
LINE
  5
371
330
1F
100
AcDbEntity
  8
LC-001-002-----0
 62
     7
370
    50
100
AcDbLine
 10
233.02406
 20
487.742
 30
0.0
 11
233.02406
 21
488.542
 31
0.0
  0
INSERT
  5
377
330
1F
100
AcDbEntity
  8
LC-004-005-----0
 62
     7
370
    25
100
AcDbBlockReference
  2
*X2023
 10
0.0
 20
0.0
 30
0.0
  0
LINE
  5
378
330
1F
100
AcDbEntity
  8
LC-001-002-----0
 62
     7
370
    50
100
AcDbLine
 10
264.435603
 20
488.542
 30
0.0
 11
264.435603
 21
487.742
 31
0.0
  0
LINE
  5
379
330
1F
100
AcDbEntity
  8
LC-001-002-----0
 62
     7
370
    50
100
AcDbLine
 10
261.02406
 20
487.742
 30
0.0
 11
261.02406
 21
488.542
 31
0.0
  0
LINE
  5
37A
330
1F
100
AcDbEntity
  8
LC-001-002-----0
 62
     7
370
    50
100
AcDbLine
 10
264.435603
 20
487.742
 30
0.0
 11
262.02406
 21
487.742
 31
0.0
  0
LINE
  5
37B
330
1F
100
AcDbEntity
  8
LC-001-002-----0
 62
     7
370
    50
100
AcDbLine
 10
264.435603
 20
488.542
 30
0.0
 11
261.02406
 21
488.542
 31
0.0
  0
INSERT
  5
381
330
1F
100
AcDbEntity
  8
LC-004-005-----0
 62
     7
370
    25
100
AcDbBlockReference
  2
*X2124
 10
0.0
 20
0.0
 30
0.0
  0
ARC
  5
382
330
1F
100
AcDbEntity
  8
LC-001-002-----0
 62
     7
370
    50
100
AcDbCircle
 10
264.153107
 20
485.742016
 30
0.0
 40
1.499999999999882
100
AcDbArc
 50
221.175346
 51
270.000267
  0
LINE
  5
383
330
1F
100
AcDbEntity
  8
LC-001-002-----0
 62
     7
370
    50
100
AcDbLine
 10
264.153114
 20
484.242007
 30
0.0
 11
267.026181
 21
484.24202
 31
0.0
  0
ARC
  5
384
330
1F
100
AcDbEntity
  8
LC-001-002-----0
 62
     7
370
    50
100
AcDbCircle
 10
267.026167
 20
487.24202
 30
0.0
 40
3.000000000000197
100
AcDbArc
 50
270.000267
 51
0.000229
  0
LINE
  5
385
330
1F
100
AcDbEntity
  8
LC-001-002-----0
 62
     7
370
    50
100
AcDbLine
 10
270.026167
 20
487.242034
 30
0.0
 11
270.026102
 21
501.242034
 31
0.0
  0
LINE
  5
386
330
1F
100
AcDbEntity
  8
LC-001-002-----0
 62
     7
370
    50
100
AcDbLine
 10
270.024067
 20
489.741914
 30
0.0
 11
270.524067
 21
489.741914
 31
0.0
  0
LINE
  5
387
330
1F
100
AcDbEntity
  8
LC-001-002-----0
 62
     7
370
    50
100
AcDbLine
 10
270.524067
 20
489.741914
 30
0.0
 11
270.524075
 21
501.239668
 31
0.0
  0
LINE
  5
388
330
1F
100
AcDbEntity
  8
LC-001-002-----0
 62
     7
370
    50
100
AcDbLine
 10
270.026102
 20
501.242034
 30
0.0
 11
271.026102
 21
501.242039
 31
0.0
  0
LINE
  5
389
330
1F
100
AcDbEntity
  8
LC-001-002-----0
 62
     7
370
    50
100
AcDbLine
 10
271.026102
 20
501.242039
 30
0.0
 11
271.026098
 21
502.242039
 31
0.0
  0
LINE
  5
38A
330
1F
100
AcDbEntity
  8
LC-001-002-----0
 62
     7
370
    50
100
AcDbLine
 10
271.026098
 20
502.242039
 30
0.0
 11
264.524065
 21
502.242016
 31
0.0
  0
LINE
  5
38B
330
1F
100
AcDbEntity
  8
LC-001-002-----0
 62
     7
370
    50
100
AcDbLine
 10
268.02617
 20
486.742025
 30
0.0
 11
268.026102
 21
501.242025
 31
0.0
  0
LINE
  5
38C
330
1F
100
AcDbEntity
  8
LC-001-002-----0
 62
     7
370
    50
100
AcDbLine
 10
268.026098
 20
502.242025
 30
0.0
 11
268.026102
 21
501.242025
 31
0.0
  0
LINE
  5
38D
330
1F
100
AcDbEntity
  8
LC-001-002-----0
 62
     7
370
    50
100
AcDbLine
 10
268.024075
 20
502.23967
 30
0.0
 11
266.524074
 21
500.739673
 31
0.0
  0
LINE
  5
38E
330
1F
100
AcDbEntity
  8
LC-001-002-----0
 62
     7
370
    50
100
AcDbLine
 10
266.524066
 20
488.239673
 30
0.0
 11
266.524074
 21
500.739673
 31
0.0
  0
LINE
  5
38F
330
1F
100
AcDbEntity
  8
LC-001-002-----0
 62
     7
370
    50
100
AcDbLine
 10
268.024065
 20
486.73967
 30
0.0
 11
266.524066
 21
488.239673
 31
0.0
  0
ARC
  5
390
330
1F
100
AcDbEntity
  8
LC-001-002-----0
 62
     7
370
    50
100
AcDbCircle
 10
267.02617
 20
486.74202
 30
0.0
 40
1.000000000000028
100
AcDbArc
 50
270.000267
 51
0.000229
  0
LINE
  5
391
330
1F
100
AcDbEntity
  8
LC-001-002-----0
 62
     7
370
    50
100
AcDbLine
 10
263.02406
 20
485.742002
 30
0.0
 11
267.026174
 21
485.74202
 31
0.0
  0
INSERT
  5
39B
330
1F
100
AcDbEntity
  8
LC-004-005-----0
 62
     7
370
    25
100
AcDbBlockReference
  2
*X2225
 10
0.0
 20
0.0
 30
0.0
  0
LINE
  5
39C
102
{ACAD_REACTORS
330
48C
102
}
330
1F
100
AcDbEntity
  8
LC-001-002-----0
 62
     7
370
    50
100
AcDbLine
 10
231.02406
 20
485.742002
 30
0.0
 11
227.021946
 21
485.74202
 31
0.0
  0
INSERT
  5
406
330
1F
100
AcDbEntity
  8
LC-004-005-----0
 62
     7
370
    25
100
AcDbBlockReference
  2
*X2326
 10
0.0
 20
0.0
 30
0.0
  0
INSERT
  5
46F
330
1F
100
AcDbEntity
  8
LC-004-005-----0
 62
     7
370
    25
100
AcDbBlockReference
  2
*X2427
 10
0.0
 20
0.0
 30
0.0
  0
DIMENSION
  5
470
330
1F
100
AcDbEntity
  8
LC-002-003-----0
 62
     7
370
    25
100
AcDbDimension
  2
*D28
 10
347.309106
 20
488.542
 30
0.0
 11
316.509106
 21
379.566
 31
0.0
 70
   160
  1
15-240
 71
     5
 42
213.3
 53
90.0
  3
LC-DIM-L-0140-02-02
100
AcDbAlignedDimension
 13
290.52406
 23
275.242
 33
0.0
 14
261.02406
 24
488.542
 34
0.0
 50
90.0
100
AcDbRotatedDimension
  0
DIMENSION
  5
47D
330
1F
100
AcDbEntity
  8
LC-002-003-----0
 62
     7
370
    25
100
AcDbDimension
  2
*D29
 10
266.524074
 20
515.592
 30
0.0
 11
288.801801
 21
546.392
 31
0.0
 70
   160
  1
1 1/4"
 71
     5
 42
39.000029
  3
LC-DIM-L-0140-02-02
100
AcDbAlignedDimension
 13
227.524046
 23
500.739673
 33
0.0
 14
266.524074
 24
500.739673
 34
0.0
100
AcDbRotatedDimension
  0
ENDSEC
  0
SECTION
  2
OBJECTS
  0
DICTIONARY
  5
C
330
0
100
AcDbDictionary
281
     1
  3
ACAD_GROUP
350
D
  3
ACAD_LAYOUT
350
1A
  3
ACAD_MLINESTYLE
350
17
  3
ACAD_PLOTSETTINGS
350
19
  3
ACAD_PLOTSTYLENAME
350
E
  0
DICTIONARY
  5
D
102
{ACAD_REACTORS
330
C
102
}
330
C
100
AcDbDictionary
281
     1
  3
LCGROUP172
350
48D
  3
LCGROUP310
350
48B
  3
LCGROUP344
350
48C
  0
DICTIONARY
  5
1A
102
{ACAD_REACTORS
330
C
102
}
330
C
100
AcDbDictionary
281
     1
  3
Layout1
350
1E
  3
Layout2
350
26
  3
Model
350
22
  0
DICTIONARY
  5
17
102
{ACAD_REACTORS
330
C
102
}
330
C
100
AcDbDictionary
281
     1
  3
Standard
350
18
  0
DICTIONARY
  5
19
102
{ACAD_REACTORS
330
C
102
}
330
C
100
AcDbDictionary
281
     1
  0
ACDBDICTIONARYWDFLT
  5
E
102
{ACAD_REACTORS
330
C
102
}
330
C
100
AcDbDictionary
281
     1
  3
Normal
350
F
100
AcDbDictionaryWithDefault
340
F
  0
GROUP
  5
48D
102
{ACAD_REACTORS
330
D
102
}
330
D
100
AcDbGroup
300
GRP172
 70
     1
 71
     1
340
E2
340
E3
340
E4
340
E5
340
E6
340
E7
340
E8
340
E9
340
EA
340
EB
340
EC
340
ED
340
EE
340
EF
340
F0
340
F1
340
F2
340
F3
340
108
340
109
340
10A
340
10B
340
10C
340
10D
  0
GROUP
  5
48B
102
{ACAD_REACTORS
330
D
102
}
330
D
100
AcDbGroup
300
GRP310
 70
     1
 71
     1
340
266
340
267
340
268
340
269
340
26A
340
26B
340
26C
340
26D
340
26E
340
26F
340
270
340
271
340
272
340
273
340
274
340
275
340
276
340
277
340
278
340
279
340
27A
340
27B
340
27C
340
27D
340
27E
340
27F
340
280
340
281
340
282
340
283
340
284
340
285
340
286
340
287
340
288
340
289
340
28A
340
28B
340
28C
340
28D
340
28E
340
28F
340
290
340
291
340
292
340
293
340
294
340
295
340
296
340
297
340
298
340
299
340
29A
340
29B
340
29C
340
29D
340
29E
340
29F
340
2A0
340
2A1
340
2A2
340
2A3
340
2A4
340
2B5
340
2B6
340
2B7
340
2B8
340
2B9
340
2CA
340
2E3
340
2EA
340
2F1
340
32B
340
336
  0
GROUP
  5
48C
102
{ACAD_REACTORS
330
D
102
}
330
D
100
AcDbGroup
300
GRP344
 70
     1
 71
     1
340
35D
340
35E
340
35F
340
360
340
361
340
362
340
363
340
364
340
36E
340
39C
  0
LAYOUT
  5
1E
102
{ACAD_REACTORS
330
1A
102
}
330
1A
100
AcDbPlotSettings
  1

  2

  4

  6

 40
0.0
 41
0.0
 42
0.0
 43
0.0
 44
0.0
 45
0.0
 46
0.0
 47
0.0
 48
0.0
 49
0.0
140
0.0
141
0.0
142
1.0
143
1.0
 70
   688
 72
     0
 73
     0
 74
     5
  7

 75
    16
147
1.0
148
0.0
149
0.0
100
AcDbLayout
  1
Layout1
 70
     1
 71
     1
 10
0.0
 20
0.0
 11
840.0
 21
594.0
 12
0.0
 22
0.0
 32
0.0
 14
0.0
 24
0.0
 34
0.0
 15
840.0
 25
594.0
 35
0.0
146
0.0
 13
0.0
 23
0.0
 33
0.0
 16
1.0
 26
0.0
 36
0.0
 17
0.0
 27
1.0
 37
0.0
 76
     0
330
1B
  0
LAYOUT
  5
26
102
{ACAD_REACTORS
330
1A
102
}
330
1A
100
AcDbPlotSettings
  1

  2

  4

  6

 40
0.0
 41
0.0
 42
0.0
 43
0.0
 44
0.0
 45
0.0
 46
0.0
 47
0.0
 48
0.0
 49
0.0
140
0.0
141
0.0
142
1.0
143
1.0
 70
   688
 72
     0
 73
     0
 74
     5
  7

 75
    16
147
1.0
148
0.0
149
0.0
100
AcDbLayout
  1
Layout2
 70
     1
 71
     2
 10
0.0
 20
0.0
 11
0.0
 21
0.0
 12
0.0
 22
0.0
 32
0.0
 14
0.0
 24
0.0
 34
0.0
 15
0.0
 25
0.0
 35
0.0
146
0.0
 13
0.0
 23
0.0
 33
0.0
 16
1.0
 26
0.0
 36
0.0
 17
0.0
 27
1.0
 37
0.0
 76
     0
330
23
  0
LAYOUT
  5
22
102
{ACAD_REACTORS
330
1A
102
}
330
1A
100
AcDbPlotSettings
  1

  2

  4

  6

 40
0.0
 41
0.0
 42
0.0
 43
0.0
 44
0.0
 45
0.0
 46
0.0
 47
0.0
 48
0.0
 49
0.0
140
0.0
141
0.0
142
1.0
143
1.0
 70
  1776
 72
     0
 73
     0
 74
     0
  7

 75
     0
147
1.0
148
0.0
149
0.0
100
AcDbLayout
  1
Model
 70
     1
 71
     0
 10
0.0
 20
0.0
 11
840.0
 21
594.0
 12
0.0
 22
0.0
 32
0.0
 14
0.0
 24
0.0
 34
0.0
 15
840.0
 25
594.0
 35
0.0
146
0.0
 13
0.0
 23
0.0
 33
0.0
 16
1.0
 26
0.0
 36
0.0
 17
0.0
 27
1.0
 37
0.0
 76
     0
330
1F
  0
MLINESTYLE
  5
18
102
{ACAD_REACTORS
330
17
102
}
330
17
100
AcDbMlineStyle
  2
Standard
 70
     0
  3

 62
   256
 51
90.0
 52
90.0
 71
     2
 49
0.5
 62
   256
  6
BYLAYER
 49
-0.5
 62
   256
  6
BYLAYER
  0
ACDBPLACEHOLDER
  5
F
102
{ACAD_REACTORS
330
E
102
}
330
E
  0
ENDSEC
  0
EOF
