  0
SECTION
  2
HEADER
  9
$ACADVER
  1
AC1009
  9
$DWGCODEPAGE
  3
ansi_1252
  9
$INSBASE
 10
0.0
 20
0.0
 30
0.0
  9
$EXTMIN
 10
0.0
 20
0.0
 30
0.0
  9
$EXTMAX
 10
420.0
 20
297.0
 30
0.0
  9
$LIMMIN
 10
0.0
 20
0.0
  9
$LIMMAX
 10
420.0
 20
297.0
  9
$ORTHOMODE
 70
     0
  9
$REGENMODE
 70
     1
  9
$FILLMODE
 70
     1
  9
$QTEXTMODE
 70
     0
  9
$MIRRTEXT
 70
     1
  9
$DRAGMODE
 70
     2
  9
$LTSCALE
 40
1.0
  9
$OSMODE
 70
    37
  9
$ATTMODE
 70
     1
  9
$TEXTSIZE
 40
3.5
  9
$TRACEWID
 40
1.0
  9
$TEXTSTYLE
  7
STANDARD
  9
$CLAYER
  8
0
  9
$CELTYPE
  6
BYLAYER
  9
$CECOLOR
 62
   256
  9
$DIMSCALE
 40
1.0
  9
$DIMASZ
 40
4.0
  9
$DIMEXO
 40
1.0
  9
$DIMDLI
 40
3.75
  9
$DIMRND
 40
0.0
  9
$DIMDLE
 40
0.0
  9
$DIMEXE
 40
1.0
  9
$DIMTP
 40
0.0
  9
$DIMTM
 40
0.0
  9
$DIMTXT
 40
9.8777777778
  9
$DIMCEN
 40
2.5
  9
$DIMTSZ
 40
0.0
  9
$DIMTOL
 70
     0
  9
$DIMLIM
 70
     0
  9
$DIMTIH
 70
     1
  9
$DIMTOH
 70
     1
  9
$DIMSE1
 70
     0
  9
$DIMSE2
 70
     0
  9
$DIMTAD
 70
     1
  9
$DIMZIN
 70
     0
  9
$DIMBLK
  1

  9
$DIMASO
 70
     1
  9
$DIMSHO
 70
     1
  9
$DIMPOST
  1

  9
$DIMAPOST
  1

  9
$DIMALT
 70
     0
  9
$DIMALTD
 70
     3
  9
$DIMALTF
 40
0.0393700787
  9
$DIMLFAC
 40
1.0
  9
$DIMTOFL
 70
     1
  9
$DIMTVP
 40
0.0
  9
$DIMTIX
 70
     0
  9
$DIMSOXD
 70
     0
  9
$DIMSAH
 70
     0
  9
$DIMBLK1
  1

  9
$DIMBLK2
  1

  9
$DIMSTYLE
  2
ISO-25
  9
$DIMCLRD
 70
     0
  9
$DIMCLRE
 70
     0
  9
$DIMCLRT
 70
     0
  9
$DIMTFAC
 40
1.0
  9
$DIMGAP
 40
1.524
  9
$LUNITS
 70
     2
  9
$LUPREC
 70
     2
  9
$SKETCHINC
 40
1.0
  9
$FILLETRAD
 40
10.0
  9
$AUNITS
 70
     0
  9
$AUPREC
 70
     2
  9
$MENU
  1
.
  9
$ELEVATION
 40
0.0
  9
$PELEVATION
 40
0.0
  9
$THICKNESS
 40
0.0
  9
$LIMCHECK
 70
     0
  9
$CHAMFERA
 40
0.0
  9
$CHAMFERB
 40
0.0
  9
$SKPOLY
 70
     0
  9
$TDCREATE
 40
2460269.327083195
  9
$TDUPDATE
 40
2460269.327083646
  9
$TDINDWG
 40
0.0000000116
  9
$TDUSRTIMER
 40
0.0000000116
  9
$USRTIMER
 70
     1
  9
$ANGBASE
 50
0.0
  9
$ANGDIR
 70
     0
  9
$PDMODE
 70
     0
  9
$PDSIZE
 40
-1.0
  9
$PLINEWID
 40
0.0
  9
$COORDS
 70
     1
  9
$SPLFRAME
 70
     0
  9
$SPLINETYPE
 70
     6
  9
$SPLINESEGS
 70
     8
  9
$ATTDIA
 70
     0
  9
$ATTREQ
 70
     1
  9
$HANDLING
 70
     1
  9
$HANDSEED
  5
FE
  9
$SURFTAB1
 70
     6
  9
$SURFTAB2
 70
     6
  9
$SURFTYPE
 70
     6
  9
$SURFU
 70
     6
  9
$SURFV
 70
     6
  9
$UCSNAME
  2

  9
$UCSORG
 10
0.0
 20
0.0
 30
0.0
  9
$UCSXDIR
 10
1.0
 20
0.0
 30
0.0
  9
$UCSYDIR
 10
0.0
 20
1.0
 30
0.0
  9
$PUCSNAME
  2

  9
$PUCSORG
 10
0.0
 20
0.0
 30
0.0
  9
$PUCSXDIR
 10
1.0
 20
0.0
 30
0.0
  9
$PUCSYDIR
 10
0.0
 20
1.0
 30
0.0
  9
$USERI1
 70
     0
  9
$USERI2
 70
     0
  9
$USERI3
 70
     0
  9
$USERI4
 70
     0
  9
$USERI5
 70
     0
  9
$USERR1
 40
0.0
  9
$USERR2
 40
0.0
  9
$USERR3
 40
0.0
  9
$USERR4
 40
0.0
  9
$USERR5
 40
0.0
  9
$WORLDVIEW
 70
     1
  9
$SHADEDGE
 70
     3
  9
$SHADEDIF
 70
    70
  9
$TILEMODE
 70
     1
  9
$MAXACTVP
 70
    64
  9
$PLIMCHECK
 70
     0
  9
$PEXTMIN
 10
1.0000000000E+20
 20
1.0000000000E+20
 30
1.0000000000E+20
  9
$PEXTMAX
 10
-1.0000000000E+20
 20
-1.0000000000E+20
 30
-1.0000000000E+20
  9
$PLIMMIN
 10
0.0
 20
0.0
  9
$PLIMMAX
 10
420.0
 20
297.0
  9
$UNITMODE
 70
     0
  9
$VISRETAIN
 70
     1
  9
$PLINEGEN
 70
     0
  9
$PSLTSCALE
 70
     1
  0
ENDSEC
  0
SECTION
  2
TABLES
  0
TABLE
  2
VPORT
 70
     1
  0
VPORT
  2
*ACTIVE
 70
     0
 10
0.0
 20
0.0
 11
1.0
 21
1.0
 12
210.0
 22
148.5
 13
0.0
 23
0.0
 14
10.0
 24
10.0
 15
10.0
 25
10.0
 16
0.0
 26
0.0
 36
1.0
 17
0.0
 27
0.0
 37
0.0
 40
297.0
 41
1.4141414141
 42
50.0
 43
0.0
 44
0.0
 50
0.0
 51
0.0
 71
     0
 72
  2000
 73
     1
 74
     3
 75
     0
 76
     0
 77
     0
 78
     0
  0
ENDTAB
  0
TABLE
  2
LTYPE
 70
     6
  0
LTYPE
  2
CONTINUOUS
 70
     0
  3
Solid line
 72
    65
 73
     0
 40
0.0
  0
LTYPE
  2
HIDDEN
 70
     0
  3
Hidden __ __ __ __ __ __ __ __ __ __ __ __ __ __
 72
    65
 73
     2
 40
1.905
 49
1.27
 49
-0.635
  0
LTYPE
  2
PHANTOM
 70
     0
  3
Phantom ______  __  __  ______  __  __  ______
 72
    65
 73
     6
 40
12.7
 49
6.35
 49
-1.27
 49
1.27
 49
-1.27
 49
1.27
 49
-1.27
  0
LTYPE
  2
CENTER
 70
     0
  3
Center ____ _ ____ _ ____ _ ____ _ ____ _ ____
 72
    65
 73
     4
 40
10.16
 49
6.35
 49
-1.27
 49
1.27
 49
-1.27
  0
LTYPE
  2
CENTERX2
 70
     0
  3
Center (2x) ________  __  ________  __  _____
 72
    65
 73
     4
 40
20.32
 49
12.7
 49
-2.54
 49
2.54
 49
-2.54
  0
LTYPE
  2
DOT2
 70
     0
  3
Dot (.5x) ........................................
 72
    65
 73
     2
 40
0.635
 49
0.0
 49
-0.635
  0
ENDTAB
  0
TABLE
  2
LAYER
 70
     7
  0
LAYER
  2
0
 70
     0
 62
     7
  6
CONTINUOUS
  0
LAYER
  2
FORMAT
 70
     0
 62
     7
  6
CONTINUOUS
  0
LAYER
  2
RED
 70
     0
 62
     1
  6
CONTINUOUS
  0
LAYER
  2
GREEN
 70
     0
 62
   114
  6
CONTINUOUS
  0
LAYER
  2
BLUE
 70
     0
 62
     5
  6
CONTINUOUS
  0
LAYER
  2
BLATTFORMAT
 70
     0
 62
     7
  6
CONTINUOUS
  0
LAYER
  2
BEMAßUNG
 70
     0
 62
     7
  6
CONTINUOUS
  0
ENDTAB
  0
TABLE
  2
STYLE
 70
     1
  0
STYLE
  2
STANDARD
 70
     0
 40
0.0
 41
1.0
 50
0.0
 71
     0
 42
3.5
  3
txt
  4

  0
ENDTAB
  0
TABLE
  2
VIEW
 70
     0
  0
ENDTAB
  0
TABLE
  2
UCS
 70
     0
  0
ENDTAB
  0
TABLE
  2
APPID
 70
     1
  0
APPID
  2
ACAD
 70
     0
  0
ENDTAB
  0
TABLE
  2
DIMSTYLE
 70
     5
  0
DIMSTYLE
  2
ISO-25
 70
     0
  3

  4

  5

  6

  7

 40
1.0
 41
2.5
 42
0.625
 43
3.75
 44
1.25
 45
0.0
 46
0.0
 47
0.0
 48
0.0
140
2.5
141
2.5
142
0.0
143
0.0393700787
144
1.0
145
0.0
146
1.0
147
0.625
 71
     0
 72
     0
 73
     0
 74
     0
 75
     0
 76
     0
 77
     1
 78
     8
170
     0
171
     3
172
     1
173
     0
174
     0
175
     0
176
     0
177
     0
178
     0
  0
DIMSTYLE
  2
SLDDIMSTYLE0
 70
     0
  3

  4

  5

  6

  7

 40
1.0
 41
4.0
 42
0.0625
 43
0.38
 44
0.0
 45
0.000000001
 46
0.0
 47
0.0
 48
0.0
140
7.1912923177
141
0.09
142
0.0
143
25.4
144
1.0
145
0.0
146
1.0
147
1.7978230794
 71
     0
 72
     0
 73
     0
 74
     0
 75
     0
 76
     0
 77
     1
 78
    12
170
     0
171
     2
172
     1
173
     1
174
     0
175
     0
176
     0
177
     0
178
     0
  0
DIMSTYLE
  2
SLDDIMSTYLE1
 70
     0
  3

  4

  5

  6

  7

 40
1.0
 41
4.0
 42
0.0625
 43
0.38
 44
0.0
 45
0.000000001
 46
0.0
 47
0.0
 48
0.0
140
7.1912923177
141
0.09
142
0.0
143
25.4
144
1.0
145
0.0
146
1.0
147
1.7978230794
 71
     0
 72
     0
 73
     0
 74
     0
 75
     0
 76
     0
 77
     1
 78
    12
170
     0
171
     2
172
     1
173
     1
174
     0
175
     0
176
     0
177
     0
178
     0
  0
DIMSTYLE
  2
SLDDIMSTYLE2
 70
     0
  3

  4

  5

  6

  7

 40
1.0
 41
4.0
 42
0.0625
 43
0.38
 44
0.0
 45
0.000000001
 46
0.0
 47
0.0
 48
0.0
140
7.1912923177
141
0.09
142
0.0
143
25.4
144
1.0
145
0.0
146
1.0
147
1.7978230794
 71
     0
 72
     0
 73
     0
 74
     0
 75
     0
 76
     0
 77
     1
 78
    12
170
     0
171
     2
172
     0
173
     1
174
     0
175
     0
176
     0
177
     0
178
     0
  0
DIMSTYLE
  2
SLDDIMSTYLE3
 70
     0
  3

  4

  5

  6

  7

 40
1.0
 41
4.0
 42
0.0625
 43
0.38
 44
0.0
 45
0.000000001
 46
0.0
 47
0.0
 48
0.0
140
7.1912923177
141
0.09
142
0.0
143
25.4
144
1.0
145
0.0
146
1.0
147
1.7978230794
 71
     0
 72
     0
 73
     0
 74
     0
 75
     0
 76
     0
 77
     1
 78
    12
170
     0
171
     2
172
     1
173
     1
174
     0
175
     0
176
     0
177
     0
178
     0
  0
ENDTAB
  0
ENDSEC
  0
SECTION
  2
BLOCKS
  0
BLOCK
  8
0
  2
$MODEL_SPACE
 70
     0
 10
0.0
 20
0.0
 30
0.0
  3
$MODEL_SPACE
  1

  0
ENDBLK
  5
21
  8
0
  0
BLOCK
 67
     1
  8
0
  2
$PAPER_SPACE
 70
     0
 10
0.0
 20
0.0
 30
0.0
  3
$PAPER_SPACE
  1

  0
ENDBLK
  5
1D
 67
     1
  8
0
  0
BLOCK
  8
0
  2
_D
 70
     0
 10
0.0
 20
0.0
 30
0.0
  3
_D
  1

  0
SOLID
  5
CF
  8
BEMAßUNG
 10
180.1946757679
 20
176.6582764505
 30
0.0
 11
176.1946757679
 21
177.5582764505
 31
0.0
 12
176.1946757679
 22
175.7582764505
 32
0.0
 13
176.1946757679
 23
175.7582764505
 33
0.0
  0
SOLID
  5
D0
  8
BEMAßUNG
 10
221.1946757679
 20
176.6582764505
 30
0.0
 11
225.1946757679
 21
175.7582764505
 31
0.0
 12
225.1946757679
 22
177.5582764505
 32
0.0
 13
225.1946757679
 23
177.5582764505
 33
0.0
  0
LINE
  5
D1
  8
BEMAßUNG
 10
180.1946757679
 20
185.6582764505
 30
0.0
 11
180.1946757679
 21
175.6582764505
 31
0.0
  0
LINE
  5
D2
  8
BEMAßUNG
 10
221.1946757679
 20
185.6582764505
 30
0.0
 11
221.1946757679
 21
175.6582764505
 31
0.0
  0
LINE
  5
D3
  8
BEMAßUNG
 10
180.1946757679
 20
176.6582764505
 30
0.0
 11
168.1946757679
 21
176.6582764505
 31
0.0
  0
LINE
  5
D4
  8
BEMAßUNG
 10
180.1946757679
 20
176.6582764505
 30
0.0
 11
221.1946757679
 21
176.6582764505
 31
0.0
  0
LINE
  5
D5
  8
BEMAßUNG
 10
221.1946757679
 20
176.6582764505
 30
0.0
 11
233.1946757679
 21
176.6582764505
 31
0.0
  0
TEXT
  5
D6
  8
BEMAßUNG
 10
187.6348352736
 20
179.2753447426
 30
13.75
 40
7.4083333333
  1
%%c
 41
0.7
 11
187.6348352736
 21
176.6582764505
 31
13.75
 73
     1
  0
TEXT
  5
D7
  8
BEMAßUNG
 10
198.1265444985
 20
179.2753447426
 30
13.75
 40
7.4083333333
  1
41
 41
0.7
 11
198.1265444985
 21
176.6582764505
 31
13.75
 73
     1
  0
ENDBLK
  5
CE
  8
0
  0
BLOCK
  8
0
  2
_D_1
 70
     0
 10
0.0
 20
0.0
 30
0.0
  3
_D_1
  1

  0
SOLID
  5
DD
  8
BEMAßUNG
 10
165.7997098976
 20
212.1582764505
 30
0.0
 11
166.6997098976
 21
216.1582764505
 31
0.0
 12
164.8997098976
 22
216.1582764505
 32
0.0
 13
164.8997098976
 23
216.1582764505
 33
0.0
  0
SOLID
  5
DE
  8
BEMAßUNG
 10
165.7997098976
 20
186.6582764505
 30
0.0
 11
164.8997098976
 21
182.6582764505
 31
0.0
 12
166.6997098976
 22
182.6582764505
 32
0.0
 13
166.6997098976
 23
182.6582764505
 33
0.0
  0
LINE
  5
DF
  8
BEMAßUNG
 10
182.1946757679
 20
212.1582764505
 30
0.0
 11
164.7997098976
 21
212.1582764505
 31
0.0
  0
LINE
  5
E0
  8
BEMAßUNG
 10
179.1946757679
 20
186.6582764505
 30
0.0
 11
164.7997098976
 21
186.6582764505
 31
0.0
  0
LINE
  5
E1
  8
BEMAßUNG
 10
165.7997098976
 20
212.1582764505
 30
0.0
 11
165.7997098976
 21
224.1582764505
 31
0.0
  0
LINE
  5
E2
  8
BEMAßUNG
 10
165.7997098976
 20
212.1582764505
 30
0.0
 11
165.7997098976
 21
186.6582764505
 31
0.0
  0
LINE
  5
E3
  8
BEMAßUNG
 10
165.7997098976
 20
186.6582764505
 30
0.0
 11
165.7997098976
 21
174.6582764505
 31
0.0
  0
TEXT
  5
E4
  8
BEMAßUNG
 10
163.1826416056
 20
191.368294293
 30
13.75
 40
7.4083333333
  1
25,5
 50
90.0
 41
0.7
 11
165.7997098976
 21
191.368294293
 31
13.75
 73
     1
  0
ENDBLK
  5
DC
  8
0
  0
BLOCK
  8
0
  2
_D_2
 70
     0
 10
0.0
 20
0.0
 30
0.0
  3
_D_2
  1

  0
SOLID
  5
EA
  8
BEMAßUNG
 10
151.1946757679
 20
226.6582764505
 30
0.0
 11
150.2946757679
 21
222.6582764505
 31
0.0
 12
152.0946757679
 22
222.6582764505
 32
0.0
 13
152.0946757679
 23
222.6582764505
 33
0.0
  0
SOLID
  5
EB
  8
BEMAßUNG
 10
151.1946757679
 20
186.6582764505
 30
0.0
 11
152.0946757679
 21
190.6582764505
 31
0.0
 12
150.2946757679
 22
190.6582764505
 32
0.0
 13
150.2946757679
 23
190.6582764505
 33
0.0
  0
LINE
  5
EC
  8
BEMAßUNG
 10
176.2696757679
 20
226.6582764505
 30
0.0
 11
150.1946757679
 21
226.6582764505
 31
0.0
  0
LINE
  5
ED
  8
BEMAßUNG
 10
179.1946757679
 20
186.6582764505
 30
0.0
 11
150.1946757679
 21
186.6582764505
 31
0.0
  0
LINE
  5
EE
  8
BEMAßUNG
 10
151.1946757679
 20
226.6582764505
 30
0.0
 11
151.1946757679
 21
186.6582764505
 31
0.0
  0
TEXT
  5
EF
  8
BEMAßUNG
 10
148.5776074759
 20
200.3951784064
 30
13.75
 40
7.4083333333
  1
40
 50
90.0
 41
0.7
 11
151.1946757679
 21
200.3951784064
 31
13.75
 73
     1
  0
ENDBLK
  5
E9
  8
0
  0
BLOCK
  8
0
  2
_D_3
 70
     0
 10
0.0
 20
0.0
 30
0.0
  3
_D_3
  1

  0
SOLID
  5
F5
  8
BEMAßUNG
 10
178.2696757679
 20
233.7988054608
 30
0.0
 11
174.2696757679
 21
234.6988054608
 31
0.0
 12
174.2696757679
 22
232.8988054608
 32
0.0
 13
174.2696757679
 23
232.8988054608
 33
0.0
  0
SOLID
  5
F6
  8
BEMAßUNG
 10
223.1196757679
 20
233.7988054608
 30
0.0
 11
227.1196757679
 21
232.8988054608
 31
0.0
 12
227.1196757679
 22
234.6988054608
 32
0.0
 13
227.1196757679
 23
234.6988054608
 33
0.0
  0
LINE
  5
F7
  8
BEMAßUNG
 10
178.2696757679
 20
226.6582764505
 30
0.0
 11
178.2696757679
 21
234.7988054608
 31
0.0
  0
LINE
  5
F8
  8
BEMAßUNG
 10
223.1196757679
 20
226.6582764505
 30
0.0
 11
223.1196757679
 21
234.7988054608
 31
0.0
  0
LINE
  5
F9
  8
BEMAßUNG
 10
178.2696757679
 20
233.7988054608
 30
0.0
 11
166.2696757679
 21
233.7988054608
 31
0.0
  0
LINE
  5
FA
  8
BEMAßUNG
 10
178.2696757679
 20
233.7988054608
 30
0.0
 11
223.1196757679
 21
233.7988054608
 31
0.0
  0
LINE
  5
FB
  8
BEMAßUNG
 10
223.1196757679
 20
233.7988054608
 30
0.0
 11
235.1196757679
 21
233.7988054608
 31
0.0
  0
TEXT
  5
FC
  8
BEMAßUNG
 10
187.6348352736
 20
236.4158737528
 30
13.75
 40
7.4083333333
  1
%%c
 41
0.7
 11
187.6348352736
 21
233.7988054608
 31
13.75
 73
     1
  0
TEXT
  5
FD
  8
BEMAßUNG
 10
198.1265444985
 20
236.4158737528
 30
13.75
 40
7.4083333333
  1
45
 41
0.7
 11
198.1265444985
 21
233.7988054608
 31
13.75
 73
     1
  0
ENDBLK
  5
F4
  8
0
  0
ENDSEC
  0
SECTION
  2
ENTITIES
  0
CIRCLE
  5
79
  8
0
  6
CONTINUOUS
 62
     7
 10
200.6946757679
 20
135.5759385666
 30
0.0
 40
17.50000000000001
  0
CIRCLE
  5
7A
  8
0
  6
CONTINUOUS
 62
     7
 10
200.6946757679
 20
135.5759385666
 30
0.0
 40
22.42500000000001
  0
CIRCLE
  5
7B
  8
0
  6
CONTINUOUS
 62
     7
 10
200.6946757679
 20
135.5759385666
 30
0.0
 40
23.42500000000001
  0
CIRCLE
  5
7C
  8
0
  6
CONTINUOUS
 62
     7
 10
200.6946757679
 20
135.5759385666
 30
0.0
 40
27.49999999999999
  0
LINE
  5
7D
  8
0
  6
CENTER
 62
     7
 10
234.7946757679
 20
135.5759385666
 30
0.0
 11
166.5946757679
 21
135.5759385666
 31
0.0
  0
LINE
  5
7E
  8
0
  6
CONTINUOUS
 62
     7
 10
232.7946757679
 20
123.5759385666
 30
0.0
 11
232.7946757679
 21
135.5759385666
 31
0.0
  0
SOLID
  5
7F
  8
0
  6
CONTINUOUS
 62
     7
 10
232.7946757679
 20
135.5759385666
 30
0.0
 11
231.2946757679
 21
129.5759385666
 31
0.0
 12
234.2946757679
 22
129.5759385666
 32
0.0
 13
234.2946757679
 23
129.5759385666
 33
0.0
  0
LINE
  5
80
  8
0
  6
CONTINUOUS
 62
     7
 10
168.5946757679
 20
123.5759385666
 30
0.0
 11
168.5946757679
 21
135.5759385666
 31
0.0
  0
SOLID
  5
81
  8
0
  6
CONTINUOUS
 62
     7
 10
168.5946757679
 20
135.5759385666
 30
0.0
 11
167.0946757679
 21
129.5759385666
 31
0.0
 12
170.0946757679
 22
129.5759385666
 32
0.0
 13
170.0946757679
 23
129.5759385666
 33
0.0
  0
TEXT
  5
82
  8
0
  6
CONTINUOUS
 62
     7
 10
235.2998758362
 20
127.3118761092
 30
0.0
 40
6.35
  1
A
 41
0.7
 11
235.2998758362
 21
133.6618761092
 31
0.0
 73
     3
  0
TEXT
  5
83
  8
0
  6
CONTINUOUS
 62
     7
 10
159.826475529
 20
127.3118761092
 30
0.0
 40
6.35
  1
A
 41
0.7
 11
159.826475529
 21
133.6618761092
 31
0.0
 73
     3
  0
LINE
  5
84
  8
0
  6
CONTINUOUS
 62
     7
 10
173.7539074047
 20
226.6582764505
 30
0.0
 11
173.1946757679
 21
226.0990448137
 31
0.0
  0
LINE
  5
85
  8
0
  6
CONTINUOUS
 62
     7
 10
177.7568556166
 20
226.1710966018
 30
0.0
 11
174.3946757679
 21
222.8089167532
 31
0.0
  0
LINE
  5
86
  8
0
  6
CONTINUOUS
 62
     7
 10
178.2696757679
 20
222.1937886927
 30
0.0
 11
174.3946757679
 21
218.3187886926
 31
0.0
  0
LINE
  5
87
  8
0
  6
CONTINUOUS
 62
     7
 10
178.2696757679
 20
217.7036606321
 30
0.0
 11
174.3946757679
 21
213.8286606321
 31
0.0
  0
LINE
  5
88
  8
0
  6
CONTINUOUS
 62
     7
 10
178.2696757679
 20
213.2135325716
 30
0.0
 11
175.5060054035
 21
210.4498622072
 31
0.0
  0
LINE
  5
89
  8
0
  6
CONTINUOUS
 62
     7
 10
180.1946757679
 20
210.648404511
 30
0.0
 11
177.1946757679
 21
207.648404511
 31
0.0
  0
LINE
  5
8A
  8
0
  6
CONTINUOUS
 62
     7
 10
180.1946757679
 20
206.1582764505
 30
0.0
 11
177.1946757679
 21
203.1582764505
 31
0.0
  0
LINE
  5
8B
  8
0
  6
CONTINUOUS
 62
     7
 10
180.1946757679
 20
201.66814839
 30
0.0
 11
177.1946757679
 21
198.66814839
 31
0.0
  0
LINE
  5
8C
  8
0
  6
CONTINUOUS
 62
     7
 10
180.1946757679
 20
197.1780203294
 30
0.0
 11
177.1946757679
 21
194.1780203294
 31
0.0
  0
LINE
  5
8D
  8
0
  6
CONTINUOUS
 62
     7
 10
180.1946757679
 20
192.6878922689
 30
0.0
 11
177.1946757679
 21
189.6878922689
 31
0.0
  0
LINE
  5
8E
  8
0
  6
CONTINUOUS
 62
     7
 10
180.1946757679
 20
188.1977642084
 30
0.0
 11
178.6551880101
 21
186.6582764505
 31
0.0
  0
LINE
  5
8F
  8
0
  6
CONTINUOUS
 62
     7
 10
227.6354441311
 20
226.6582764505
 30
0.0
 11
223.1196757679
 21
222.1425080873
 31
0.0
  0
LINE
  5
90
  8
0
  6
CONTINUOUS
 62
     7
 10
226.9946757679
 20
221.5273800268
 30
0.0
 11
223.1196757679
 21
217.6523800268
 31
0.0
  0
LINE
  5
91
  8
0
  6
CONTINUOUS
 62
     7
 10
222.1157002522
 20
212.1582764505
 30
0.0
 11
221.1946757679
 21
211.2372519662
 31
0.0
  0
LINE
  5
92
  8
0
  6
CONTINUOUS
 62
     7
 10
226.9946757679
 20
217.0372519662
 30
0.0
 11
223.1196757679
 21
213.1622519662
 31
0.0
  0
LINE
  5
93
  8
0
  6
CONTINUOUS
 62
     7
 10
224.1946757679
 20
209.7471239057
 30
0.0
 11
221.1946757679
 21
206.7471239057
 31
0.0
  0
LINE
  5
94
  8
0
  6
CONTINUOUS
 62
     7
 10
226.9946757679
 20
212.5471239057
 30
0.0
 11
224.6058283127
 21
210.1582764505
 31
0.0
  0
LINE
  5
95
  8
0
  6
CONTINUOUS
 62
     7
 10
224.1946757679
 20
205.2569958452
 30
0.0
 11
221.1946757679
 21
202.2569958452
 31
0.0
  0
LINE
  5
96
  8
0
  6
CONTINUOUS
 62
     7
 10
224.1946757679
 20
200.7668677846
 30
0.0
 11
221.1946757679
 21
197.7668677846
 31
0.0
  0
LINE
  5
97
  8
0
  6
CONTINUOUS
 62
     7
 10
224.1946757679
 20
196.2767397241
 30
0.0
 11
221.1946757679
 21
193.2767397241
 31
0.0
  0
LINE
  5
98
  8
0
  6
CONTINUOUS
 62
     7
 10
224.1946757679
 20
191.7866116636
 30
0.0
 11
221.1946757679
 21
188.7866116636
 31
0.0
  0
LINE
  5
99
  8
0
  6
CONTINUOUS
 62
     7
 10
178.1946757679
 20
213.2372519662
 30
0.0
 11
179.2736512836
 21
212.1582764505
 31
0.0
  0
LINE
  5
9A
  8
0
  6
CONTINUOUS
 62
     7
 10
181.7637793442
 20
214.1582764505
 30
0.0
 11
183.1946757679
 21
212.7273800268
 31
0.0
  0
LINE
  5
9B
  8
0
  6
CONTINUOUS
 62
     7
 10
218.1946757679
 20
213.648404511
 30
0.0
 11
219.6848038285
 21
212.1582764505
 31
0.0
  0
LINE
  5
9C
  8
0
  6
CONTINUOUS
 62
     7
 10
222.174931889
 20
214.1582764505
 30
0.0
 11
223.1946757679
 21
213.1385325716
 31
0.0
  0
LINE
  5
9D
  8
0
  6
CONTINUOUS
 62
     7
 10
183.1946757679
 20
214.1582764505
 30
0.0
 11
183.1946757679
 21
212.1582764505
 31
0.0
  0
LINE
  5
9E
  8
0
  6
CONTINUOUS
 62
     7
 10
178.1946757679
 20
212.1582764505
 30
0.0
 11
183.1946757679
 21
212.1582764505
 31
0.0
  0
LINE
  5
9F
  8
0
  6
CONTINUOUS
 62
     7
 10
178.1946757679
 20
214.1582764505
 30
0.0
 11
178.1946757679
 21
212.1582764505
 31
0.0
  0
LINE
  5
A0
  8
0
  6
CONTINUOUS
 62
     7
 10
178.1946757679
 20
214.1582764505
 30
0.0
 11
183.1946757679
 21
214.1582764505
 31
0.0
  0
LINE
  5
A1
  8
0
  6
CONTINUOUS
 62
     7
 10
218.1946757679
 20
212.1582764505
 30
0.0
 11
218.1946757679
 21
214.1582764505
 31
0.0
  0
LINE
  5
A2
  8
0
  6
CONTINUOUS
 62
     7
 10
218.1946757679
 20
212.1582764505
 30
0.0
 11
183.1946757679
 21
212.1582764505
 31
0.0
  0
LINE
  5
A3
  8
0
  6
CONTINUOUS
 62
     7
 10
218.1946757679
 20
214.1582764505
 30
0.0
 11
183.1946757679
 21
214.1582764505
 31
0.0
  0
LINE
  5
A4
  8
0
  6
CONTINUOUS
 62
     7
 10
223.1946757679
 20
212.1582764505
 30
0.0
 11
223.1946757679
 21
214.1582764505
 31
0.0
  0
LINE
  5
A5
  8
0
  6
CONTINUOUS
 62
     7
 10
218.1946757679
 20
214.1582764505
 30
0.0
 11
223.1946757679
 21
214.1582764505
 31
0.0
  0
LINE
  5
A6
  8
0
  6
CONTINUOUS
 62
     7
 10
218.1946757679
 20
212.1582764505
 30
0.0
 11
223.1946757679
 21
212.1582764505
 31
0.0
  0
ARC
  5
A7
  8
0
  6
CONTINUOUS
 62
     7
 10
176.3946757679
 20
211.6582764505
 30
0.0
 40
1.5
 50
180.0
 51
270.0
  0
ARC
  5
A8
  8
0
  6
CONTINUOUS
 62
     7
 10
224.9946757679
 20
211.6582764505
 30
0.0
 40
1.5
 50
270.0
 51
0.0
  0
LINE
  5
A9
  8
0
  6
CONTINUOUS
 62
     7
 10
177.1946757679
 20
210.1582764505
 30
0.0
 11
177.1946757679
 21
189.6082764505
 31
0.0
  0
LINE
  5
AA
  8
0
  6
CONTINUOUS
 62
     7
 10
224.1946757679
 20
189.6082764505
 30
0.0
 11
224.1946757679
 21
210.1582764505
 31
0.0
  0
LINE
  5
AB
  8
0
  6
CONTINUOUS
 62
     7
 10
177.1946757679
 20
189.6082764505
 30
0.0
 11
178.1446757679
 21
188.6582764505
 31
0.0
  0
LINE
  5
AC
  8
0
  6
CONTINUOUS
 62
     7
 10
223.2446757679
 20
188.6582764505
 30
0.0
 11
224.1946757679
 21
189.6082764505
 31
0.0
  0
LINE
  5
AD
  8
0
  6
CONTINUOUS
 62
     7
 10
178.1446757679
 20
188.6582764505
 30
0.0
 11
178.1446757679
 21
186.6582764505
 31
0.0
  0
LINE
  5
AE
  8
0
  6
CONTINUOUS
 62
     7
 10
223.2446757679
 20
186.6582764505
 30
0.0
 11
223.2446757679
 21
188.6582764505
 31
0.0
  0
LINE
  5
AF
  8
0
  6
CONTINUOUS
 62
     7
 10
180.1946757679
 20
186.6582764505
 30
0.0
 11
180.1946757679
 21
212.1582764505
 31
0.0
  0
LINE
  5
B0
  8
0
  6
CONTINUOUS
 62
     7
 10
221.1946757679
 20
212.1582764505
 30
0.0
 11
221.1946757679
 21
186.6582764505
 31
0.0
  0
LINE
  5
B1
  8
0
  6
CONTINUOUS
 62
     7
 10
221.1946757679
 20
186.6582764505
 30
0.0
 11
180.1946757679
 21
186.6582764505
 31
0.0
  0
LINE
  5
B2
  8
0
  6
CONTINUOUS
 62
     7
 10
178.2696757679
 20
212.1582764505
 30
0.0
 11
178.2696757679
 21
225.6582764505
 31
0.0
  0
LINE
  5
B3
  8
0
  6
CONTINUOUS
 62
     7
 10
223.1196757679
 20
225.6582764505
 30
0.0
 11
178.2696757679
 21
225.6582764505
 31
0.0
  0
LINE
  5
B4
  8
0
  6
CONTINUOUS
 62
     7
 10
223.1196757679
 20
225.6582764505
 30
0.0
 11
223.1196757679
 21
212.1582764505
 31
0.0
  0
LINE
  5
B5
  8
0
  6
CONTINUOUS
 62
     7
 10
173.1946757679
 20
226.6582764505
 30
0.0
 11
173.1946757679
 21
224.6582764505
 31
0.0
  0
LINE
  5
B6
  8
0
  6
CONTINUOUS
 62
     7
 10
228.1946757679
 20
224.6582764505
 30
0.0
 11
228.1946757679
 21
226.6582764505
 31
0.0
  0
LINE
  5
B7
  8
0
  6
CONTINUOUS
 62
     7
 10
226.9946757679
 20
224.6582764505
 30
0.0
 11
226.9946757679
 21
212.1582764505
 31
0.0
  0
LINE
  5
B8
  8
0
  6
CONTINUOUS
 62
     7
 10
174.3946757679
 20
212.1582764505
 30
0.0
 11
174.3946757679
 21
224.6582764505
 31
0.0
  0
LINE
  5
B9
  8
0
  6
CONTINUOUS
 62
     7
 10
174.5286503641
 20
211.6582764505
 30
0.0
 11
174.3946757679
 21
212.1582764505
 31
0.0
  0
LINE
  5
BA
  8
0
  6
CONTINUOUS
 62
     7
 10
226.9946757679
 20
212.1582764505
 30
0.0
 11
226.8607011717
 21
211.6582764505
 31
0.0
  0
LINE
  5
BB
  8
0
  6
CONTINUOUS
 62
     7
 10
177.2696757679
 20
226.6582764505
 30
0.0
 11
178.2696757679
 21
225.6582764505
 31
0.0
  0
LINE
  5
BC
  8
0
  6
CONTINUOUS
 62
     7
 10
223.1196757679
 20
225.6582764505
 30
0.0
 11
224.1196757679
 21
226.6582764505
 31
0.0
  0
LINE
  5
BD
  8
0
  6
CONTINUOUS
 62
     7
 10
177.2696757679
 20
226.6582764505
 30
0.0
 11
224.1196757679
 21
226.6582764505
 31
0.0
  0
LINE
  5
BE
  8
0
  6
CONTINUOUS
 62
     7
 10
174.5286503641
 20
211.6582764505
 30
0.0
 11
174.8946757679
 21
211.6582764505
 31
0.0
  0
LINE
  5
BF
  8
0
  6
CONTINUOUS
 62
     7
 10
173.1946757679
 20
224.6582764505
 30
0.0
 11
174.3946757679
 21
224.6582764505
 31
0.0
  0
LINE
  5
C0
  8
0
  6
CONTINUOUS
 62
     7
 10
177.2696757679
 20
226.6582764505
 30
0.0
 11
173.1946757679
 21
226.6582764505
 31
0.0
  0
LINE
  5
C1
  8
0
  6
CONTINUOUS
 62
     7
 10
180.1946757679
 20
212.1582764505
 30
0.0
 11
178.2696757679
 21
212.1582764505
 31
0.0
  0
LINE
  5
C2
  8
0
  6
CONTINUOUS
 62
     7
 10
178.1446757679
 20
186.6582764505
 30
0.0
 11
180.1946757679
 21
186.6582764505
 31
0.0
  0
LINE
  5
C3
  8
0
  6
CONTINUOUS
 62
     7
 10
176.3946757679
 20
210.1582764505
 30
0.0
 11
177.1946757679
 21
210.1582764505
 31
0.0
  0
LINE
  5
C4
  8
0
  6
CONTINUOUS
 62
     7
 10
226.4946757679
 20
211.6582764505
 30
0.0
 11
226.8607011717
 21
211.6582764505
 31
0.0
  0
LINE
  5
C5
  8
0
  6
CONTINUOUS
 62
     7
 10
226.9946757679
 20
224.6582764505
 30
0.0
 11
228.1946757679
 21
224.6582764505
 31
0.0
  0
LINE
  5
C6
  8
0
  6
CONTINUOUS
 62
     7
 10
228.1946757679
 20
226.6582764505
 30
0.0
 11
224.1196757679
 21
226.6582764505
 31
0.0
  0
LINE
  5
C7
  8
0
  6
CONTINUOUS
 62
     7
 10
223.1196757679
 20
212.1582764505
 30
0.0
 11
221.1946757679
 21
212.1582764505
 31
0.0
  0
LINE
  5
C8
  8
0
  6
CONTINUOUS
 62
     7
 10
221.1946757679
 20
186.6582764505
 30
0.0
 11
223.2446757679
 21
186.6582764505
 31
0.0
  0
LINE
  5
C9
  8
0
  6
CONTINUOUS
 62
     7
 10
224.1946757679
 20
210.1582764505
 30
0.0
 11
224.9946757679
 21
210.1582764505
 31
0.0
  0
DIMENSION
  5
CA
  8
BEMAßUNG
  2
_D
 10
221.1946757679
 20
176.6582764505
 30
0.0
 11
198.3683447099
 21
176.6582764505
 31
0.0
 70
   160
  1
%%c<>
  3
SLDDIMSTYLE0
 13
180.1946757679
 23
186.6582764505
 33
0.0
 14
221.1946757679
 24
186.6582764505
 34
0.0
  0
DIMENSION
  5
D8
  8
BEMAßUNG
  2
_D_1
 10
165.7997098976
 20
186.6582764505
 30
0.0
 11
165.7997098976
 21
200.9716894198
 31
0.0
 70
   160
  1
<>
  3
SLDDIMSTYLE1
 13
183.1946757679
 23
212.1582764505
 33
0.0
 14
180.1946757679
 24
186.6582764505
 34
0.0
 50
90.0
  0
DIMENSION
  5
E5
  8
BEMAßUNG
  2
_D_2
 10
151.1946757679
 20
186.6582764505
 30
0.0
 11
151.1946757679
 21
205.8828327645
 31
0.0
 70
   160
  1
<>
  3
SLDDIMSTYLE2
 13
177.2696757679
 23
226.6582764505
 33
0.0
 14
180.1946757679
 24
186.6582764505
 34
0.0
 50
90.0
  0
DIMENSION
  5
F0
  8
BEMAßUNG
  2
_D_3
 10
223.1196757679
 20
233.7988054608
 30
0.0
 11
198.3683447099
 21
233.7988054608
 31
0.0
 70
   160
  1
%%c<>
  3
SLDDIMSTYLE3
 13
178.2696757679
 23
225.6582764505
 33
0.0
 14
223.1196757679
 24
225.6582764505
 34
0.0
  0
ENDSEC
  0
EOF
