  0
SECTION
  2
HEADER
  9
$ACADVER
  1
AC1015
  9
$ACADMAINTVER
 70
     6
  9
$DWGCODEPAGE
  3
DOS850
  9
$INSBASE
 10
0.0
 20
0.0
 30
0.0
  9
$EXTMIN
 10
0.0
 20
0.0
 30
0.0
  9
$EXTMAX
 10
840.0
 20
594.0
 30
0.0
  9
$LIMMIN
 10
0.0
 20
0.0
  9
$LIMMAX
 10
840.0
 20
594.0
  9
$ORTHOMODE
 70
     0
  9
$REGENMODE
 70
     1
  9
$FILLMODE
 70
     1
  9
$QTEXTMODE
 70
     0
  9
$MIRRTEXT
 70
     1
  9
$LTSCALE
 40
2.0
  9
$ATTMODE
 70
     1
  9
$TEXTSIZE
 40
2.5
  9
$TRACEWID
 40
1.0
  9
$TEXTSTYLE
  7
Standard
  9
$CLAYER
  8
0
  9
$CELTYPE
  6
ByLayer
  9
$CECOLOR
 62
     7
  9
$CELTSCALE
 40
1.0
  9
$DISPSILH
 70
     0
  9
$DIMSCALE
 40
2.0
  9
$DIMASZ
 40
3.5
  9
$DIMEXO
 40
0.625
  9
$DIMDLI
 40
3.75
  9
$DIMRND
 40
0.0
  9
$DIMDLE
 40
0.0
  9
$DIMEXE
 40
1.25
  9
$DIMTP
 40
0.0
  9
$DIMTM
 40
0.0
  9
$DIMTXT
 40
3.5
  9
$DIMCEN
 40
2.5
  9
$DIMTSZ
 40
0.0
  9
$DIMTOL
 70
     0
  9
$DIMLIM
 70
     0
  9
$DIMTIH
 70
     0
  9
$DIMTOH
 70
     0
  9
$DIMSE1
 70
     0
  9
$DIMSE2
 70
     0
  9
$DIMTAD
 70
     1
  9
$DIMZIN
 70
     8
  9
$DIMBLK
  1

  9
$DIMASO
 70
     1
  9
$DIMSHO
 70
     1
  9
$DIMPOST
  1

  9
$DIMAPOST
  1

  9
$DIMALT
 70
     0
  9
$DIMALTD
 70
     3
  9
$DIMALTF
 40
0.03937
  9
$DIMLFAC
 40
1.0
  9
$DIMTOFL
 70
     1
  9
$DIMTVP
 40
0.0
  9
$DIMTIX
 70
     0
  9
$DIMSOXD
 70
     0
  9
$DIMSAH
 70
     0
  9
$DIMBLK1
  1

  9
$DIMBLK2
  1

  9
$DIMSTYLE
  2
ISO-25
  9
$DIMCLRD
 70
     0
  9
$DIMCLRE
 70
     0
  9
$DIMCLRT
 70
     0
  9
$DIMTFAC
 40
1.0
  9
$DIMGAP
 40
0.625
  9
$DIMJUST
 70
     0
  9
$DIMSD1
 70
     0
  9
$DIMSD2
 70
     0
  9
$DIMTOLJ
 70
     0
  9
$DIMTZIN
 70
     8
  9
$DIMALTZ
 70
     0
  9
$DIMALTTZ
 70
     0
  9
$DIMUPT
 70
     0
  9
$DIMDEC
 70
     2
  9
$DIMTDEC
 70
     2
  9
$DIMALTU
 70
     2
  9
$DIMALTTD
 70
     3
  9
$DIMTXSTY
  7
Standard
  9
$DIMAUNIT
 70
     0
  9
$DIMADEC
 70
     0
  9
$DIMALTRND
 40
0.0
  9
$DIMAZIN
 70
     0
  9
$DIMDSEP
 70
    44
  9
$DIMATFIT
 70
     3
  9
$DIMFRAC
 70
     0
  9
$DIMLDRBLK
  1

  9
$DIMLUNIT
 70
     2
  9
$DIMLWD
 70
    -2
  9
$DIMLWE
 70
    -2
  9
$DIMTMOVE
 70
     0
  9
$LUNITS
 70
     2
  9
$LUPREC
 70
     4
  9
$SKETCHINC
 40
1.0
  9
$FILLETRAD
 40
10.0
  9
$AUNITS
 70
     0
  9
$AUPREC
 70
     0
  9
$MENU
  1
.
  9
$ELEVATION
 40
0.0
  9
$PELEVATION
 40
0.0
  9
$THICKNESS
 40
0.0
  9
$LIMCHECK
 70
     0
  9
$CHAMFERA
 40
10.0
  9
$CHAMFERB
 40
10.0
  9
$CHAMFERC
 40
20.0
  9
$CHAMFERD
 40
0.0
  9
$SKPOLY
 70
     0
  9
$TDCREATE
 40
2453854.600906933
  9
$TDUCREATE
 40
2453854.5175736
  9
$TDUPDATE
 40
2453854.600906944
  9
$TDUUPDATE
 40
2453854.517573611
  9
$TDINDWG
 40
0.0000000116
  9
$TDUSRTIMER
 40
0.0000000116
  9
$USRTIMER
 70
     1
  9
$ANGBASE
 50
0.0
  9
$ANGDIR
 70
     0
  9
$PDMODE
 70
     0
  9
$PDSIZE
 40
0.0
  9
$PLINEWID
 40
0.0
  9
$SPLFRAME
 70
     0
  9
$SPLINETYPE
 70
     6
  9
$SPLINESEGS
 70
     8
  9
$HANDSEED
  5
57F
  9
$SURFTAB1
 70
     6
  9
$SURFTAB2
 70
     6
  9
$SURFTYPE
 70
     6
  9
$SURFU
 70
     6
  9
$SURFV
 70
     6
  9
$UCSBASE
  2

  9
$UCSNAME
  2

  9
$UCSORG
 10
0.0
 20
0.0
 30
0.0
  9
$UCSXDIR
 10
1.0
 20
0.0
 30
0.0
  9
$UCSYDIR
 10
0.0
 20
1.0
 30
0.0
  9
$UCSORTHOREF
  2

  9
$UCSORTHOVIEW
 70
     0
  9
$UCSORGTOP
 10
0.0
 20
0.0
 30
0.0
  9
$UCSORGBOTTOM
 10
0.0
 20
0.0
 30
0.0
  9
$UCSORGLEFT
 10
0.0
 20
0.0
 30
0.0
  9
$UCSORGRIGHT
 10
0.0
 20
0.0
 30
0.0
  9
$UCSORGFRONT
 10
0.0
 20
0.0
 30
0.0
  9
$UCSORGBACK
 10
0.0
 20
0.0
 30
0.0
  9
$PUCSBASE
  2

  9
$PUCSNAME
  2

  9
$PUCSORG
 10
0.0
 20
0.0
 30
0.0
  9
$PUCSXDIR
 10
1.0
 20
0.0
 30
0.0
  9
$PUCSYDIR
 10
0.0
 20
1.0
 30
0.0
  9
$PUCSORTHOREF
  2

  9
$PUCSORTHOVIEW
 70
     0
  9
$PUCSORGTOP
 10
0.0
 20
0.0
 30
0.0
  9
$PUCSORGBOTTOM
 10
0.0
 20
0.0
 30
0.0
  9
$PUCSORGLEFT
 10
0.0
 20
0.0
 30
0.0
  9
$PUCSORGRIGHT
 10
0.0
 20
0.0
 30
0.0
  9
$PUCSORGFRONT
 10
0.0
 20
0.0
 30
0.0
  9
$PUCSORGBACK
 10
0.0
 20
0.0
 30
0.0
  9
$USERI1
 70
     0
  9
$USERI2
 70
     0
  9
$USERI3
 70
     0
  9
$USERI4
 70
     0
  9
$USERI5
 70
     0
  9
$USERR1
 40
0.0
  9
$USERR2
 40
0.0
  9
$USERR3
 40
0.0
  9
$USERR4
 40
0.0
  9
$USERR5
 40
0.0
  9
$WORLDVIEW
 70
     1
  9
$SHADEDGE
 70
     3
  9
$SHADEDIF
 70
    70
  9
$TILEMODE
 70
     1
  9
$MAXACTVP
 70
    64
  9
$PINSBASE
 10
0.0
 20
0.0
 30
0.0
  9
$PLIMCHECK
 70
     0
  9
$PEXTMIN
 10
0.0
 20
0.0
 30
0.0
  9
$PEXTMAX
 10
840.0
 20
594.0
 30
0.0
  9
$PLIMMIN
 10
0.0
 20
0.0
  9
$PLIMMAX
 10
840.0
 20
594.0
  9
$UNITMODE
 70
     0
  9
$VISRETAIN
 70
     1
  9
$PLINEGEN
 70
     0
  9
$PSLTSCALE
 70
     1
  9
$TREEDEPTH
 70
  3020
  9
$CMLSTYLE
  2
Standard
  9
$CMLJUST
 70
     0
  9
$CMLSCALE
 40
20.0
  9
$PROXYGRAPHICS
 70
     1
  9
$MEASUREMENT
 70
     1
  9
$CELWEIGHT
370
    -1
  9
$ENDCAPS
280
     0
  9
$JOINSTYLE
280
     0
  9
$LWDISPLAY
290
     0
  9
$INSUNITS
 70
     4
  9
$HYPERLINKBASE
  1

  9
$STYLESHEET
  1

  9
$XEDIT
290
     1
  9
$CEPSNTYPE
380
     0
  9
$PSTYLEMODE
290
     1
  9
$FINGERPRINTGUID
  2
{FAEB1C30-E019-11D5-929B-00C0DF256EC4}
  9
$VERSIONGUID
  2
{FAEB1C32-E019-11D5-929B-00C0DF256EC4}
  9
$EXTNAMES
290
     1
  9
$PSVPSCALE
 40
0.0
  9
$OLESTARTUP
290
     0
  0
ENDSEC
  0
SECTION
  2
CLASSES
  0
CLASS
  1
ACDBDICTIONARYWDFLT
  2
AcDbDictionaryWithDefault
  3
ObjectDBX Classes
 90
        0
280
     0
281
     0
  0
CLASS
  1
ACDBPLACEHOLDER
  2
AcDbPlaceHolder
  3
ObjectDBX Classes
 90
        0
280
     0
281
     0
  0
CLASS
  1
LAYOUT
  2
AcDbLayout
  3
ObjectDBX Classes
 90
        0
280
     0
281
     0
  0
ENDSEC
  0
SECTION
  2
TABLES
  0
TABLE
  2
VPORT
  5
8
330
0
100
AcDbSymbolTable
 70
     2
  0
VPORT
  5
29
330
8
100
AcDbSymbolTableRecord
100
AcDbViewportTableRecord
  2
*ACTIVE
 70
     0
 10
0.0
 20
0.0
 11
1.0
 21
1.0
 12
420.0
 22
297.0
 13
0.0
 23
0.0
 14
1.0
 24
1.0
 15
0.0
 25
0.0
 16
0.0
 26
0.0
 36
1.0
 17
0.0
 27
0.0
 37
0.0
 40
594.0
 41
1.414141
 42
50.0
 43
0.0
 44
0.0
 50
0.0
 51
0.0
 71
    16
 72
   100
 73
     1
 74
     0
 75
     0
 76
     0
 77
     0
 78
     0
281
     0
 65
     0
110
0.0
120
0.0
130
0.0
111
1.0
121
0.0
131
0.0
112
0.0
122
1.0
132
0.0
 79
     0
146
0.0
  0
ENDTAB
  0
TABLE
  2
LTYPE
  5
5
330
0
100
AcDbSymbolTable
 70
     3
  0
LTYPE
  5
14
330
5
100
AcDbSymbolTableRecord
100
AcDbLinetypeTableRecord
  2
ByBlock
 70
     0
  3

 72
    65
 73
     0
 40
0.0
  0
LTYPE
  5
15
330
5
100
AcDbSymbolTableRecord
100
AcDbLinetypeTableRecord
  2
ByLayer
 70
     0
  3

 72
    65
 73
     0
 40
0.0
  0
LTYPE
  5
16
330
5
100
AcDbSymbolTableRecord
100
AcDbLinetypeTableRecord
  2
Continuous
 70
     0
  3
Solid line
 72
    65
 73
     0
 40
0.0
  0
LTYPE
  5
2A
330
5
100
AcDbSymbolTableRecord
100
AcDbLinetypeTableRecord
  2
DASHED
 70
     0
  3
__ __ __ __ __
 72
    65
 73
     2
 40
6.25
 49
5.0
 74
     4
 75
     0
340
0
 46
1.0
 50
0.0
 44
0.0
 45
0.0
 49
-1.25
 74
     4
 75
     0
340
0
 46
1.0
 50
0.0
 44
0.0
 45
0.0
  0
LTYPE
  5
209
330
5
100
AcDbSymbolTableRecord
100
AcDbLinetypeTableRecord
  2
DASHDOT
 70
     0
  3
__ . __ . __ . __ . __
 72
    65
 73
     4
 40
7.5
 49
5.0
 74
     4
 75
     0
340
0
 46
1.0
 50
0.0
 44
0.0
 45
0.0
 49
-1.25
 74
     4
 75
     0
340
0
 46
1.0
 50
0.0
 44
0.0
 45
0.0
 49
0.0
 74
     4
 75
     0
340
0
 46
1.0
 50
0.0
 44
0.0
 45
0.0
 49
-1.25
 74
     4
 75
     0
340
0
 46
1.0
 50
0.0
 44
0.0
 45
0.0
  0
ENDTAB
  0
TABLE
  2
LAYER
  5
2
330
0
100
AcDbSymbolTable
 70
    14
  0
LAYER
  5
10
330
2
100
AcDbSymbolTableRecord
100
AcDbLayerTableRecord
  2
0
 70
     0
 62
     7
  6
Continuous
370
    -3
390
F
  0
LAYER
  5
2B
330
2
100
AcDbSymbolTableRecord
100
AcDbLayerTableRecord
  2
LC-INFO-1-2-mm-A3-0
 70
     1
 62
     7
  6
ByBlock
370
    -3
390
F
  0
LAYER
  5
2C
330
2
100
AcDbSymbolTableRecord
100
AcDbLayerTableRecord
  2
LC-CUT-HIDDEN
 70
     0
 62
     7
  6
DASHED
370
    -3
390
F
  0
LAYER
  5
2D
330
2
100
AcDbSymbolTableRecord
100
AcDbLayerTableRecord
  2
LC-VIEWPORT
 70
     0
 62
     7
  6
ByBlock
370
    -3
390
F
  0
LAYER
  5
2E
330
2
100
AcDbSymbolTableRecord
100
AcDbLayerTableRecord
  2
LC-3D-HIDDEN
 70
     0
 62
     9
  6
DASHED
370
    -3
390
F
  0
LAYER
  5
30
330
2
100
AcDbSymbolTableRecord
100
AcDbLayerTableRecord
  2
LC-001-207-----0
 70
     0
 62
     1
  6
ByBlock
370
    -3
390
F
  0
LAYER
  5
34
330
2
100
AcDbSymbolTableRecord
100
AcDbLayerTableRecord
  2
LC-002-003-----0
 70
     0
 62
     2
  6
ByBlock
370
    -3
390
F
  0
LAYER
  5
36
330
2
100
AcDbSymbolTableRecord
100
AcDbLayerTableRecord
  2
Defpoints
 70
     0
 62
     7
  6
Continuous
290
     0
370
    -3
390
F
  0
LAYER
  5
48
330
2
100
AcDbSymbolTableRecord
100
AcDbLayerTableRecord
  2
LC-003-005-----0
 70
     0
 62
     2
  6
DASHED
370
    -3
390
F
  0
LAYER
  5
50
330
2
100
AcDbSymbolTableRecord
100
AcDbLayerTableRecord
  2
LC-004-002-----0
 70
     0
 62
     1
  6
ByBlock
370
    -3
390
F
  0
LAYER
  5
82
330
2
100
AcDbSymbolTableRecord
100
AcDbLayerTableRecord
  2
LC-005-002-RND-0
 70
     0
 62
     1
  6
ByBlock
370
    -3
390
F
  0
LAYER
  5
330
330
2
100
AcDbSymbolTableRecord
100
AcDbLayerTableRecord
  2
LC-006-205-----0
 70
     0
 62
     1
  6
ByBlock
370
    -3
390
F
  0
LAYER
  5
571
330
2
100
AcDbSymbolTableRecord
100
AcDbLayerTableRecord
  2
LC-007-003-MTG-0
 70
     0
 62
     2
  6
ByBlock
370
    -3
390
F
  0
LAYER
  5
575
330
2
100
AcDbSymbolTableRecord
100
AcDbLayerTableRecord
  2
LC-008-003-MTH-0
 70
     0
 62
     2
  6
ByBlock
370
    -3
390
F
  0
ENDTAB
  0
TABLE
  2
STYLE
  5
3
330
0
100
AcDbSymbolTable
 70
     3
  0
STYLE
  5
11
330
3
100
AcDbSymbolTableRecord
100
AcDbTextStyleTableRecord
  2
Standard
 70
     0
 40
0.0
 41
1.0
 50
0.0
 71
     0
 42
2.5
  3
txt
  4

  0
STYLE
  5
2F
330
3
100
AcDbSymbolTableRecord
100
AcDbTextStyleTableRecord
  2
LCTX15-400-0-0-Arial
 70
     0
 40
0.0
 41
0.9
 50
0.0
 71
     0
 42
3.5
  3
ARIAL.TTF
  4

1001
ACAD
1000
Arial
1071
 16777218
  0
STYLE
  5
32
330
3
100
AcDbSymbolTableRecord
100
AcDbTextStyleTableRecord
  2
LCTX15-400-0-0pDIN-Schrift
 70
     0
 40
2.5
 41
0.8
 50
15.0
 71
     0
 42
3.5
  3
STANDARD
  4

  0
ENDTAB
  0
TABLE
  2
VIEW
  5
6
330
0
100
AcDbSymbolTable
 70
     0
  0
ENDTAB
  0
TABLE
  2
UCS
  5
7
330
0
100
AcDbSymbolTable
 70
     0
  0
ENDTAB
  0
TABLE
  2
APPID
  5
9
330
0
100
AcDbSymbolTable
 70
     1
  0
APPID
  5
12
330
9
100
AcDbSymbolTableRecord
100
AcDbRegAppTableRecord
  2
ACAD
 70
     0
  0
ENDTAB
  0
TABLE
  2
DIMSTYLE
  5
A
330
0
100
AcDbSymbolTable
 70
     3
100
AcDbDimStyleTable
  0
DIMSTYLE
105
27
330
A
100
AcDbSymbolTableRecord
100
AcDbDimStyleTableRecord
  2
ISO-25
 70
     0
 41
2.5
 42
0.625
 43
3.75
 44
1.25
 73
     0
 74
     0
 77
     1
 78
     8
140
2.5
141
2.5
143
0.03937
147
0.625
171
     3
172
     1
271
     2
272
     2
274
     3
278
    44
283
     0
284
     8
340
11
  0
DIMSTYLE
105
33
102
{ACAD_REACTORS
330
35
330
36C
330
3A0
330
433
330
51C
330
529
330
536
102
}
330
A
100
AcDbSymbolTableRecord
100
AcDbDimStyleTableRecord
  2
LC-DIM-L-0140-02-02
 70
     0
 40
2.0
 41
14.0
 42
0.0
 43
7.5
 44
1.8
 73
     0
 74
     0
 77
     1
 78
     8
 79
     2
140
14.0
141
0.0
146
0.71
147
1.5
176
     2
177
     2
178
     2
179
     2
271
     2
278
    44
289
     1
340
32
  0
DIMSTYLE
105
55A
330
A
100
AcDbSymbolTableRecord
100
AcDbDimStyleTableRecord
  2
LC-DIM-W-0140-02-02
 70
     0
 40
2.0
 41
14.0
 42
0.0
 43
7.5
 44
1.8
 73
     0
 74
     0
 77
     1
 78
     8
 79
     2
140
14.0
141
0.0
146
0.71
147
1.5
176
     2
177
     2
178
     2
179
     2
271
     2
278
    44
289
     1
340
32
  0
ENDTAB
  0
TABLE
  2
BLOCK_RECORD
  5
1
330
0
100
AcDbSymbolTable
 70
    54
  0
BLOCK_RECORD
  5
1F
330
1
100
AcDbSymbolTableRecord
100
AcDbBlockTableRecord
  2
*Model_Space
340
22
  0
BLOCK_RECORD
  5
1B
330
1
100
AcDbSymbolTableRecord
100
AcDbBlockTableRecord
  2
*Paper_Space
340
1E
  0
BLOCK_RECORD
  5
23
330
1
100
AcDbSymbolTableRecord
100
AcDbBlockTableRecord
  2
*Paper_Space0
340
26
  0
BLOCK_RECORD
  5
37
330
1
100
AcDbSymbolTableRecord
100
AcDbBlockTableRecord
  2
*D1
340
0
  0
BLOCK_RECORD
  5
45
330
1
100
AcDbSymbolTableRecord
100
AcDbBlockTableRecord
  2
*X12
340
0
102
{BLKREFS
331
4F
102
}
  0
BLOCK_RECORD
  5
53
330
1
100
AcDbSymbolTableRecord
100
AcDbBlockTableRecord
  2
*X23
340
0
102
{BLKREFS
331
68
102
}
  0
BLOCK_RECORD
  5
69
330
1
100
AcDbSymbolTableRecord
100
AcDbBlockTableRecord
  2
*X34
340
0
102
{BLKREFS
331
7F
102
}
  0
BLOCK_RECORD
  5
85
330
1
100
AcDbSymbolTableRecord
100
AcDbBlockTableRecord
  2
*X45
340
0
102
{BLKREFS
331
9D
102
}
  0
BLOCK_RECORD
  5
9E
330
1
100
AcDbSymbolTableRecord
100
AcDbBlockTableRecord
  2
*X56
340
0
102
{BLKREFS
331
B6
102
}
  0
BLOCK_RECORD
  5
B7
330
1
100
AcDbSymbolTableRecord
100
AcDbBlockTableRecord
  2
*X67
340
0
102
{BLKREFS
331
CE
102
}
  0
BLOCK_RECORD
  5
D7
330
1
100
AcDbSymbolTableRecord
100
AcDbBlockTableRecord
  2
*X78
340
0
102
{BLKREFS
331
E6
102
}
  0
BLOCK_RECORD
  5
EA
330
1
100
AcDbSymbolTableRecord
100
AcDbBlockTableRecord
  2
*X89
340
0
102
{BLKREFS
331
101
102
}
  0
BLOCK_RECORD
  5
10E
330
1
100
AcDbSymbolTableRecord
100
AcDbBlockTableRecord
  2
*X910
340
0
102
{BLKREFS
331
11E
102
}
  0
BLOCK_RECORD
  5
133
330
1
100
AcDbSymbolTableRecord
100
AcDbBlockTableRecord
  2
*X1011
340
0
102
{BLKREFS
331
138
102
}
  0
BLOCK_RECORD
  5
14E
330
1
100
AcDbSymbolTableRecord
100
AcDbBlockTableRecord
  2
*X1112
340
0
102
{BLKREFS
331
158
102
}
  0
BLOCK_RECORD
  5
15C
330
1
100
AcDbSymbolTableRecord
100
AcDbBlockTableRecord
  2
*X1213
340
0
102
{BLKREFS
331
16B
102
}
  0
BLOCK_RECORD
  5
16D
330
1
100
AcDbSymbolTableRecord
100
AcDbBlockTableRecord
  2
*X1314
340
0
102
{BLKREFS
331
17B
102
}
  0
BLOCK_RECORD
  5
17C
330
1
100
AcDbSymbolTableRecord
100
AcDbBlockTableRecord
  2
*X1415
340
0
102
{BLKREFS
331
189
102
}
  0
BLOCK_RECORD
  5
1A1
330
1
100
AcDbSymbolTableRecord
100
AcDbBlockTableRecord
  2
*X1516
340
0
102
{BLKREFS
331
1AE
102
}
  0
BLOCK_RECORD
  5
1AF
330
1
100
AcDbSymbolTableRecord
100
AcDbBlockTableRecord
  2
*X1617
340
0
102
{BLKREFS
331
1BD
102
}
  0
BLOCK_RECORD
  5
1C4
330
1
100
AcDbSymbolTableRecord
100
AcDbBlockTableRecord
  2
*X1718
340
0
102
{BLKREFS
331
1D3
102
}
  0
BLOCK_RECORD
  5
1DA
330
1
100
AcDbSymbolTableRecord
100
AcDbBlockTableRecord
  2
*X1819
340
0
102
{BLKREFS
331
1E4
102
}
  0
BLOCK_RECORD
  5
1EC
330
1
100
AcDbSymbolTableRecord
100
AcDbBlockTableRecord
  2
*X1920
340
0
102
{BLKREFS
331
1F6
102
}
  0
BLOCK_RECORD
  5
1F9
330
1
100
AcDbSymbolTableRecord
100
AcDbBlockTableRecord
  2
*X2021
340
0
102
{BLKREFS
331
1FE
102
}
  0
BLOCK_RECORD
  5
231
330
1
100
AcDbSymbolTableRecord
100
AcDbBlockTableRecord
  2
*X2122
340
0
102
{BLKREFS
331
235
102
}
  0
BLOCK_RECORD
  5
23B
330
1
100
AcDbSymbolTableRecord
100
AcDbBlockTableRecord
  2
*X2223
340
0
102
{BLKREFS
331
240
102
}
  0
BLOCK_RECORD
  5
244
330
1
100
AcDbSymbolTableRecord
100
AcDbBlockTableRecord
  2
*X2324
340
0
102
{BLKREFS
331
24A
102
}
  0
BLOCK_RECORD
  5
24D
330
1
100
AcDbSymbolTableRecord
100
AcDbBlockTableRecord
  2
*X2425
340
0
102
{BLKREFS
331
259
102
}
  0
BLOCK_RECORD
  5
260
330
1
100
AcDbSymbolTableRecord
100
AcDbBlockTableRecord
  2
*X2526
340
0
102
{BLKREFS
331
280
102
}
  0
BLOCK_RECORD
  5
282
330
1
100
AcDbSymbolTableRecord
100
AcDbBlockTableRecord
  2
*X2627
340
0
102
{BLKREFS
331
287
102
}
  0
BLOCK_RECORD
  5
289
330
1
100
AcDbSymbolTableRecord
100
AcDbBlockTableRecord
  2
*X2728
340
0
102
{BLKREFS
331
2A9
102
}
  0
BLOCK_RECORD
  5
2B0
330
1
100
AcDbSymbolTableRecord
100
AcDbBlockTableRecord
  2
*X2829
340
0
102
{BLKREFS
331
2B6
102
}
  0
BLOCK_RECORD
  5
2B7
330
1
100
AcDbSymbolTableRecord
100
AcDbBlockTableRecord
  2
*X2930
340
0
102
{BLKREFS
331
2BC
102
}
  0
BLOCK_RECORD
  5
2C1
330
1
100
AcDbSymbolTableRecord
100
AcDbBlockTableRecord
  2
*X3031
340
0
102
{BLKREFS
331
2C8
102
}
  0
BLOCK_RECORD
  5
2CB
330
1
100
AcDbSymbolTableRecord
100
AcDbBlockTableRecord
  2
*X3132
340
0
102
{BLKREFS
331
2E0
102
}
  0
BLOCK_RECORD
  5
2E1
330
1
100
AcDbSymbolTableRecord
100
AcDbBlockTableRecord
  2
*X3233
340
0
102
{BLKREFS
331
2F9
102
}
  0
BLOCK_RECORD
  5
34C
330
1
100
AcDbSymbolTableRecord
100
AcDbBlockTableRecord
  2
*X3334
340
0
102
{BLKREFS
331
356
102
}
  0
BLOCK_RECORD
  5
36D
330
1
100
AcDbSymbolTableRecord
100
AcDbBlockTableRecord
  2
*D35
340
0
  0
BLOCK_RECORD
  5
379
330
1
100
AcDbSymbolTableRecord
100
AcDbBlockTableRecord
  2
*X3436
340
0
102
{BLKREFS
331
382
102
}
  0
BLOCK_RECORD
  5
386
330
1
100
AcDbSymbolTableRecord
100
AcDbBlockTableRecord
  2
*X3537
340
0
102
{BLKREFS
331
38D
102
}
  0
BLOCK_RECORD
  5
391
330
1
100
AcDbSymbolTableRecord
100
AcDbBlockTableRecord
  2
*X3638
340
0
102
{BLKREFS
331
397
102
}
  0
BLOCK_RECORD
  5
398
330
1
100
AcDbSymbolTableRecord
100
AcDbBlockTableRecord
  2
*X3739
340
0
102
{BLKREFS
331
39F
102
}
  0
BLOCK_RECORD
  5
3A1
330
1
100
AcDbSymbolTableRecord
100
AcDbBlockTableRecord
  2
*D40
340
0
  0
BLOCK_RECORD
  5
3B2
330
1
100
AcDbSymbolTableRecord
100
AcDbBlockTableRecord
  2
*X3841
340
0
102
{BLKREFS
331
3DB
102
}
  0
BLOCK_RECORD
  5
3DE
330
1
100
AcDbSymbolTableRecord
100
AcDbBlockTableRecord
  2
*X3942
340
0
102
{BLKREFS
331
3E5
102
}
  0
BLOCK_RECORD
  5
3E7
330
1
100
AcDbSymbolTableRecord
100
AcDbBlockTableRecord
  2
*X4043
340
0
102
{BLKREFS
331
3EF
102
}
  0
BLOCK_RECORD
  5
3F3
330
1
100
AcDbSymbolTableRecord
100
AcDbBlockTableRecord
  2
*X4144
340
0
102
{BLKREFS
331
3F9
102
}
  0
BLOCK_RECORD
  5
3FA
330
1
100
AcDbSymbolTableRecord
100
AcDbBlockTableRecord
  2
*X4245
340
0
102
{BLKREFS
331
41E
102
}
  0
BLOCK_RECORD
  5
41F
330
1
100
AcDbSymbolTableRecord
100
AcDbBlockTableRecord
  2
*X4346
340
0
102
{BLKREFS
331
427
102
}
  0
BLOCK_RECORD
  5
428
330
1
100
AcDbSymbolTableRecord
100
AcDbBlockTableRecord
  2
*X4447
340
0
102
{BLKREFS
331
42C
102
}
  0
BLOCK_RECORD
  5
434
330
1
100
AcDbSymbolTableRecord
100
AcDbBlockTableRecord
  2
*D48
340
0
  0
BLOCK_RECORD
  5
442
330
1
100
AcDbSymbolTableRecord
100
AcDbBlockTableRecord
  2
*X4549
340
0
102
{BLKREFS
331
44E
102
}
  0
BLOCK_RECORD
  5
51D
330
1
100
AcDbSymbolTableRecord
100
AcDbBlockTableRecord
  2
*D50
340
0
  0
BLOCK_RECORD
  5
52A
330
1
100
AcDbSymbolTableRecord
100
AcDbBlockTableRecord
  2
*D51
340
0
  0
BLOCK_RECORD
  5
537
330
1
100
AcDbSymbolTableRecord
100
AcDbBlockTableRecord
  2
*D52
340
0
  0
BLOCK_RECORD
  5
55B
330
1
100
AcDbSymbolTableRecord
100
AcDbBlockTableRecord
  2
LCDIM1
340
0
102
{BLKREFS
331
578
102
}
  0
ENDTAB
  0
ENDSEC
  0
SECTION
  2
BLOCKS
  0
BLOCK
  5
20
330
1F
100
AcDbEntity
  8
0
100
AcDbBlockBegin
  2
*Model_Space
 70
     0
 71
     0
 10
0.0
 20
0.0
 30
0.0
  3
*Model_Space
  1

  0
ENDBLK
  5
21
330
1F
100
AcDbEntity
  8
0
100
AcDbBlockEnd
  0
BLOCK
  5
1C
330
1B
100
AcDbEntity
 67
     1
  8
0
100
AcDbBlockBegin
  2
*Paper_Space
 70
     0
 71
     0
 10
0.0
 20
0.0
 30
0.0
  3
*Paper_Space
  1

  0
ENDBLK
  5
1D
330
1B
100
AcDbEntity
 67
     1
  8
0
100
AcDbBlockEnd
  0
BLOCK
  5
24
330
23
100
AcDbEntity
  8
0
100
AcDbBlockBegin
  2
*Paper_Space0
 70
     0
 71
     0
 10
0.0
 20
0.0
 30
0.0
  3
*Paper_Space0
  1

  0
ENDBLK
  5
25
330
23
100
AcDbEntity
  8
0
100
AcDbBlockEnd
  0
BLOCK
  5
43
330
37
100
AcDbEntity
  8
0
100
AcDbBlockBegin
  2
*D1
 70
     1
 71
     0
 10
0.0
 20
0.0
 30
0.0
  3
*D1
  1

  0
LINE
  5
38
330
37
100
AcDbEntity
  8
LC-002-003-----0
 62
     2
370
    -2
100
AcDbLine
 10
563.052966
 20
238.023876
 30
0.0
 11
624.921764
 21
238.023876
 31
0.0
  0
LINE
  5
39
330
37
100
AcDbEntity
  8
LC-002-003-----0
 62
     2
370
    -2
100
AcDbLine
 10
592.372613
 20
188.042537
 30
0.0
 11
624.921764
 21
188.042537
 31
0.0
  0
LINE
  5
3A
330
37
100
AcDbEntity
  8
LC-002-003-----0
 62
     2
370
    -2
100
AcDbLine
 10
621.321764
 20
266.023876
 30
0.0
 11
621.321764
 21
294.023876
 31
0.0
  0
LINE
  5
3B
330
37
100
AcDbEntity
  8
LC-002-003-----0
 62
     2
370
    -2
100
AcDbLine
 10
621.321764
 20
160.042537
 30
0.0
 11
621.321764
 21
132.042537
 31
0.0
  0
LINE
  5
3C
330
37
100
AcDbEntity
  8
LC-002-003-----0
 62
     2
370
    -2
100
AcDbLine
 10
621.321764
 20
238.023876
 30
0.0
 11
621.321764
 21
188.042537
 31
0.0
  0
SOLID
  5
3D
330
37
100
AcDbEntity
  8
LC-002-003-----0
 62
     2
100
AcDbTrace
 10
616.655098
 20
266.023876
 30
0.0
 11
625.988431
 21
266.023876
 31
0.0
 12
621.321764
 22
238.023876
 32
0.0
 13
621.321764
 23
238.023876
 33
0.0
  0
SOLID
  5
3E
330
37
100
AcDbEntity
  8
LC-002-003-----0
 62
     2
100
AcDbTrace
 10
625.988431
 20
160.042537
 30
0.0
 11
616.655098
 21
160.042537
 31
0.0
 12
621.321764
 22
188.042537
 32
0.0
 13
621.321764
 23
188.042537
 33
0.0
  0
MTEXT
  5
3F
330
37
100
AcDbEntity
  8
LC-002-003-----0
 62
     2
100
AcDbMText
 10
590.521764
 20
213.033207
 30
0.0
 40
28.0
 41
0.0
 71
     5
 72
     1
  1
\A1;DN50
  7
LCTX15-400-0-0pDIN-Schrift
 11
6.123031769111886E-17
 21
1.0
 31
0.0
 73
     1
 44
1.0
  0
POINT
  5
40
330
37
100
AcDbEntity
  8
Defpoints
 62
     0
100
AcDbPoint
 10
563.052966
 20
238.023876
 30
0.0
  0
POINT
  5
41
330
37
100
AcDbEntity
  8
Defpoints
 62
     0
100
AcDbPoint
 10
592.372613
 20
188.042537
 30
0.0
  0
POINT
  5
42
330
37
100
AcDbEntity
  8
Defpoints
 62
     0
100
AcDbPoint
 10
621.321764
 20
188.042537
 30
0.0
  0
ENDBLK
  5
44
330
37
100
AcDbEntity
  8
0
100
AcDbBlockEnd
  0
BLOCK
  5
46
330
45
100
AcDbEntity
  8
0
100
AcDbBlockBegin
  2
*X12
 70
     1
 71
     0
 10
0.0
 20
0.0
 30
0.0
  3
*X12
  1

  4
*X1
  0
LINE
  5
49
330
45
100
AcDbEntity
  8
LC-003-005-----0
 62
     7
370
    25
100
AcDbLine
 10
388.164089
 20
239.746732
 30
0.0
 11
381.972049
 21
245.938772
 31
0.0
  0
LINE
  5
4A
330
45
100
AcDbEntity
  8
LC-003-005-----0
 62
     7
370
    25
100
AcDbLine
 10
388.164089
 20
238.332519
 30
0.0
 11
380.309411
 21
246.187197
 31
0.0
  0
LINE
  5
4B
330
45
100
AcDbEntity
  8
LC-003-005-----0
  6
ByBlock
 62
     7
370
    25
100
AcDbLine
 10
387.144305
 20
236.523876
 30
0.0
 11
377.444305
 21
246.223876
 31
0.0
  0
LINE
  5
4C
330
45
100
AcDbEntity
  8
LC-003-005-----0
  6
ByBlock
 62
     7
370
    25
100
AcDbLine
 10
385.730092
 20
236.523876
 30
0.0
 11
377.364089
 21
244.889878
 31
0.0
  0
LINE
  5
4D
330
45
100
AcDbEntity
  8
LC-003-005-----0
 62
     7
370
    25
100
AcDbLine
 10
379.701665
 20
239.723876
 30
0.0
 11
377.364089
 21
242.061451
 31
0.0
  0
LINE
  5
4E
330
45
100
AcDbEntity
  8
LC-003-005-----0
 62
     7
370
    25
100
AcDbLine
 10
378.287451
 20
239.723876
 30
0.0
 11
377.364089
 21
240.647237
 31
0.0
  0
ENDBLK
  5
47
330
45
100
AcDbEntity
  8
0
100
AcDbBlockEnd
  0
BLOCK
  5
54
330
53
100
AcDbEntity
  8
0
100
AcDbBlockBegin
  2
*X23
 70
     1
 71
     0
 10
0.0
 20
0.0
 30
0.0
  3
*X23
  1

  4
*X2
  0
LINE
  5
56
330
53
100
AcDbEntity
  8
LC-003-005-----0
  6
ByBlock
 62
     7
370
    25
100
AcDbLine
 10
509.68486
 20
235.327429
 30
0.0
 11
511.153713
 21
236.796281
 31
0.0
  0
LINE
  5
57
330
53
100
AcDbEntity
  8
LC-003-005-----0
  6
ByBlock
 62
     7
370
    25
100
AcDbLine
 10
506.856433
 20
235.327429
 30
0.0
 11
509.494268
 21
237.965264
 31
0.0
  0
LINE
  5
58
330
53
100
AcDbEntity
  8
LC-003-005-----0
  6
ByBlock
 62
     7
370
    25
100
AcDbLine
 10
504.028005
 20
235.327429
 30
0.0
 11
507.716519
 21
239.015942
 31
0.0
  0
LINE
  5
59
330
53
100
AcDbEntity
  8
LC-003-005-----0
  6
ByBlock
 62
     7
370
    25
100
AcDbLine
 10
501.199578
 20
235.327429
 30
0.0
 11
503.896026
 21
238.023876
 31
0.0
  0
LINE
  5
5A
330
53
100
AcDbEntity
  8
LC-003-005-----0
  6
ByBlock
 62
     7
370
    25
100
AcDbLine
 10
504.153021
 20
238.280871
 30
0.0
 11
505.830315
 21
239.958165
 31
0.0
  0
LINE
  5
5B
330
53
100
AcDbEntity
  8
LC-003-005-----0
  6
ByBlock
 62
     7
370
    25
100
AcDbLine
 10
498.371151
 20
235.327429
 30
0.0
 11
501.067598
 21
238.023876
 31
0.0
  0
LINE
  5
5C
330
53
100
AcDbEntity
  8
LC-003-005-----0
  6
ByBlock
 62
     7
370
    25
100
AcDbLine
 10
495.542724
 20
235.327429
 30
0.0
 11
499.653021
 21
239.437725
 31
0.0
  0
LINE
  5
5D
330
53
100
AcDbEntity
  8
LC-003-005-----0
  6
ByBlock
 62
     7
370
    25
100
AcDbLine
 10
492.714297
 20
235.327429
 30
0.0
 11
499.423082
 21
242.036213
 31
0.0
  0
LINE
  5
5E
330
53
100
AcDbEntity
  8
LC-003-005-----0
  6
ByBlock
 62
     7
370
    25
100
AcDbLine
 10
489.88587
 20
235.327429
 30
0.0
 11
496.983044
 21
242.424603
 31
0.0
  0
LINE
  5
5F
330
53
100
AcDbEntity
  8
LC-003-005-----0
  6
ByBlock
 62
     7
370
    25
100
AcDbLine
 10
487.057443
 20
235.327429
 30
0.0
 11
494.343367
 21
242.613353
 31
0.0
  0
LINE
  5
60
330
53
100
AcDbEntity
  8
LC-003-005-----0
  6
ByBlock
 62
     7
370
    25
100
AcDbLine
 10
484.229016
 20
235.327429
 30
0.0
 11
491.450624
 21
242.549037
 31
0.0
  0
LINE
  5
61
330
53
100
AcDbEntity
  8
LC-003-005-----0
  6
ByBlock
 62
     7
370
    25
100
AcDbLine
 10
481.400588
 20
235.327429
 30
0.0
 11
488.210742
 21
242.137583
 31
0.0
  0
LINE
  5
62
330
53
100
AcDbEntity
  8
LC-003-005-----0
  6
ByBlock
 62
     7
370
    25
100
AcDbLine
 10
467.968609
 20
224.723876
 30
0.0
 11
469.138431
 21
225.893699
 31
0.0
  0
LINE
  5
63
330
53
100
AcDbEntity
  8
LC-003-005-----0
  6
ByBlock
 62
     7
370
    25
100
AcDbLine
 10
478.572161
 20
235.327429
 30
0.0
 11
484.425949
 21
241.181216
 31
0.0
  0
LINE
  5
64
330
53
100
AcDbEntity
  8
LC-003-005-----0
  6
ByBlock
 62
     7
370
    25
100
AcDbLine
 10
465.140181
 20
224.723876
 30
0.0
 11
479.480249
 21
239.063943
 31
0.0
  0
LINE
  5
65
330
53
100
AcDbEntity
  8
LC-003-005-----0
  6
ByBlock
 62
     7
370
    25
100
AcDbLine
 10
464.700233
 20
227.112354
 30
0.0
 11
465.311754
 21
227.723876
 31
0.0
  0
LINE
  5
66
330
53
100
AcDbEntity
  8
LC-003-005-----0
  6
ByBlock
 62
     7
370
    25
100
AcDbLine
 10
473.153713
 20
235.565834
 30
0.0
 11
475.653713
 21
238.065834
 31
0.0
  0
LINE
  5
67
330
53
100
AcDbEntity
  8
LC-003-005-----0
  6
ByBlock
 62
     7
370
    25
100
AcDbLine
 10
473.153713
 20
238.394261
 30
0.0
 11
473.283327
 21
238.523876
 31
0.0
  0
ENDBLK
  5
55
330
53
100
AcDbEntity
  8
0
100
AcDbBlockEnd
  0
BLOCK
  5
6A
330
69
100
AcDbEntity
  8
0
100
AcDbBlockBegin
  2
*X34
 70
     1
 71
     0
 10
0.0
 20
0.0
 30
0.0
  3
*X34
  1

  4
*X3
  0
LINE
  5
6C
330
69
100
AcDbEntity
  8
LC-003-005-----0
  6
ByBlock
 62
     7
370
    25
100
AcDbLine
 10
505.596507
 20
185.984242
 30
0.0
 11
510.336141
 21
190.723876
 31
0.0
  0
LINE
  5
6D
330
69
100
AcDbEntity
  8
LC-003-005-----0
  6
ByBlock
 62
     7
370
    25
100
AcDbLine
 10
504.153021
 20
187.369183
 30
0.0
 11
507.507714
 21
190.723876
 31
0.0
  0
LINE
  5
6E
330
69
100
AcDbEntity
  8
LC-003-005-----0
  6
ByBlock
 62
     7
370
    25
100
AcDbLine
 10
497.666318
 20
183.710907
 30
0.0
 11
499.653021
 21
185.69761
 31
0.0
  0
LINE
  5
6F
330
69
100
AcDbEntity
  8
LC-003-005-----0
  6
ByBlock
 62
     7
370
    25
100
AcDbLine
 10
501.979287
 20
188.023876
 30
0.0
 11
504.679287
 21
190.723876
 31
0.0
  0
LINE
  5
70
330
69
100
AcDbEntity
  8
LC-003-005-----0
  6
ByBlock
 62
     7
370
    25
100
AcDbLine
 10
494.568236
 20
183.441252
 30
0.0
 11
501.85086
 21
190.723876
 31
0.0
  0
LINE
  5
71
330
69
100
AcDbEntity
  8
LC-003-005-----0
  6
ByBlock
 62
     7
370
    25
100
AcDbLine
 10
491.775896
 20
183.47734
 30
0.0
 11
499.022432
 21
190.723876
 31
0.0
  0
LINE
  5
72
330
69
100
AcDbEntity
  8
LC-003-005-----0
  6
ByBlock
 62
     7
370
    25
100
AcDbLine
 10
489.213936
 20
183.743806
 30
0.0
 11
496.194005
 21
190.723876
 31
0.0
  0
LINE
  5
73
330
69
100
AcDbEntity
  8
LC-003-005-----0
  6
ByBlock
 62
     7
370
    25
100
AcDbLine
 10
486.837663
 20
184.19596
 30
0.0
 11
493.365578
 21
190.723876
 31
0.0
  0
LINE
  5
74
330
69
100
AcDbEntity
  8
LC-003-005-----0
  6
ByBlock
 62
     7
370
    25
100
AcDbLine
 10
484.618207
 20
184.804932
 30
0.0
 11
490.537151
 21
190.723876
 31
0.0
  0
LINE
  5
75
330
69
100
AcDbEntity
  8
LC-003-005-----0
  6
ByBlock
 62
     7
370
    25
100
AcDbLine
 10
482.535875
 20
185.551026
 30
0.0
 11
487.708724
 21
190.723876
 31
0.0
  0
LINE
  5
76
330
69
100
AcDbEntity
  8
LC-003-005-----0
  6
ByBlock
 62
     7
370
    25
100
AcDbLine
 10
480.576773
 20
186.420352
 30
0.0
 11
484.880297
 21
190.723876
 31
0.0
  0
LINE
  5
77
330
69
100
AcDbEntity
  8
LC-003-005-----0
  6
ByBlock
 62
     7
370
    25
100
AcDbLine
 10
478.730938
 20
187.402944
 30
0.0
 11
482.05187
 21
190.723876
 31
0.0
  0
LINE
  5
78
330
69
100
AcDbEntity
  8
LC-003-005-----0
  6
ByBlock
 62
     7
370
    25
100
AcDbLine
 10
476.99123
 20
188.491663
 30
0.0
 11
479.223443
 21
190.723876
 31
0.0
  0
LINE
  5
79
330
69
100
AcDbEntity
  8
LC-003-005-----0
  6
ByBlock
 62
     7
370
    25
100
AcDbLine
 10
473.195015
 20
187.523876
 30
0.0
 11
476.395015
 21
190.723876
 31
0.0
  0
LINE
  5
7A
330
69
100
AcDbEntity
  8
LC-003-005-----0
  6
ByBlock
 62
     7
370
    25
100
AcDbLine
 10
471.566588
 20
188.723876
 30
0.0
 11
473.566588
 21
190.723876
 31
0.0
  0
LINE
  5
7B
330
69
100
AcDbEntity
  8
LC-003-005-----0
  6
ByBlock
 62
     7
370
    25
100
AcDbLine
 10
468.738161
 20
188.723876
 30
0.0
 11
470.738161
 21
190.723876
 31
0.0
  0
LINE
  5
7C
330
69
100
AcDbEntity
  8
LC-003-005-----0
  6
ByBlock
 62
     7
370
    25
100
AcDbLine
 10
465.909734
 20
188.723876
 30
0.0
 11
467.909734
 21
190.723876
 31
0.0
  0
LINE
  5
7D
330
69
100
AcDbEntity
  8
LC-003-005-----0
  6
ByBlock
 62
     7
370
    25
100
AcDbLine
 10
463.081307
 20
188.723876
 30
0.0
 11
465.081307
 21
190.723876
 31
0.0
  0
LINE
  5
7E
330
69
100
AcDbEntity
  8
LC-003-005-----0
  6
ByBlock
 62
     7
370
    25
100
AcDbLine
 10
462.114567
 20
190.585563
 30
0.0
 11
462.25288
 21
190.723876
 31
0.0
  0
ENDBLK
  5
6B
330
69
100
AcDbEntity
  8
0
100
AcDbBlockEnd
  0
BLOCK
  5
86
330
85
100
AcDbEntity
  8
0
100
AcDbBlockBegin
  2
*X45
 70
     1
 71
     0
 10
0.0
 20
0.0
 30
0.0
  3
*X45
  1

  4
*X4
  0
LINE
  5
88
330
85
100
AcDbEntity
  8
LC-003-005-----0
  6
ByBlock
 62
     7
370
    25
100
AcDbLine
 10
396.712916
 20
153.468183
 30
0.0
 11
398.574868
 21
155.330135
 31
0.0
  0
LINE
  5
89
330
85
100
AcDbEntity
  8
LC-003-005-----0
  6
ByBlock
 62
     7
370
    25
100
AcDbLine
 10
395.67764
 20
155.261334
 30
0.0
 11
398.587263
 21
158.170958
 31
0.0
  0
LINE
  5
8A
330
85
100
AcDbEntity
  8
LC-003-005-----0
  6
ByBlock
 62
     7
370
    25
100
AcDbLine
 10
395.665536
 20
158.077657
 30
0.0
 11
398.599659
 21
161.01178
 31
0.0
  0
LINE
  5
8B
330
85
100
AcDbEntity
  8
LC-003-005-----0
  6
ByBlock
 62
     7
370
    25
100
AcDbLine
 10
396.225158
 20
161.465707
 30
0.0
 11
398.612054
 21
163.852603
 31
0.0
  0
LINE
  5
8C
330
85
100
AcDbEntity
  8
LC-003-005-----0
  6
ByBlock
 62
     7
370
    25
100
AcDbLine
 10
396.864089
 20
164.933065
 30
0.0
 11
398.62445
 21
166.693426
 31
0.0
  0
LINE
  5
8D
330
85
100
AcDbEntity
  8
LC-003-005-----0
  6
ByBlock
 62
     7
370
    25
100
AcDbLine
 10
396.864089
 20
167.761492
 30
0.0
 11
398.636845
 21
169.534248
 31
0.0
  0
LINE
  5
8E
330
85
100
AcDbEntity
  8
LC-003-005-----0
  6
ByBlock
 62
     7
370
    25
100
AcDbLine
 10
396.864089
 20
170.58992
 30
0.0
 11
398.649241
 21
172.375071
 31
0.0
  0
LINE
  5
8F
330
85
100
AcDbEntity
  8
LC-003-005-----0
  6
ByBlock
 62
     7
370
    25
100
AcDbLine
 10
396.864089
 20
173.418347
 30
0.0
 11
398.661636
 21
175.215894
 31
0.0
  0
LINE
  5
90
330
85
100
AcDbEntity
  8
LC-003-005-----0
  6
ByBlock
 62
     7
370
    25
100
AcDbLine
 10
396.864089
 20
176.246774
 30
0.0
 11
398.674032
 21
178.056716
 31
0.0
  0
LINE
  5
91
330
85
100
AcDbEntity
  8
LC-003-005-----0
  6
ByBlock
 62
     7
370
    25
100
AcDbLine
 10
396.864089
 20
179.075201
 30
0.0
 11
398.686427
 21
180.897539
 31
0.0
  0
LINE
  5
92
330
85
100
AcDbEntity
  8
LC-003-005-----0
  6
ByBlock
 62
     7
370
    25
100
AcDbLine
 10
396.864089
 20
181.903628
 30
0.0
 11
398.698823
 21
183.738361
 31
0.0
  0
LINE
  5
93
330
85
100
AcDbEntity
  8
LC-003-005-----0
  6
ByBlock
 62
     7
370
    25
100
AcDbLine
 10
396.864089
 20
184.732055
 30
0.0
 11
398.711218
 21
186.579184
 31
0.0
  0
LINE
  5
94
330
85
100
AcDbEntity
  8
LC-003-005-----0
  6
ByBlock
 62
     7
370
    25
100
AcDbLine
 10
396.864089
 20
187.560482
 30
0.0
 11
398.723614
 21
189.420007
 31
0.0
  0
LINE
  5
95
330
85
100
AcDbEntity
  8
LC-003-005-----0
  6
ByBlock
 62
     7
370
    25
100
AcDbLine
 10
396.864089
 20
190.388909
 30
0.0
 11
398.736009
 21
192.260829
 31
0.0
  0
LINE
  5
96
330
85
100
AcDbEntity
  8
LC-003-005-----0
  6
ByBlock
 62
     7
370
    25
100
AcDbLine
 10
396.864089
 20
193.217337
 30
0.0
 11
398.748405
 21
195.101652
 31
0.0
  0
LINE
  5
97
330
85
100
AcDbEntity
  8
LC-003-005-----0
  6
ByBlock
 62
     7
370
    25
100
AcDbLine
 10
396.864089
 20
196.045764
 30
0.0
 11
398.7608
 21
197.942475
 31
0.0
  0
LINE
  5
98
330
85
100
AcDbEntity
  8
LC-003-005-----0
  6
ByBlock
 62
     7
370
    25
100
AcDbLine
 10
396.864089
 20
198.874191
 30
0.0
 11
398.773196
 21
200.783297
 31
0.0
  0
LINE
  5
99
330
85
100
AcDbEntity
  8
LC-003-005-----0
  6
ByBlock
 62
     7
370
    25
100
AcDbLine
 10
396.864089
 20
201.702618
 30
0.0
 11
398.785591
 21
203.62412
 31
0.0
  0
LINE
  5
9A
330
85
100
AcDbEntity
  8
LC-003-005-----0
  6
ByBlock
 62
     7
370
    25
100
AcDbLine
 10
396.864089
 20
204.531045
 30
0.0
 11
398.797987
 21
206.464942
 31
0.0
  0
LINE
  5
9B
330
85
100
AcDbEntity
  8
LC-003-005-----0
  6
ByBlock
 62
     7
370
    25
100
AcDbLine
 10
396.864089
 20
207.359472
 30
0.0
 11
398.810382
 21
209.305765
 31
0.0
  0
LINE
  5
9C
330
85
100
AcDbEntity
  8
LC-003-005-----0
  6
ByBlock
 62
     7
370
    25
100
AcDbLine
 10
396.864089
 20
210.187899
 30
0.0
 11
396.922402
 21
210.246212
 31
0.0
  0
ENDBLK
  5
87
330
85
100
AcDbEntity
  8
0
100
AcDbBlockEnd
  0
BLOCK
  5
9F
330
9E
100
AcDbEntity
  8
0
100
AcDbBlockBegin
  2
*X56
 70
     1
 71
     0
 10
0.0
 20
0.0
 30
0.0
  3
*X56
  1

  4
*X5
  0
LINE
  5
A1
330
9E
100
AcDbEntity
  8
LC-003-005-----0
  6
ByBlock
 62
     7
370
    25
100
AcDbLine
 10
430.045791
 20
152.859933
 30
0.0
 11
430.562291
 21
153.376432
 31
0.0
  0
LINE
  5
A2
330
9E
100
AcDbEntity
  8
LC-003-005-----0
  6
ByBlock
 62
     7
370
    25
100
AcDbLine
 10
428.75737
 20
154.399939
 30
0.0
 11
431.66403
 21
157.306599
 31
0.0
  0
LINE
  5
A3
330
9E
100
AcDbEntity
  8
LC-003-005-----0
  6
ByBlock
 62
     7
370
    25
100
AcDbLine
 10
428.745082
 20
157.216078
 30
0.0
 11
431.658952
 21
160.129948
 31
0.0
  0
LINE
  5
A4
330
9E
100
AcDbEntity
  8
LC-003-005-----0
  6
ByBlock
 62
     7
370
    25
100
AcDbLine
 10
428.732794
 20
160.032217
 30
0.0
 11
430.760151
 21
162.059574
 31
0.0
  0
LINE
  5
A5
330
9E
100
AcDbEntity
  8
LC-003-005-----0
  6
ByBlock
 62
     7
370
    25
100
AcDbLine
 10
428.720506
 20
162.848357
 30
0.0
 11
430.464089
 21
164.59194
 31
0.0
  0
LINE
  5
A6
330
9E
100
AcDbEntity
  8
LC-003-005-----0
  6
ByBlock
 62
     7
370
    25
100
AcDbLine
 10
428.708219
 20
165.664496
 30
0.0
 11
430.464089
 21
167.420367
 31
0.0
  0
LINE
  5
A7
330
9E
100
AcDbEntity
  8
LC-003-005-----0
  6
ByBlock
 62
     7
370
    25
100
AcDbLine
 10
428.695931
 20
168.480635
 30
0.0
 11
430.464089
 21
170.248794
 31
0.0
  0
LINE
  5
A8
330
9E
100
AcDbEntity
  8
LC-003-005-----0
  6
ByBlock
 62
     7
370
    25
100
AcDbLine
 10
428.683643
 20
171.296775
 30
0.0
 11
430.464089
 21
173.077221
 31
0.0
  0
LINE
  5
A9
330
9E
100
AcDbEntity
  8
LC-003-005-----0
  6
ByBlock
 62
     7
370
    25
100
AcDbLine
 10
428.671355
 20
174.112914
 30
0.0
 11
430.464089
 21
175.905648
 31
0.0
  0
LINE
  5
AA
330
9E
100
AcDbEntity
  8
LC-003-005-----0
  6
ByBlock
 62
     7
370
    25
100
AcDbLine
 10
428.659067
 20
176.929053
 30
0.0
 11
430.464089
 21
178.734075
 31
0.0
  0
LINE
  5
AB
330
9E
100
AcDbEntity
  8
LC-003-005-----0
  6
ByBlock
 62
     7
370
    25
100
AcDbLine
 10
428.64678
 20
179.745193
 30
0.0
 11
430.464089
 21
181.562503
 31
0.0
  0
LINE
  5
AC
330
9E
100
AcDbEntity
  8
LC-003-005-----0
  6
ByBlock
 62
     7
370
    25
100
AcDbLine
 10
428.634492
 20
182.561332
 30
0.0
 11
430.464089
 21
184.39093
 31
0.0
  0
LINE
  5
AD
330
9E
100
AcDbEntity
  8
LC-003-005-----0
  6
ByBlock
 62
     7
370
    25
100
AcDbLine
 10
428.622204
 20
185.377471
 30
0.0
 11
430.464089
 21
187.219357
 31
0.0
  0
LINE
  5
AE
330
9E
100
AcDbEntity
  8
LC-003-005-----0
  6
ByBlock
 62
     7
370
    25
100
AcDbLine
 10
428.609916
 20
188.193611
 30
0.0
 11
430.464089
 21
190.047784
 31
0.0
  0
LINE
  5
AF
330
9E
100
AcDbEntity
  8
LC-003-005-----0
  6
ByBlock
 62
     7
370
    25
100
AcDbLine
 10
428.597628
 20
191.00975
 30
0.0
 11
430.464089
 21
192.876211
 31
0.0
  0
LINE
  5
B0
330
9E
100
AcDbEntity
  8
LC-003-005-----0
  6
ByBlock
 62
     7
370
    25
100
AcDbLine
 10
428.585341
 20
193.825889
 30
0.0
 11
430.464089
 21
195.704638
 31
0.0
  0
LINE
  5
B1
330
9E
100
AcDbEntity
  8
LC-003-005-----0
  6
ByBlock
 62
     7
370
    25
100
AcDbLine
 10
428.573053
 20
196.642029
 30
0.0
 11
430.464089
 21
198.533065
 31
0.0
  0
LINE
  5
B2
330
9E
100
AcDbEntity
  8
LC-003-005-----0
  6
ByBlock
 62
     7
370
    25
100
AcDbLine
 10
428.560765
 20
199.458168
 30
0.0
 11
430.464089
 21
201.361492
 31
0.0
  0
LINE
  5
B3
330
9E
100
AcDbEntity
  8
LC-003-005-----0
  6
ByBlock
 62
     7
370
    25
100
AcDbLine
 10
428.548477
 20
202.274307
 30
0.0
 11
430.464089
 21
204.18992
 31
0.0
  0
LINE
  5
B4
330
9E
100
AcDbEntity
  8
LC-003-005-----0
  6
ByBlock
 62
     7
370
    25
100
AcDbLine
 10
428.536189
 20
205.090447
 30
0.0
 11
430.464089
 21
207.018347
 31
0.0
  0
LINE
  5
B5
330
9E
100
AcDbEntity
  8
LC-003-005-----0
  6
ByBlock
 62
     7
370
    25
100
AcDbLine
 10
428.523902
 20
207.906586
 30
0.0
 11
430.464089
 21
209.846774
 31
0.0
  0
ENDBLK
  5
A0
330
9E
100
AcDbEntity
  8
0
100
AcDbBlockEnd
  0
BLOCK
  5
B8
330
B7
100
AcDbEntity
  8
0
100
AcDbBlockBegin
  2
*X67
 70
     1
 71
     0
 10
0.0
 20
0.0
 30
0.0
  3
*X67
  1

  4
*X6
  0
LINE
  5
BA
330
B7
100
AcDbEntity
  8
LC-003-005-----0
  6
ByBlock
 62
     7
370
    25
100
AcDbLine
 10
396.326044
 20
249.121026
 30
0.0
 11
396.055395
 21
249.391674
 31
0.0
  0
LINE
  5
BB
330
B7
100
AcDbEntity
  8
LC-003-005-----0
 62
     7
370
    25
100
AcDbLine
 10
396.364089
 20
248.517295
 30
0.0
 11
395.451665
 21
249.42972
 31
0.0
  0
LINE
  5
BC
330
B7
100
AcDbEntity
  8
LC-003-005-----0
 62
     7
370
    25
100
AcDbLine
 10
396.364089
 20
248.234452
 30
0.0
 11
395.414089
 21
249.184452
 31
0.0
  0
LINE
  5
BD
330
B7
100
AcDbEntity
  8
LC-003-005-----0
  6
ByBlock
 62
     7
370
    25
100
AcDbLine
 10
396.364089
 20
247.668767
 30
0.0
 11
395.414089
 21
248.618767
 31
0.0
  0
LINE
  5
BE
330
B7
100
AcDbEntity
  8
LC-003-005-----0
  6
ByBlock
 62
     7
370
    25
100
AcDbLine
 10
396.364089
 20
247.385924
 30
0.0
 11
395.414089
 21
248.335924
 31
0.0
  0
LINE
  5
BF
330
B7
100
AcDbEntity
  8
LC-003-005-----0
 62
     7
370
    25
100
AcDbLine
 10
396.364089
 20
246.820239
 30
0.0
 11
395.414089
 21
247.770239
 31
0.0
  0
LINE
  5
C0
330
B7
100
AcDbEntity
  8
LC-003-005-----0
 62
     7
370
    25
100
AcDbLine
 10
396.364089
 20
246.537396
 30
0.0
 11
395.414089
 21
247.487396
 31
0.0
  0
LINE
  5
C1
330
B7
100
AcDbEntity
  8
LC-003-005-----0
  6
ByBlock
 62
     7
370
    25
100
AcDbLine
 10
396.364089
 20
245.971711
 30
0.0
 11
395.414089
 21
246.921711
 31
0.0
  0
LINE
  5
C2
330
B7
100
AcDbEntity
  8
LC-003-005-----0
  6
ByBlock
 62
     7
370
    25
100
AcDbLine
 10
396.364089
 20
245.688868
 30
0.0
 11
395.414089
 21
246.638868
 31
0.0
  0
LINE
  5
C3
330
B7
100
AcDbEntity
  8
LC-003-005-----0
 62
     7
370
    25
100
AcDbLine
 10
396.364089
 20
245.123182
 30
0.0
 11
395.414089
 21
246.073182
 31
0.0
  0
LINE
  5
C4
330
B7
100
AcDbEntity
  8
LC-003-005-----0
 62
     7
370
    25
100
AcDbLine
 10
396.364089
 20
244.84034
 30
0.0
 11
395.414089
 21
245.79034
 31
0.0
  0
LINE
  5
C5
330
B7
100
AcDbEntity
  8
LC-003-005-----0
  6
ByBlock
 62
     7
370
    25
100
AcDbLine
 10
396.364089
 20
244.274654
 30
0.0
 11
395.414089
 21
245.224654
 31
0.0
  0
LINE
  5
C6
330
B7
100
AcDbEntity
  8
LC-003-005-----0
  6
ByBlock
 62
     7
370
    25
100
AcDbLine
 10
396.364089
 20
243.991812
 30
0.0
 11
395.414089
 21
244.941812
 31
0.0
  0
LINE
  5
C7
330
B7
100
AcDbEntity
  8
LC-003-005-----0
 62
     7
370
    25
100
AcDbLine
 10
396.364089
 20
243.426126
 30
0.0
 11
395.414089
 21
244.376126
 31
0.0
  0
LINE
  5
C8
330
B7
100
AcDbEntity
  8
LC-003-005-----0
 62
     7
370
    25
100
AcDbLine
 10
396.786683
 20
242.72069
 30
0.0
 11
396.40761
 21
243.099763
 31
0.0
  0
LINE
  5
C9
330
B7
100
AcDbEntity
  8
LC-003-005-----0
 62
     7
370
    25
100
AcDbLine
 10
396.364089
 20
243.143283
 30
0.0
 11
395.414089
 21
244.093283
 31
0.0
  0
LINE
  5
CA
330
B7
100
AcDbEntity
  8
LC-003-005-----0
  6
ByBlock
 62
     7
370
    25
100
AcDbLine
 10
396.800215
 20
242.141472
 30
0.0
 11
395.414089
 21
243.527598
 31
0.0
  0
LINE
  5
CB
330
B7
100
AcDbEntity
  8
LC-003-005-----0
  6
ByBlock
 62
     7
370
    25
100
AcDbLine
 10
396.698433
 20
241.960412
 30
0.0
 11
395.414089
 21
243.244755
 31
0.0
  0
LINE
  5
CC
330
B7
100
AcDbEntity
  8
LC-003-005-----0
 62
     7
370
    25
100
AcDbLine
 10
396.376239
 20
241.716921
 30
0.0
 11
395.414089
 21
242.67907
 31
0.0
  0
LINE
  5
CD
330
B7
100
AcDbEntity
  8
LC-003-005-----0
 62
     7
370
    25
100
AcDbLine
 10
396.1357
 20
241.674617
 30
0.0
 11
395.414089
 21
242.396227
 31
0.0
  0
ENDBLK
  5
B9
330
B7
100
AcDbEntity
  8
0
100
AcDbBlockEnd
  0
BLOCK
  5
D8
330
D7
100
AcDbEntity
  8
0
100
AcDbBlockBegin
  2
*X78
 70
     1
 71
     0
 10
0.0
 20
0.0
 30
0.0
  3
*X78
  1

  4
*X7
  0
LINE
  5
DA
330
D7
100
AcDbEntity
  8
LC-003-005-----0
  6
ByBlock
 62
     7
370
    25
100
AcDbLine
 10
428.511614
 20
210.722725
 30
0.0
 11
430.464089
 21
212.675201
 31
0.0
  0
LINE
  5
DB
330
D7
100
AcDbEntity
  8
LC-003-005-----0
  6
ByBlock
 62
     7
370
    25
100
AcDbLine
 10
428.499326
 20
213.538865
 30
0.0
 11
430.464089
 21
215.503628
 31
0.0
  0
LINE
  5
DC
330
D7
100
AcDbEntity
  8
LC-003-005-----0
  6
ByBlock
 62
     7
370
    25
100
AcDbLine
 10
428.487038
 20
216.355004
 30
0.0
 11
430.464089
 21
218.332055
 31
0.0
  0
LINE
  5
DD
330
D7
100
AcDbEntity
  8
LC-003-005-----0
  6
ByBlock
 62
     7
370
    25
100
AcDbLine
 10
428.47475
 20
219.171143
 30
0.0
 11
430.464089
 21
221.160482
 31
0.0
  0
LINE
  5
DE
330
D7
100
AcDbEntity
  8
LC-003-005-----0
  6
ByBlock
 62
     7
370
    25
100
AcDbLine
 10
428.462463
 20
221.987283
 30
0.0
 11
430.464089
 21
223.988909
 31
0.0
  0
LINE
  5
DF
330
D7
100
AcDbEntity
  8
LC-003-005-----0
  6
ByBlock
 62
     7
370
    25
100
AcDbLine
 10
428.450175
 20
224.803422
 30
0.0
 11
430.464089
 21
226.817337
 31
0.0
  0
LINE
  5
E0
330
D7
100
AcDbEntity
  8
LC-003-005-----0
  6
ByBlock
 62
     7
370
    25
100
AcDbLine
 10
428.437887
 20
227.619561
 30
0.0
 11
430.464089
 21
229.645764
 31
0.0
  0
LINE
  5
E1
330
D7
100
AcDbEntity
  8
LC-003-005-----0
  6
ByBlock
 62
     7
370
    25
100
AcDbLine
 10
428.425599
 20
230.4357
 30
0.0
 11
430.464089
 21
232.474191
 31
0.0
  0
LINE
  5
E2
330
D7
100
AcDbEntity
  8
LC-003-005-----0
  6
ByBlock
 62
     7
370
    25
100
AcDbLine
 10
428.413311
 20
233.25184
 30
0.0
 11
430.464089
 21
235.302618
 31
0.0
  0
LINE
  5
E3
330
D7
100
AcDbEntity
  8
LC-003-005-----0
  6
ByBlock
 62
     7
370
    25
100
AcDbLine
 10
428.401024
 20
236.067979
 30
0.0
 11
430.464089
 21
238.131045
 31
0.0
  0
LINE
  5
E4
330
D7
100
AcDbEntity
  8
LC-003-005-----0
  6
ByBlock
 62
     7
370
    25
100
AcDbLine
 10
428.388736
 20
238.884118
 30
0.0
 11
430.464089
 21
240.959472
 31
0.0
  0
LINE
  5
E5
330
D7
100
AcDbEntity
  8
LC-003-005-----0
  6
ByBlock
 62
     7
370
    25
100
AcDbLine
 10
428.376448
 20
241.700258
 30
0.0
 11
430.464089
 21
243.787899
 31
0.0
  0
ENDBLK
  5
D9
330
D7
100
AcDbEntity
  8
0
100
AcDbBlockEnd
  0
BLOCK
  5
EB
330
EA
100
AcDbEntity
  8
0
100
AcDbBlockBegin
  2
*X89
 70
     1
 71
     0
 10
0.0
 20
0.0
 30
0.0
  3
*X89
  1

  4
*X8
  0
LINE
  5
ED
330
EA
100
AcDbEntity
  8
LC-003-005-----0
 62
     7
370
    25
100
AcDbLine
 10
431.914089
 20
248.888319
 30
0.0
 11
431.379838
 21
249.42257
 31
0.0
  0
LINE
  5
EE
330
EA
100
AcDbEntity
  8
LC-003-005-----0
 62
     7
370
    25
100
AcDbLine
 10
431.914089
 20
248.605477
 30
0.0
 11
431.179051
 21
249.340515
 31
0.0
  0
LINE
  5
EF
330
EA
100
AcDbEntity
  8
LC-003-005-----0
  6
ByBlock
 62
     7
370
    25
100
AcDbLine
 10
431.914089
 20
248.039791
 30
0.0
 11
430.96733
 21
248.986551
 31
0.0
  0
LINE
  5
F0
330
EA
100
AcDbEntity
  8
LC-003-005-----0
  6
ByBlock
 62
     7
370
    25
100
AcDbLine
 10
431.914089
 20
247.756949
 30
0.0
 11
430.964089
 21
248.706949
 31
0.0
  0
LINE
  5
F1
330
EA
100
AcDbEntity
  8
LC-003-005-----0
 62
     7
370
    25
100
AcDbLine
 10
431.914089
 20
247.191263
 30
0.0
 11
430.964089
 21
248.141263
 31
0.0
  0
LINE
  5
F2
330
EA
100
AcDbEntity
  8
LC-003-005-----0
 62
     7
370
    25
100
AcDbLine
 10
431.914089
 20
246.90842
 30
0.0
 11
430.964089
 21
247.85842
 31
0.0
  0
LINE
  5
F3
330
EA
100
AcDbEntity
  8
LC-003-005-----0
  6
ByBlock
 62
     7
370
    25
100
AcDbLine
 10
431.914089
 20
246.342735
 30
0.0
 11
430.964089
 21
247.292735
 31
0.0
  0
LINE
  5
F4
330
EA
100
AcDbEntity
  8
LC-003-005-----0
  6
ByBlock
 62
     7
370
    25
100
AcDbLine
 10
431.914089
 20
246.059892
 30
0.0
 11
430.964089
 21
247.009892
 31
0.0
  0
LINE
  5
F5
330
EA
100
AcDbEntity
  8
LC-003-005-----0
 62
     7
370
    25
100
AcDbLine
 10
431.914089
 20
245.494207
 30
0.0
 11
430.964089
 21
246.444207
 31
0.0
  0
LINE
  5
F6
330
EA
100
AcDbEntity
  8
LC-003-005-----0
 62
     7
370
    25
100
AcDbLine
 10
431.914089
 20
245.211364
 30
0.0
 11
430.964089
 21
246.161364
 31
0.0
  0
LINE
  5
F7
330
EA
100
AcDbEntity
  8
LC-003-005-----0
  6
ByBlock
 62
     7
370
    25
100
AcDbLine
 10
431.914089
 20
244.645679
 30
0.0
 11
430.964089
 21
245.595679
 31
0.0
  0
LINE
  5
F8
330
EA
100
AcDbEntity
  8
LC-003-005-----0
  6
ByBlock
 62
     7
370
    25
100
AcDbLine
 10
431.914089
 20
244.362836
 30
0.0
 11
430.964089
 21
245.312836
 31
0.0
  0
LINE
  5
F9
330
EA
100
AcDbEntity
  8
LC-003-005-----0
 62
     7
370
    25
100
AcDbLine
 10
431.914089
 20
243.797151
 30
0.0
 11
430.964089
 21
244.747151
 31
0.0
  0
LINE
  5
FA
330
EA
100
AcDbEntity
  8
LC-003-005-----0
 62
     7
370
    25
100
AcDbLine
 10
431.914089
 20
243.514308
 30
0.0
 11
430.964089
 21
244.464308
 31
0.0
  0
LINE
  5
FB
330
EA
100
AcDbEntity
  8
LC-003-005-----0
  6
ByBlock
 62
     7
370
    25
100
AcDbLine
 10
431.914089
 20
242.948622
 30
0.0
 11
430.964089
 21
243.898622
 31
0.0
  0
LINE
  5
FC
330
EA
100
AcDbEntity
  8
LC-003-005-----0
  6
ByBlock
 62
     7
370
    25
100
AcDbLine
 10
431.914089
 20
242.66578
 30
0.0
 11
430.964089
 21
243.61578
 31
0.0
  0
LINE
  5
FD
330
EA
100
AcDbEntity
  8
LC-003-005-----0
 62
     7
370
    25
100
AcDbLine
 10
431.914089
 20
242.100094
 30
0.0
 11
430.916329
 21
243.097854
 31
0.0
  0
LINE
  5
FE
330
EA
100
AcDbEntity
  8
LC-003-005-----0
 62
     7
370
    25
100
AcDbLine
 10
431.885191
 20
241.84615
 30
0.0
 11
430.742963
 21
242.988378
 31
0.0
  0
LINE
  5
FF
330
EA
100
AcDbEntity
  8
LC-003-005-----0
  6
ByBlock
 62
     7
370
    25
100
AcDbLine
 10
431.491039
 20
241.674617
 30
0.0
 11
430.514509
 21
242.651147
 31
0.0
  0
LINE
  5
100
330
EA
100
AcDbEntity
  8
LC-003-005-----0
  6
ByBlock
 62
     7
370
    25
100
AcDbLine
 10
431.208196
 20
241.674617
 30
0.0
 11
430.476385
 21
242.406428
 31
0.0
  0
ENDBLK
  5
EC
330
EA
100
AcDbEntity
  8
0
100
AcDbBlockEnd
  0
BLOCK
  5
10F
330
10E
100
AcDbEntity
  8
0
100
AcDbBlockBegin
  2
*X910
 70
     1
 71
     0
 10
0.0
 20
0.0
 30
0.0
  3
*X910
  1

  4
*X9
  0
LINE
  5
111
330
10E
100
AcDbEntity
  8
LC-003-005-----0
  6
ByBlock
 62
     7
370
    25
100
AcDbLine
 10
396.922402
 20
210.246212
 30
0.0
 11
398.822778
 21
212.146588
 31
0.0
  0
LINE
  5
112
330
10E
100
AcDbEntity
  8
LC-003-005-----0
  6
ByBlock
 62
     7
370
    25
100
AcDbLine
 10
396.864089
 20
213.016326
 30
0.0
 11
398.835173
 21
214.98741
 31
0.0
  0
LINE
  5
113
330
10E
100
AcDbEntity
  8
LC-003-005-----0
  6
ByBlock
 62
     7
370
    25
100
AcDbLine
 10
396.864089
 20
215.844754
 30
0.0
 11
398.847569
 21
217.828233
 31
0.0
  0
LINE
  5
114
330
10E
100
AcDbEntity
  8
LC-003-005-----0
  6
ByBlock
 62
     7
370
    25
100
AcDbLine
 10
396.864089
 20
218.673181
 30
0.0
 11
398.859964
 21
220.669056
 31
0.0
  0
LINE
  5
115
330
10E
100
AcDbEntity
  8
LC-003-005-----0
  6
ByBlock
 62
     7
370
    25
100
AcDbLine
 10
396.864089
 20
221.501608
 30
0.0
 11
398.87236
 21
223.509878
 31
0.0
  0
LINE
  5
116
330
10E
100
AcDbEntity
  8
LC-003-005-----0
  6
ByBlock
 62
     7
370
    25
100
AcDbLine
 10
396.864089
 20
224.330035
 30
0.0
 11
398.884755
 21
226.350701
 31
0.0
  0
LINE
  5
117
330
10E
100
AcDbEntity
  8
LC-003-005-----0
  6
ByBlock
 62
     7
370
    25
100
AcDbLine
 10
396.864089
 20
227.158462
 30
0.0
 11
398.897151
 21
229.191524
 31
0.0
  0
LINE
  5
118
330
10E
100
AcDbEntity
  8
LC-003-005-----0
  6
ByBlock
 62
     7
370
    25
100
AcDbLine
 10
396.864089
 20
229.986889
 30
0.0
 11
398.909547
 21
232.032346
 31
0.0
  0
LINE
  5
119
330
10E
100
AcDbEntity
  8
LC-003-005-----0
  6
ByBlock
 62
     7
370
    25
100
AcDbLine
 10
396.864089
 20
232.815316
 30
0.0
 11
398.921942
 21
234.873169
 31
0.0
  0
LINE
  5
11A
330
10E
100
AcDbEntity
  8
LC-003-005-----0
  6
ByBlock
 62
     7
370
    25
100
AcDbLine
 10
396.864089
 20
235.643743
 30
0.0
 11
398.934338
 21
237.713991
 31
0.0
  0
LINE
  5
11B
330
10E
100
AcDbEntity
  8
LC-003-005-----0
  6
ByBlock
 62
     7
370
    25
100
AcDbLine
 10
396.864089
 20
238.472171
 30
0.0
 11
398.946733
 21
240.554814
 31
0.0
  0
LINE
  5
11C
330
10E
100
AcDbEntity
  8
LC-003-005-----0
  6
ByBlock
 62
     7
370
    25
100
AcDbLine
 10
396.864089
 20
241.300598
 30
0.0
 11
398.959129
 21
243.395637
 31
0.0
  0
LINE
  5
11D
330
10E
100
AcDbEntity
  8
LC-003-005-----0
  6
ByBlock
 62
     7
370
    25
100
AcDbLine
 10
396.864089
 20
244.129025
 30
0.0
 11
396.89449
 21
244.159425
 31
0.0
  0
ENDBLK
  5
110
330
10E
100
AcDbEntity
  8
0
100
AcDbBlockEnd
  0
BLOCK
  5
134
330
133
100
AcDbEntity
  8
0
100
AcDbBlockBegin
  2
*X1011
 70
     1
 71
     0
 10
0.0
 20
0.0
 30
0.0
  3
*X1011
  1

  4
*X10
  0
LINE
  5
136
330
133
100
AcDbEntity
  8
LC-003-005-----0
  6
ByBlock
 62
     7
370
    25
100
AcDbLine
 10
424.036625
 20
257.159425
 30
0.0
 11
424.664089
 21
257.786889
 31
0.0
  0
LINE
  5
137
330
133
100
AcDbEntity
  8
LC-003-005-----0
  6
ByBlock
 62
     7
370
    25
100
AcDbLine
 10
421.664089
 20
257.615316
 30
0.0
 11
423.208198
 21
259.159425
 31
0.0
  0
ENDBLK
  5
135
330
133
100
AcDbEntity
  8
0
100
AcDbBlockEnd
  0
BLOCK
  5
14F
330
14E
100
AcDbEntity
  8
0
100
AcDbBlockBegin
  2
*X1112
 70
     1
 71
     0
 10
0.0
 20
0.0
 30
0.0
  3
*X1112
  1

  4
*X11
  0
LINE
  5
151
330
14E
100
AcDbEntity
  8
LC-003-005-----0
  6
ByBlock
 62
     7
370
    25
100
AcDbLine
 10
391.264089
 20
227.215316
 30
0.0
 11
392.757948
 21
228.709175
 31
0.0
  0
LINE
  5
152
330
14E
100
AcDbEntity
  8
LC-003-005-----0
  6
ByBlock
 62
     7
370
    25
100
AcDbLine
 10
391.264089
 20
232.872171
 30
0.0
 11
392.750138
 21
234.358219
 31
0.0
  0
LINE
  5
153
330
14E
100
AcDbEntity
  8
LC-003-005-----0
  6
ByBlock
 62
     7
370
    25
100
AcDbLine
 10
391.264089
 20
238.529025
 30
0.0
 11
392.742327
 21
240.007262
 31
0.0
  0
LINE
  5
154
330
14E
100
AcDbEntity
  8
LC-003-005-----0
  6
ByBlock
 62
     7
370
    25
100
AcDbLine
 10
391.264089
 20
244.185879
 30
0.0
 11
392.734516
 21
245.656306
 31
0.0
  0
LINE
  5
155
330
14E
100
AcDbEntity
  8
LC-003-005-----0
  6
ByBlock
 62
     7
370
    25
100
AcDbLine
 10
389.398262
 20
247.976906
 30
0.0
 11
390.988716
 21
249.567359
 31
0.0
  0
LINE
  5
156
330
14E
100
AcDbEntity
  8
LC-003-005-----0
  6
ByBlock
 62
     7
370
    25
100
AcDbLine
 10
385.529909
 20
249.765407
 30
0.0
 11
387.375818
 21
251.611316
 31
0.0
  0
LINE
  5
157
330
14E
100
AcDbEntity
  8
LC-003-005-----0
  6
ByBlock
 62
     7
370
    25
100
AcDbLine
 10
381.382564
 20
251.274917
 30
0.0
 11
382.377062
 21
252.269415
 31
0.0
  0
ENDBLK
  5
150
330
14E
100
AcDbEntity
  8
0
100
AcDbBlockEnd
  0
BLOCK
  5
15D
330
15C
100
AcDbEntity
  8
0
100
AcDbBlockBegin
  2
*X1213
 70
     1
 71
     0
 10
0.0
 20
0.0
 30
0.0
  3
*X1213
  1

  4
*X12
  0
LINE
  5
15F
330
15C
100
AcDbEntity
  8
LC-003-005-----0
  6
ByBlock
 62
     7
370
    25
100
AcDbLine
 10
434.264089
 20
248.235376
 30
0.0
 11
434.179285
 21
248.32018
 31
0.0
  0
LINE
  5
160
330
15C
100
AcDbEntity
  8
LC-003-005-----0
 62
     7
370
    25
100
AcDbLine
 10
434.264089
 20
247.66969
 30
0.0
 11
433.820655
 21
248.113125
 31
0.0
  0
LINE
  5
161
330
15C
100
AcDbEntity
  8
LC-003-005-----0
 62
     7
370
    25
100
AcDbLine
 10
434.264089
 20
247.386848
 30
0.0
 11
433.64134
 21
248.009597
 31
0.0
  0
LINE
  5
162
330
15C
100
AcDbEntity
  8
LC-003-005-----0
  6
ByBlock
 62
     7
370
    25
100
AcDbLine
 10
435.030254
 20
246.054997
 30
0.0
 11
433.38416
 21
247.701092
 31
0.0
  0
LINE
  5
163
330
15C
100
AcDbEntity
  8
LC-003-005-----0
  6
ByBlock
 62
     7
370
    25
100
AcDbLine
 10
435.064089
 20
245.738319
 30
0.0
 11
433.364089
 21
247.438319
 31
0.0
  0
LINE
  5
164
330
15C
100
AcDbEntity
  8
LC-003-005-----0
 62
     7
370
    25
100
AcDbLine
 10
434.983519
 20
245.253204
 30
0.0
 11
433.364089
 21
246.872634
 31
0.0
  0
LINE
  5
165
330
15C
100
AcDbEntity
  8
LC-003-005-----0
 62
     7
370
    25
100
AcDbLine
 10
434.89927
 20
245.054611
 30
0.0
 11
433.364089
 21
246.589791
 31
0.0
  0
LINE
  5
166
330
15C
100
AcDbEntity
  8
LC-003-005-----0
  6
ByBlock
 62
     7
370
    25
100
AcDbLine
 10
434.666833
 20
244.721362
 30
0.0
 11
433.364089
 21
246.024106
 31
0.0
  0
LINE
  5
167
330
15C
100
AcDbEntity
  8
LC-003-005-----0
  6
ByBlock
 62
     7
370
    25
100
AcDbLine
 10
434.521701
 20
244.583652
 30
0.0
 11
433.364089
 21
245.741263
 31
0.0
  0
LINE
  5
168
330
15C
100
AcDbEntity
  8
LC-003-005-----0
 62
     7
370
    25
100
AcDbLine
 10
434.172527
 20
244.36714
 30
0.0
 11
433.364089
 21
245.175578
 31
0.0
  0
LINE
  5
169
330
15C
100
AcDbEntity
  8
LC-003-005-----0
 62
     7
370
    25
100
AcDbLine
 10
433.964261
 20
244.292563
 30
0.0
 11
433.364089
 21
244.892735
 31
0.0
  0
LINE
  5
16A
330
15C
100
AcDbEntity
  8
LC-003-005-----0
  6
ByBlock
 62
     7
370
    25
100
AcDbLine
 10
433.45294
 20
244.238199
 30
0.0
 11
433.364089
 21
244.32705
 31
0.0
  0
ENDBLK
  5
15E
330
15C
100
AcDbEntity
  8
0
100
AcDbBlockEnd
  0
BLOCK
  5
16E
330
16D
100
AcDbEntity
  8
0
100
AcDbBlockBegin
  2
*X1314
 70
     1
 71
     0
 10
0.0
 20
0.0
 30
0.0
  3
*X1314
  1

  4
*X13
  0
LINE
  5
170
330
16D
100
AcDbEntity
  8
LC-003-005-----0
  6
ByBlock
 62
     7
370
    25
100
AcDbLine
 10
433.364089
 20
247.155477
 30
0.0
 11
433.281367
 21
247.238199
 31
0.0
  0
LINE
  5
171
330
16D
100
AcDbEntity
  8
LC-003-005-----0
 62
     7
370
    25
100
AcDbLine
 10
433.364089
 20
246.589791
 30
0.0
 11
432.715682
 21
247.238199
 31
0.0
  0
LINE
  5
172
330
16D
100
AcDbEntity
  8
LC-003-005-----0
 62
     7
370
    25
100
AcDbLine
 10
433.364089
 20
246.306949
 30
0.0
 11
432.432839
 21
247.238199
 31
0.0
  0
LINE
  5
173
330
16D
100
AcDbEntity
  8
LC-003-005-----0
  6
ByBlock
 62
     7
370
    25
100
AcDbLine
 10
433.364089
 20
245.741263
 30
0.0
 11
431.914089
 21
247.191263
 31
0.0
  0
LINE
  5
174
330
16D
100
AcDbEntity
  8
LC-003-005-----0
  6
ByBlock
 62
     7
370
    25
100
AcDbLine
 10
433.364089
 20
245.45842
 30
0.0
 11
431.914089
 21
246.90842
 31
0.0
  0
LINE
  5
175
330
16D
100
AcDbEntity
  8
LC-003-005-----0
 62
     7
370
    25
100
AcDbLine
 10
433.364089
 20
244.892735
 30
0.0
 11
431.914089
 21
246.342735
 31
0.0
  0
LINE
  5
176
330
16D
100
AcDbEntity
  8
LC-003-005-----0
 62
     7
370
    25
100
AcDbLine
 10
433.364089
 20
244.609892
 30
0.0
 11
431.914089
 21
246.059892
 31
0.0
  0
LINE
  5
177
330
16D
100
AcDbEntity
  8
LC-003-005-----0
  6
ByBlock
 62
     7
370
    25
100
AcDbLine
 10
433.170097
 20
244.238199
 30
0.0
 11
431.914089
 21
245.494207
 31
0.0
  0
LINE
  5
178
330
16D
100
AcDbEntity
  8
LC-003-005-----0
  6
ByBlock
 62
     7
370
    25
100
AcDbLine
 10
432.887254
 20
244.238199
 30
0.0
 11
431.914089
 21
245.211364
 31
0.0
  0
LINE
  5
179
330
16D
100
AcDbEntity
  8
LC-003-005-----0
 62
     7
370
    25
100
AcDbLine
 10
432.321569
 20
244.238199
 30
0.0
 11
431.914089
 21
244.645679
 31
0.0
  0
LINE
  5
17A
330
16D
100
AcDbEntity
  8
LC-003-005-----0
 62
     7
370
    25
100
AcDbLine
 10
432.038726
 20
244.238199
 30
0.0
 11
431.914089
 21
244.362836
 31
0.0
  0
ENDBLK
  5
16F
330
16D
100
AcDbEntity
  8
0
100
AcDbBlockEnd
  0
BLOCK
  5
17D
330
17C
100
AcDbEntity
  8
0
100
AcDbBlockBegin
  2
*X1415
 70
     1
 71
     0
 10
0.0
 20
0.0
 30
0.0
  3
*X1415
  1

  4
*X14
  0
LINE
  5
17F
330
17C
100
AcDbEntity
  8
LC-003-005-----0
  6
ByBlock
 62
     7
370
    25
100
AcDbLine
 10
449.964089
 20
245.828983
 30
0.0
 11
449.569195
 21
246.223878
 31
0.0
  0
LINE
  5
180
330
17C
100
AcDbEntity
  8
LC-003-005-----0
 62
     7
370
    25
100
AcDbLine
 10
449.964089
 20
243.000556
 30
0.0
 11
446.79691
 21
246.167736
 31
0.0
  0
LINE
  5
181
330
17C
100
AcDbEntity
  8
LC-003-005-----0
 62
     7
370
    25
100
AcDbLine
 10
449.964089
 20
241.586343
 30
0.0
 11
445.566865
 21
245.983567
 31
0.0
  0
LINE
  5
182
330
17C
100
AcDbEntity
  8
LC-003-005-----0
  6
ByBlock
 62
     7
370
    25
100
AcDbLine
 10
448.998129
 20
239.723876
 30
0.0
 11
443.397734
 21
245.324271
 31
0.0
  0
LINE
  5
183
330
17C
100
AcDbEntity
  8
LC-003-005-----0
  6
ByBlock
 62
     7
370
    25
100
AcDbLine
 10
447.583915
 20
239.723876
 30
0.0
 11
442.431447
 21
244.876344
 31
0.0
  0
LINE
  5
184
330
17C
100
AcDbEntity
  8
LC-003-005-----0
 62
     7
370
    25
100
AcDbLine
 10
444.959188
 20
239.520176
 30
0.0
 11
440.698886
 21
243.780479
 31
0.0
  0
LINE
  5
185
330
17C
100
AcDbEntity
  8
LC-003-005-----0
 62
     7
370
    25
100
AcDbLine
 10
444.564089
 20
238.501061
 30
0.0
 11
439.925094
 21
243.140057
 31
0.0
  0
LINE
  5
186
330
17C
100
AcDbEntity
  8
LC-003-005-----0
  6
ByBlock
 62
     7
370
    25
100
AcDbLine
 10
443.703134
 20
236.53359
 30
0.0
 11
438.555168
 21
241.681555
 31
0.0
  0
LINE
  5
187
330
17C
100
AcDbEntity
  8
LC-003-005-----0
  6
ByBlock
 62
     7
370
    25
100
AcDbLine
 10
442.298634
 20
236.523876
 30
0.0
 11
439.164089
 21
239.65842
 31
0.0
  0
LINE
  5
188
330
17C
100
AcDbEntity
  8
LC-003-005-----0
  6
ByBlock
 62
     7
370
    25
100
AcDbLine
 10
438.598634
 20
240.223876
 30
0.0
 11
437.95998
 21
240.86253
 31
0.0
  0
ENDBLK
  5
17E
330
17C
100
AcDbEntity
  8
0
100
AcDbBlockEnd
  0
BLOCK
  5
1A2
330
1A1
100
AcDbEntity
  8
0
100
AcDbBlockBegin
  2
*X1516
 70
     1
 71
     0
 10
0.0
 20
0.0
 30
0.0
  3
*X1516
  1

  4
*X15
  0
LINE
  5
1A4
330
1A1
100
AcDbEntity
  8
LC-003-005-----0
 62
     7
370
    25
100
AcDbLine
 10
393.964089
 20
247.24034
 30
0.0
 11
393.064089
 21
248.14034
 31
0.0
  0
LINE
  5
1A5
330
1A1
100
AcDbEntity
  8
LC-003-005-----0
 62
     7
370
    25
100
AcDbLine
 10
393.964089
 20
246.957497
 30
0.0
 11
393.064089
 21
247.857497
 31
0.0
  0
LINE
  5
1A6
330
1A1
100
AcDbEntity
  8
LC-003-005-----0
  6
ByBlock
 62
     7
370
    25
100
AcDbLine
 10
393.964089
 20
246.391812
 30
0.0
 11
393.064089
 21
247.291812
 31
0.0
  0
LINE
  5
1A7
330
1A1
100
AcDbEntity
  8
LC-003-005-----0
  6
ByBlock
 62
     7
370
    25
100
AcDbLine
 10
393.964089
 20
246.108969
 30
0.0
 11
393.027929
 21
247.04513
 31
0.0
  0
LINE
  5
1A8
330
1A1
100
AcDbEntity
  8
LC-003-005-----0
 62
     7
370
    25
100
AcDbLine
 10
393.964089
 20
245.543283
 30
0.0
 11
392.705974
 21
246.801398
 31
0.0
  0
LINE
  5
1A9
330
1A1
100
AcDbEntity
  8
LC-003-005-----0
 62
     7
370
    25
100
AcDbLine
 10
393.964089
 20
245.260441
 30
0.0
 11
392.573682
 21
246.650849
 31
0.0
  0
LINE
  5
1AA
330
1A1
100
AcDbEntity
  8
LC-003-005-----0
  6
ByBlock
 62
     7
370
    25
100
AcDbLine
 10
393.964089
 20
244.694755
 30
0.0
 11
392.369151
 21
246.289694
 31
0.0
  0
LINE
  5
1AB
330
1A1
100
AcDbEntity
  8
LC-003-005-----0
  6
ByBlock
 62
     7
370
    25
100
AcDbLine
 10
393.964089
 20
244.411913
 30
0.0
 11
392.302131
 21
246.073872
 31
0.0
  0
LINE
  5
1AC
330
1A1
100
AcDbEntity
  8
LC-003-005-----0
 62
     7
370
    25
100
AcDbLine
 10
393.557875
 20
244.252442
 30
0.0
 11
392.278332
 21
245.531985
 31
0.0
  0
LINE
  5
1AD
330
1A1
100
AcDbEntity
  8
LC-003-005-----0
 62
     7
370
    25
100
AcDbLine
 10
393.164015
 20
244.363459
 30
0.0
 11
392.389349
 21
245.138125
 31
0.0
  0
ENDBLK
  5
1A3
330
1A1
100
AcDbEntity
  8
0
100
AcDbBlockEnd
  0
BLOCK
  5
1B0
330
1AF
100
AcDbEntity
  8
0
100
AcDbBlockBegin
  2
*X1617
 70
     1
 71
     0
 10
0.0
 20
0.0
 30
0.0
  3
*X1617
  1

  4
*X16
  0
LINE
  5
1B2
330
1AF
100
AcDbEntity
  8
LC-003-005-----0
  6
ByBlock
 62
     7
370
    25
100
AcDbLine
 10
395.414089
 20
247.204553
 30
0.0
 11
395.380444
 21
247.238199
 31
0.0
  0
LINE
  5
1B3
330
1AF
100
AcDbEntity
  8
LC-003-005-----0
 62
     7
370
    25
100
AcDbLine
 10
395.414089
 20
246.638868
 30
0.0
 11
394.814758
 21
247.238199
 31
0.0
  0
LINE
  5
1B4
330
1AF
100
AcDbEntity
  8
LC-003-005-----0
 62
     7
370
    25
100
AcDbLine
 10
395.414089
 20
246.356025
 30
0.0
 11
394.531915
 21
247.238199
 31
0.0
  0
LINE
  5
1B5
330
1AF
100
AcDbEntity
  8
LC-003-005-----0
  6
ByBlock
 62
     7
370
    25
100
AcDbLine
 10
395.414089
 20
245.79034
 30
0.0
 11
393.96623
 21
247.238199
 31
0.0
  0
LINE
  5
1B6
330
1AF
100
AcDbEntity
  8
LC-003-005-----0
  6
ByBlock
 62
     7
370
    25
100
AcDbLine
 10
395.414089
 20
245.507497
 30
0.0
 11
393.964089
 21
246.957497
 31
0.0
  0
LINE
  5
1B7
330
1AF
100
AcDbEntity
  8
LC-003-005-----0
 62
     7
370
    25
100
AcDbLine
 10
395.414089
 20
244.941812
 30
0.0
 11
393.964089
 21
246.391812
 31
0.0
  0
LINE
  5
1B8
330
1AF
100
AcDbEntity
  8
LC-003-005-----0
 62
     7
370
    25
100
AcDbLine
 10
395.414089
 20
244.658969
 30
0.0
 11
393.964089
 21
246.108969
 31
0.0
  0
LINE
  5
1B9
330
1AF
100
AcDbEntity
  8
LC-003-005-----0
  6
ByBlock
 62
     7
370
    25
100
AcDbLine
 10
395.269174
 20
244.238199
 30
0.0
 11
393.964089
 21
245.543283
 31
0.0
  0
LINE
  5
1BA
330
1AF
100
AcDbEntity
  8
LC-003-005-----0
  6
ByBlock
 62
     7
370
    25
100
AcDbLine
 10
394.986331
 20
244.238199
 30
0.0
 11
393.964089
 21
245.260441
 31
0.0
  0
LINE
  5
1BB
330
1AF
100
AcDbEntity
  8
LC-003-005-----0
 62
     7
370
    25
100
AcDbLine
 10
394.420646
 20
244.238199
 30
0.0
 11
393.964089
 21
244.694755
 31
0.0
  0
LINE
  5
1BC
330
1AF
100
AcDbEntity
  8
LC-003-005-----0
 62
     7
370
    25
100
AcDbLine
 10
394.137803
 20
244.238199
 30
0.0
 11
393.964089
 21
244.411913
 31
0.0
  0
ENDBLK
  5
1B1
330
1AF
100
AcDbEntity
  8
0
100
AcDbBlockEnd
  0
BLOCK
  5
1C5
330
1C4
100
AcDbEntity
  8
0
100
AcDbBlockBegin
  2
*X1718
 70
     1
 71
     0
 10
0.0
 20
0.0
 30
0.0
  3
*X1718
  1

  4
*X17
  0
LINE
  5
1C7
330
1C4
100
AcDbEntity
  8
LC-003-005-----0
  6
ByBlock
 62
     7
370
    25
100
AcDbLine
 10
371.952423
 20
230.502554
 30
0.0
 11
373.231102
 21
229.223876
 31
0.0
  0
LINE
  5
1C8
330
1C4
100
AcDbEntity
  8
LC-003-005-----0
  6
ByBlock
 62
     7
370
    25
100
AcDbLine
 10
374.232675
 20
231.05073
 30
0.0
 11
376.464089
 21
228.819315
 31
0.0
  0
LINE
  5
1C9
330
1C4
100
AcDbEntity
  8
LC-003-005-----0
  6
ByBlock
 62
     7
370
    25
100
AcDbLine
 10
374.439036
 20
233.672796
 30
0.0
 11
376.464089
 21
231.647742
 31
0.0
  0
LINE
  5
1CA
330
1C4
100
AcDbEntity
  8
LC-003-005-----0
  6
ByBlock
 62
     7
370
    25
100
AcDbLine
 10
374.645397
 20
236.294862
 30
0.0
 11
376.464089
 21
234.476169
 31
0.0
  0
LINE
  5
1CB
330
1C4
100
AcDbEntity
  8
LC-003-005-----0
  6
ByBlock
 62
     7
370
    25
100
AcDbLine
 10
375.036702
 20
238.731984
 30
0.0
 11
376.579134
 21
237.189552
 31
0.0
  0
LINE
  5
1CC
330
1C4
100
AcDbEntity
  8
LC-003-005-----0
  6
ByBlock
 62
     7
370
    25
100
AcDbLine
 10
376.873237
 20
239.723876
 30
0.0
 11
378.873237
 21
237.723876
 31
0.0
  0
LINE
  5
1CD
330
1C4
100
AcDbEntity
  8
LC-003-005-----0
  6
ByBlock
 62
     7
370
    25
100
AcDbLine
 10
380.764089
 20
235.833024
 30
0.0
 11
382.073237
 21
234.523876
 31
0.0
  0
LINE
  5
1CE
330
1C4
100
AcDbEntity
  8
LC-003-005-----0
  6
ByBlock
 62
     7
370
    25
100
AcDbLine
 10
379.701665
 20
239.723876
 30
0.0
 11
384.901665
 21
234.523876
 31
0.0
  0
LINE
  5
1CF
330
1C4
100
AcDbEntity
  8
LC-003-005-----0
  6
ByBlock
 62
     7
370
    25
100
AcDbLine
 10
386.864089
 20
232.561451
 30
0.0
 11
389.202173
 21
230.223368
 31
0.0
  0
LINE
  5
1D0
330
1C4
100
AcDbEntity
  8
LC-003-005-----0
  6
ByBlock
 62
     7
370
    25
100
AcDbLine
 10
385.730092
 20
236.523876
 30
0.0
 11
389.764089
 21
232.489878
 31
0.0
  0
LINE
  5
1D1
330
1C4
100
AcDbEntity
  8
LC-003-005-----0
  6
ByBlock
 62
     7
370
    25
100
AcDbLine
 10
388.040352
 20
237.042042
 30
0.0
 11
389.764089
 21
235.318305
 31
0.0
  0
LINE
  5
1D2
330
1C4
100
AcDbEntity
  8
LC-003-005-----0
  6
ByBlock
 62
     7
370
    25
100
AcDbLine
 10
388.164089
 20
239.746732
 30
0.0
 11
389.764089
 21
238.146732
 31
0.0
  0
ENDBLK
  5
1C6
330
1C4
100
AcDbEntity
  8
0
100
AcDbBlockEnd
  0
BLOCK
  5
1DB
330
1DA
100
AcDbEntity
  8
0
100
AcDbBlockBegin
  2
*X1819
 70
     1
 71
     0
 10
0.0
 20
0.0
 30
0.0
  3
*X1819
  1

  4
*X18
  0
LINE
  5
1DD
330
1DA
100
AcDbEntity
  8
LC-003-005-----0
 62
     7
370
    25
100
AcDbLine
 10
424.664089
 20
262.643702
 30
0.0
 11
422.664613
 21
264.643178
 31
0.0
  0
LINE
  5
1DE
330
1DA
100
AcDbEntity
  8
LC-003-005-----0
 62
     7
370
    25
100
AcDbLine
 10
424.664089
 20
261.229488
 30
0.0
 11
421.509121
 21
264.384457
 31
0.0
  0
LINE
  5
1DF
330
1DA
100
AcDbEntity
  8
LC-003-005-----0
  6
ByBlock
 62
     7
370
    25
100
AcDbLine
 10
423.905726
 20
259.159425
 30
0.0
 11
420.094908
 21
262.970243
 31
0.0
  0
LINE
  5
1E0
330
1DA
100
AcDbEntity
  8
LC-003-005-----0
  6
ByBlock
 62
     7
370
    25
100
AcDbLine
 10
422.491512
 20
259.159425
 30
0.0
 11
419.387801
 21
262.263136
 31
0.0
  0
LINE
  5
1E1
330
1DA
100
AcDbEntity
  8
LC-003-005-----0
 62
     7
370
    25
100
AcDbLine
 10
422.664089
 20
256.15842
 30
0.0
 11
418.664089
 21
260.15842
 31
0.0
  0
LINE
  5
1E2
330
1DA
100
AcDbEntity
  8
LC-003-005-----0
 62
     7
370
    25
100
AcDbLine
 10
422.248872
 20
255.159425
 30
0.0
 11
418.664089
 21
258.744207
 31
0.0
  0
LINE
  5
1E3
330
1DA
100
AcDbEntity
  8
LC-003-005-----0
  6
ByBlock
 62
     7
370
    25
100
AcDbLine
 10
419.420444
 20
255.159425
 30
0.0
 11
418.664089
 21
255.91578
 31
0.0
  0
ENDBLK
  5
1DC
330
1DA
100
AcDbEntity
  8
0
100
AcDbBlockEnd
  0
BLOCK
  5
1ED
330
1EC
100
AcDbEntity
  8
0
100
AcDbBlockBegin
  2
*X1920
 70
     1
 71
     0
 10
0.0
 20
0.0
 30
0.0
  3
*X1920
  1

  4
*X19
  0
LINE
  5
1EF
330
1EC
100
AcDbEntity
  8
LC-003-005-----0
 62
     7
370
    25
100
AcDbLine
 10
408.664089
 20
260.258926
 30
0.0
 11
404.316965
 21
264.60605
 31
0.0
  0
LINE
  5
1F0
330
1EC
100
AcDbEntity
  8
LC-003-005-----0
 62
     7
370
    25
100
AcDbLine
 10
408.664089
 20
258.844712
 30
0.0
 11
403.050503
 21
264.458299
 31
0.0
  0
LINE
  5
1F1
330
1EC
100
AcDbEntity
  8
LC-003-005-----0
  6
ByBlock
 62
     7
370
    25
100
AcDbLine
 10
408.664089
 20
256.016285
 30
0.0
 11
405.664089
 21
259.016285
 31
0.0
  0
LINE
  5
1F2
330
1EC
100
AcDbEntity
  8
LC-003-005-----0
  6
ByBlock
 62
     7
370
    25
100
AcDbLine
 10
405.52095
 20
259.159425
 30
0.0
 11
402.664089
 21
262.016285
 31
0.0
  0
LINE
  5
1F3
330
1EC
100
AcDbEntity
  8
LC-003-005-----0
  6
ByBlock
 62
     7
370
    25
100
AcDbLine
 10
408.106736
 20
255.159425
 30
0.0
 11
405.664089
 21
257.602071
 31
0.0
  0
LINE
  5
1F4
330
1EC
100
AcDbEntity
  8
LC-003-005-----0
  6
ByBlock
 62
     7
370
    25
100
AcDbLine
 10
404.106736
 20
259.159425
 30
0.0
 11
402.664089
 21
260.602071
 31
0.0
  0
LINE
  5
1F5
330
1EC
100
AcDbEntity
  8
LC-003-005-----0
 62
     7
370
    25
100
AcDbLine
 10
405.278309
 20
255.159425
 30
0.0
 11
404.664089
 21
255.773644
 31
0.0
  0
ENDBLK
  5
1EE
330
1EC
100
AcDbEntity
  8
0
100
AcDbBlockEnd
  0
BLOCK
  5
1FA
330
1F9
100
AcDbEntity
  8
0
100
AcDbBlockBegin
  2
*X2021
 70
     1
 71
     0
 10
0.0
 20
0.0
 30
0.0
  3
*X2021
  1

  4
*X20
  0
LINE
  5
1FC
330
1F9
100
AcDbEntity
  8
LC-003-005-----0
  6
ByBlock
 62
     7
370
    25
100
AcDbLine
 10
404.237635
 20
257.159425
 30
0.0
 11
405.664089
 21
258.585879
 31
0.0
  0
LINE
  5
1FD
330
1F9
100
AcDbEntity
  8
LC-003-005-----0
  6
ByBlock
 62
     7
370
    25
100
AcDbLine
 10
402.664089
 20
258.414306
 30
0.0
 11
403.409208
 21
259.159425
 31
0.0
  0
ENDBLK
  5
1FB
330
1F9
100
AcDbEntity
  8
0
100
AcDbBlockEnd
  0
BLOCK
  5
232
330
231
100
AcDbEntity
  8
0
100
AcDbBlockBegin
  2
*X2122
 70
     1
 71
     0
 10
0.0
 20
0.0
 30
0.0
  3
*X2122
  1

  4
*X21
  0
LINE
  5
234
330
231
100
AcDbEntity
  8
LC-003-005-----0
  6
ByBlock
 62
     7
370
    25
100
AcDbLine
 10
374.464089
 20
227.990888
 30
0.0
 11
376.464089
 21
225.990888
 31
0.0
  0
ENDBLK
  5
233
330
231
100
AcDbEntity
  8
0
100
AcDbBlockEnd
  0
BLOCK
  5
23C
330
23B
100
AcDbEntity
  8
0
100
AcDbBlockBegin
  2
*X2223
 70
     1
 71
     0
 10
0.0
 20
0.0
 30
0.0
  3
*X2223
  1

  4
*X22
  0
LINE
  5
23E
330
23B
100
AcDbEntity
  8
LC-003-005-----0
  6
ByBlock
 62
     7
370
    25
100
AcDbLine
 10
390.779458
 20
251.273499
 30
0.0
 11
394.814758
 21
247.238199
 31
0.0
  0
LINE
  5
23F
330
23B
100
AcDbEntity
  8
LC-003-005-----0
  6
ByBlock
 62
     7
370
    25
100
AcDbLine
 10
393.607885
 20
251.273499
 30
0.0
 11
394.164089
 21
250.717295
 31
0.0
  0
ENDBLK
  5
23D
330
23B
100
AcDbEntity
  8
0
100
AcDbBlockEnd
  0
BLOCK
  5
245
330
244
100
AcDbEntity
  8
0
100
AcDbBlockBegin
  2
*X2324
 70
     1
 71
     0
 10
0.0
 20
0.0
 30
0.0
  3
*X2324
  1

  4
*X23
  0
LINE
  5
247
330
244
100
AcDbEntity
  8
LC-003-005-----0
  6
ByBlock
 62
     7
370
    25
100
AcDbLine
 10
432.221217
 20
249.42972
 30
0.0
 11
433.64134
 21
248.009597
 31
0.0
  0
LINE
  5
248
330
244
100
AcDbEntity
  8
LC-003-005-----0
  6
ByBlock
 62
     7
370
    25
100
AcDbLine
 10
433.205865
 20
251.273499
 30
0.0
 11
435.434491
 21
249.044873
 31
0.0
  0
LINE
  5
249
330
244
100
AcDbEntity
  8
LC-003-005-----0
  6
ByBlock
 62
     7
370
    25
100
AcDbLine
 10
436.034292
 20
251.273499
 30
0.0
 11
437.227642
 21
250.080149
 31
0.0
  0
ENDBLK
  5
246
330
244
100
AcDbEntity
  8
0
100
AcDbBlockEnd
  0
BLOCK
  5
24E
330
24D
100
AcDbEntity
  8
0
100
AcDbBlockBegin
  2
*X2425
 70
     1
 71
     0
 10
0.0
 20
0.0
 30
0.0
  3
*X2425
  1

  4
*X24
  0
LINE
  5
250
330
24D
100
AcDbEntity
  8
LC-003-005-----0
  6
ByBlock
 62
     7
370
    25
100
AcDbLine
 10
437.564089
 20
232.773139
 30
0.0
 11
439.974055
 21
230.363173
 31
0.0
  0
LINE
  5
251
330
24D
100
AcDbEntity
  8
LC-003-005-----0
  6
ByBlock
 62
     7
370
    25
100
AcDbLine
 10
437.564089
 20
235.601566
 30
0.0
 11
440.464089
 21
232.701566
 31
0.0
  0
LINE
  5
252
330
24D
100
AcDbEntity
  8
LC-003-005-----0
  6
ByBlock
 62
     7
370
    25
100
AcDbLine
 10
437.564089
 20
238.429993
 30
0.0
 11
441.470207
 21
234.523876
 31
0.0
  0
LINE
  5
253
330
24D
100
AcDbEntity
  8
LC-003-005-----0
  6
ByBlock
 62
     7
370
    25
100
AcDbLine
 10
438.598634
 20
240.223876
 30
0.0
 11
439.164089
 21
239.65842
 31
0.0
  0
LINE
  5
254
330
24D
100
AcDbEntity
  8
LC-003-005-----0
  6
ByBlock
 62
     7
370
    25
100
AcDbLine
 10
442.298634
 20
236.523876
 30
0.0
 11
444.298634
 21
234.523876
 31
0.0
  0
LINE
  5
255
330
24D
100
AcDbEntity
  8
LC-003-005-----0
  6
ByBlock
 62
     7
370
    25
100
AcDbLine
 10
444.49424
 20
237.156697
 30
0.0
 11
446.49424
 21
235.156697
 31
0.0
  0
LINE
  5
256
330
24D
100
AcDbEntity
  8
LC-003-005-----0
  6
ByBlock
 62
     7
370
    25
100
AcDbLine
 10
444.959188
 20
239.520176
 30
0.0
 11
446.959188
 21
237.520176
 31
0.0
  0
LINE
  5
257
330
24D
100
AcDbEntity
  8
LC-003-005-----0
  6
ByBlock
 62
     7
370
    25
100
AcDbLine
 10
447.583915
 20
239.723876
 30
0.0
 11
449.583915
 21
237.723876
 31
0.0
  0
LINE
  5
258
330
24D
100
AcDbEntity
  8
LC-003-005-----0
  6
ByBlock
 62
     7
370
    25
100
AcDbLine
 10
450.412343
 20
239.723876
 30
0.0
 11
452.412343
 21
237.723876
 31
0.0
  0
ENDBLK
  5
24F
330
24D
100
AcDbEntity
  8
0
100
AcDbBlockEnd
  0
BLOCK
  5
261
330
260
100
AcDbEntity
  8
0
100
AcDbBlockBegin
  2
*X2526
 70
     1
 71
     0
 10
0.0
 20
0.0
 30
0.0
  3
*X2526
  1

  4
*X25
  0
LINE
  5
263
330
260
100
AcDbEntity
  8
LC-003-005-----0
  6
ByBlock
 62
     7
370
    25
100
AcDbLine
 10
431.649927
 20
165.148197
 30
0.0
 11
433.164089
 21
163.634034
 31
0.0
  0
LINE
  5
264
330
260
100
AcDbEntity
  8
LC-003-005-----0
  6
ByBlock
 62
     7
370
    25
100
AcDbLine
 10
431.64483
 20
167.98172
 30
0.0
 11
433.164089
 21
166.462461
 31
0.0
  0
LINE
  5
265
330
260
100
AcDbEntity
  8
LC-003-005-----0
  6
ByBlock
 62
     7
370
    25
100
AcDbLine
 10
431.639734
 20
170.815243
 30
0.0
 11
433.164089
 21
169.290888
 31
0.0
  0
LINE
  5
266
330
260
100
AcDbEntity
  8
LC-003-005-----0
  6
ByBlock
 62
     7
370
    25
100
AcDbLine
 10
431.634638
 20
173.648767
 30
0.0
 11
433.164089
 21
172.119315
 31
0.0
  0
LINE
  5
267
330
260
100
AcDbEntity
  8
LC-003-005-----0
  6
ByBlock
 62
     7
370
    25
100
AcDbLine
 10
431.629542
 20
176.48229
 30
0.0
 11
433.164089
 21
174.947742
 31
0.0
  0
LINE
  5
268
330
260
100
AcDbEntity
  8
LC-003-005-----0
  6
ByBlock
 62
     7
370
    25
100
AcDbLine
 10
431.624446
 20
179.315813
 30
0.0
 11
433.164089
 21
177.776169
 31
0.0
  0
LINE
  5
269
330
260
100
AcDbEntity
  8
LC-003-005-----0
  6
ByBlock
 62
     7
370
    25
100
AcDbLine
 10
431.619349
 20
182.149337
 30
0.0
 11
433.164089
 21
180.604597
 31
0.0
  0
LINE
  5
26A
330
260
100
AcDbEntity
  8
LC-003-005-----0
  6
ByBlock
 62
     7
370
    25
100
AcDbLine
 10
431.614253
 20
184.98286
 30
0.0
 11
433.164089
 21
183.433024
 31
0.0
  0
LINE
  5
26B
330
260
100
AcDbEntity
  8
LC-003-005-----0
  6
ByBlock
 62
     7
370
    25
100
AcDbLine
 10
431.609157
 20
187.816383
 30
0.0
 11
433.164089
 21
186.261451
 31
0.0
  0
LINE
  5
26C
330
260
100
AcDbEntity
  8
LC-003-005-----0
  6
ByBlock
 62
     7
370
    25
100
AcDbLine
 10
431.604061
 20
190.649907
 30
0.0
 11
433.164089
 21
189.089878
 31
0.0
  0
LINE
  5
26D
330
260
100
AcDbEntity
  8
LC-003-005-----0
  6
ByBlock
 62
     7
370
    25
100
AcDbLine
 10
431.598965
 20
193.48343
 30
0.0
 11
433.164089
 21
191.918305
 31
0.0
  0
LINE
  5
26E
330
260
100
AcDbEntity
  8
LC-003-005-----0
  6
ByBlock
 62
     7
370
    25
100
AcDbLine
 10
431.593868
 20
196.316953
 30
0.0
 11
433.164089
 21
194.746732
 31
0.0
  0
LINE
  5
26F
330
260
100
AcDbEntity
  8
LC-003-005-----0
  6
ByBlock
 62
     7
370
    25
100
AcDbLine
 10
431.588772
 20
199.150477
 30
0.0
 11
433.164089
 21
197.575159
 31
0.0
  0
LINE
  5
270
330
260
100
AcDbEntity
  8
LC-003-005-----0
  6
ByBlock
 62
     7
370
    25
100
AcDbLine
 10
431.583676
 20
201.984
 30
0.0
 11
433.164089
 21
200.403586
 31
0.0
  0
LINE
  5
271
330
260
100
AcDbEntity
  8
LC-003-005-----0
  6
ByBlock
 62
     7
370
    25
100
AcDbLine
 10
431.57858
 20
204.817523
 30
0.0
 11
433.164089
 21
203.232014
 31
0.0
  0
LINE
  5
272
330
260
100
AcDbEntity
  8
LC-003-005-----0
  6
ByBlock
 62
     7
370
    25
100
AcDbLine
 10
431.573484
 20
207.651047
 30
0.0
 11
433.164089
 21
206.060441
 31
0.0
  0
LINE
  5
273
330
260
100
AcDbEntity
  8
LC-003-005-----0
  6
ByBlock
 62
     7
370
    25
100
AcDbLine
 10
431.568387
 20
210.48457
 30
0.0
 11
433.164089
 21
208.888868
 31
0.0
  0
LINE
  5
274
330
260
100
AcDbEntity
  8
LC-003-005-----0
  6
ByBlock
 62
     7
370
    25
100
AcDbLine
 10
431.563291
 20
213.318093
 30
0.0
 11
433.164089
 21
211.717295
 31
0.0
  0
LINE
  5
275
330
260
100
AcDbEntity
  8
LC-003-005-----0
  6
ByBlock
 62
     7
370
    25
100
AcDbLine
 10
431.558195
 20
216.151617
 30
0.0
 11
433.164089
 21
214.545722
 31
0.0
  0
LINE
  5
276
330
260
100
AcDbEntity
  8
LC-003-005-----0
  6
ByBlock
 62
     7
370
    25
100
AcDbLine
 10
431.553099
 20
218.98514
 30
0.0
 11
433.164089
 21
217.374149
 31
0.0
  0
LINE
  5
277
330
260
100
AcDbEntity
  8
LC-003-005-----0
  6
ByBlock
 62
     7
370
    25
100
AcDbLine
 10
431.548003
 20
221.818663
 30
0.0
 11
433.164089
 21
220.202576
 31
0.0
  0
LINE
  5
278
330
260
100
AcDbEntity
  8
LC-003-005-----0
  6
ByBlock
 62
     7
370
    25
100
AcDbLine
 10
431.542906
 20
224.652187
 30
0.0
 11
433.164089
 21
223.031003
 31
0.0
  0
LINE
  5
279
330
260
100
AcDbEntity
  8
LC-003-005-----0
  6
ByBlock
 62
     7
370
    25
100
AcDbLine
 10
431.53781
 20
227.48571
 30
0.0
 11
433.164089
 21
225.859431
 31
0.0
  0
LINE
  5
27A
330
260
100
AcDbEntity
  8
LC-003-005-----0
  6
ByBlock
 62
     7
370
    25
100
AcDbLine
 10
431.532714
 20
230.319233
 30
0.0
 11
433.164089
 21
228.687858
 31
0.0
  0
LINE
  5
27B
330
260
100
AcDbEntity
  8
LC-003-005-----0
  6
ByBlock
 62
     7
370
    25
100
AcDbLine
 10
431.527618
 20
233.152756
 30
0.0
 11
433.164089
 21
231.516285
 31
0.0
  0
LINE
  5
27C
330
260
100
AcDbEntity
  8
LC-003-005-----0
  6
ByBlock
 62
     7
370
    25
100
AcDbLine
 10
431.522522
 20
235.98628
 30
0.0
 11
433.164089
 21
234.344712
 31
0.0
  0
LINE
  5
27D
330
260
100
AcDbEntity
  8
LC-003-005-----0
  6
ByBlock
 62
     7
370
    25
100
AcDbLine
 10
431.517425
 20
238.819803
 30
0.0
 11
433.164089
 21
237.173139
 31
0.0
  0
LINE
  5
27E
330
260
100
AcDbEntity
  8
LC-003-005-----0
  6
ByBlock
 62
     7
370
    25
100
AcDbLine
 10
431.491039
 20
241.674617
 30
0.0
 11
433.164089
 21
240.001566
 31
0.0
  0
LINE
  5
27F
330
260
100
AcDbEntity
  8
LC-003-005-----0
  6
ByBlock
 62
     7
370
    25
100
AcDbLine
 10
431.914089
 20
244.079993
 30
0.0
 11
433.164089
 21
242.829993
 31
0.0
  0
ENDBLK
  5
262
330
260
100
AcDbEntity
  8
0
100
AcDbBlockEnd
  0
BLOCK
  5
283
330
282
100
AcDbEntity
  8
0
100
AcDbBlockBegin
  2
*X2627
 70
     1
 71
     0
 10
0.0
 20
0.0
 30
0.0
  3
*X2627
  1

  4
*X26
  0
LINE
  5
285
330
282
100
AcDbEntity
  8
LC-003-005-----0
  6
ByBlock
 62
     7
370
    25
100
AcDbLine
 10
431.660119
 20
159.48115
 30
0.0
 11
433.164089
 21
157.97718
 31
0.0
  0
LINE
  5
286
330
282
100
AcDbEntity
  8
LC-003-005-----0
  6
ByBlock
 62
     7
370
    25
100
AcDbLine
 10
431.655023
 20
162.314673
 30
0.0
 11
433.164089
 21
160.805607
 31
0.0
  0
ENDBLK
  5
284
330
282
100
AcDbEntity
  8
0
100
AcDbBlockEnd
  0
BLOCK
  5
28A
330
289
100
AcDbEntity
  8
0
100
AcDbBlockBegin
  2
*X2728
 70
     1
 71
     0
 10
0.0
 20
0.0
 30
0.0
  3
*X2728
  1

  4
*X27
  0
LINE
  5
28C
330
289
100
AcDbEntity
  8
LC-003-005-----0
  6
ByBlock
 62
     7
370
    25
100
AcDbLine
 10
394.164089
 20
165.864481
 30
0.0
 11
395.67682
 21
164.351751
 31
0.0
  0
LINE
  5
28D
330
289
100
AcDbEntity
  8
LC-003-005-----0
  6
ByBlock
 62
     7
370
    25
100
AcDbLine
 10
394.164089
 20
168.692908
 30
0.0
 11
395.681898
 21
167.1751
 31
0.0
  0
LINE
  5
28E
330
289
100
AcDbEntity
  8
LC-003-005-----0
  6
ByBlock
 62
     7
370
    25
100
AcDbLine
 10
394.164089
 20
171.521335
 30
0.0
 11
395.686976
 21
169.998449
 31
0.0
  0
LINE
  5
28F
330
289
100
AcDbEntity
  8
LC-003-005-----0
  6
ByBlock
 62
     7
370
    25
100
AcDbLine
 10
394.164089
 20
174.349763
 30
0.0
 11
395.692054
 21
172.821798
 31
0.0
  0
LINE
  5
290
330
289
100
AcDbEntity
  8
LC-003-005-----0
  6
ByBlock
 62
     7
370
    25
100
AcDbLine
 10
394.164089
 20
177.17819
 30
0.0
 11
395.697132
 21
175.645148
 31
0.0
  0
LINE
  5
291
330
289
100
AcDbEntity
  8
LC-003-005-----0
  6
ByBlock
 62
     7
370
    25
100
AcDbLine
 10
394.164089
 20
180.006617
 30
0.0
 11
395.702209
 21
178.468497
 31
0.0
  0
LINE
  5
292
330
289
100
AcDbEntity
  8
LC-003-005-----0
  6
ByBlock
 62
     7
370
    25
100
AcDbLine
 10
394.164089
 20
182.835044
 30
0.0
 11
395.707287
 21
181.291846
 31
0.0
  0
LINE
  5
293
330
289
100
AcDbEntity
  8
LC-003-005-----0
  6
ByBlock
 62
     7
370
    25
100
AcDbLine
 10
394.164089
 20
185.663471
 30
0.0
 11
395.712365
 21
184.115195
 31
0.0
  0
LINE
  5
294
330
289
100
AcDbEntity
  8
LC-003-005-----0
  6
ByBlock
 62
     7
370
    25
100
AcDbLine
 10
394.164089
 20
188.491898
 30
0.0
 11
395.717443
 21
186.938545
 31
0.0
  0
LINE
  5
295
330
289
100
AcDbEntity
  8
LC-003-005-----0
  6
ByBlock
 62
     7
370
    25
100
AcDbLine
 10
394.164089
 20
191.320325
 30
0.0
 11
395.722521
 21
189.761894
 31
0.0
  0
LINE
  5
296
330
289
100
AcDbEntity
  8
LC-003-005-----0
  6
ByBlock
 62
     7
370
    25
100
AcDbLine
 10
394.164089
 20
194.148752
 30
0.0
 11
395.727599
 21
192.585243
 31
0.0
  0
LINE
  5
297
330
289
100
AcDbEntity
  8
LC-003-005-----0
  6
ByBlock
 62
     7
370
    25
100
AcDbLine
 10
394.164089
 20
196.97718
 30
0.0
 11
395.732677
 21
195.408592
 31
0.0
  0
LINE
  5
298
330
289
100
AcDbEntity
  8
LC-003-005-----0
  6
ByBlock
 62
     7
370
    25
100
AcDbLine
 10
394.164089
 20
199.805607
 30
0.0
 11
395.737755
 21
198.231941
 31
0.0
  0
LINE
  5
299
330
289
100
AcDbEntity
  8
LC-003-005-----0
  6
ByBlock
 62
     7
370
    25
100
AcDbLine
 10
394.164089
 20
202.634034
 30
0.0
 11
395.742833
 21
201.055291
 31
0.0
  0
LINE
  5
29A
330
289
100
AcDbEntity
  8
LC-003-005-----0
  6
ByBlock
 62
     7
370
    25
100
AcDbLine
 10
394.164089
 20
205.462461
 30
0.0
 11
395.747911
 21
203.87864
 31
0.0
  0
LINE
  5
29B
330
289
100
AcDbEntity
  8
LC-003-005-----0
  6
ByBlock
 62
     7
370
    25
100
AcDbLine
 10
394.164089
 20
208.290888
 30
0.0
 11
395.752988
 21
206.701989
 31
0.0
  0
LINE
  5
29C
330
289
100
AcDbEntity
  8
LC-003-005-----0
  6
ByBlock
 62
     7
370
    25
100
AcDbLine
 10
394.164089
 20
211.119315
 30
0.0
 11
395.758066
 21
209.525338
 31
0.0
  0
LINE
  5
29D
330
289
100
AcDbEntity
  8
LC-003-005-----0
  6
ByBlock
 62
     7
370
    25
100
AcDbLine
 10
394.164089
 20
213.947742
 30
0.0
 11
395.763144
 21
212.348688
 31
0.0
  0
LINE
  5
29E
330
289
100
AcDbEntity
  8
LC-003-005-----0
  6
ByBlock
 62
     7
370
    25
100
AcDbLine
 10
394.164089
 20
216.776169
 30
0.0
 11
395.768222
 21
215.172037
 31
0.0
  0
LINE
  5
29F
330
289
100
AcDbEntity
  8
LC-003-005-----0
  6
ByBlock
 62
     7
370
    25
100
AcDbLine
 10
394.164089
 20
219.604597
 30
0.0
 11
395.7733
 21
217.995386
 31
0.0
  0
LINE
  5
2A0
330
289
100
AcDbEntity
  8
LC-003-005-----0
  6
ByBlock
 62
     7
370
    25
100
AcDbLine
 10
394.164089
 20
222.433024
 30
0.0
 11
395.778378
 21
220.818735
 31
0.0
  0
LINE
  5
2A1
330
289
100
AcDbEntity
  8
LC-003-005-----0
  6
ByBlock
 62
     7
370
    25
100
AcDbLine
 10
394.164089
 20
225.261451
 30
0.0
 11
395.783456
 21
223.642084
 31
0.0
  0
LINE
  5
2A2
330
289
100
AcDbEntity
  8
LC-003-005-----0
  6
ByBlock
 62
     7
370
    25
100
AcDbLine
 10
394.164089
 20
228.089878
 30
0.0
 11
395.788534
 21
226.465434
 31
0.0
  0
LINE
  5
2A3
330
289
100
AcDbEntity
  8
LC-003-005-----0
  6
ByBlock
 62
     7
370
    25
100
AcDbLine
 10
394.164089
 20
230.918305
 30
0.0
 11
395.793612
 21
229.288783
 31
0.0
  0
LINE
  5
2A4
330
289
100
AcDbEntity
  8
LC-003-005-----0
  6
ByBlock
 62
     7
370
    25
100
AcDbLine
 10
394.164089
 20
233.746732
 30
0.0
 11
395.79869
 21
232.112132
 31
0.0
  0
LINE
  5
2A5
330
289
100
AcDbEntity
  8
LC-003-005-----0
  6
ByBlock
 62
     7
370
    25
100
AcDbLine
 10
394.164089
 20
236.575159
 30
0.0
 11
395.803767
 21
234.935481
 31
0.0
  0
LINE
  5
2A6
330
289
100
AcDbEntity
  8
LC-003-005-----0
  6
ByBlock
 62
     7
370
    25
100
AcDbLine
 10
394.164089
 20
239.403586
 30
0.0
 11
395.808845
 21
237.758831
 31
0.0
  0
LINE
  5
2A7
330
289
100
AcDbEntity
  8
LC-003-005-----0
  6
ByBlock
 62
     7
370
    25
100
AcDbLine
 10
394.164089
 20
242.232014
 30
0.0
 11
395.813923
 21
240.58218
 31
0.0
  0
LINE
  5
2A8
330
289
100
AcDbEntity
  8
LC-003-005-----0
  6
ByBlock
 62
     7
370
    25
100
AcDbLine
 10
394.986331
 20
244.238199
 30
0.0
 11
395.414089
 21
243.810441
 31
0.0
  0
ENDBLK
  5
28B
330
289
100
AcDbEntity
  8
0
100
AcDbBlockEnd
  0
BLOCK
  5
2B1
330
2B0
100
AcDbEntity
  8
0
100
AcDbBlockBegin
  2
*X2829
 70
     1
 71
     0
 10
0.0
 20
0.0
 30
0.0
  3
*X2829
  1

  4
*X28
  0
LINE
  5
2B3
330
2B0
100
AcDbEntity
  8
LC-003-005-----0
  6
ByBlock
 62
     7
370
    25
100
AcDbLine
 10
394.164089
 20
157.3792
 30
0.0
 11
394.26979
 21
157.273499
 31
0.0
  0
LINE
  5
2B4
330
2B0
100
AcDbEntity
  8
LC-003-005-----0
  6
ByBlock
 62
     7
370
    25
100
AcDbLine
 10
394.164089
 20
160.207627
 30
0.0
 11
395.666664
 21
158.705052
 31
0.0
  0
LINE
  5
2B5
330
2B0
100
AcDbEntity
  8
LC-003-005-----0
  6
ByBlock
 62
     7
370
    25
100
AcDbLine
 10
394.164089
 20
163.036054
 30
0.0
 11
395.671742
 21
161.528401
 31
0.0
  0
ENDBLK
  5
2B2
330
2B0
100
AcDbEntity
  8
0
100
AcDbBlockEnd
  0
BLOCK
  5
2B8
330
2B7
100
AcDbEntity
  8
0
100
AcDbBlockBegin
  2
*X2930
 70
     1
 71
     0
 10
0.0
 20
0.0
 30
0.0
  3
*X2930
  1

  4
*X29
  0
LINE
  5
2BA
330
2B7
100
AcDbEntity
  8
LC-003-005-----0
  6
ByBlock
 62
     7
370
    25
100
AcDbLine
 10
459.864089
 20
227.443702
 30
0.0
 11
460.864089
 21
226.443702
 31
0.0
  0
LINE
  5
2BB
330
2B7
100
AcDbEntity
  8
LC-003-005-----0
  6
ByBlock
 62
     7
370
    25
100
AcDbLine
 10
461.662343
 20
228.473876
 30
0.0
 11
461.864089
 21
228.272129
 31
0.0
  0
ENDBLK
  5
2B9
330
2B7
100
AcDbEntity
  8
0
100
AcDbBlockEnd
  0
BLOCK
  5
2C2
330
2C1
100
AcDbEntity
  8
0
100
AcDbBlockBegin
  2
*X3031
 70
     1
 71
     0
 10
0.0
 20
0.0
 30
0.0
  3
*X3031
  1

  4
*X30
  0
LINE
  5
2C4
330
2C1
100
AcDbEntity
  8
LC-003-005-----0
  6
ByBlock
 62
     7
370
    25
100
AcDbLine
 10
389.790296
 20
225.741523
 30
0.0
 11
391.264089
 21
227.215316
 31
0.0
  0
LINE
  5
2C5
330
2C1
100
AcDbEntity
  8
LC-003-005-----0
  6
ByBlock
 62
     7
370
    25
100
AcDbLine
 10
389.764089
 20
231.372171
 30
0.0
 11
391.264089
 21
232.872171
 31
0.0
  0
LINE
  5
2C6
330
2C1
100
AcDbEntity
  8
LC-003-005-----0
  6
ByBlock
 62
     7
370
    25
100
AcDbLine
 10
389.764089
 20
237.029025
 30
0.0
 11
391.264089
 21
238.529025
 31
0.0
  0
LINE
  5
2C7
330
2C1
100
AcDbEntity
  8
LC-003-005-----0
  6
ByBlock
 62
     7
370
    25
100
AcDbLine
 10
389.764089
 20
242.685879
 30
0.0
 11
391.264089
 21
244.185879
 31
0.0
  0
ENDBLK
  5
2C3
330
2C1
100
AcDbEntity
  8
0
100
AcDbBlockEnd
  0
BLOCK
  5
2CC
330
2CB
100
AcDbEntity
  8
0
100
AcDbBlockBegin
  2
*X3132
 70
     1
 71
     0
 10
0.0
 20
0.0
 30
0.0
  3
*X3132
  1

  4
*X31
  0
LINE
  5
2CE
330
2CB
100
AcDbEntity
  8
LC-003-005-----0
  6
ByBlock
 62
     7
370
    25
100
AcDbLine
 10
408.551344
 20
250.159425
 30
0.0
 11
409.689089
 21
251.297171
 31
0.0
  0
LINE
  5
2CF
330
2CB
100
AcDbEntity
  8
LC-003-005-----0
  6
ByBlock
 62
     7
370
    25
100
AcDbLine
 10
406.665726
 20
251.102234
 30
0.0
 11
409.689089
 21
254.125598
 31
0.0
  0
LINE
  5
2D0
330
2CB
100
AcDbEntity
  8
LC-003-005-----0
  6
ByBlock
 62
     7
370
    25
100
AcDbLine
 10
406.664089
 20
253.929025
 30
0.0
 11
407.836628
 21
255.101563
 31
0.0
  0
LINE
  5
2D1
330
2CB
100
AcDbEntity
  8
LC-003-005-----0
  6
ByBlock
 62
     7
370
    25
100
AcDbLine
 10
408.664089
 20
255.929025
 30
0.0
 11
409.689089
 21
256.954025
 31
0.0
  0
LINE
  5
2D2
330
2CB
100
AcDbEntity
  8
LC-003-005-----0
  6
ByBlock
 62
     7
370
    25
100
AcDbLine
 10
408.664089
 20
258.757452
 30
0.0
 11
409.689089
 21
259.782452
 31
0.0
  0
LINE
  5
2D3
330
2CB
100
AcDbEntity
  8
LC-003-005-----0
  6
ByBlock
 62
     7
370
    25
100
AcDbLine
 10
408.664089
 20
261.585879
 30
0.0
 11
409.689089
 21
262.610879
 31
0.0
  0
LINE
  5
2D4
330
2CB
100
AcDbEntity
  8
LC-003-005-----0
  6
ByBlock
 62
     7
370
    25
100
AcDbLine
 10
412.192954
 20
265.114743
 30
0.0
 11
413.664089
 21
266.585879
 31
0.0
  0
LINE
  5
2D5
330
2CB
100
AcDbEntity
  8
LC-003-005-----0
  6
ByBlock
 62
     7
370
    25
100
AcDbLine
 10
408.664089
 20
264.414306
 30
0.0
 11
412.3548
 21
268.105017
 31
0.0
  0
LINE
  5
2D6
330
2CB
100
AcDbEntity
  8
LC-003-005-----0
  6
ByBlock
 62
     7
370
    25
100
AcDbLine
 10
406.209043
 20
264.787686
 30
0.0
 11
409.434549
 21
268.013192
 31
0.0
  0
LINE
  5
2D7
330
2CB
100
AcDbEntity
  8
LC-003-005-----0
  6
ByBlock
 62
     7
370
    25
100
AcDbLine
 10
403.042443
 20
264.449514
 30
0.0
 11
406.408494
 21
267.815565
 31
0.0
  0
LINE
  5
2D8
330
2CB
100
AcDbEntity
  8
LC-003-005-----0
  6
ByBlock
 62
     7
370
    25
100
AcDbLine
 10
399.731362
 20
263.96686
 30
0.0
 11
403.263369
 21
267.498867
 31
0.0
  0
LINE
  5
2D9
330
2CB
100
AcDbEntity
  8
LC-003-005-----0
  6
ByBlock
 62
     7
370
    25
100
AcDbLine
 10
396.265177
 20
263.329102
 30
0.0
 11
399.982326
 21
267.046252
 31
0.0
  0
LINE
  5
2DA
330
2CB
100
AcDbEntity
  8
LC-003-005-----0
  6
ByBlock
 62
     7
370
    25
100
AcDbLine
 10
392.873786
 20
262.766139
 30
0.0
 11
396.543605
 21
266.435957
 31
0.0
  0
LINE
  5
2DB
330
2CB
100
AcDbEntity
  8
LC-003-005-----0
  6
ByBlock
 62
     7
370
    25
100
AcDbLine
 10
389.628757
 20
262.349537
 30
0.0
 11
393.115616
 21
265.836396
 31
0.0
  0
LINE
  5
2DC
330
2CB
100
AcDbEntity
  8
LC-003-005-----0
  6
ByBlock
 62
     7
370
    25
100
AcDbLine
 10
386.510947
 20
262.060154
 30
0.0
 11
389.843894
 21
265.393101
 31
0.0
  0
LINE
  5
2DD
330
2CB
100
AcDbEntity
  8
LC-003-005-----0
  6
ByBlock
 62
     7
370
    25
100
AcDbLine
 10
383.409176
 20
261.78681
 30
0.0
 11
386.706875
 21
265.084508
 31
0.0
  0
LINE
  5
2DE
330
2CB
100
AcDbEntity
  8
LC-003-005-----0
  6
ByBlock
 62
     7
370
    25
100
AcDbLine
 10
380.073799
 20
261.27986
 30
0.0
 11
383.623733
 21
264.829794
 31
0.0
  0
LINE
  5
2DF
330
2CB
100
AcDbEntity
  8
LC-003-005-----0
  6
ByBlock
 62
     7
370
    25
100
AcDbLine
 10
378.443127
 20
262.477615
 30
0.0
 11
380.336692
 21
264.37118
 31
0.0
  0
ENDBLK
  5
2CD
330
2CB
100
AcDbEntity
  8
0
100
AcDbBlockEnd
  0
BLOCK
  5
2E2
330
2E1
100
AcDbEntity
  8
0
100
AcDbBlockBegin
  2
*X3233
 70
     1
 71
     0
 10
0.0
 20
0.0
 30
0.0
  3
*X3233
  1

  4
*X32
  0
LINE
  5
2E4
330
2E1
100
AcDbEntity
  8
LC-003-005-----0
  6
ByBlock
 62
     7
370
    25
100
AcDbLine
 10
448.128669
 20
261.452479
 30
0.0
 11
448.732943
 21
262.056753
 31
0.0
  0
LINE
  5
2E5
330
2E1
100
AcDbEntity
  8
LC-003-005-----0
  6
ByBlock
 62
     7
370
    25
100
AcDbLine
 10
445.431852
 20
261.584089
 30
0.0
 11
447.999953
 21
264.152189
 31
0.0
  0
LINE
  5
2E6
330
2E1
100
AcDbEntity
  8
LC-003-005-----0
  6
ByBlock
 62
     7
370
    25
100
AcDbLine
 10
442.914168
 20
261.894832
 30
0.0
 11
445.609614
 21
264.590278
 31
0.0
  0
LINE
  5
2E7
330
2E1
100
AcDbEntity
  8
LC-003-005-----0
  6
ByBlock
 62
     7
370
    25
100
AcDbLine
 10
440.292233
 20
262.101324
 30
0.0
 11
443.083274
 21
264.892366
 31
0.0
  0
LINE
  5
2E8
330
2E1
100
AcDbEntity
  8
LC-003-005-----0
  6
ByBlock
 62
     7
370
    25
100
AcDbLine
 10
437.710769
 20
262.348287
 30
0.0
 11
440.460091
 21
265.09761
 31
0.0
  0
LINE
  5
2E9
330
2E1
100
AcDbEntity
  8
LC-003-005-----0
  6
ByBlock
 62
     7
370
    25
100
AcDbLine
 10
435.19471
 20
262.660655
 30
0.0
 11
437.881777
 21
265.347722
 31
0.0
  0
LINE
  5
2EA
330
2E1
100
AcDbEntity
  8
LC-003-005-----0
  6
ByBlock
 62
     7
370
    25
100
AcDbLine
 10
419.891178
 20
250.185551
 30
0.0
 11
420.637964
 21
250.932336
 31
0.0
  0
LINE
  5
2EB
330
2E1
100
AcDbEntity
  8
LC-003-005-----0
  6
ByBlock
 62
     7
370
    25
100
AcDbLine
 10
432.73993
 20
263.034303
 30
0.0
 11
435.370805
 21
265.665178
 31
0.0
  0
LINE
  5
2EC
330
2E1
100
AcDbEntity
  8
LC-003-005-----0
  6
ByBlock
 62
     7
370
    25
100
AcDbLine
 10
417.639089
 20
250.761889
 30
0.0
 11
420.664089
 21
253.786889
 31
0.0
  0
LINE
  5
2ED
330
2E1
100
AcDbEntity
  8
LC-003-005-----0
  6
ByBlock
 62
     7
370
    25
100
AcDbLine
 10
430.342849
 20
263.465648
 30
0.0
 11
432.922818
 21
266.045617
 31
0.0
  0
LINE
  5
2EE
330
2E1
100
AcDbEntity
  8
LC-003-005-----0
  6
ByBlock
 62
     7
370
    25
100
AcDbLine
 10
417.639089
 20
253.590316
 30
0.0
 11
419.172637
 21
255.123864
 31
0.0
  0
LINE
  5
2EF
330
2E1
100
AcDbEntity
  8
LC-003-005-----0
  6
ByBlock
 62
     7
370
    25
100
AcDbLine
 10
427.955363
 20
263.90659
 30
0.0
 11
430.533852
 21
266.485078
 31
0.0
  0
LINE
  5
2F0
330
2E1
100
AcDbEntity
  8
LC-003-005-----0
  6
ByBlock
 62
     7
370
    25
100
AcDbLine
 10
417.639089
 20
256.418743
 30
0.0
 11
418.664089
 21
257.443743
 31
0.0
  0
LINE
  5
2F1
330
2E1
100
AcDbEntity
  8
LC-003-005-----0
  6
ByBlock
 62
     7
370
    25
100
AcDbLine
 10
425.507261
 20
264.286915
 30
0.0
 11
428.138354
 21
266.918008
 31
0.0
  0
LINE
  5
2F2
330
2E1
100
AcDbEntity
  8
LC-003-005-----0
  6
ByBlock
 62
     7
370
    25
100
AcDbLine
 10
417.639089
 20
259.247171
 30
0.0
 11
418.664089
 21
260.272171
 31
0.0
  0
LINE
  5
2F3
330
2E1
100
AcDbEntity
  8
LC-003-005-----0
  6
ByBlock
 62
     7
370
    25
100
AcDbLine
 10
422.993871
 20
264.601952
 30
0.0
 11
425.683232
 21
267.291313
 31
0.0
  0
LINE
  5
2F4
330
2E1
100
AcDbEntity
  8
LC-003-005-----0
  6
ByBlock
 62
     7
370
    25
100
AcDbLine
 10
417.639089
 20
262.075598
 30
0.0
 11
418.664089
 21
263.100598
 31
0.0
  0
LINE
  5
2F5
330
2E1
100
AcDbEntity
  8
LC-003-005-----0
  6
ByBlock
 62
     7
370
    25
100
AcDbLine
 10
420.410494
 20
264.847002
 30
0.0
 11
423.16465
 21
267.601158
 31
0.0
  0
LINE
  5
2F6
330
2E1
100
AcDbEntity
  8
LC-003-005-----0
  6
ByBlock
 62
     7
370
    25
100
AcDbLine
 10
417.639089
 20
264.904025
 30
0.0
 11
420.578173
 21
267.843108
 31
0.0
  0
LINE
  5
2F7
330
2E1
100
AcDbEntity
  8
LC-003-005-----0
  6
ByBlock
 62
     7
370
    25
100
AcDbLine
 10
415.021381
 20
265.114743
 30
0.0
 11
417.918625
 21
268.011988
 31
0.0
  0
LINE
  5
2F8
330
2E1
100
AcDbEntity
  8
LC-003-005-----0
  6
ByBlock
 62
     7
370
    25
100
AcDbLine
 10
413.664089
 20
266.585879
 30
0.0
 11
415.179917
 21
268.101706
 31
0.0
  0
ENDBLK
  5
2E3
330
2E1
100
AcDbEntity
  8
0
100
AcDbBlockEnd
  0
BLOCK
  5
34D
330
34C
100
AcDbEntity
  8
0
100
AcDbBlockBegin
  2
*X3334
 70
     1
 71
     0
 10
0.0
 20
0.0
 30
0.0
  3
*X3334
  1

  4
*X33
  0
LINE
  5
34F
330
34C
100
AcDbEntity
  8
LC-003-005-----0
  6
ByBlock
 62
     7
370
    25
100
AcDbLine
 10
459.864089
 20
230.272129
 30
0.0
 11
461.662343
 21
228.473876
 31
0.0
  0
LINE
  5
350
330
34C
100
AcDbEntity
  8
LC-003-005-----0
  6
ByBlock
 62
     7
370
    25
100
AcDbLine
 10
453.24077
 20
239.723876
 30
0.0
 11
455.24077
 21
237.723876
 31
0.0
  0
LINE
  5
351
330
34C
100
AcDbEntity
  8
LC-003-005-----0
  6
ByBlock
 62
     7
370
    25
100
AcDbLine
 10
459.864089
 20
233.100556
 30
0.0
 11
462.111017
 21
230.853629
 31
0.0
  0
LINE
  5
352
330
34C
100
AcDbEntity
  8
LC-003-005-----0
  6
ByBlock
 62
     7
370
    25
100
AcDbLine
 10
462.24077
 20
230.723876
 30
0.0
 11
463.74077
 21
229.223876
 31
0.0
  0
LINE
  5
353
330
34C
100
AcDbEntity
  8
LC-003-005-----0
  6
ByBlock
 62
     7
370
    25
100
AcDbLine
 10
456.069197
 20
239.723876
 30
0.0
 11
458.069197
 21
237.723876
 31
0.0
  0
LINE
  5
354
330
34C
100
AcDbEntity
  8
LC-003-005-----0
  6
ByBlock
 62
     7
370
    25
100
AcDbLine
 10
459.864089
 20
235.928983
 30
0.0
 11
461.869399
 21
233.923674
 31
0.0
  0
LINE
  5
355
330
34C
100
AcDbEntity
  8
LC-003-005-----0
  6
ByBlock
 62
     7
370
    25
100
AcDbLine
 10
458.897624
 20
239.723876
 30
0.0
 11
461.627781
 21
236.993719
 31
0.0
  0
ENDBLK
  5
34E
330
34C
100
AcDbEntity
  8
0
100
AcDbBlockEnd
  0
BLOCK
  5
377
330
36D
100
AcDbEntity
  8
0
100
AcDbBlockBegin
  2
*D35
 70
     1
 71
     0
 10
0.0
 20
0.0
 30
0.0
  3
*D35
  1

  0
LINE
  5
36E
330
36D
100
AcDbEntity
  8
LC-002-003-----0
 62
     2
370
    -2
100
AcDbLine
 10
390.924663
 20
138.733367
 30
0.0
 11
310.0
 21
138.733367
 31
0.0
  0
LINE
  5
36F
330
36D
100
AcDbEntity
  8
LC-002-003-----0
 62
     2
370
    -2
100
AcDbLine
 10
377.364089
 20
246.223876
 30
0.0
 11
310.0
 21
246.223876
 31
0.0
  0
LINE
  5
370
330
36D
100
AcDbEntity
  8
LC-002-003-----0
 62
     2
370
    -2
100
AcDbLine
 10
313.6
 20
166.733367
 30
0.0
 11
313.6
 21
218.223876
 31
0.0
  0
SOLID
  5
371
330
36D
100
AcDbEntity
  8
LC-002-003-----0
 62
     2
100
AcDbTrace
 10
308.933333
 20
166.733367
 30
0.0
 11
318.266667
 21
166.733367
 31
0.0
 12
313.6
 22
138.733367
 32
0.0
 13
313.6
 23
138.733367
 33
0.0
  0
SOLID
  5
372
330
36D
100
AcDbEntity
  8
LC-002-003-----0
 62
     2
100
AcDbTrace
 10
318.266667
 20
218.223876
 30
0.0
 11
308.933333
 21
218.223876
 31
0.0
 12
313.6
 22
246.223876
 32
0.0
 13
313.6
 23
246.223876
 33
0.0
  0
MTEXT
  5
373
330
36D
100
AcDbEntity
  8
LC-002-003-----0
 62
     2
100
AcDbMText
 10
282.8
 20
192.478621
 30
0.0
 40
28.0
 41
0.0
 71
     5
 72
     1
  1
\A1;105
  7
LCTX15-400-0-0pDIN-Schrift
 11
6.123031769111886E-17
 21
1.0
 31
0.0
 73
     1
 44
1.0
  0
POINT
  5
374
330
36D
100
AcDbEntity
  8
Defpoints
 62
     0
100
AcDbPoint
 10
390.924663
 20
138.733367
 30
0.0
  0
POINT
  5
375
330
36D
100
AcDbEntity
  8
Defpoints
 62
     0
100
AcDbPoint
 10
377.364089
 20
246.223876
 30
0.0
  0
POINT
  5
376
330
36D
100
AcDbEntity
  8
Defpoints
 62
     0
100
AcDbPoint
 10
313.6
 20
246.223876
 30
0.0
  0
ENDBLK
  5
378
330
36D
100
AcDbEntity
  8
0
100
AcDbBlockEnd
  0
BLOCK
  5
37A
330
379
100
AcDbEntity
  8
0
100
AcDbBlockBegin
  2
*X3436
 70
     1
 71
     0
 10
0.0
 20
0.0
 30
0.0
  3
*X3436
  1

  4
*X34
  0
LINE
  5
37C
330
379
100
AcDbEntity
  8
LC-003-005-----0
  6
ByBlock
 62
     7
370
    25
100
AcDbLine
 10
434.565464
 20
225.261857
 30
0.0
 11
436.064089
 21
226.760482
 31
0.0
  0
LINE
  5
37D
330
379
100
AcDbEntity
  8
LC-003-005-----0
  6
ByBlock
 62
     7
370
    25
100
AcDbLine
 10
434.573296
 20
230.926543
 30
0.0
 11
436.064089
 21
232.417337
 31
0.0
  0
LINE
  5
37E
330
379
100
AcDbEntity
  8
LC-003-005-----0
  6
ByBlock
 62
     7
370
    25
100
AcDbLine
 10
434.581129
 20
236.59123
 30
0.0
 11
436.064089
 21
238.074191
 31
0.0
  0
LINE
  5
37F
330
379
100
AcDbEntity
  8
LC-003-005-----0
  6
ByBlock
 62
     7
370
    25
100
AcDbLine
 10
434.588961
 20
242.255917
 30
0.0
 11
436.064089
 21
243.731045
 31
0.0
  0
LINE
  5
380
330
379
100
AcDbEntity
  8
LC-003-005-----0
  6
ByBlock
 62
     7
370
    25
100
AcDbLine
 10
442.270231
 20
249.937186
 30
0.0
 11
444.549598
 21
252.216554
 31
0.0
  0
LINE
  5
381
330
379
100
AcDbEntity
  8
LC-003-005-----0
  6
ByBlock
 62
     7
370
    25
100
AcDbLine
 10
434.564089
 20
247.887899
 30
0.0
 11
436.112529
 21
249.436339
 31
0.0
  0
ENDBLK
  5
37B
330
379
100
AcDbEntity
  8
0
100
AcDbBlockEnd
  0
BLOCK
  5
387
330
386
100
AcDbEntity
  8
0
100
AcDbBlockBegin
  2
*X3537
 70
     1
 71
     0
 10
0.0
 20
0.0
 30
0.0
  3
*X3537
  1

  4
*X35
  0
LINE
  5
389
330
386
100
AcDbEntity
  8
LC-003-005-----0
  6
ByBlock
 62
     7
370
    25
100
AcDbLine
 10
436.064089
 20
226.760482
 30
0.0
 11
437.564089
 21
228.260482
 31
0.0
  0
LINE
  5
38A
330
386
100
AcDbEntity
  8
LC-003-005-----0
  6
ByBlock
 62
     7
370
    25
100
AcDbLine
 10
436.064089
 20
232.417337
 30
0.0
 11
437.564089
 21
233.917337
 31
0.0
  0
LINE
  5
38B
330
386
100
AcDbEntity
  8
LC-003-005-----0
  6
ByBlock
 62
     7
370
    25
100
AcDbLine
 10
436.064089
 20
238.074191
 30
0.0
 11
437.564089
 21
239.574191
 31
0.0
  0
LINE
  5
38C
330
386
100
AcDbEntity
  8
LC-003-005-----0
  6
ByBlock
 62
     7
370
    25
100
AcDbLine
 10
436.064089
 20
243.731045
 30
0.0
 11
437.564089
 21
245.231045
 31
0.0
  0
ENDBLK
  5
388
330
386
100
AcDbEntity
  8
0
100
AcDbBlockEnd
  0
BLOCK
  5
392
330
391
100
AcDbEntity
  8
0
100
AcDbBlockBegin
  2
*X3638
 70
     1
 71
     0
 10
0.0
 20
0.0
 30
0.0
  3
*X3638
  1

  4
*X36
  0
LINE
  5
394
330
391
100
AcDbEntity
  8
LC-003-005-----0
  6
ByBlock
 62
     7
370
    25
100
AcDbLine
 10
501.33871
 20
184.554872
 30
0.0
 11
503.378992
 21
186.595154
 31
0.0
  0
LINE
  5
395
330
391
100
AcDbEntity
  8
LC-003-005-----0
  6
ByBlock
 62
     7
370
    25
100
AcDbLine
 10
500.414325
 20
185.044701
 30
0.0
 11
502.889163
 21
187.519538
 31
0.0
  0
LINE
  5
396
330
391
100
AcDbEntity
  8
LC-003-005-----0
  6
ByBlock
 62
     7
370
    25
100
AcDbLine
 10
499.933835
 20
185.978424
 30
0.0
 11
501.95544
 21
188.000029
 31
0.0
  0
ENDBLK
  5
393
330
391
100
AcDbEntity
  8
0
100
AcDbBlockEnd
  0
BLOCK
  5
399
330
398
100
AcDbEntity
  8
0
100
AcDbBlockBegin
  2
*X3739
 70
     1
 71
     0
 10
0.0
 20
0.0
 30
0.0
  3
*X3739
  1

  4
*X37
  0
LINE
  5
39B
330
398
100
AcDbEntity
  8
LC-003-005-----0
  6
ByBlock
 62
     7
370
    25
100
AcDbLine
 10
499.937908
 20
185.95567
 30
0.0
 11
501.338705
 21
184.554872
 31
0.0
  0
LINE
  5
39C
330
398
100
AcDbEntity
  8
LC-003-005-----0
  6
ByBlock
 62
     7
370
    25
100
AcDbLine
 10
500.148226
 20
187.159565
 30
0.0
 11
502.542601
 21
184.76519
 31
0.0
  0
LINE
  5
39D
330
398
100
AcDbEntity
  8
LC-003-005-----0
  6
ByBlock
 62
     7
370
    25
100
AcDbLine
 10
500.879508
 20
187.842497
 30
0.0
 11
503.225533
 21
185.496472
 31
0.0
  0
LINE
  5
39E
330
398
100
AcDbEntity
  8
LC-003-005-----0
  6
ByBlock
 62
     7
370
    25
100
AcDbLine
 10
502.195129
 20
187.94109
 30
0.0
 11
503.324126
 21
186.812093
 31
0.0
  0
ENDBLK
  5
39A
330
398
100
AcDbEntity
  8
0
100
AcDbBlockEnd
  0
BLOCK
  5
3AB
330
3A1
100
AcDbEntity
  8
0
100
AcDbBlockBegin
  2
*D40
 70
     1
 71
     0
 10
0.0
 20
0.0
 30
0.0
  3
*D40
  1

  0
LINE
  5
3A2
330
3A1
100
AcDbEntity
  8
LC-002-003-----0
 62
     2
370
    -2
100
AcDbLine
 10
413.664089
 20
268.114743
 30
0.0
 11
513.2
 21
268.114743
 31
0.0
  0
LINE
  5
3A3
330
3A1
100
AcDbEntity
  8
LC-002-003-----0
 62
     2
370
    -2
100
AcDbLine
 10
413.52362
 20
346.216991
 30
0.0
 11
513.2
 21
346.216991
 31
0.0
  0
LINE
  5
3A4
330
3A1
100
AcDbEntity
  8
LC-002-003-----0
 62
     2
370
    -2
100
AcDbLine
 10
509.6
 20
296.114743
 30
0.0
 11
509.6
 21
318.216991
 31
0.0
  0
SOLID
  5
3A5
330
3A1
100
AcDbEntity
  8
LC-002-003-----0
 62
     2
100
AcDbTrace
 10
504.933333
 20
296.114743
 30
0.0
 11
514.266667
 21
296.114743
 31
0.0
 12
509.6
 22
268.114743
 32
0.0
 13
509.6
 23
268.114743
 33
0.0
  0
SOLID
  5
3A6
330
3A1
100
AcDbEntity
  8
LC-002-003-----0
 62
     2
100
AcDbTrace
 10
514.266667
 20
318.216991
 30
0.0
 11
504.933333
 21
318.216991
 31
0.0
 12
509.6
 22
346.216991
 32
0.0
 13
509.6
 23
346.216991
 33
0.0
  0
MTEXT
  5
3A7
330
3A1
100
AcDbEntity
  8
LC-002-003-----0
 62
     2
100
AcDbMText
 10
478.8
 20
307.165867
 30
0.0
 40
28.0
 41
0.0
 71
     5
 72
     1
  1
\A1;78
  7
LCTX15-400-0-0pDIN-Schrift
 11
6.123031769111886E-17
 21
1.0
 31
0.0
 73
     1
 44
1.0
  0
POINT
  5
3A8
330
3A1
100
AcDbEntity
  8
Defpoints
 62
     0
100
AcDbPoint
 10
413.664089
 20
268.114743
 30
0.0
  0
POINT
  5
3A9
330
3A1
100
AcDbEntity
  8
Defpoints
 62
     0
100
AcDbPoint
 10
413.52362
 20
346.216991
 30
0.0
  0
POINT
  5
3AA
330
3A1
100
AcDbEntity
  8
Defpoints
 62
     0
100
AcDbPoint
 10
509.6
 20
346.216991
 30
0.0
  0
ENDBLK
  5
3AC
330
3A1
100
AcDbEntity
  8
0
100
AcDbBlockEnd
  0
BLOCK
  5
3B3
330
3B2
100
AcDbEntity
  8
0
100
AcDbBlockBegin
  2
*X3841
 70
     1
 71
     0
 10
0.0
 20
0.0
 30
0.0
  3
*X3841
  1

  4
*X38
  0
LINE
  5
3B5
330
3B2
100
AcDbEntity
  8
LC-003-005-----0
  6
ByBlock
 62
     7
370
    25
100
AcDbLine
 10
585.660692
 20
237.764155
 30
0.0
 11
585.920412
 21
238.023876
 31
0.0
  0
LINE
  5
3B6
330
3B2
100
AcDbEntity
  8
LC-003-005-----0
  6
ByBlock
 62
     7
370
    25
100
AcDbLine
 10
581.796988
 20
236.728879
 30
0.0
 11
583.091985
 21
238.023876
 31
0.0
  0
LINE
  5
3B7
330
3B2
100
AcDbEntity
  8
LC-003-005-----0
  6
ByBlock
 62
     7
370
    25
100
AcDbLine
 10
578.013558
 20
235.773876
 30
0.0
 11
580.263558
 21
238.023876
 31
0.0
  0
LINE
  5
3B8
330
3B2
100
AcDbEntity
  8
LC-003-005-----0
  6
ByBlock
 62
     7
370
    25
100
AcDbLine
 10
575.185131
 20
235.773876
 30
0.0
 11
577.435131
 21
238.023876
 31
0.0
  0
LINE
  5
3B9
330
3B2
100
AcDbEntity
  8
LC-003-005-----0
  6
ByBlock
 62
     7
370
    25
100
AcDbLine
 10
572.356704
 20
235.773876
 30
0.0
 11
574.606704
 21
238.023876
 31
0.0
  0
LINE
  5
3BA
330
3B2
100
AcDbEntity
  8
LC-003-005-----0
  6
ByBlock
 62
     7
370
    25
100
AcDbLine
 10
569.528277
 20
235.773876
 30
0.0
 11
571.778277
 21
238.023876
 31
0.0
  0
LINE
  5
3BB
330
3B2
100
AcDbEntity
  8
LC-003-005-----0
  6
ByBlock
 62
     7
370
    25
100
AcDbLine
 10
566.699849
 20
235.773876
 30
0.0
 11
568.949849
 21
238.023876
 31
0.0
  0
LINE
  5
3BC
330
3B2
100
AcDbEntity
  8
LC-003-005-----0
  6
ByBlock
 62
     7
370
    25
100
AcDbLine
 10
563.871422
 20
235.773876
 30
0.0
 11
566.121422
 21
238.023876
 31
0.0
  0
LINE
  5
3BD
330
3B2
100
AcDbEntity
  8
LC-003-005-----0
  6
ByBlock
 62
     7
370
    25
100
AcDbLine
 10
561.042995
 20
235.773876
 30
0.0
 11
563.292995
 21
238.023876
 31
0.0
  0
LINE
  5
3BE
330
3B2
100
AcDbEntity
  8
LC-003-005-----0
  6
ByBlock
 62
     7
370
    25
100
AcDbLine
 10
558.214568
 20
235.773876
 30
0.0
 11
560.464568
 21
238.023876
 31
0.0
  0
LINE
  5
3BF
330
3B2
100
AcDbEntity
  8
LC-003-005-----0
  6
ByBlock
 62
     7
370
    25
100
AcDbLine
 10
555.386141
 20
235.773876
 30
0.0
 11
557.636141
 21
238.023876
 31
0.0
  0
LINE
  5
3C0
330
3B2
100
AcDbEntity
  8
LC-003-005-----0
  6
ByBlock
 62
     7
370
    25
100
AcDbLine
 10
552.557714
 20
235.773876
 30
0.0
 11
554.807714
 21
238.023876
 31
0.0
  0
LINE
  5
3C1
330
3B2
100
AcDbEntity
  8
LC-003-005-----0
  6
ByBlock
 62
     7
370
    25
100
AcDbLine
 10
549.729287
 20
235.773876
 30
0.0
 11
551.979287
 21
238.023876
 31
0.0
  0
LINE
  5
3C2
330
3B2
100
AcDbEntity
  8
LC-003-005-----0
  6
ByBlock
 62
     7
370
    25
100
AcDbLine
 10
546.90086
 20
235.773876
 30
0.0
 11
549.15086
 21
238.023876
 31
0.0
  0
LINE
  5
3C3
330
3B2
100
AcDbEntity
  8
LC-003-005-----0
  6
ByBlock
 62
     7
370
    25
100
AcDbLine
 10
544.072432
 20
235.773876
 30
0.0
 11
546.322432
 21
238.023876
 31
0.0
  0
LINE
  5
3C4
330
3B2
100
AcDbEntity
  8
LC-003-005-----0
  6
ByBlock
 62
     7
370
    25
100
AcDbLine
 10
541.244005
 20
235.773876
 30
0.0
 11
543.494005
 21
238.023876
 31
0.0
  0
LINE
  5
3C5
330
3B2
100
AcDbEntity
  8
LC-003-005-----0
  6
ByBlock
 62
     7
370
    25
100
AcDbLine
 10
538.415578
 20
235.773876
 30
0.0
 11
540.665578
 21
238.023876
 31
0.0
  0
LINE
  5
3C6
330
3B2
100
AcDbEntity
  8
LC-003-005-----0
  6
ByBlock
 62
     7
370
    25
100
AcDbLine
 10
535.587151
 20
235.773876
 30
0.0
 11
537.837151
 21
238.023876
 31
0.0
  0
LINE
  5
3C7
330
3B2
100
AcDbEntity
  8
LC-003-005-----0
  6
ByBlock
 62
     7
370
    25
100
AcDbLine
 10
532.758724
 20
235.773876
 30
0.0
 11
535.008724
 21
238.023876
 31
0.0
  0
LINE
  5
3C8
330
3B2
100
AcDbEntity
  8
LC-003-005-----0
  6
ByBlock
 62
     7
370
    25
100
AcDbLine
 10
529.930297
 20
235.773876
 30
0.0
 11
532.180297
 21
238.023876
 31
0.0
  0
LINE
  5
3C9
330
3B2
100
AcDbEntity
  8
LC-003-005-----0
  6
ByBlock
 62
     7
370
    25
100
AcDbLine
 10
527.10187
 20
235.773876
 30
0.0
 11
529.35187
 21
238.023876
 31
0.0
  0
LINE
  5
3CA
330
3B2
100
AcDbEntity
  8
LC-003-005-----0
  6
ByBlock
 62
     7
370
    25
100
AcDbLine
 10
524.273443
 20
235.773876
 30
0.0
 11
526.523443
 21
238.023876
 31
0.0
  0
LINE
  5
3CB
330
3B2
100
AcDbEntity
  8
LC-003-005-----0
  6
ByBlock
 62
     7
370
    25
100
AcDbLine
 10
521.445015
 20
235.773876
 30
0.0
 11
523.695015
 21
238.023876
 31
0.0
  0
LINE
  5
3CC
330
3B2
100
AcDbEntity
  8
LC-003-005-----0
  6
ByBlock
 62
     7
370
    25
100
AcDbLine
 10
518.616588
 20
235.773876
 30
0.0
 11
520.866588
 21
238.023876
 31
0.0
  0
LINE
  5
3CD
330
3B2
100
AcDbEntity
  8
LC-003-005-----0
  6
ByBlock
 62
     7
370
    25
100
AcDbLine
 10
515.788161
 20
235.773876
 30
0.0
 11
518.038161
 21
238.023876
 31
0.0
  0
LINE
  5
3CE
330
3B2
100
AcDbEntity
  8
LC-003-005-----0
  6
ByBlock
 62
     7
370
    25
100
AcDbLine
 10
512.959734
 20
235.773876
 30
0.0
 11
515.209734
 21
238.023876
 31
0.0
  0
LINE
  5
3CF
330
3B2
100
AcDbEntity
  8
LC-003-005-----0
  6
ByBlock
 62
     7
370
    25
100
AcDbLine
 10
511.240767
 20
236.883336
 30
0.0
 11
512.669511
 21
238.31208
 31
0.0
  0
LINE
  5
3D0
330
3B2
100
AcDbEntity
  8
LC-003-005-----0
  6
ByBlock
 62
     7
370
    25
100
AcDbLine
 10
509.566667
 20
238.037663
 30
0.0
 11
511.012326
 21
239.483322
 31
0.0
  0
LINE
  5
3D1
330
3B2
100
AcDbEntity
  8
LC-003-005-----0
  6
ByBlock
 62
     7
370
    25
100
AcDbLine
 10
507.790224
 20
239.089647
 30
0.0
 11
509.260117
 21
240.55954
 31
0.0
  0
LINE
  5
3D2
330
3B2
100
AcDbEntity
  8
LC-003-005-----0
  6
ByBlock
 62
     7
370
    25
100
AcDbLine
 10
505.905787
 20
240.033638
 30
0.0
 11
507.408335
 21
241.536185
 31
0.0
  0
LINE
  5
3D3
330
3B2
100
AcDbEntity
  8
LC-003-005-----0
  6
ByBlock
 62
     7
370
    25
100
AcDbLine
 10
503.905381
 20
240.861659
 30
0.0
 11
505.450647
 21
242.406924
 31
0.0
  0
LINE
  5
3D4
330
3B2
100
AcDbEntity
  8
LC-003-005-----0
  6
ByBlock
 62
     7
370
    25
100
AcDbLine
 10
501.777914
 20
241.562618
 30
0.0
 11
503.378414
 21
243.163119
 31
0.0
  0
LINE
  5
3D5
330
3B2
100
AcDbEntity
  8
LC-003-005-----0
  6
ByBlock
 62
     7
370
    25
100
AcDbLine
 10
499.507878
 20
242.12101
 30
0.0
 11
501.179862
 21
243.792994
 31
0.0
  0
LINE
  5
3D6
330
3B2
100
AcDbEntity
  8
LC-003-005-----0
  6
ByBlock
 62
     7
370
    25
100
AcDbLine
 10
497.073112
 20
242.51467
 30
0.0
 11
498.838729
 21
244.280288
 31
0.0
  0
LINE
  5
3D7
330
3B2
100
AcDbEntity
  8
LC-003-005-----0
  6
ByBlock
 62
     7
370
    25
100
AcDbLine
 10
494.440657
 20
242.710643
 30
0.0
 11
496.33195
 21
244.601936
 31
0.0
  0
LINE
  5
3D8
330
3B2
100
AcDbEntity
  8
LC-003-005-----0
  6
ByBlock
 62
     7
370
    25
100
AcDbLine
 10
491.558327
 20
242.65674
 30
0.0
 11
493.625383
 21
244.723796
 31
0.0
  0
LINE
  5
3D9
330
3B2
100
AcDbEntity
  8
LC-003-005-----0
  6
ByBlock
 62
     7
370
    25
100
AcDbLine
 10
488.33483
 20
242.26167
 30
0.0
 11
490.665112
 21
244.591952
 31
0.0
  0
LINE
  5
3DA
330
3B2
100
AcDbEntity
  8
LC-003-005-----0
  6
ByBlock
 62
     7
370
    25
100
AcDbLine
 10
486.933168
 20
243.688435
 30
0.0
 11
487.356943
 21
244.11221
 31
0.0
  0
ENDBLK
  5
3B4
330
3B2
100
AcDbEntity
  8
0
100
AcDbBlockEnd
  0
BLOCK
  5
3DF
330
3DE
100
AcDbEntity
  8
0
100
AcDbBlockBegin
  2
*X3942
 70
     1
 71
     0
 10
0.0
 20
0.0
 30
0.0
  3
*X3942
  1

  4
*X39
  0
LINE
  5
3E1
330
3DE
100
AcDbEntity
  8
LC-003-005-----0
  6
ByBlock
 62
     7
370
    25
100
AcDbLine
 10
499.909101
 20
239.724592
 30
0.0
 11
501.610704
 21
238.022989
 31
0.0
  0
LINE
  5
3E2
330
3DE
100
AcDbEntity
  8
LC-003-005-----0
  6
ByBlock
 62
     7
370
    25
100
AcDbLine
 10
500.244471
 20
240.803436
 30
0.0
 11
502.689548
 21
238.358359
 31
0.0
  0
LINE
  5
3E3
330
3DE
100
AcDbEntity
  8
LC-003-005-----0
  6
ByBlock
 62
     7
370
    25
100
AcDbLine
 10
501.049244
 20
241.412877
 30
0.0
 11
503.298989
 21
239.163132
 31
0.0
  0
LINE
  5
3E4
330
3DE
100
AcDbEntity
  8
LC-003-005-----0
  6
ByBlock
 62
     7
370
    25
100
AcDbLine
 10
502.691287
 20
241.185047
 30
0.0
 11
503.071159
 21
240.805174
 31
0.0
  0
ENDBLK
  5
3E0
330
3DE
100
AcDbEntity
  8
0
100
AcDbBlockEnd
  0
BLOCK
  5
3E8
330
3E7
100
AcDbEntity
  8
0
100
AcDbBlockBegin
  2
*X4043
 70
     1
 71
     0
 10
0.0
 20
0.0
 30
0.0
  3
*X4043
  1

  4
*X40
  0
LINE
  5
3EA
330
3E7
100
AcDbEntity
  8
LC-003-005-----0
  6
ByBlock
 62
     7
370
    25
100
AcDbLine
 10
592.155694
 20
235.773876
 30
0.0
 11
592.798309
 21
236.416492
 31
0.0
  0
LINE
  5
3EB
330
3E7
100
AcDbEntity
  8
LC-003-005-----0
  6
ByBlock
 62
     7
370
    25
100
AcDbLine
 10
589.327266
 20
235.773876
 30
0.0
 11
591.577266
 21
238.023876
 31
0.0
  0
LINE
  5
3EC
330
3E7
100
AcDbEntity
  8
LC-003-005-----0
  6
ByBlock
 62
     7
370
    25
100
AcDbLine
 10
586.498839
 20
235.773876
 30
0.0
 11
588.748839
 21
238.023876
 31
0.0
  0
LINE
  5
3ED
330
3E7
100
AcDbEntity
  8
LC-003-005-----0
  6
ByBlock
 62
     7
370
    25
100
AcDbLine
 10
583.670412
 20
235.773876
 30
0.0
 11
585.660692
 21
237.764155
 31
0.0
  0
LINE
  5
3EE
330
3E7
100
AcDbEntity
  8
LC-003-005-----0
  6
ByBlock
 62
     7
370
    25
100
AcDbLine
 10
580.841985
 20
235.773876
 30
0.0
 11
581.796988
 21
236.728879
 31
0.0
  0
ENDBLK
  5
3E9
330
3E7
100
AcDbEntity
  8
0
100
AcDbBlockEnd
  0
BLOCK
  5
3F4
330
3F3
100
AcDbEntity
  8
0
100
AcDbBlockBegin
  2
*X4144
 70
     1
 71
     0
 10
0.0
 20
0.0
 30
0.0
  3
*X4144
  1

  4
*X41
  0
LINE
  5
3F6
330
3F3
100
AcDbEntity
  8
LC-003-005-----0
  6
ByBlock
 62
     7
370
    25
100
AcDbLine
 10
501.14353
 20
238.099807
 30
0.0
 11
503.33098
 21
240.287258
 31
0.0
  0
LINE
  5
3F7
330
3F3
100
AcDbEntity
  8
LC-003-005-----0
  6
ByBlock
 62
     7
370
    25
100
AcDbLine
 10
500.299381
 20
238.669872
 30
0.0
 11
502.760916
 21
241.131407
 31
0.0
  0
LINE
  5
3F8
330
3F3
100
AcDbEntity
  8
LC-003-005-----0
  6
ByBlock
 62
     7
370
    25
100
AcDbLine
 10
499.910165
 20
239.69487
 30
0.0
 11
501.735918
 21
241.520622
 31
0.0
  0
ENDBLK
  5
3F5
330
3F3
100
AcDbEntity
  8
0
100
AcDbBlockEnd
  0
BLOCK
  5
3FB
330
3FA
100
AcDbEntity
  8
0
100
AcDbBlockBegin
  2
*X4245
 70
     1
 71
     0
 10
0.0
 20
0.0
 30
0.0
  3
*X4245
  1

  4
*X42
  0
LINE
  5
3FD
330
3FA
100
AcDbEntity
  8
LC-003-005-----0
  6
ByBlock
 62
     7
370
    25
100
AcDbLine
 10
584.003673
 20
188.023876
 30
0.0
 11
584.558678
 21
188.57888
 31
0.0
  0
LINE
  5
3FE
330
3FA
100
AcDbEntity
  8
LC-003-005-----0
  6
ByBlock
 62
     7
370
    25
100
AcDbLine
 10
581.175246
 20
188.023876
 30
0.0
 11
582.327967
 21
189.176597
 31
0.0
  0
LINE
  5
3FF
330
3FA
100
AcDbEntity
  8
LC-003-005-----0
  6
ByBlock
 62
     7
370
    25
100
AcDbLine
 10
578.346819
 20
188.023876
 30
0.0
 11
580.097257
 21
189.774314
 31
0.0
  0
LINE
  5
400
330
3FA
100
AcDbEntity
  8
LC-003-005-----0
  6
ByBlock
 62
     7
370
    25
100
AcDbLine
 10
575.518392
 20
188.023876
 30
0.0
 11
577.768392
 21
190.273876
 31
0.0
  0
LINE
  5
401
330
3FA
100
AcDbEntity
  8
LC-003-005-----0
  6
ByBlock
 62
     7
370
    25
100
AcDbLine
 10
572.689965
 20
188.023876
 30
0.0
 11
574.939965
 21
190.273876
 31
0.0
  0
LINE
  5
402
330
3FA
100
AcDbEntity
  8
LC-003-005-----0
  6
ByBlock
 62
     7
370
    25
100
AcDbLine
 10
569.861538
 20
188.023876
 30
0.0
 11
572.111538
 21
190.273876
 31
0.0
  0
LINE
  5
403
330
3FA
100
AcDbEntity
  8
LC-003-005-----0
  6
ByBlock
 62
     7
370
    25
100
AcDbLine
 10
567.033111
 20
188.023876
 30
0.0
 11
569.283111
 21
190.273876
 31
0.0
  0
LINE
  5
404
330
3FA
100
AcDbEntity
  8
LC-003-005-----0
  6
ByBlock
 62
     7
370
    25
100
AcDbLine
 10
564.204683
 20
188.023876
 30
0.0
 11
566.454683
 21
190.273876
 31
0.0
  0
LINE
  5
405
330
3FA
100
AcDbEntity
  8
LC-003-005-----0
  6
ByBlock
 62
     7
370
    25
100
AcDbLine
 10
561.376256
 20
188.023876
 30
0.0
 11
563.626256
 21
190.273876
 31
0.0
  0
LINE
  5
406
330
3FA
100
AcDbEntity
  8
LC-003-005-----0
  6
ByBlock
 62
     7
370
    25
100
AcDbLine
 10
558.547829
 20
188.023876
 30
0.0
 11
560.797829
 21
190.273876
 31
0.0
  0
LINE
  5
407
330
3FA
100
AcDbEntity
  8
LC-003-005-----0
  6
ByBlock
 62
     7
370
    25
100
AcDbLine
 10
555.719402
 20
188.023876
 30
0.0
 11
557.969402
 21
190.273876
 31
0.0
  0
LINE
  5
408
330
3FA
100
AcDbEntity
  8
LC-003-005-----0
  6
ByBlock
 62
     7
370
    25
100
AcDbLine
 10
552.890975
 20
188.023876
 30
0.0
 11
555.140975
 21
190.273876
 31
0.0
  0
LINE
  5
409
330
3FA
100
AcDbEntity
  8
LC-003-005-----0
  6
ByBlock
 62
     7
370
    25
100
AcDbLine
 10
550.062548
 20
188.023876
 30
0.0
 11
552.312548
 21
190.273876
 31
0.0
  0
LINE
  5
40A
330
3FA
100
AcDbEntity
  8
LC-003-005-----0
  6
ByBlock
 62
     7
370
    25
100
AcDbLine
 10
547.234121
 20
188.023876
 30
0.0
 11
549.484121
 21
190.273876
 31
0.0
  0
LINE
  5
40B
330
3FA
100
AcDbEntity
  8
LC-003-005-----0
  6
ByBlock
 62
     7
370
    25
100
AcDbLine
 10
544.405694
 20
188.023876
 30
0.0
 11
546.655694
 21
190.273876
 31
0.0
  0
LINE
  5
40C
330
3FA
100
AcDbEntity
  8
LC-003-005-----0
  6
ByBlock
 62
     7
370
    25
100
AcDbLine
 10
541.577266
 20
188.023876
 30
0.0
 11
543.827266
 21
190.273876
 31
0.0
  0
LINE
  5
40D
330
3FA
100
AcDbEntity
  8
LC-003-005-----0
  6
ByBlock
 62
     7
370
    25
100
AcDbLine
 10
538.748839
 20
188.023876
 30
0.0
 11
540.998839
 21
190.273876
 31
0.0
  0
LINE
  5
40E
330
3FA
100
AcDbEntity
  8
LC-003-005-----0
  6
ByBlock
 62
     7
370
    25
100
AcDbLine
 10
535.920412
 20
188.023876
 30
0.0
 11
538.170412
 21
190.273876
 31
0.0
  0
LINE
  5
40F
330
3FA
100
AcDbEntity
  8
LC-003-005-----0
  6
ByBlock
 62
     7
370
    25
100
AcDbLine
 10
533.091985
 20
188.023876
 30
0.0
 11
535.341985
 21
190.273876
 31
0.0
  0
LINE
  5
410
330
3FA
100
AcDbEntity
  8
LC-003-005-----0
  6
ByBlock
 62
     7
370
    25
100
AcDbLine
 10
530.263558
 20
188.023876
 30
0.0
 11
532.513558
 21
190.273876
 31
0.0
  0
LINE
  5
411
330
3FA
100
AcDbEntity
  8
LC-003-005-----0
  6
ByBlock
 62
     7
370
    25
100
AcDbLine
 10
527.435131
 20
188.023876
 30
0.0
 11
529.685131
 21
190.273876
 31
0.0
  0
LINE
  5
412
330
3FA
100
AcDbEntity
  8
LC-003-005-----0
  6
ByBlock
 62
     7
370
    25
100
AcDbLine
 10
524.606704
 20
188.023876
 30
0.0
 11
526.856704
 21
190.273876
 31
0.0
  0
LINE
  5
413
330
3FA
100
AcDbEntity
  8
LC-003-005-----0
  6
ByBlock
 62
     7
370
    25
100
AcDbLine
 10
521.778277
 20
188.023876
 30
0.0
 11
524.028277
 21
190.273876
 31
0.0
  0
LINE
  5
414
330
3FA
100
AcDbEntity
  8
LC-003-005-----0
  6
ByBlock
 62
     7
370
    25
100
AcDbLine
 10
518.949849
 20
188.023876
 30
0.0
 11
521.199849
 21
190.273876
 31
0.0
  0
LINE
  5
415
330
3FA
100
AcDbEntity
  8
LC-003-005-----0
  6
ByBlock
 62
     7
370
    25
100
AcDbLine
 10
516.121422
 20
188.023876
 30
0.0
 11
518.371422
 21
190.273876
 31
0.0
  0
LINE
  5
416
330
3FA
100
AcDbEntity
  8
LC-003-005-----0
  6
ByBlock
 62
     7
370
    25
100
AcDbLine
 10
513.292995
 20
188.023876
 30
0.0
 11
515.542995
 21
190.273876
 31
0.0
  0
LINE
  5
417
330
3FA
100
AcDbEntity
  8
LC-003-005-----0
  6
ByBlock
 62
     7
370
    25
100
AcDbLine
 10
506.551702
 20
184.11101
 30
0.0
 11
512.714568
 21
190.273876
 31
0.0
  0
LINE
  5
418
330
3FA
100
AcDbEntity
  8
LC-003-005-----0
  6
ByBlock
 62
     7
370
    25
100
AcDbLine
 10
502.11359
 20
182.501325
 30
0.0
 11
505.401344
 21
185.789079
 31
0.0
  0
LINE
  5
419
330
3FA
100
AcDbEntity
  8
LC-003-005-----0
  6
ByBlock
 62
     7
370
    25
100
AcDbLine
 10
498.495151
 20
181.711313
 30
0.0
 11
501.075988
 21
184.29215
 31
0.0
  0
LINE
  5
41A
330
3FA
100
AcDbEntity
  8
LC-003-005-----0
  6
ByBlock
 62
     7
370
    25
100
AcDbLine
 10
495.329012
 20
181.373601
 30
0.0
 11
497.549207
 21
183.593796
 31
0.0
  0
LINE
  5
41B
330
3FA
100
AcDbEntity
  8
LC-003-005-----0
  6
ByBlock
 62
     7
370
    25
100
AcDbLine
 10
492.469424
 20
181.34244
 30
0.0
 11
494.464824
 21
183.337841
 31
0.0
  0
LINE
  5
41C
330
3FA
100
AcDbEntity
  8
LC-003-005-----0
  6
ByBlock
 62
     7
370
    25
100
AcDbLine
 10
489.840689
 20
181.542133
 30
0.0
 11
491.681527
 21
183.382971
 31
0.0
  0
LINE
  5
41D
330
3FA
100
AcDbEntity
  8
LC-003-005-----0
  6
ByBlock
 62
     7
370
    25
100
AcDbLine
 10
487.397595
 20
181.927465
 30
0.0
 11
489.125975
 21
183.655846
 31
0.0
  0
ENDBLK
  5
3FC
330
3FA
100
AcDbEntity
  8
0
100
AcDbBlockEnd
  0
BLOCK
  5
420
330
41F
100
AcDbEntity
  8
0
100
AcDbBlockBegin
  2
*X4346
 70
     1
 71
     0
 10
0.0
 20
0.0
 30
0.0
  3
*X4346
  1

  4
*X43
  0
LINE
  5
422
330
41F
100
AcDbEntity
  8
LC-003-005-----0
  6
ByBlock
 62
     7
370
    25
100
AcDbLine
 10
589.660528
 20
188.023876
 30
0.0
 11
591.910528
 21
190.273876
 31
0.0
  0
LINE
  5
423
330
41F
100
AcDbEntity
  8
LC-003-005-----0
  6
ByBlock
 62
     7
370
    25
100
AcDbLine
 10
586.8321
 20
188.023876
 30
0.0
 11
589.0821
 21
190.273876
 31
0.0
  0
LINE
  5
424
330
41F
100
AcDbEntity
  8
LC-003-005-----0
  6
ByBlock
 62
     7
370
    25
100
AcDbLine
 10
584.558678
 20
188.57888
 30
0.0
 11
586.253673
 21
190.273876
 31
0.0
  0
LINE
  5
425
330
41F
100
AcDbEntity
  8
LC-003-005-----0
  6
ByBlock
 62
     7
370
    25
100
AcDbLine
 10
582.327967
 20
189.176597
 30
0.0
 11
583.425246
 21
190.273876
 31
0.0
  0
LINE
  5
426
330
41F
100
AcDbEntity
  8
LC-003-005-----0
  6
ByBlock
 62
     7
370
    25
100
AcDbLine
 10
580.097257
 20
189.774314
 30
0.0
 11
580.596819
 21
190.273876
 31
0.0
  0
ENDBLK
  5
421
330
41F
100
AcDbEntity
  8
0
100
AcDbBlockEnd
  0
BLOCK
  5
429
330
428
100
AcDbEntity
  8
0
100
AcDbBlockBegin
  2
*X4447
 70
     1
 71
     0
 10
0.0
 20
0.0
 30
0.0
  3
*X4447
  1

  4
*X44
  0
LINE
  5
42B
330
428
100
AcDbEntity
  8
LC-003-005-----0
  6
ByBlock
 62
     7
370
    25
100
AcDbLine
 10
592.557031
 20
188.091952
 30
0.0
 11
594.738955
 21
190.273876
 31
0.0
  0
ENDBLK
  5
42A
330
428
100
AcDbEntity
  8
0
100
AcDbBlockEnd
  0
BLOCK
  5
440
330
434
100
AcDbEntity
  8
0
100
AcDbBlockBegin
  2
*D48
 70
     1
 71
     0
 10
0.0
 20
0.0
 30
0.0
  3
*D48
  1

  0
LINE
  5
435
330
434
100
AcDbEntity
  8
LC-002-003-----0
 62
     2
370
    -2
100
AcDbLine
 10
377.364089
 20
246.223876
 30
0.0
 11
330.480806
 21
246.223876
 31
0.0
  0
LINE
  5
436
330
434
100
AcDbEntity
  8
LC-002-003-----0
 62
     2
370
    -2
100
AcDbLine
 10
378.664089
 20
252.26436
 30
0.0
 11
330.480806
 21
252.26436
 31
0.0
  0
LINE
  5
437
330
434
100
AcDbEntity
  8
LC-002-003-----0
 62
     2
370
    -2
100
AcDbLine
 10
334.080806
 20
218.223876
 30
0.0
 11
334.080806
 21
190.223876
 31
0.0
  0
LINE
  5
438
330
434
100
AcDbEntity
  8
LC-002-003-----0
 62
     2
370
    -2
100
AcDbLine
 10
334.080806
 20
280.26436
 30
0.0
 11
334.080806
 21
308.26436
 31
0.0
  0
LINE
  5
439
330
434
100
AcDbEntity
  8
LC-002-003-----0
 62
     2
370
    -2
100
AcDbLine
 10
334.080806
 20
246.223876
 30
0.0
 11
334.080806
 21
252.26436
 31
0.0
  0
SOLID
  5
43A
330
434
100
AcDbEntity
  8
LC-002-003-----0
 62
     2
100
AcDbTrace
 10
338.747473
 20
218.223876
 30
0.0
 11
329.414139
 21
218.223876
 31
0.0
 12
334.080806
 22
246.223876
 32
0.0
 13
334.080806
 23
246.223876
 33
0.0
  0
SOLID
  5
43B
330
434
100
AcDbEntity
  8
LC-002-003-----0
 62
     2
100
AcDbTrace
 10
329.414139
 20
280.26436
 30
0.0
 11
338.747473
 21
280.26436
 31
0.0
 12
334.080806
 22
252.26436
 32
0.0
 13
334.080806
 23
252.26436
 33
0.0
  0
MTEXT
  5
43C
330
434
100
AcDbEntity
  8
LC-002-003-----0
 62
     2
100
AcDbMText
 10
303.280806
 20
249.244118
 30
0.0
 40
28.0
 41
0.0
 71
     5
 72
     1
  1
\A1;0-8(8-16)
  7
LCTX15-400-0-0pDIN-Schrift
 11
6.123031769111886E-17
 21
1.0
 31
0.0
 73
     1
 44
1.0
  0
POINT
  5
43D
330
434
100
AcDbEntity
  8
Defpoints
 62
     0
100
AcDbPoint
 10
377.364089
 20
246.223876
 30
0.0
  0
POINT
  5
43E
330
434
100
AcDbEntity
  8
Defpoints
 62
     0
100
AcDbPoint
 10
378.664089
 20
252.26436
 30
0.0
  0
POINT
  5
43F
330
434
100
AcDbEntity
  8
Defpoints
 62
     0
100
AcDbPoint
 10
334.080806
 20
252.26436
 30
0.0
  0
ENDBLK
  5
441
330
434
100
AcDbEntity
  8
0
100
AcDbBlockEnd
  0
BLOCK
  5
443
330
442
100
AcDbEntity
  8
0
100
AcDbBlockBegin
  2
*X4549
 70
     1
 71
     0
 10
0.0
 20
0.0
 30
0.0
  3
*X4549
  1

  4
*X45
  0
LINE
  5
445
330
442
100
AcDbEntity
  8
LC-003-005-----0
  6
ByBlock
 62
     7
370
    25
100
AcDbLine
 10
457.424453
 20
188.723876
 30
0.0
 11
459.424453
 21
190.723876
 31
0.0
  0
LINE
  5
446
330
442
100
AcDbEntity
  8
LC-003-005-----0
  6
ByBlock
 62
     7
370
    25
100
AcDbLine
 10
454.596026
 20
188.723876
 30
0.0
 11
456.596026
 21
190.723876
 31
0.0
  0
LINE
  5
447
330
442
100
AcDbEntity
  8
LC-003-005-----0
  6
ByBlock
 62
     7
370
    25
100
AcDbLine
 10
451.767598
 20
188.723876
 30
0.0
 11
453.767598
 21
190.723876
 31
0.0
  0
LINE
  5
448
330
442
100
AcDbEntity
  8
LC-003-005-----0
  6
ByBlock
 62
     7
370
    25
100
AcDbLine
 10
448.939171
 20
188.723876
 30
0.0
 11
450.939171
 21
190.723876
 31
0.0
  0
LINE
  5
449
330
442
100
AcDbEntity
  8
LC-003-005-----0
  6
ByBlock
 62
     7
370
    25
100
AcDbLine
 10
446.110744
 20
188.723876
 30
0.0
 11
448.110744
 21
190.723876
 31
0.0
  0
LINE
  5
44A
330
442
100
AcDbEntity
  8
LC-003-005-----0
  6
ByBlock
 62
     7
370
    25
100
AcDbLine
 10
443.282317
 20
188.723876
 30
0.0
 11
445.282317
 21
190.723876
 31
0.0
  0
LINE
  5
44B
330
442
100
AcDbEntity
  8
LC-003-005-----0
  6
ByBlock
 62
     7
370
    25
100
AcDbLine
 10
440.45389
 20
188.723876
 30
0.0
 11
442.45389
 21
190.723876
 31
0.0
  0
LINE
  5
44C
330
442
100
AcDbEntity
  8
LC-003-005-----0
  6
ByBlock
 62
     7
370
    25
100
AcDbLine
 10
437.625463
 20
188.723876
 30
0.0
 11
439.625463
 21
190.723876
 31
0.0
  0
LINE
  5
44D
330
442
100
AcDbEntity
  8
LC-003-005-----0
  6
ByBlock
 62
     7
370
    25
100
AcDbLine
 10
435.408511
 20
189.335351
 30
0.0
 11
436.797036
 21
190.723876
 31
0.0
  0
ENDBLK
  5
444
330
442
100
AcDbEntity
  8
0
100
AcDbBlockEnd
  0
BLOCK
  5
527
330
51D
100
AcDbEntity
  8
0
100
AcDbBlockBegin
  2
*D50
 70
     1
 71
     0
 10
0.0
 20
0.0
 30
0.0
  3
*D50
  1

  0
LINE
  5
51E
330
51D
100
AcDbEntity
  8
LC-002-003-----0
 62
     2
370
    -2
100
AcDbLine
 10
460.644089
 20
138.723876
 30
0.0
 11
460.644089
 21
74.8
 31
0.0
  0
LINE
  5
51F
330
51D
100
AcDbEntity
  8
LC-002-003-----0
 62
     2
370
    -2
100
AcDbLine
 10
375.942525
 20
150.887078
 30
0.0
 11
375.942525
 21
74.8
 31
0.0
  0
LINE
  5
520
330
51D
100
AcDbEntity
  8
LC-002-003-----0
 62
     2
370
    -2
100
AcDbLine
 10
432.644089
 20
78.4
 30
0.0
 11
403.942525
 21
78.4
 31
0.0
  0
SOLID
  5
521
330
51D
100
AcDbEntity
  8
LC-002-003-----0
 62
     2
100
AcDbTrace
 10
432.644089
 20
73.733333
 30
0.0
 11
432.644089
 21
83.066667
 31
0.0
 12
460.644089
 22
78.4
 32
0.0
 13
460.644089
 23
78.4
 33
0.0
  0
SOLID
  5
522
330
51D
100
AcDbEntity
  8
LC-002-003-----0
 62
     2
100
AcDbTrace
 10
403.942525
 20
83.066667
 30
0.0
 11
403.942525
 21
73.733333
 31
0.0
 12
375.942525
 22
78.4
 32
0.0
 13
375.942525
 23
78.4
 33
0.0
  0
MTEXT
  5
523
330
51D
100
AcDbEntity
  8
LC-002-003-----0
 62
     2
100
AcDbMText
 10
418.293307
 20
109.2
 30
0.0
 40
28.0
 41
0.0
 71
     5
 72
     1
  1
\A1;%%c85
  7
LCTX15-400-0-0pDIN-Schrift
 73
     1
 44
1.0
  0
POINT
  5
524
330
51D
100
AcDbEntity
  8
Defpoints
 62
     0
100
AcDbPoint
 10
460.644089
 20
138.723876
 30
0.0
  0
POINT
  5
525
330
51D
100
AcDbEntity
  8
Defpoints
 62
     0
100
AcDbPoint
 10
375.942525
 20
150.887078
 30
0.0
  0
POINT
  5
526
330
51D
100
AcDbEntity
  8
Defpoints
 62
     0
100
AcDbPoint
 10
375.942525
 20
78.4
 30
0.0
  0
ENDBLK
  5
528
330
51D
100
AcDbEntity
  8
0
100
AcDbBlockEnd
  0
BLOCK
  5
534
330
52A
100
AcDbEntity
  8
0
100
AcDbBlockBegin
  2
*D51
 70
     1
 71
     0
 10
0.0
 20
0.0
 30
0.0
  3
*D51
  1

  0
LINE
  5
52B
330
52A
100
AcDbEntity
  8
LC-002-003-----0
 62
     2
370
    -2
100
AcDbLine
 10
448.914089
 20
262.771333
 30
0.0
 11
448.914089
 21
377.82
 31
0.0
  0
LINE
  5
52C
330
52A
100
AcDbEntity
  8
LC-002-003-----0
 62
     2
370
    -2
100
AcDbLine
 10
378.414089
 20
262.771333
 30
0.0
 11
378.414089
 21
377.82
 31
0.0
  0
LINE
  5
52D
330
52A
100
AcDbEntity
  8
LC-002-003-----0
 62
     2
370
    -2
100
AcDbLine
 10
420.914089
 20
374.22
 30
0.0
 11
406.414089
 21
374.22
 31
0.0
  0
SOLID
  5
52E
330
52A
100
AcDbEntity
  8
LC-002-003-----0
 62
     2
100
AcDbTrace
 10
420.914089
 20
369.553333
 30
0.0
 11
420.914089
 21
378.886667
 31
0.0
 12
448.914089
 22
374.22
 32
0.0
 13
448.914089
 23
374.22
 33
0.0
  0
SOLID
  5
52F
330
52A
100
AcDbEntity
  8
LC-002-003-----0
 62
     2
100
AcDbTrace
 10
406.414089
 20
378.886667
 30
0.0
 11
406.414089
 21
369.553333
 31
0.0
 12
378.414089
 22
374.22
 32
0.0
 13
378.414089
 23
374.22
 33
0.0
  0
MTEXT
  5
530
330
52A
100
AcDbEntity
  8
LC-002-003-----0
 62
     2
100
AcDbMText
 10
413.664089
 20
405.02
 30
0.0
 40
28.0
 41
0.0
 71
     5
 72
     1
  1
\A1;%%c75
  7
LCTX15-400-0-0pDIN-Schrift
 73
     1
 44
1.0
  0
POINT
  5
531
330
52A
100
AcDbEntity
  8
Defpoints
 62
     0
100
AcDbPoint
 10
448.914089
 20
262.771333
 30
0.0
  0
POINT
  5
532
330
52A
100
AcDbEntity
  8
Defpoints
 62
     0
100
AcDbPoint
 10
378.414089
 20
262.771333
 30
0.0
  0
POINT
  5
533
330
52A
100
AcDbEntity
  8
Defpoints
 62
     0
100
AcDbPoint
 10
378.414089
 20
374.22
 30
0.0
  0
ENDBLK
  5
535
330
52A
100
AcDbEntity
  8
0
100
AcDbBlockEnd
  0
BLOCK
  5
542
330
537
100
AcDbEntity
  8
0
100
AcDbBlockBegin
  2
*D52
 70
     1
 71
     0
 10
0.0
 20
0.0
 30
0.0
  3
*D52
  1

  0
LINE
  5
538
330
537
100
AcDbEntity
  8
LC-002-003-----0
 62
     2
370
    -2
100
AcDbLine
 10
435.283402
 20
213.229138
 30
0.0
 11
552.4
 21
213.229138
 31
0.0
  0
LINE
  5
539
330
537
100
AcDbEntity
  8
LC-002-003-----0
 62
     2
370
    -2
100
AcDbLine
 10
394.164089
 20
157.273499
 30
0.0
 11
552.4
 21
157.273499
 31
0.0
  0
LINE
  5
53A
330
537
100
AcDbEntity
  8
LC-002-003-----0
 62
     2
370
    -2
100
AcDbLine
 10
548.8
 20
241.229138
 30
0.0
 11
548.8
 21
269.229138
 31
0.0
  0
LINE
  5
53B
330
537
100
AcDbEntity
  8
LC-002-003-----0
 62
     2
370
    -2
100
AcDbLine
 10
548.8
 20
129.273499
 30
0.0
 11
548.8
 21
129.141774
 31
0.0
  0
SOLID
  5
53C
330
537
100
AcDbEntity
  8
LC-002-003-----0
 62
     2
100
AcDbTrace
 10
544.133333
 20
241.229138
 30
0.0
 11
553.466667
 21
241.229138
 31
0.0
 12
548.8
 22
213.229138
 32
0.0
 13
548.8
 23
213.229138
 33
0.0
  0
SOLID
  5
53D
330
537
100
AcDbEntity
  8
LC-002-003-----0
 62
     2
100
AcDbTrace
 10
553.466667
 20
129.273499
 30
0.0
 11
544.133333
 21
129.273499
 31
0.0
 12
548.8
 22
157.273499
 32
0.0
 13
548.8
 23
157.273499
 33
0.0
  0
MTEXT
  5
53E
330
537
100
AcDbEntity
  8
LC-002-003-----0
 62
     2
100
AcDbMText
 10
518.0
 20
152.064
 30
0.0
 40
28.0
 41
0.0
 71
     5
 72
     1
  1
\A1;50
  7
LCTX15-400-0-0pDIN-Schrift
 11
6.123031769111886E-17
 21
1.0
 31
0.0
 73
     1
 44
1.0
  0
POINT
  5
53F
330
537
100
AcDbEntity
  8
Defpoints
 62
     0
100
AcDbPoint
 10
435.283402
 20
213.229138
 30
0.0
  0
POINT
  5
540
330
537
100
AcDbEntity
  8
Defpoints
 62
     0
100
AcDbPoint
 10
394.164089
 20
157.273499
 30
0.0
  0
POINT
  5
541
330
537
100
AcDbEntity
  8
Defpoints
 62
     0
100
AcDbPoint
 10
548.8
 20
157.273499
 30
0.0
  0
ENDBLK
  5
543
330
537
100
AcDbEntity
  8
0
100
AcDbBlockEnd
  0
BLOCK
  5
55C
330
55B
100
AcDbEntity
  8
0
100
AcDbBlockBegin
  2
LCDIM1
 70
     0
 71
     0
 10
0.0
 20
0.0
 30
0.0
  3
LCDIM1
  1

  4
LCDIM1
  0
TEXT
  5
55E
330
55B
100
AcDbEntity
  8
LC-002-003-----0
 62
     7
370
   140
100
AcDbText
 10
585.319795
 20
74.712612
 30
0.0
 40
28.0
  1
 15%%d
 50
42.965927
 41
0.9
 51
15.0
  7
LCTX15-400-0-0-Arial
 72
     1
 11
608.407089
 21
96.216208
 31
0.0
100
AcDbText
  0
LINE
  5
55F
330
55B
100
AcDbEntity
  8
LC-002-003-----0
 62
     7
370
    25
100
AcDbLine
 10
661.695906
 20
139.148136
 30
0.0
 11
667.49142
 21
166.541785
 31
0.0
  0
LINE
  5
560
330
55B
100
AcDbEntity
  8
LC-002-003-----0
 62
     7
370
    25
100
AcDbLine
 10
667.49142
 20
166.541785
 30
0.0
 11
654.803385
 21
141.581541
 31
0.0
  0
LINE
  5
561
330
55B
100
AcDbEntity
  8
LC-002-003-----0
 62
     7
370
    25
100
AcDbLine
 10
654.803385
 20
141.581541
 30
0.0
 11
661.695906
 21
139.148136
 31
0.0
  0
LINE
  5
562
330
55B
100
AcDbEntity
  8
LC-002-003-----0
 62
     7
370
    25
100
AcDbLine
 10
660.779144
 20
139.40575
 30
0.0
 11
665.067825
 21
159.67705
 31
0.0
  0
LINE
  5
563
330
55B
100
AcDbEntity
  8
LC-002-003-----0
 62
     7
370
    25
100
AcDbLine
 10
665.067825
 20
159.67705
 30
0.0
 11
655.678679
 21
141.20647
 31
0.0
  0
LINE
  5
564
330
55B
100
AcDbEntity
  8
LC-002-003-----0
 62
     7
370
    25
100
AcDbLine
 10
659.862382
 20
139.663363
 30
0.0
 11
662.644229
 21
152.812315
 31
0.0
  0
LINE
  5
565
330
55B
100
AcDbEntity
  8
LC-002-003-----0
 62
     7
370
    25
100
AcDbLine
 10
662.644229
 20
152.812315
 30
0.0
 11
656.553972
 21
140.831398
 31
0.0
  0
LINE
  5
566
330
55B
100
AcDbEntity
  8
LC-002-003-----0
 62
     7
370
    25
100
AcDbLine
 10
658.94562
 20
139.920977
 30
0.0
 11
660.220633
 21
145.94758
 31
0.0
  0
LINE
  5
567
330
55B
100
AcDbEntity
  8
LC-002-003-----0
 62
     7
370
    25
100
AcDbLine
 10
660.220633
 20
145.94758
 30
0.0
 11
657.429266
 21
140.456327
 31
0.0
  0
LINE
  5
568
330
55B
100
AcDbEntity
  8
LC-002-003-----0
 62
     7
370
    25
100
AcDbLine
 10
667.831748
 20
240.541783
 30
0.0
 11
673.627263
 21
213.148134
 31
0.0
  0
LINE
  5
569
330
55B
100
AcDbEntity
  8
LC-002-003-----0
 62
     7
370
    25
100
AcDbLine
 10
673.627263
 20
213.148134
 30
0.0
 11
675.119224
 21
241.108357
 31
0.0
  0
LINE
  5
56A
330
55B
100
AcDbEntity
  8
LC-002-003-----0
 62
     7
370
    25
100
AcDbLine
 10
675.119224
 20
241.108357
 30
0.0
 11
667.831748
 21
240.541783
 31
0.0
  0
LINE
  5
56B
330
55B
100
AcDbEntity
  8
LC-002-003-----0
 62
     7
370
    25
100
AcDbLine
 10
668.774292
 20
240.677532
 30
0.0
 11
673.062973
 21
220.406231
 31
0.0
  0
LINE
  5
56C
330
55B
100
AcDbEntity
  8
LC-002-003-----0
 62
     7
370
    25
100
AcDbLine
 10
673.062973
 20
220.406231
 30
0.0
 11
674.167024
 21
241.096796
 31
0.0
  0
LINE
  5
56D
330
55B
100
AcDbEntity
  8
LC-002-003-----0
 62
     7
370
    25
100
AcDbLine
 10
669.716837
 20
240.81328
 30
0.0
 11
672.498684
 21
227.664329
 31
0.0
  0
LINE
  5
56E
330
55B
100
AcDbEntity
  8
LC-002-003-----0
 62
     7
370
    25
100
AcDbLine
 10
672.498684
 20
227.664329
 30
0.0
 11
673.214825
 21
241.085236
 31
0.0
  0
LINE
  5
56F
330
55B
100
AcDbEntity
  8
LC-002-003-----0
 62
     7
370
    25
100
AcDbLine
 10
670.659381
 20
240.949029
 30
0.0
 11
671.934394
 21
234.922426
 31
0.0
  0
LINE
  5
570
330
55B
100
AcDbEntity
  8
LC-002-003-----0
 62
     7
370
    25
100
AcDbLine
 10
671.934394
 20
234.922426
 30
0.0
 11
672.262625
 21
241.073675
 31
0.0
  0
ARC
  5
572
330
55B
100
AcDbEntity
  8
LC-007-003-MTG-0
 62
     7
370
    25
100
AcDbCircle
 10
493.554157
 20
213.148134
 30
0.0
 40
180.0731055442077
100
AcDbArc
 50
300.494238
 51
301.36732
  0
ARC
  5
573
330
55B
100
AcDbEntity
  8
LC-007-003-MTG-0
 62
     7
370
    25
100
AcDbCircle
 10
493.554157
 20
213.148134
 30
0.0
 40
180.0731055442076
100
AcDbArc
 50
302.848815
 51
323.08304
  0
ARC
  5
574
330
55B
100
AcDbEntity
  8
LC-007-003-MTG-0
 62
     7
370
    25
100
AcDbCircle
 10
493.554157
 20
213.148134
 30
0.0
 40
180.0731055442077
100
AcDbArc
 50
329.318246
 51
12.28108
  0
LINE
  5
576
330
55B
100
AcDbEntity
  8
LC-008-003-MTH-0
 62
     7
370
    25
100
AcDbLine
 10
596.328665
 20
185.609788
 30
0.0
 11
671.355124
 21
165.506509
 31
0.0
  0
LINE
  5
577
330
55B
100
AcDbEntity
  8
LC-008-003-MTH-0
 62
     7
370
    25
100
AcDbLine
 10
599.954157
 20
213.148134
 30
0.0
 11
677.627263
 21
213.148134
 31
0.0
  0
ENDBLK
  5
55D
330
55B
100
AcDbEntity
  8
0
100
AcDbBlockEnd
  0
ENDSEC
  0
SECTION
  2
ENTITIES
  0
LINE
  5
31
330
1F
100
AcDbEntity
  8
LC-001-207-----0
 62
     7
370
    50
100
AcDbLine
 10
512.64676
 20
235.773876
 30
0.0
 11
595.302966
 21
235.773876
 31
0.0
  0
DIMENSION
  5
35
330
1F
100
AcDbEntity
  8
LC-002-003-----0
 62
     7
370
    25
100
AcDbDimension
  2
*D1
 10
621.321764
 20
188.042537
 30
0.0
 11
590.521764
 21
213.033207
 31
0.0
 70
   160
  1
DN50
 71
     5
 42
49.981338
 53
90.0
  3
LC-DIM-L-0140-02-02
100
AcDbAlignedDimension
 13
563.052966
 23
238.023876
 33
0.0
 14
592.372613
 24
188.042537
 34
0.0
 50
90.0
100
AcDbRotatedDimension
  0
INSERT
  5
4F
102
{ACAD_REACTORS
330
57C
102
}
330
1F
100
AcDbEntity
  8
LC-003-005-----0
  6
ByBlock
 62
     7
370
    25
100
AcDbBlockReference
  2
*X12
 10
0.0
 20
0.0
 30
0.0
  0
LINE
  5
51
102
{ACAD_REACTORS
330
57C
102
}
330
1F
100
AcDbEntity
  8
LC-004-002-----0
 62
     7
370
    50
100
AcDbLine
 10
375.462871
 20
212.118881
 30
0.0
 11
377.484211
 21
154.235283
 31
0.0
  0
LINE
  5
52
102
{ACAD_REACTORS
330
57B
102
}
330
1F
100
AcDbEntity
  8
LC-004-002-----0
 62
     7
370
    50
100
AcDbLine
 10
433.364089
 20
243.473499
 30
0.0
 11
433.364089
 21
244.238199
 31
0.0
  0
INSERT
  5
68
102
{ACAD_REACTORS
330
57C
102
}
330
1F
100
AcDbEntity
  8
LC-003-005-----0
  6
ByBlock
 62
     7
370
    25
100
AcDbBlockReference
  2
*X23
 10
0.0
 20
0.0
 30
0.0
  0
INSERT
  5
7F
102
{ACAD_REACTORS
330
57C
102
}
330
1F
100
AcDbEntity
  8
LC-003-005-----0
  6
ByBlock
 62
     7
370
    25
100
AcDbBlockReference
  2
*X34
 10
0.0
 20
0.0
 30
0.0
  0
LINE
  5
80
102
{ACAD_REACTORS
330
57C
102
}
330
1F
100
AcDbEntity
  8
LC-004-002-----0
 62
     7
370
    50
100
AcDbLine
 10
435.411713
 20
188.723876
 30
0.0
 11
460.03753
 21
188.723876
 31
0.0
  0
LINE
  5
81
102
{ACAD_REACTORS
330
57B
102
}
330
1F
100
AcDbEntity
  8
LC-004-002-----0
 62
     7
370
    50
100
AcDbLine
 10
396.165867
 20
240.674617
 30
0.0
 11
395.814089
 21
240.674617
 31
0.0
  0
ARC
  5
83
102
{ACAD_REACTORS
330
57B
102
}
330
1F
100
AcDbEntity
  8
LC-005-002-RND-0
 62
     7
370
    50
100
AcDbCircle
 10
393.764089
 20
245.738199
 30
0.0
 40
1.499999999999933
100
AcDbArc
 50
117.818139
 51
180.0
  0
ARC
  5
84
102
{ACAD_REACTORS
330
57B
102
}
330
1F
100
AcDbEntity
  8
LC-004-002-----0
 62
     7
370
    50
100
AcDbCircle
 10
396.101843
 20
242.414923
 30
0.0
 40
0.7500000000005668
100
AcDbArc
 50
274.76079
 51
69.533324
  0
INSERT
  5
9D
102
{ACAD_REACTORS
330
57B
102
}
330
1F
100
AcDbEntity
  8
LC-003-005-----0
  6
ByBlock
 62
     7
370
    25
100
AcDbBlockReference
  2
*X45
 10
0.0
 20
0.0
 30
0.0
  0
INSERT
  5
B6
102
{ACAD_REACTORS
330
57B
102
}
330
1F
100
AcDbEntity
  8
LC-003-005-----0
  6
ByBlock
 62
     7
370
    25
100
AcDbBlockReference
  2
*X56
 10
0.0
 20
0.0
 30
0.0
  0
INSERT
  5
CE
102
{ACAD_REACTORS
330
57B
102
}
330
1F
100
AcDbEntity
  8
LC-003-005-----0
  6
ByBlock
 62
     7
370
    25
100
AcDbBlockReference
  2
*X67
 10
0.0
 20
0.0
 30
0.0
  0
LINE
  5
CF
102
{ACAD_REACTORS
330
57D
102
}
330
1F
100
AcDbEntity
  8
LC-004-002-----0
 62
     7
370
    50
100
AcDbLine
 10
425.002675
 20
160.859933
 30
0.0
 11
424.517394
 21
160.859933
 31
0.0
  0
LINE
  5
D0
102
{ACAD_REACTORS
330
57B
102
}
330
1F
100
AcDbEntity
  8
LC-004-002-----0
 62
     7
370
    50
100
AcDbLine
 10
398.56411
 20
152.864554
 30
0.0
 11
398.962461
 21
244.159425
 31
0.0
  0
LINE
  5
D1
102
{ACAD_REACTORS
330
57B
102
}
330
1F
100
AcDbEntity
  8
LC-004-002-----0
 62
     7
370
    50
100
AcDbLine
 10
398.962461
 20
244.159425
 30
0.0
 11
404.626089
 21
257.159425
 31
0.0
  0
LINE
  5
D2
102
{ACAD_REACTORS
330
57B
102
}
330
1F
100
AcDbEntity
  8
LC-004-002-----0
 62
     7
370
    50
100
AcDbLine
 10
428.764094
 20
152.858892
 30
0.0
 11
428.365718
 21
244.159425
 31
0.0
  0
LINE
  5
D3
102
{ACAD_REACTORS
330
57B
102
}
330
1F
100
AcDbEntity
  8
LC-004-002-----0
 62
     7
370
    50
100
AcDbLine
 10
428.365718
 20
244.159425
 30
0.0
 11
422.70209
 21
257.159425
 31
0.0
  0
LINE
  5
D4
102
{ACAD_REACTORS
330
57B
102
}
330
1F
100
AcDbEntity
  8
LC-004-002-----0
 62
     7
370
    50
100
AcDbLine
 10
395.6699
 20
160.503971
 30
0.0
 11
396.864089
 21
162.572368
 31
0.0
  0
LINE
  5
D5
102
{ACAD_REACTORS
330
57B
102
}
330
1F
100
AcDbEntity
  8
LC-004-002-----0
 62
     7
370
    50
100
AcDbLine
 10
406.810785
 20
156.859933
 30
0.0
 11
406.810785
 21
152.859933
 31
0.0
  0
LINE
  5
D6
102
{ACAD_REACTORS
330
57B
102
}
330
1F
100
AcDbEntity
  8
LC-004-002-----0
 62
     7
370
    50
100
AcDbLine
 10
427.704944
 20
156.859933
 30
0.0
 11
427.704944
 21
152.859933
 31
0.0
  0
INSERT
  5
E6
102
{ACAD_REACTORS
330
57B
102
}
330
1F
100
AcDbEntity
  8
LC-003-005-----0
  6
ByBlock
 62
     7
370
    25
100
AcDbBlockReference
  2
*X78
 10
0.0
 20
0.0
 30
0.0
  0
LINE
  5
E7
102
{ACAD_REACTORS
330
57B
102
}
330
1F
100
AcDbEntity
  8
LC-004-002-----0
 62
     7
370
    50
100
AcDbLine
 10
395.664089
 20
160.493907
 30
0.0
 11
395.664089
 21
155.29098
 31
0.0
  0
LINE
  5
E8
102
{ACAD_REACTORS
330
57B
102
}
330
1F
100
AcDbEntity
  8
LC-004-002-----0
 62
     7
370
    50
100
AcDbLine
 10
431.664089
 20
160.493907
 30
0.0
 11
431.664089
 21
155.29098
 31
0.0
  0
LINE
  5
E9
102
{ACAD_REACTORS
330
57B
102
}
330
1F
100
AcDbEntity
  8
LC-004-002-----0
 62
     7
370
    50
100
AcDbLine
 10
420.517394
 20
156.859933
 30
0.0
 11
420.517394
 21
152.859933
 31
0.0
  0
INSERT
  5
101
102
{ACAD_REACTORS
330
57B
102
}
330
1F
100
AcDbEntity
  8
LC-003-005-----0
  6
ByBlock
 62
     7
370
    25
100
AcDbBlockReference
  2
*X89
 10
0.0
 20
0.0
 30
0.0
  0
ARC
  5
102
102
{ACAD_REACTORS
330
57B
102
}
330
1F
100
AcDbEntity
  8
LC-005-002-RND-0
 62
     7
370
    50
100
AcDbCircle
 10
424.517394
 20
156.859933
 30
0.0
 40
4.0
100
AcDbArc
 50
90.0
 51
180.0
  0
ARC
  5
103
102
{ACAD_REACTORS
330
57B
102
}
330
1F
100
AcDbEntity
  8
LC-005-002-RND-0
 62
     7
370
    50
100
AcDbCircle
 10
402.810785
 20
156.859933
 30
0.0
 40
4.0
100
AcDbArc
 50
0.0
 51
90.0
  0
ARC
  5
104
102
{ACAD_REACTORS
330
57B
102
}
330
1F
100
AcDbEntity
  8
LC-005-002-RND-0
 62
     7
370
    50
100
AcDbCircle
 10
425.002675
 20
156.859933
 30
0.0
 40
4.000000000000093
100
AcDbArc
 50
20.862742
 51
90.0
  0
LINE
  5
105
102
{ACAD_REACTORS
330
57D
102
}
330
1F
100
AcDbEntity
  8
LC-004-002-----0
 62
     7
370
    50
100
AcDbLine
 10
402.810785
 20
160.859933
 30
0.0
 11
402.325504
 21
160.859933
 31
0.0
  0
ARC
  5
106
102
{ACAD_REACTORS
330
57B
102
}
330
1F
100
AcDbEntity
  8
LC-005-002-RND-0
 62
     7
370
    50
100
AcDbCircle
 10
403.623235
 20
156.859933
 30
0.0
 40
3.999999999999874
100
AcDbArc
 50
95.828791
 51
180.0
  0
LINE
  5
107
102
{ACAD_REACTORS
330
57B
102
}
330
1F
100
AcDbEntity
  8
LC-004-002-----0
 62
     7
370
    50
100
AcDbLine
 10
395.714089
 20
241.674617
 30
0.0
 11
396.164089
 21
241.674617
 31
0.0
  0
ARC
  5
108
102
{ACAD_REACTORS
330
57B
102
}
330
1F
100
AcDbEntity
  8
LC-005-002-RND-0
 62
     7
370
    50
100
AcDbCircle
 10
423.704944
 20
156.859933
 30
0.0
 40
4.0
100
AcDbArc
 50
0.0
 51
84.171209
  0
ARC
  5
109
102
{ACAD_REACTORS
330
57B
102
}
330
1F
100
AcDbEntity
  8
LC-005-002-RND-0
 62
     7
370
    50
100
AcDbCircle
 10
402.325504
 20
156.859933
 30
0.0
 40
4.0
100
AcDbArc
 50
90.0
 51
159.137258
  0
LINE
  5
10A
102
{ACAD_REACTORS
330
57B
102
}
330
1F
100
AcDbEntity
  8
LC-004-002-----0
 62
     7
370
    50
100
AcDbLine
 10
399.623235
 20
156.859933
 30
0.0
 11
399.623235
 21
152.859933
 31
0.0
  0
LINE
  5
10B
102
{ACAD_REACTORS
330
57C
102
}
330
1F
100
AcDbEntity
  8
LC-004-002-----0
 62
     7
370
    50
100
AcDbLine
 10
435.283402
 20
213.229138
 30
0.0
 11
434.041286
 21
213.229138
 31
0.0
  0
LINE
  5
10C
102
{ACAD_REACTORS
330
57C
102
}
330
1F
100
AcDbEntity
  8
LC-004-002-----0
 62
     7
370
    50
100
AcDbLine
 10
377.364089
 20
246.223876
 30
0.0
 11
379.37178
 21
246.223876
 31
0.0
  0
ARC
  5
10D
102
{ACAD_REACTORS
330
57B
102
}
330
1F
100
AcDbEntity
  8
LC-005-002-RND-0
 62
     7
370
    50
100
AcDbCircle
 10
433.864089
 20
247.560851
 30
0.0
 40
0.500000000000041
100
AcDbArc
 50
120.0
 51
180.0
  0
INSERT
  5
11E
102
{ACAD_REACTORS
330
57B
102
}
330
1F
100
AcDbEntity
  8
LC-003-005-----0
  6
ByBlock
 62
     7
370
    25
100
AcDbBlockReference
  2
*X910
 10
0.0
 20
0.0
 30
0.0
  0
LINE
  5
11F
102
{ACAD_REACTORS
330
57B
102
}
330
1F
100
AcDbEntity
  8
LC-004-002-----0
 62
     7
370
    50
100
AcDbLine
 10
393.964089
 20
247.238199
 30
0.0
 11
393.964089
 21
247.560851
 31
0.0
  0
LINE
  5
120
102
{ACAD_REACTORS
330
57B
102
}
330
1F
100
AcDbEntity
  8
LC-004-002-----0
 62
     7
370
    50
100
AcDbLine
 10
394.164089
 20
249.42972
 30
0.0
 11
396.364089
 21
249.42972
 31
0.0
  0
LINE
  5
121
102
{ACAD_REACTORS
330
57B
102
}
330
1F
100
AcDbEntity
  8
LC-004-002-----0
 62
     7
370
    50
100
AcDbLine
 10
430.464089
 20
244.159425
 30
0.0
 11
398.564089
 21
244.159425
 31
0.0
  0
LINE
  5
122
102
{ACAD_REACTORS
330
57B
102
}
330
1F
100
AcDbEntity
  8
LC-004-002-----0
 62
     7
370
    50
100
AcDbLine
 10
433.164089
 20
249.42972
 30
0.0
 11
430.964089
 21
249.42972
 31
0.0
  0
LINE
  5
123
102
{ACAD_REACTORS
330
57B
102
}
330
1F
100
AcDbEntity
  8
LC-004-002-----0
 62
     7
370
    50
100
AcDbLine
 10
396.864089
 20
162.572368
 30
0.0
 11
396.864089
 21
248.92972
 31
0.0
  0
LINE
  5
124
102
{ACAD_REACTORS
330
57B
102
}
330
1F
100
AcDbEntity
  8
LC-004-002-----0
 62
     7
370
    50
100
AcDbLine
 10
430.964089
 20
249.42972
 30
0.0
 11
430.464089
 21
248.92972
 31
0.0
  0
LINE
  5
125
102
{ACAD_REACTORS
330
57B
102
}
330
1F
100
AcDbEntity
  8
LC-004-002-----0
 62
     7
370
    50
100
AcDbLine
 10
430.464089
 20
248.92972
 30
0.0
 11
430.464089
 21
241.674617
 31
0.0
  0
LINE
  5
126
102
{ACAD_REACTORS
330
57B
102
}
330
1F
100
AcDbEntity
  8
LC-004-002-----0
 62
     7
370
    50
100
AcDbLine
 10
420.517394
 20
152.859933
 30
0.0
 11
413.664089
 21
152.859933
 31
0.0
  0
LINE
  5
127
102
{ACAD_REACTORS
330
57B
102
}
330
1F
100
AcDbEntity
  8
LC-004-002-----0
 62
     7
370
    50
100
AcDbLine
 10
396.864089
 20
244.159425
 30
0.0
 11
413.664089
 21
244.159425
 31
0.0
  0
LINE
  5
128
102
{ACAD_REACTORS
330
57B
102
}
330
1F
100
AcDbEntity
  8
LC-004-002-----0
 62
     7
370
    50
100
AcDbLine
 10
395.660524
 20
155.29098
 30
0.0
 11
397.064089
 21
152.859933
 31
0.0
  0
LINE
  5
129
102
{ACAD_REACTORS
330
57B
102
}
330
1F
100
AcDbEntity
  8
LC-004-002-----0
 62
     7
370
    50
100
AcDbLine
 10
405.664089
 20
259.159425
 30
0.0
 11
396.164089
 21
259.159425
 31
0.0
  0
LINE
  5
12A
102
{ACAD_REACTORS
330
57B
102
}
330
1F
100
AcDbEntity
  8
LC-004-002-----0
 62
     7
370
    50
100
AcDbLine
 10
405.664089
 20
257.159425
 30
0.0
 11
405.664089
 21
259.159425
 31
0.0
  0
LINE
  5
12B
102
{ACAD_REACTORS
330
57B
102
}
330
1F
100
AcDbEntity
  8
LC-004-002-----0
 62
     7
370
    50
100
AcDbLine
 10
405.664089
 20
257.159425
 30
0.0
 11
402.664089
 21
257.159425
 31
0.0
  0
LINE
  5
12C
102
{ACAD_REACTORS
330
57B
102
}
330
1F
100
AcDbEntity
  8
LC-004-002-----0
 62
     7
370
    50
100
AcDbLine
 10
402.664089
 20
257.159425
 30
0.0
 11
402.664089
 21
259.159425
 31
0.0
  0
ARC
  5
12D
102
{ACAD_REACTORS
330
57B
102
}
330
1F
100
AcDbEntity
  8
LC-005-002-RND-0
 62
     7
370
    50
100
AcDbCircle
 10
396.164089
 20
257.159425
 30
0.0
 40
2.0
100
AcDbArc
 50
90.0
 51
180.0
  0
LINE
  5
12E
102
{ACAD_REACTORS
330
57B
102
}
330
1F
100
AcDbEntity
  8
LC-004-002-----0
 62
     7
370
    50
100
AcDbLine
 10
397.064089
 20
152.859933
 30
0.0
 11
399.623235
 21
152.859933
 31
0.0
  0
LINE
  5
12F
102
{ACAD_REACTORS
330
57B
102
}
330
1F
100
AcDbEntity
  8
LC-004-002-----0
 62
     7
370
    50
100
AcDbLine
 10
394.164089
 20
257.159425
 30
0.0
 11
394.164089
 21
249.42972
 31
0.0
  0
LINE
  5
130
102
{ACAD_REACTORS
330
57B
102
}
330
1F
100
AcDbEntity
  8
LC-004-002-----0
 62
     7
370
    50
100
AcDbLine
 10
431.667655
 20
155.29098
 30
0.0
 11
430.264089
 21
152.859933
 31
0.0
  0
LINE
  5
131
102
{ACAD_REACTORS
330
57B
102
}
330
1F
100
AcDbEntity
  8
LC-004-002-----0
 62
     7
370
    50
100
AcDbLine
 10
430.464089
 20
162.572368
 30
0.0
 11
430.464089
 21
241.674617
 31
0.0
  0
LINE
  5
132
102
{ACAD_REACTORS
330
57B
102
}
330
1F
100
AcDbEntity
  8
LC-004-002-----0
 62
     7
370
    50
100
AcDbLine
 10
406.810785
 20
152.859933
 30
0.0
 11
413.664089
 21
152.859933
 31
0.0
  0
INSERT
  5
138
102
{ACAD_REACTORS
330
57B
102
}
330
1F
100
AcDbEntity
  8
LC-003-005-----0
  6
ByBlock
 62
     7
370
    25
100
AcDbBlockReference
  2
*X1011
 10
0.0
 20
0.0
 30
0.0
  0
LINE
  5
139
102
{ACAD_REACTORS
330
57B
102
}
330
1F
100
AcDbEntity
  8
LC-004-002-----0
 62
     7
370
    50
100
AcDbLine
 10
421.664089
 20
257.159425
 30
0.0
 11
421.664089
 21
259.159425
 31
0.0
  0
LINE
  5
13A
102
{ACAD_REACTORS
330
57B
102
}
330
1F
100
AcDbEntity
  8
LC-004-002-----0
 62
     7
370
    50
100
AcDbLine
 10
421.664089
 20
257.159425
 30
0.0
 11
424.664089
 21
257.159425
 31
0.0
  0
LINE
  5
13B
102
{ACAD_REACTORS
330
57B
102
}
330
1F
100
AcDbEntity
  8
LC-004-002-----0
 62
     7
370
    50
100
AcDbLine
 10
424.664089
 20
257.159425
 30
0.0
 11
424.664089
 21
259.159425
 31
0.0
  0
ARC
  5
13C
102
{ACAD_REACTORS
330
57B
102
}
330
1F
100
AcDbEntity
  8
LC-005-002-RND-0
 62
     7
370
    50
100
AcDbCircle
 10
431.164089
 20
257.159425
 30
0.0
 40
2.0
100
AcDbArc
 50
0.0
 51
90.0
  0
LINE
  5
13D
102
{ACAD_REACTORS
330
57B
102
}
330
1F
100
AcDbEntity
  8
LC-004-002-----0
 62
     7
370
    50
100
AcDbLine
 10
430.264089
 20
152.859933
 30
0.0
 11
427.704944
 21
152.859933
 31
0.0
  0
LINE
  5
13E
102
{ACAD_REACTORS
330
57B
102
}
330
1F
100
AcDbEntity
  8
LC-004-002-----0
 62
     7
370
    50
100
AcDbLine
 10
436.064089
 20
224.267729
 30
0.0
 11
433.164089
 21
224.267729
 31
0.0
  0
LINE
  5
13F
102
{ACAD_REACTORS
330
57B
102
}
330
1F
100
AcDbEntity
  8
LC-004-002-----0
 62
     7
370
    50
100
AcDbLine
 10
431.658279
 20
160.503971
 30
0.0
 11
430.464089
 21
162.572368
 31
0.0
  0
LINE
  5
140
102
{ACAD_REACTORS
330
57B
102
}
330
1F
100
AcDbEntity
  8
LC-004-002-----0
 62
     7
370
    50
100
AcDbLine
 10
433.164089
 20
257.159425
 30
0.0
 11
433.164089
 21
250.908086
 31
0.0
  0
LINE
  5
141
102
{ACAD_REACTORS
330
57B
102
}
330
1F
100
AcDbEntity
  8
LC-004-002-----0
 62
     7
370
    50
100
AcDbLine
 10
396.364089
 20
249.42972
 30
0.0
 11
396.864089
 21
248.92972
 31
0.0
  0
ARC
  5
142
102
{ACAD_REACTORS
330
57B
102
}
330
1F
100
AcDbEntity
  8
LC-005-002-RND-0
 62
     7
370
    50
100
AcDbCircle
 10
395.714089
 20
241.974617
 30
0.0
 40
0.2999999999999545
100
AcDbArc
 50
180.0
 51
270.0
  0
LINE
  5
143
102
{ACAD_REACTORS
330
57B
102
}
330
1F
100
AcDbEntity
  8
LC-004-002-----0
 62
     7
370
    50
100
AcDbLine
 10
434.564089
 20
242.267729
 30
0.0
 11
433.564089
 21
242.267729
 31
0.0
  0
LINE
  5
144
102
{ACAD_REACTORS
330
57B
102
}
330
1F
100
AcDbEntity
  8
LC-004-002-----0
 62
     7
370
    50
100
AcDbLine
 10
391.264089
 20
224.267729
 30
0.0
 11
394.164089
 21
224.267729
 31
0.0
  0
LINE
  5
145
102
{ACAD_REACTORS
330
57B
102
}
330
1F
100
AcDbEntity
  8
LC-004-002-----0
 62
     7
370
    50
100
AcDbLine
 10
437.564089
 20
246.823876
 30
0.0
 11
437.564089
 21
225.767729
 31
0.0
  0
LINE
  5
146
102
{ACAD_REACTORS
330
57B
102
}
330
1F
100
AcDbEntity
  8
LC-004-002-----0
 62
     7
370
    50
100
AcDbLine
 10
393.764089
 20
242.267729
 30
0.0
 11
393.764089
 21
227.217729
 31
0.0
  0
LINE
  5
147
102
{ACAD_REACTORS
330
57B
102
}
330
1F
100
AcDbEntity
  8
LC-004-002-----0
 62
     7
370
    50
100
AcDbLine
 10
392.764089
 20
244.620165
 30
0.0
 11
392.764089
 21
224.267729
 31
0.0
  0
LINE
  5
148
102
{ACAD_REACTORS
330
57B
102
}
330
1F
100
AcDbEntity
  8
LC-004-002-----0
 62
     7
370
    50
100
AcDbLine
 10
438.324969
 20
250.713691
 30
0.0
 11
433.614089
 21
247.993864
 31
0.0
  0
ARC
  5
149
102
{ACAD_REACTORS
330
57B
102
}
330
1F
100
AcDbEntity
  8
LC-005-002-RND-0
 62
     7
370
    50
100
AcDbCircle
 10
393.764089
 20
245.738199
 30
0.0
 40
1.5
100
AcDbArc
 50
180.0
 51
270.0
  0
LINE
  5
14A
102
{ACAD_REACTORS
330
57B
102
}
330
1F
100
AcDbEntity
  8
LC-004-002-----0
 62
     7
370
    50
100
AcDbLine
 10
433.564089
 20
242.267729
 30
0.0
 11
433.564089
 21
227.217729
 31
0.0
  0
LINE
  5
14B
102
{ACAD_REACTORS
330
57B
102
}
330
1F
100
AcDbEntity
  8
LC-004-002-----0
 62
     7
370
    50
100
AcDbLine
 10
434.564089
 20
244.620165
 30
0.0
 11
434.564089
 21
224.267729
 31
0.0
  0
LINE
  5
14C
102
{ACAD_REACTORS
330
57B
102
}
330
1F
100
AcDbEntity
  8
LC-004-002-----0
  6
DASHED
 62
     7
370
    25
100
AcDbLine
 10
433.364089
 20
244.238199
 30
0.0
 11
433.364089
 21
247.238199
 31
0.0
  0
LINE
  5
14D
102
{ACAD_REACTORS
330
57B
102
}
330
1F
100
AcDbEntity
  8
LC-004-002-----0
 62
     7
370
    50
100
AcDbLine
 10
392.764089
 20
242.267729
 30
0.0
 11
393.764089
 21
242.267729
 31
0.0
  0
INSERT
  5
158
102
{ACAD_REACTORS
330
57B
102
}
330
1F
100
AcDbEntity
  8
LC-003-005-----0
  6
ByBlock
 62
     7
370
    25
100
AcDbBlockReference
  2
*X1112
 10
0.0
 20
0.0
 30
0.0
  0
LINE
  5
159
102
{ACAD_REACTORS
330
57B
102
}
330
1F
100
AcDbEntity
  8
LC-004-002-----0
 62
     7
370
    50
100
AcDbLine
 10
393.764089
 20
244.238199
 30
0.0
 11
395.414089
 21
244.238199
 31
0.0
  0
LINE
  5
15A
102
{ACAD_REACTORS
330
57B
102
}
330
1F
100
AcDbEntity
  8
LC-004-002-----0
 62
     7
370
    50
100
AcDbLine
 10
433.364089
 20
247.238199
 30
0.0
 11
433.364089
 21
247.560851
 31
0.0
  0
LINE
  5
15B
102
{ACAD_REACTORS
330
57B
102
}
330
1F
100
AcDbEntity
  8
LC-004-002-----0
 62
     7
370
    50
100
AcDbLine
 10
392.764089
 20
248.542347
 30
0.0
 11
392.764089
 21
246.856233
 31
0.0
  0
INSERT
  5
16B
102
{ACAD_REACTORS
330
57B
102
}
330
1F
100
AcDbEntity
  8
LC-003-005-----0
  6
ByBlock
 62
     7
370
    25
100
AcDbBlockReference
  2
*X1213
 10
0.0
 20
0.0
 30
0.0
  0
ARC
  5
16C
102
{ACAD_REACTORS
330
57C
102
}
330
1F
100
AcDbEntity
  8
LC-004-002-----0
 62
     7
370
    50
100
AcDbCircle
 10
447.956399
 20
234.223884
 30
0.0
 40
12.0
100
AcDbArc
 50
90.0
 51
150.000048
  0
INSERT
  5
17B
102
{ACAD_REACTORS
330
57B
102
}
330
1F
100
AcDbEntity
  8
LC-003-005-----0
  6
ByBlock
 62
     7
370
    25
100
AcDbBlockReference
  2
*X1314
 10
0.0
 20
0.0
 30
0.0
  0
INSERT
  5
189
102
{ACAD_REACTORS
330
57C
102
}
330
1F
100
AcDbEntity
  8
LC-003-005-----0
  6
ByBlock
 62
     7
370
    25
100
AcDbBlockReference
  2
*X1415
 10
0.0
 20
0.0
 30
0.0
  0
LINE
  5
18A
102
{ACAD_REACTORS
330
57B
102
}
330
1F
100
AcDbEntity
  8
LC-004-002-----0
 62
     7
370
    50
100
AcDbLine
 10
393.964089
 20
247.238199
 30
0.0
 11
395.414089
 21
247.238199
 31
0.0
  0
ARC
  5
18B
102
{ACAD_REACTORS
330
57B
102
}
330
1F
100
AcDbEntity
  8
LC-005-002-RND-0
 62
     7
370
    50
100
AcDbCircle
 10
433.564089
 20
245.738199
 30
0.0
 40
1.5
100
AcDbArc
 50
0.0
 51
62.181861
  0
ARC
  5
18C
102
{ACAD_REACTORS
330
57B
102
}
330
1F
100
AcDbEntity
  8
LC-005-002-RND-0
 62
     7
370
    50
100
AcDbCircle
 10
433.564089
 20
245.738199
 30
0.0
 40
1.5
100
AcDbArc
 50
270.0
 51
0.0
  0
LINE
  5
18D
102
{ACAD_REACTORS
330
57B
102
}
330
1F
100
AcDbEntity
  8
LC-004-002-----0
 62
     7
370
    50
100
AcDbLine
 10
434.564089
 20
248.542347
 30
0.0
 11
434.564089
 21
246.856233
 31
0.0
  0
LINE
  5
18E
102
{ACAD_REACTORS
330
57B
102
}
330
1F
100
AcDbEntity
  8
LC-004-002-----0
 62
     7
370
    50
100
AcDbLine
 10
433.164089
 20
243.273499
 30
0.0
 11
433.364089
 21
243.473499
 31
0.0
  0
LINE
  5
18F
102
{ACAD_REACTORS
330
57B
102
}
330
1F
100
AcDbEntity
  8
LC-004-002-----0
 62
     7
370
    50
100
AcDbLine
 10
393.064089
 20
248.369142
 30
0.0
 11
393.064089
 21
247.064849
 31
0.0
  0
LINE
  5
190
102
{ACAD_REACTORS
330
57B
102
}
330
1F
100
AcDbEntity
  8
LC-004-002-----0
 62
     7
370
    50
100
AcDbLine
 10
393.964089
 20
243.473499
 30
0.0
 11
393.964089
 21
244.238199
 31
0.0
  0
LINE
  5
191
102
{ACAD_REACTORS
330
57B
102
}
330
1F
100
AcDbEntity
  8
LC-004-002-----0
 62
     7
370
    50
100
AcDbLine
 10
394.164089
 20
243.273499
 30
0.0
 11
393.964089
 21
243.473499
 31
0.0
  0
LINE
  5
192
102
{ACAD_REACTORS
330
57B
102
}
330
1F
100
AcDbEntity
  8
LC-004-002-----0
  6
DASHED
 62
     7
370
    25
100
AcDbLine
 10
393.964089
 20
244.238199
 30
0.0
 11
393.964089
 21
247.238199
 31
0.0
  0
ARC
  5
193
102
{ACAD_REACTORS
330
57C
102
}
330
1F
100
AcDbEntity
  8
LC-005-002-RND-0
 62
     7
370
    50
100
AcDbCircle
 10
391.475683
 20
154.723876
 30
0.0
 40
14.00000000000001
100
AcDbArc
 50
182.0
 51
270.0
  0
ARC
  5
194
102
{ACAD_REACTORS
330
57B
102
}
330
1F
100
AcDbEntity
  8
LC-005-002-RND-0
 62
     7
370
    50
100
AcDbCircle
 10
393.464089
 20
247.560851
 30
0.0
 40
0.5
100
AcDbArc
 50
0.0
 51
60.0
  0
LINE
  5
195
102
{ACAD_REACTORS
330
57B
102
}
330
1F
100
AcDbEntity
  8
LC-004-002-----0
 62
     7
370
    25
100
AcDbLine
 10
436.064089
 20
244.857149
 30
0.0
 11
436.064089
 21
224.267729
 31
0.0
  0
LINE
  5
196
102
{ACAD_REACTORS
330
57B
102
}
330
1F
100
AcDbEntity
  8
LC-004-002-----0
 62
     7
370
    50
100
AcDbLine
 10
387.469942
 20
251.598924
 30
0.0
 11
378.664089
 21
252.758237
 31
0.0
  0
LINE
  5
197
102
{ACAD_REACTORS
330
57B
102
}
330
1F
100
AcDbEntity
  8
LC-004-002-----0
 62
     7
370
    50
100
AcDbLine
 10
378.664089
 20
252.76436
 30
0.0
 11
378.664089
 21
252.26436
 31
0.0
  0
LINE
  5
198
102
{ACAD_REACTORS
330
57B
102
}
330
1F
100
AcDbEntity
  8
LC-004-002-----0
 62
     7
370
    50
100
AcDbLine
 10
378.664089
 20
252.26436
 30
0.0
 11
388.44813
 21
248.703261
 31
0.0
  0
ARC
  5
199
102
{ACAD_REACTORS
330
57B
102
}
330
1F
100
AcDbEntity
  8
LC-005-002-RND-0
 62
     7
370
    50
100
AcDbCircle
 10
395.864089
 20
248.92972
 30
0.0
 40
0.5
100
AcDbArc
 50
0.0
 51
90.0
  0
LINE
  5
19A
102
{ACAD_REACTORS
330
57B
102
}
330
1F
100
AcDbEntity
  8
LC-004-002-----0
 62
     7
370
    50
100
AcDbLine
 10
396.364089
 20
243.11758
 30
0.0
 11
396.364089
 21
248.92972
 31
0.0
  0
LINE
  5
19B
102
{ACAD_REACTORS
330
57B
102
}
330
1F
100
AcDbEntity
  8
LC-004-002-----0
 62
     7
370
    50
100
AcDbLine
 10
439.858237
 20
251.598924
 30
0.0
 11
448.664089
 21
252.758237
 31
0.0
  0
ARC
  5
19C
102
{ACAD_REACTORS
330
57B
102
}
330
1F
100
AcDbEntity
  8
LC-005-002-RND-0
 62
     7
370
    50
100
AcDbCircle
 10
439.564089
 20
246.823876
 30
0.0
 40
1.999999999999902
100
AcDbArc
 50
110.0
 51
180.0
  0
LINE
  5
19D
102
{ACAD_REACTORS
330
57B
102
}
330
1F
100
AcDbEntity
  8
LC-004-002-----0
 62
     7
370
    50
100
AcDbLine
 10
430.964089
 20
243.11758
 30
0.0
 11
430.964089
 21
248.92972
 31
0.0
  0
ARC
  5
19E
102
{ACAD_REACTORS
330
57B
102
}
330
1F
100
AcDbEntity
  8
LC-004-002-----0
 62
     7
370
    50
100
AcDbCircle
 10
431.226336
 20
242.414923
 30
0.0
 40
0.7499999999999204
100
AcDbArc
 50
110.466676
 51
265.23921
  0
ARC
  5
19F
102
{ACAD_REACTORS
330
57B
102
}
330
1F
100
AcDbEntity
  8
LC-005-002-RND-0
 62
     7
370
    50
100
AcDbCircle
 10
431.464089
 20
248.92972
 30
0.0
 40
0.5
100
AcDbArc
 50
90.0
 51
180.0
  0
LINE
  5
1A0
102
{ACAD_REACTORS
330
57B
102
}
330
1F
100
AcDbEntity
  8
LC-004-002-----0
 62
     7
370
    50
100
AcDbLine
 10
389.00321
 20
250.713691
 30
0.0
 11
393.714089
 21
247.993864
 31
0.0
  0
INSERT
  5
1AE
102
{ACAD_REACTORS
330
57B
102
}
330
1F
100
AcDbEntity
  8
LC-003-005-----0
  6
ByBlock
 62
     7
370
    25
100
AcDbBlockReference
  2
*X1516
 10
0.0
 20
0.0
 30
0.0
  0
INSERT
  5
1BD
102
{ACAD_REACTORS
330
57B
102
}
330
1F
100
AcDbEntity
  8
LC-003-005-----0
  6
ByBlock
 62
     7
370
    25
100
AcDbBlockReference
  2
*X1617
 10
0.0
 20
0.0
 30
0.0
  0
LINE
  5
1BE
102
{ACAD_REACTORS
330
57B
102
}
330
1F
100
AcDbEntity
  8
LC-004-002-----0
 62
     7
370
    25
100
AcDbLine
 10
437.564089
 20
245.723174
 30
0.0
 11
436.064089
 21
244.857149
 31
0.0
  0
LINE
  5
1BF
102
{ACAD_REACTORS
330
57B
102
}
330
1F
100
AcDbEntity
  8
LC-004-002-----0
 62
     7
370
    50
100
AcDbLine
 10
434.564089
 20
227.217729
 30
0.0
 11
433.564089
 21
227.217729
 31
0.0
  0
LINE
  5
1C0
102
{ACAD_REACTORS
330
57B
102
}
330
1F
100
AcDbEntity
  8
LC-004-002-----0
 62
     7
370
    50
100
AcDbLine
 10
392.764089
 20
227.217729
 30
0.0
 11
393.764089
 21
227.217729
 31
0.0
  0
ARC
  5
1C1
102
{ACAD_REACTORS
330
57B
102
}
330
1F
100
AcDbEntity
  8
LC-005-002-RND-0
 62
     7
370
    50
100
AcDbCircle
 10
387.764089
 20
246.823876
 30
0.0
 40
2.0
100
AcDbArc
 50
0.0
 51
70.0
  0
LINE
  5
1C2
102
{ACAD_REACTORS
330
57D
102
}
330
1F
100
AcDbEntity
  8
LC-004-002-----0
 62
     7
370
    50
100
AcDbLine
 10
418.664089
 20
258.159425
 30
0.0
 11
418.664089
 21
264.539425
 31
0.0
  0
LINE
  5
1C3
102
{ACAD_REACTORS
330
57D
102
}
330
1F
100
AcDbEntity
  8
LC-004-002-----0
 62
     7
370
    50
100
AcDbLine
 10
402.664089
 20
262.159425
 30
0.0
 11
402.664089
 21
263.659425
 31
0.0
  0
INSERT
  5
1D3
102
{ACAD_REACTORS
330
57C
102
}
330
1F
100
AcDbEntity
  8
LC-003-005-----0
  6
ByBlock
 62
     7
370
    25
100
AcDbBlockReference
  2
*X1718
 10
0.0
 20
0.0
 30
0.0
  0
LINE
  5
1D4
102
{ACAD_REACTORS
330
57B
102
}
330
1F
100
AcDbEntity
  8
LC-004-002-----0
 62
     7
370
    50
100
AcDbLine
 10
408.664089
 20
261.539425
 30
0.0
 11
405.482808
 21
264.720707
 31
0.0
  0
LINE
  5
1D5
330
1F
100
AcDbEntity
  8
LC-004-002-----0
 62
     7
370
    50
100
AcDbLine
 10
389.764089
 20
242.223876
 30
0.0
 11
389.764089
 21
242.523876
 31
0.0
  0
ARC
  5
1D6
102
{ACAD_REACTORS
330
57C
102
}
330
1F
100
AcDbEntity
  8
LC-004-002-----0
 62
     7
370
    50
100
AcDbCircle
 10
379.37178
 20
234.223884
 30
0.0
 40
12.0
100
AcDbArc
 50
29.999952
 51
90.0
  0
LINE
  5
1D7
102
{ACAD_REACTORS
330
57D
102
}
330
1F
100
AcDbEntity
  8
LC-004-002-----0
 62
     7
370
    50
100
AcDbLine
 10
408.664089
 20
258.159425
 30
0.0
 11
408.664089
 21
264.539425
 31
0.0
  0
LINE
  5
1D8
102
{ACAD_REACTORS
330
57C
102
}
330
1F
100
AcDbEntity
  8
LC-004-002-----0
 62
     7
370
    50
100
AcDbLine
 10
449.964089
 20
246.223876
 30
0.0
 11
447.956399
 21
246.223876
 31
0.0
  0
LINE
  5
1D9
102
{ACAD_REACTORS
330
57C
102
}
330
1F
100
AcDbEntity
  8
LC-004-002-----0
 62
     7
370
    50
100
AcDbLine
 10
391.475683
 20
140.723876
 30
0.0
 11
433.661646
 21
140.723876
 31
0.0
  0
INSERT
  5
1E4
102
{ACAD_REACTORS
330
57B
102
}
330
1F
100
AcDbEntity
  8
LC-003-005-----0
  6
ByBlock
 62
     7
370
    25
100
AcDbBlockReference
  2
*X1819
 10
0.0
 20
0.0
 30
0.0
  0
LINE
  5
1E5
102
{ACAD_REACTORS
330
57B
102
}
330
1F
100
AcDbEntity
  8
LC-004-002-----0
 62
     7
370
    50
100
AcDbLine
 10
402.664089
 20
259.159425
 30
0.0
 11
402.664089
 21
264.401074
 31
0.0
  0
LINE
  5
1E6
102
{ACAD_REACTORS
330
57B
102
}
330
1F
100
AcDbEntity
  8
LC-004-002-----0
 62
     7
370
    25
100
AcDbLine
 10
389.764089
 20
245.723174
 30
0.0
 11
391.264089
 21
244.857149
 31
0.0
  0
LINE
  5
1E7
102
{ACAD_REACTORS
330
57B
102
}
330
1F
100
AcDbEntity
  8
LC-004-002-----0
 62
     7
370
    50
100
AcDbLine
 10
389.764089
 20
246.823876
 30
0.0
 11
389.764089
 21
225.767729
 31
0.0
  0
LINE
  5
1E8
102
{ACAD_REACTORS
330
57B
102
}
330
1F
100
AcDbEntity
  8
LC-004-002-----0
 62
     7
370
    25
100
AcDbLine
 10
391.264089
 20
244.857149
 30
0.0
 11
391.264089
 21
224.267729
 31
0.0
  0
LINE
  5
1E9
102
{ACAD_REACTORS
330
57B
102
}
330
1F
100
AcDbEntity
  8
LC-004-002-----0
 62
     7
370
    50
100
AcDbLine
 10
418.664089
 20
261.539425
 30
0.0
 11
421.845371
 21
264.720707
 31
0.0
  0
LINE
  5
1EA
102
{ACAD_REACTORS
330
57B
102
}
330
1F
100
AcDbEntity
  8
LC-004-002-----0
 62
     7
370
    50
100
AcDbLine
 10
394.164089
 20
252.76436
 30
0.0
 11
378.664089
 21
252.76436
 31
0.0
  0
LINE
  5
1EB
102
{ACAD_REACTORS
330
57B
102
}
330
1F
100
AcDbEntity
  8
LC-004-002-----0
 62
     7
370
    50
100
AcDbLine
 10
448.664089
 20
252.26436
 30
0.0
 11
438.880049
 21
248.703261
 31
0.0
  0
INSERT
  5
1F6
102
{ACAD_REACTORS
330
57B
102
}
330
1F
100
AcDbEntity
  8
LC-003-005-----0
  6
ByBlock
 62
     7
370
    25
100
AcDbBlockReference
  2
*X1920
 10
0.0
 20
0.0
 30
0.0
  0
LINE
  5
1F7
102
{ACAD_REACTORS
330
57C
102
}
330
1F
100
AcDbEntity
  8
LC-004-002-----0
 62
     7
370
    50
100
AcDbLine
 10
373.464089
 20
212.049082
 30
0.0
 11
375.485429
 21
154.165484
 31
0.0
  0
ARC
  5
1F8
102
{ACAD_REACTORS
330
57C
102
}
330
1F
100
AcDbEntity
  8
LC-005-002-RND-0
 62
     7
370
    50
100
AcDbCircle
 10
391.475683
 20
154.723876
 30
0.0
 40
16.00000000000004
100
AcDbArc
 50
182.0
 51
270.0
  0
INSERT
  5
1FE
102
{ACAD_REACTORS
330
57B
102
}
330
1F
100
AcDbEntity
  8
LC-003-005-----0
  6
ByBlock
 62
     7
370
    25
100
AcDbBlockReference
  2
*X2021
 10
0.0
 20
0.0
 30
0.0
  0
LINE
  5
1FF
102
{ACAD_REACTORS
330
57C
102
}
330
1F
100
AcDbEntity
  8
LC-004-002-----0
 62
     7
370
    50
100
AcDbLine
 10
391.475683
 20
138.723876
 30
0.0
 11
410.664089
 21
138.723876
 31
0.0
  0
LINE
  5
200
102
{ACAD_REACTORS
330
57B
102
}
330
1F
100
AcDbEntity
  8
LC-004-002-----0
 62
     7
370
    50
100
AcDbLine
 10
439.858237
 20
251.598924
 30
0.0
 11
434.564089
 21
248.542347
 31
0.0
  0
LINE
  5
201
102
{ACAD_REACTORS
330
57B
102
}
330
1F
100
AcDbEntity
  8
LC-004-002-----0
 62
     7
370
    50
100
AcDbLine
 10
387.469942
 20
251.598924
 30
0.0
 11
394.164089
 21
251.598924
 31
0.0
  0
LINE
  5
202
102
{ACAD_REACTORS
330
57B
102
}
330
1F
100
AcDbEntity
  8
LC-004-002-----0
 62
     7
370
    50
100
AcDbLine
 10
439.858237
 20
251.598924
 30
0.0
 11
433.164089
 21
251.598924
 31
0.0
  0
LINE
  5
203
102
{ACAD_REACTORS
330
57C
102
}
330
1F
100
AcDbEntity
  8
LC-004-002-----0
 62
     7
370
    50
100
AcDbLine
 10
387.864089
 20
230.223368
 30
0.0
 11
389.764089
 21
230.223368
 31
0.0
  0
LINE
  5
204
102
{ACAD_REACTORS
330
57B
102
}
330
1F
100
AcDbEntity
  8
LC-004-002-----0
 62
     7
370
    50
100
AcDbLine
 10
412.664089
 20
244.159425
 30
0.0
 11
412.664089
 21
250.159425
 31
0.0
  0
LINE
  5
205
102
{ACAD_REACTORS
330
57B
102
}
330
1F
100
AcDbEntity
  8
LC-004-002-----0
 62
     7
370
    50
100
AcDbLine
 10
414.664089
 20
244.159425
 30
0.0
 11
414.664089
 21
250.159425
 31
0.0
  0
LINE
  5
206
102
{ACAD_REACTORS
330
57B
102
}
330
1F
100
AcDbEntity
  8
LC-004-002-----0
 62
     7
370
    50
100
AcDbLine
 10
421.664089
 20
259.159425
 30
0.0
 11
431.264089
 21
259.159425
 31
0.0
  0
LINE
  5
207
102
{ACAD_REACTORS
330
57B
102
}
330
1F
100
AcDbEntity
  8
LC-004-002-----0
 62
     7
370
    50
100
AcDbLine
 10
421.845371
 20
264.720707
 30
0.0
 11
424.664089
 21
264.409429
 31
0.0
  0
LINE
  5
208
102
{ACAD_REACTORS
330
57D
102
}
330
1F
100
AcDbEntity
  8
LC-004-002-----0
 62
     7
370
    50
100
AcDbLine
 10
405.482808
 20
267.720707
 30
0.0
 11
402.664089
 21
267.401074
 31
0.0
  0
LINE
  5
20A
330
1F
100
AcDbEntity
  8
LC-004-002-----0
  6
DASHDOT
 62
     7
370
    25
100
AcDbLine
 10
595.302966
 20
213.020323
 30
0.0
 11
454.498443
 21
213.020323
 31
0.0
  0
LINE
  5
20B
102
{ACAD_REACTORS
330
57C
102
}
330
1F
100
AcDbEntity
  8
LC-004-002-----0
 62
     7
370
    50
100
AcDbLine
 10
461.557967
 20
237.880794
 30
0.0
 11
462.121228
 21
230.723876
 31
0.0
  0
ARC
  5
20C
102
{ACAD_REACTORS
330
57C
102
}
330
1F
100
AcDbEntity
  8
LC-005-002-RND-0
 62
     7
370
    50
100
AcDbCircle
 10
459.564132
 20
237.723876
 30
0.0
 40
1.999999999999953
100
AcDbArc
 50
4.5
 51
90.0
  0
LINE
  5
20D
102
{ACAD_REACTORS
330
57C
102
}
330
1F
100
AcDbEntity
  8
LC-004-002-----0
 62
     7
370
    50
100
AcDbLine
 10
459.564132
 20
239.723876
 30
0.0
 11
445.664089
 21
239.723876
 31
0.0
  0
LINE
  5
20E
102
{ACAD_REACTORS
330
57C
102
}
330
1F
100
AcDbEntity
  8
LC-004-002-----0
 62
     7
370
    50
100
AcDbLine
 10
464.864089
 20
229.223876
 30
0.0
 11
461.557967
 21
237.880794
 31
0.0
  0
LINE
  5
20F
102
{ACAD_REACTORS
330
57C
102
}
330
1F
100
AcDbEntity
  8
LC-004-002-----0
 62
     7
370
    50
100
AcDbLine
 10
458.864089
 20
237.723876
 30
0.0
 11
447.564089
 21
237.723876
 31
0.0
  0
ARC
  5
210
102
{ACAD_REACTORS
330
57C
102
}
330
1F
100
AcDbEntity
  8
LC-005-002-RND-0
 62
     7
370
    50
100
AcDbCircle
 10
458.864089
 20
236.723876
 30
0.0
 40
1.0
100
AcDbArc
 50
0.0
 51
90.0
  0
LINE
  5
211
102
{ACAD_REACTORS
330
57C
102
}
330
1F
100
AcDbEntity
  8
LC-004-002-----0
 62
     7
370
    50
100
AcDbLine
 10
459.864089
 20
224.723876
 30
0.0
 11
459.864089
 21
236.723876
 31
0.0
  0
LINE
  5
212
102
{ACAD_REACTORS
330
57C
102
}
330
1F
100
AcDbEntity
  8
LC-004-002-----0
 62
     7
370
    50
100
AcDbLine
 10
381.764089
 20
239.723876
 30
0.0
 11
376.764047
 21
239.723876
 31
0.0
  0
ARC
  5
213
102
{ACAD_REACTORS
330
57C
102
}
330
1F
100
AcDbEntity
  8
LC-005-002-RND-0
 62
     7
370
    50
100
AcDbCircle
 10
376.764047
 20
237.723876
 30
0.0
 40
2.0
100
AcDbArc
 50
90.0
 51
175.5
  0
LINE
  5
214
102
{ACAD_REACTORS
330
57C
102
}
330
1F
100
AcDbEntity
  8
LC-004-002-----0
 62
     7
370
    50
100
AcDbLine
 10
374.770212
 20
237.880794
 30
0.0
 11
374.206951
 21
230.723876
 31
0.0
  0
LINE
  5
215
102
{ACAD_REACTORS
330
57C
102
}
330
1F
100
AcDbEntity
  8
LC-004-002-----0
 62
     7
370
    50
100
AcDbLine
 10
371.464089
 20
229.223876
 30
0.0
 11
374.770212
 21
237.880794
 31
0.0
  0
LINE
  5
216
102
{ACAD_REACTORS
330
57C
102
}
330
1F
100
AcDbEntity
  8
LC-004-002-----0
 62
     7
370
    50
100
AcDbLine
 10
379.764089
 20
237.723876
 30
0.0
 11
377.464089
 21
237.723876
 31
0.0
  0
ARC
  5
217
102
{ACAD_REACTORS
330
57C
102
}
330
1F
100
AcDbEntity
  8
LC-005-002-RND-0
 62
     7
370
    50
100
AcDbCircle
 10
377.464089
 20
236.723876
 30
0.0
 40
1.0
100
AcDbArc
 50
90.0
 51
180.0
  0
LINE
  5
218
102
{ACAD_REACTORS
330
57C
102
}
330
1F
100
AcDbEntity
  8
LC-004-002-----0
 62
     7
370
    50
100
AcDbLine
 10
376.464089
 20
225.223876
 30
0.0
 11
376.464089
 21
236.723876
 31
0.0
  0
LINE
  5
219
102
{ACAD_REACTORS
330
57C
102
}
330
1F
100
AcDbEntity
  8
LC-004-002-----0
 62
     7
370
    50
100
AcDbLine
 10
385.864089
 20
234.523876
 30
0.0
 11
381.764089
 21
234.523876
 31
0.0
  0
LINE
  5
21A
102
{ACAD_REACTORS
330
57C
102
}
330
1F
100
AcDbEntity
  8
LC-004-002-----0
 62
     7
370
    50
100
AcDbLine
 10
386.864089
 20
231.223368
 30
0.0
 11
386.864089
 21
233.523876
 31
0.0
  0
LINE
  5
21B
102
{ACAD_REACTORS
330
57C
102
}
330
1F
100
AcDbEntity
  8
LC-004-002-----0
 62
     7
370
    50
100
AcDbLine
 10
440.464089
 20
231.223368
 30
0.0
 11
440.464089
 21
233.523876
 31
0.0
  0
ARC
  5
21C
102
{ACAD_REACTORS
330
57C
102
}
330
1F
100
AcDbEntity
  8
LC-005-002-RND-0
 62
     7
370
    50
100
AcDbCircle
 10
379.764089
 20
236.723876
 30
0.0
 40
1.0
100
AcDbArc
 50
0.0
 51
90.0
  0
ARC
  5
21D
102
{ACAD_REACTORS
330
57C
102
}
330
1F
100
AcDbEntity
  8
LC-005-002-RND-0
 62
     7
370
    50
100
AcDbCircle
 10
381.764089
 20
235.523876
 30
0.0
 40
1.0
100
AcDbArc
 50
180.0
 51
270.0
  0
LINE
  5
21E
102
{ACAD_REACTORS
330
57C
102
}
330
1F
100
AcDbEntity
  8
LC-004-002-----0
 62
     7
370
    50
100
AcDbLine
 10
380.764089
 20
236.723876
 30
0.0
 11
380.764089
 21
235.523876
 31
0.0
  0
ARC
  5
21F
102
{ACAD_REACTORS
330
57C
102
}
330
1F
100
AcDbEntity
  8
LC-005-002-RND-0
 62
     7
370
    50
100
AcDbCircle
 10
385.864089
 20
233.523876
 30
0.0
 40
1.0
100
AcDbArc
 50
0.0
 51
90.0
  0
LINE
  5
220
102
{ACAD_REACTORS
330
57C
102
}
330
1F
100
AcDbEntity
  8
LC-004-002-----0
 62
     7
370
    50
100
AcDbLine
 10
382.764089
 20
238.723876
 30
0.0
 11
382.764089
 21
237.523876
 31
0.0
  0
LINE
  5
221
102
{ACAD_REACTORS
330
57C
102
}
330
1F
100
AcDbEntity
  8
LC-004-002-----0
 62
     7
370
    50
100
AcDbLine
 10
376.464089
 20
225.223876
 30
0.0
 11
375.464089
 21
225.223876
 31
0.0
  0
ARC
  5
222
102
{ACAD_REACTORS
330
57C
102
}
330
1F
100
AcDbEntity
  8
LC-005-002-RND-0
 62
     7
370
    50
100
AcDbCircle
 10
441.464089
 20
233.523876
 30
0.0
 40
1.0
100
AcDbArc
 50
90.0
 51
180.0
  0
ARC
  5
223
102
{ACAD_REACTORS
330
57C
102
}
330
1F
100
AcDbEntity
  8
LC-005-002-RND-0
 62
     7
370
    50
100
AcDbCircle
 10
445.564089
 20
235.523876
 30
0.0
 40
1.0
100
AcDbArc
 50
270.0
 51
0.0
  0
LINE
  5
224
102
{ACAD_REACTORS
330
57C
102
}
330
1F
100
AcDbEntity
  8
LC-004-002-----0
 62
     7
370
    50
100
AcDbLine
 10
441.464089
 20
234.523876
 30
0.0
 11
445.564089
 21
234.523876
 31
0.0
  0
ARC
  5
225
102
{ACAD_REACTORS
330
57C
102
}
330
1F
100
AcDbEntity
  8
LC-005-002-RND-0
 62
     7
370
    50
100
AcDbCircle
 10
447.564089
 20
236.723876
 30
0.0
 40
1.0
100
AcDbArc
 50
90.0
 51
180.0
  0
ARC
  5
226
102
{ACAD_REACTORS
330
57C
102
}
330
1F
100
AcDbEntity
  8
LC-005-002-RND-0
 62
     7
370
    50
100
AcDbCircle
 10
381.764089
 20
238.723876
 30
0.0
 40
1.0
100
AcDbArc
 50
0.0
 51
90.0
  0
LINE
  5
227
102
{ACAD_REACTORS
330
57C
102
}
330
1F
100
AcDbEntity
  8
LC-004-002-----0
 62
     7
370
    50
100
AcDbLine
 10
446.564089
 20
236.723876
 30
0.0
 11
446.564089
 21
235.523876
 31
0.0
  0
LINE
  5
228
102
{ACAD_REACTORS
330
57C
102
}
330
1F
100
AcDbEntity
  8
LC-004-002-----0
 62
     7
370
    50
100
AcDbLine
 10
461.864089
 20
229.223876
 30
0.0
 11
464.864089
 21
229.223876
 31
0.0
  0
LINE
  5
229
102
{ACAD_REACTORS
330
57C
102
}
330
1F
100
AcDbEntity
  8
LC-004-002-----0
 62
     7
370
    50
100
AcDbLine
 10
374.206951
 20
230.723876
 30
0.0
 11
372.023975
 21
230.723876
 31
0.0
  0
ARC
  5
22A
102
{ACAD_REACTORS
330
57C
102
}
330
1F
100
AcDbEntity
  8
LC-005-002-RND-0
 62
     7
370
    50
100
AcDbCircle
 10
383.764089
 20
237.523876
 30
0.0
 40
1.0
100
AcDbArc
 50
180.0
 51
270.0
  0
LINE
  5
22B
102
{ACAD_REACTORS
330
57C
102
}
330
1F
100
AcDbEntity
  8
LC-004-002-----0
 62
     7
370
    50
100
AcDbLine
 10
387.164089
 20
236.523876
 30
0.0
 11
383.764089
 21
236.523876
 31
0.0
  0
LINE
  5
22C
102
{ACAD_REACTORS
330
57C
102
}
330
1F
100
AcDbEntity
  8
LC-004-002-----0
 62
     7
370
    50
100
AcDbLine
 10
439.164089
 20
240.223876
 30
0.0
 11
439.164089
 21
237.523876
 31
0.0
  0
LINE
  5
22D
102
{ACAD_REACTORS
330
57C
102
}
330
1F
100
AcDbEntity
  8
LC-004-002-----0
 62
     7
370
    50
100
AcDbLine
 10
444.564089
 20
238.723876
 30
0.0
 11
444.564089
 21
237.523876
 31
0.0
  0
LINE
  5
22E
102
{ACAD_REACTORS
330
57C
102
}
330
1F
100
AcDbEntity
  8
LC-004-002-----0
 62
     7
370
    50
100
AcDbLine
 10
460.864089
 20
226.723876
 30
0.0
 11
461.864089
 21
226.723876
 31
0.0
  0
LINE
  5
22F
102
{ACAD_REACTORS
330
57C
102
}
330
1F
100
AcDbEntity
  8
LC-004-002-----0
 62
     7
370
    50
100
AcDbLine
 10
461.864089
 20
229.223876
 30
0.0
 11
461.864089
 21
226.723876
 31
0.0
  0
LINE
  5
230
102
{ACAD_REACTORS
330
57C
102
}
330
1F
100
AcDbEntity
  8
LC-004-002-----0
 62
     7
370
    50
100
AcDbLine
 10
374.464089
 20
229.223876
 30
0.0
 11
371.464089
 21
229.223876
 31
0.0
  0
INSERT
  5
235
102
{ACAD_REACTORS
330
57C
102
}
330
1F
100
AcDbEntity
  8
LC-003-005-----0
  6
ByBlock
 62
     7
370
    25
100
AcDbBlockReference
  2
*X2122
 10
0.0
 20
0.0
 30
0.0
  0
LINE
  5
236
102
{ACAD_REACTORS
330
57C
102
}
330
1F
100
AcDbEntity
  8
LC-004-002-----0
 62
     7
370
    50
100
AcDbLine
 10
459.864089
 20
225.223876
 30
0.0
 11
460.864089
 21
225.223876
 31
0.0
  0
LINE
  5
237
102
{ACAD_REACTORS
330
57B
102
}
330
1F
100
AcDbEntity
  8
LC-004-002-----0
 62
     7
370
    50
100
AcDbLine
 10
418.84077
 20
250.159425
 30
0.0
 11
414.664089
 21
250.159425
 31
0.0
  0
LINE
  5
238
102
{ACAD_REACTORS
330
57C
102
}
330
1F
100
AcDbEntity
  8
LC-004-002-----0
 62
     7
370
    50
100
AcDbLine
 10
462.121228
 20
230.723876
 30
0.0
 11
464.304204
 21
230.723876
 31
0.0
  0
LINE
  5
239
102
{ACAD_REACTORS
330
57C
102
}
330
1F
100
AcDbEntity
  8
LC-004-002-----0
 62
     7
370
    50
100
AcDbLine
 10
375.464089
 20
226.723876
 30
0.0
 11
375.464089
 21
225.223876
 31
0.0
  0
ARC
  5
23A
102
{ACAD_REACTORS
330
57C
102
}
330
1F
100
AcDbEntity
  8
LC-005-002-RND-0
 62
     7
370
    50
100
AcDbCircle
 10
387.864089
 20
231.223368
 30
0.0
 40
1.0
100
AcDbArc
 50
180.0
 51
270.0
  0
INSERT
  5
240
102
{ACAD_REACTORS
330
57B
102
}
330
1F
100
AcDbEntity
  8
LC-003-005-----0
  6
ByBlock
 62
     7
370
    25
100
AcDbBlockReference
  2
*X2223
 10
0.0
 20
0.0
 30
0.0
  0
LINE
  5
241
102
{ACAD_REACTORS
330
57B
102
}
330
1F
100
AcDbEntity
  8
LC-004-002-----0
 62
     7
370
    50
100
AcDbLine
 10
431.614089
 20
241.674617
 30
0.0
 11
431.164089
 21
241.674617
 31
0.0
  0
ARC
  5
242
102
{ACAD_REACTORS
330
57B
102
}
330
1F
100
AcDbEntity
  8
LC-005-002-RND-0
 62
     7
370
    50
100
AcDbCircle
 10
431.614089
 20
241.974617
 30
0.0
 40
0.3000000000001819
100
AcDbArc
 50
270.0
 51
0.0
  0
LINE
  5
243
102
{ACAD_REACTORS
330
57B
102
}
330
1F
100
AcDbEntity
  8
LC-004-002-----0
 62
     7
370
    50
100
AcDbLine
 10
431.914089
 20
241.974617
 30
0.0
 11
431.914089
 21
249.42972
 31
0.0
  0
INSERT
  5
24A
102
{ACAD_REACTORS
330
57B
102
}
330
1F
100
AcDbEntity
  8
LC-003-005-----0
  6
ByBlock
 62
     7
370
    25
100
AcDbBlockReference
  2
*X2324
 10
0.0
 20
0.0
 30
0.0
  0
LINE
  5
24B
102
{ACAD_REACTORS
330
57B
102
}
330
1F
100
AcDbEntity
  8
LC-004-002-----0
 62
     7
370
    50
100
AcDbLine
 10
396.165867
 20
240.674617
 30
0.0
 11
396.164089
 21
241.674617
 31
0.0
  0
LINE
  5
24C
102
{ACAD_REACTORS
330
57B
102
}
330
1F
100
AcDbEntity
  8
LC-004-002-----0
 62
     7
370
    50
100
AcDbLine
 10
433.164089
 20
251.273499
 30
0.0
 11
433.164089
 21
249.42972
 31
0.0
  0
INSERT
  5
259
102
{ACAD_REACTORS
330
57C
102
}
330
1F
100
AcDbEntity
  8
LC-003-005-----0
  6
ByBlock
 62
     7
370
    25
100
AcDbBlockReference
  2
*X2425
 10
0.0
 20
0.0
 30
0.0
  0
LINE
  5
25A
102
{ACAD_REACTORS
330
57B
102
}
330
1F
100
AcDbEntity
  8
LC-004-002-----0
 62
     7
370
    50
100
AcDbLine
 10
395.814089
 20
240.674617
 30
0.0
 11
395.664089
 21
157.273499
 31
0.0
  0
LINE
  5
25B
102
{ACAD_REACTORS
330
57C
102
}
330
1F
100
AcDbEntity
  8
LC-004-002-----0
 62
     7
370
    50
100
AcDbLine
 10
439.464089
 20
230.223368
 30
0.0
 11
437.564089
 21
230.223368
 31
0.0
  0
LINE
  5
25C
102
{ACAD_REACTORS
330
57B
102
}
330
1F
100
AcDbEntity
  8
LC-004-002-----0
 62
     7
370
    50
100
AcDbLine
 10
433.564089
 20
244.238199
 30
0.0
 11
431.914089
 21
244.238199
 31
0.0
  0
LINE
  5
25D
102
{ACAD_REACTORS
330
579
102
}
330
1F
100
AcDbEntity
  8
LC-004-002-----0
 62
     7
370
    50
100
AcDbLine
 10
394.164089
 20
227.873074
 30
0.0
 11
394.164089
 21
228.401867
 31
0.0
  0
LINE
  5
25E
102
{ACAD_REACTORS
330
57B
102
}
330
1F
100
AcDbEntity
  8
LC-004-002-----0
 62
     7
370
    50
100
AcDbLine
 10
433.364089
 20
247.238199
 30
0.0
 11
431.914089
 21
247.238199
 31
0.0
  0
LINE
  5
25F
102
{ACAD_REACTORS
330
57B
102
}
330
1F
100
AcDbEntity
  8
LC-004-002-----0
 62
     7
370
    50
100
AcDbLine
 10
394.164089
 20
229.500038
 30
0.0
 11
394.164089
 21
243.273499
 31
0.0
  0
INSERT
  5
280
102
{ACAD_REACTORS
330
57B
102
}
330
1F
100
AcDbEntity
  8
LC-003-005-----0
  6
ByBlock
 62
     7
370
    25
100
AcDbBlockReference
  2
*X2526
 10
0.0
 20
0.0
 30
0.0
  0
LINE
  5
281
102
{ACAD_REACTORS
330
57B
102
}
330
1F
100
AcDbEntity
  8
LC-004-002-----0
 62
     7
370
    50
100
AcDbLine
 10
431.514089
 20
240.674617
 30
0.0
 11
431.162312
 21
240.674617
 31
0.0
  0
INSERT
  5
287
102
{ACAD_REACTORS
330
57B
102
}
330
1F
100
AcDbEntity
  8
LC-003-005-----0
  6
ByBlock
 62
     7
370
    25
100
AcDbBlockReference
  2
*X2627
 10
0.0
 20
0.0
 30
0.0
  0
LINE
  5
288
102
{ACAD_REACTORS
330
57B
102
}
330
1F
100
AcDbEntity
  8
LC-004-002-----0
 62
     7
370
    50
100
AcDbLine
 10
433.164089
 20
157.273499
 30
0.0
 11
433.164089
 21
243.273499
 31
0.0
  0
INSERT
  5
2A9
102
{ACAD_REACTORS
330
57B
102
}
330
1F
100
AcDbEntity
  8
LC-003-005-----0
  6
ByBlock
 62
     7
370
    25
100
AcDbBlockReference
  2
*X2728
 10
0.0
 20
0.0
 30
0.0
  0
LINE
  5
2AA
102
{ACAD_REACTORS
330
57B
102
}
330
1F
100
AcDbEntity
  8
LC-004-002-----0
 62
     7
370
    50
100
AcDbLine
 10
431.514089
 20
240.674617
 30
0.0
 11
431.664089
 21
157.273499
 31
0.0
  0
LINE
  5
2AB
102
{ACAD_REACTORS
330
57B
102
}
330
1F
100
AcDbEntity
  8
LC-004-002-----0
 62
     7
370
    50
100
AcDbLine
 10
436.064089
 20
224.267729
 30
0.0
 11
437.564089
 21
225.767729
 31
0.0
  0
LINE
  5
2AC
102
{ACAD_REACTORS
330
57B
102
}
330
1F
100
AcDbEntity
  8
LC-004-002-----0
 62
     7
370
    50
100
AcDbLine
 10
391.264089
 20
224.267729
 30
0.0
 11
389.764089
 21
225.767729
 31
0.0
  0
LINE
  5
2AD
102
{ACAD_REACTORS
330
57B
102
}
330
1F
100
AcDbEntity
  8
LC-004-002-----0
 62
     7
370
    50
100
AcDbLine
 10
395.664089
 20
157.273499
 30
0.0
 11
394.164089
 21
157.273499
 31
0.0
  0
LINE
  5
2AE
102
{ACAD_REACTORS
330
57B
102
}
330
1F
100
AcDbEntity
  8
LC-004-002-----0
 62
     7
370
    50
100
AcDbLine
 10
394.164089
 20
157.273499
 30
0.0
 11
394.164089
 21
229.500038
 31
0.0
  0
LINE
  5
2AF
102
{ACAD_REACTORS
330
57B
102
}
330
1F
100
AcDbEntity
  8
LC-004-002-----0
 62
     7
370
    50
100
AcDbLine
 10
431.162312
 20
240.674617
 30
0.0
 11
431.164089
 21
241.674617
 31
0.0
  0
INSERT
  5
2B6
102
{ACAD_REACTORS
330
57B
102
}
330
1F
100
AcDbEntity
  8
LC-003-005-----0
  6
ByBlock
 62
     7
370
    25
100
AcDbBlockReference
  2
*X2829
 10
0.0
 20
0.0
 30
0.0
  0
INSERT
  5
2BC
102
{ACAD_REACTORS
330
57C
102
}
330
1F
100
AcDbEntity
  8
LC-003-005-----0
  6
ByBlock
 62
     7
370
    25
100
AcDbBlockReference
  2
*X2930
 10
0.0
 20
0.0
 30
0.0
  0
LINE
  5
2BD
102
{ACAD_REACTORS
330
57B
102
}
330
1F
100
AcDbEntity
  8
LC-004-002-----0
 62
     7
370
    50
100
AcDbLine
 10
438.174969
 20
251.273499
 30
0.0
 11
433.164089
 21
251.273499
 31
0.0
  0
LINE
  5
2BE
102
{ACAD_REACTORS
330
57B
102
}
330
1F
100
AcDbEntity
  8
LC-004-002-----0
 62
     7
370
    50
100
AcDbLine
 10
389.15321
 20
251.273499
 30
0.0
 11
394.164089
 21
251.273499
 31
0.0
  0
ARC
  5
2BF
102
{ACAD_REACTORS
330
57B
102
}
330
1F
100
AcDbEntity
  8
LC-005-002-RND-0
 62
     7
370
    50
100
AcDbCircle
 10
389.15321
 20
250.973499
 30
0.0
 40
0.2999999999999545
100
AcDbArc
 50
90.0
 51
240.0
  0
ARC
  5
2C0
102
{ACAD_REACTORS
330
57B
102
}
330
1F
100
AcDbEntity
  8
LC-005-002-RND-0
 62
     7
370
    50
100
AcDbCircle
 10
438.174969
 20
250.973499
 30
0.0
 40
0.299999999999952
100
AcDbArc
 50
300.0
 51
90.0
  0
INSERT
  5
2C8
102
{ACAD_REACTORS
330
57B
102
}
330
1F
100
AcDbEntity
  8
LC-003-005-----0
  6
ByBlock
 62
     7
370
    25
100
AcDbBlockReference
  2
*X3031
 10
0.0
 20
0.0
 30
0.0
  0
LINE
  5
2C9
102
{ACAD_REACTORS
330
57B
102
}
330
1F
100
AcDbEntity
  8
LC-004-002-----0
 62
     7
370
    50
100
AcDbLine
 10
433.164089
 20
157.273499
 30
0.0
 11
431.664089
 21
157.273499
 31
0.0
  0
ARC
  5
2CA
102
{ACAD_REACTORS
330
57C
102
}
330
1F
100
AcDbEntity
  8
LC-005-002-RND-0
 62
     7
370
    50
100
AcDbCircle
 10
439.464089
 20
231.223368
 30
0.0
 40
1.0
100
AcDbArc
 50
270.0
 51
0.0
  0
INSERT
  5
2E0
102
{ACAD_REACTORS
330
57B
102
}
330
1F
100
AcDbEntity
  8
LC-003-005-----0
  6
ByBlock
 62
     7
370
    25
100
AcDbBlockReference
  2
*X3132
 10
0.0
 20
0.0
 30
0.0
  0
INSERT
  5
2F9
102
{ACAD_REACTORS
330
57B
102
}
330
1F
100
AcDbEntity
  8
LC-003-005-----0
  6
ByBlock
 62
     7
370
    25
100
AcDbBlockReference
  2
*X3233
 10
0.0
 20
0.0
 30
0.0
  0
LINE
  5
2FA
102
{ACAD_REACTORS
330
57C
102
}
330
1F
100
AcDbEntity
  8
LC-004-002-----0
 62
     7
370
    50
100
AcDbLine
 10
439.164089
 20
240.223876
 30
0.0
 11
437.564089
 21
240.223876
 31
0.0
  0
LINE
  5
2FB
102
{ACAD_REACTORS
330
57B
102
}
330
1F
100
AcDbEntity
  8
LC-004-002-----0
 62
     7
370
    50
100
AcDbLine
 10
414.164089
 20
260.159425
 30
0.0
 11
413.664089
 21
260.159425
 31
0.0
  0
LINE
  5
2FC
102
{ACAD_REACTORS
330
57B
102
}
330
1F
100
AcDbEntity
  8
LC-004-002-----0
 62
     7
370
    50
100
AcDbLine
 10
413.164089
 20
260.159425
 30
0.0
 11
413.664089
 21
260.159425
 31
0.0
  0
LINE
  5
2FD
102
{ACAD_REACTORS
330
57B
102
}
330
1F
100
AcDbEntity
  8
LC-004-002-----0
 62
     7
370
    50
100
AcDbLine
 10
417.639089
 20
250.159425
 30
0.0
 11
419.664089
 21
250.159425
 31
0.0
  0
ARC
  5
2FE
102
{ACAD_REACTORS
330
57B
102
}
330
1F
100
AcDbEntity
  8
LC-005-002-RND-0
 62
     7
370
    50
100
AcDbCircle
 10
419.664089
 20
251.159425
 30
0.0
 40
1.0
100
AcDbArc
 50
270.0
 51
0.0
  0
LINE
  5
2FF
102
{ACAD_REACTORS
330
57B
102
}
330
1F
100
AcDbEntity
  8
LC-004-002-----0
 62
     7
370
    50
100
AcDbLine
 10
420.664089
 20
251.159425
 30
0.0
 11
420.664089
 21
255.019571
 31
0.0
  0
LINE
  5
300
102
{ACAD_REACTORS
330
57B
102
}
330
1F
100
AcDbEntity
  8
LC-004-002-----0
 62
     7
370
    50
100
AcDbLine
 10
412.664089
 20
250.159425
 30
0.0
 11
407.664089
 21
250.159425
 31
0.0
  0
ARC
  5
301
102
{ACAD_REACTORS
330
57B
102
}
330
1F
100
AcDbEntity
  8
LC-005-002-RND-0
 62
     7
370
    50
100
AcDbCircle
 10
407.664089
 20
251.159425
 30
0.0
 40
1.0
100
AcDbArc
 50
180.0
 51
270.0
  0
LINE
  5
302
102
{ACAD_REACTORS
330
57B
102
}
330
1F
100
AcDbEntity
  8
LC-004-002-----0
 62
     7
370
    50
100
AcDbLine
 10
406.664089
 20
251.159425
 30
0.0
 11
406.664089
 21
255.019571
 31
0.0
  0
LINE
  5
303
102
{ACAD_REACTORS
330
57B
102
}
330
1F
100
AcDbEntity
  8
LC-004-002-----0
 62
     7
370
    50
100
AcDbLine
 10
418.664089
 20
255.159425
 30
0.0
 11
420.664089
 21
255.019571
 31
0.0
  0
LINE
  5
304
102
{ACAD_REACTORS
330
57B
102
}
330
1F
100
AcDbEntity
  8
LC-004-002-----0
 62
     7
370
    50
100
AcDbLine
 10
408.664089
 20
255.159425
 30
0.0
 11
406.664089
 21
255.019571
 31
0.0
  0
LINE
  5
305
102
{ACAD_REACTORS
330
57B
102
}
330
1F
100
AcDbEntity
  8
LC-004-002-----0
 62
     7
370
    50
100
AcDbLine
 10
409.689089
 20
265.114743
 30
0.0
 11
409.689089
 21
250.159425
 31
0.0
  0
LINE
  5
306
102
{ACAD_REACTORS
330
57B
102
}
330
1F
100
AcDbEntity
  8
LC-004-002-----0
 62
     7
370
    50
100
AcDbLine
 10
417.639089
 20
265.114743
 30
0.0
 11
417.639089
 21
250.159425
 31
0.0
  0
LINE
  5
307
102
{ACAD_REACTORS
330
57C
102
}
330
1F
100
AcDbEntity
  8
LC-004-002-----0
 62
     7
370
    50
100
AcDbLine
 10
459.864089
 20
224.723876
 30
0.0
 11
468.556757
 21
224.723876
 31
0.0
  0
ARC
  5
308
102
{ACAD_REACTORS
330
57B
102
}
330
1F
100
AcDbEntity
  8
LC-004-002-----0
 62
     7
370
    50
100
AcDbCircle
 10
413.664089
 20
179.984743
 30
0.0
 40
88.13
100
AcDbArc
 50
90.0
 51
101.126901
  0
ARC
  5
309
102
{ACAD_REACTORS
330
57B
102
}
330
1F
100
AcDbEntity
  8
LC-004-002-----0
 62
     7
370
    50
100
AcDbCircle
 10
447.679215
 20
352.931437
 30
0.0
 40
91.13000000000014
100
AcDbArc
 50
258.873099
 51
266.119612
  0
ARC
  5
30A
102
{ACAD_REACTORS
330
57B
102
}
330
1F
100
AcDbEntity
  8
LC-004-002-----0
 62
     7
370
    50
100
AcDbCircle
 10
413.664089
 20
179.984743
 30
0.0
 40
85.12999999999988
100
AcDbArc
 50
78.873099
 51
86.632869
  0
LINE
  5
30B
102
{ACAD_REACTORS
330
57B
102
}
330
1F
100
AcDbEntity
  8
LC-004-002-----0
 62
     7
370
    50
100
AcDbLine
 10
447.414089
 20
261.271333
 30
0.0
 11
424.664089
 21
261.271333
 31
0.0
  0
ARC
  5
30C
102
{ACAD_REACTORS
330
57B
102
}
330
1F
100
AcDbEntity
  8
LC-005-002-RND-0
 62
     7
370
    50
100
AcDbCircle
 10
379.648964
 20
352.931437
 30
0.0
 40
88.13000000000018
100
AcDbArc
 50
273.880388
 51
281.126901
  0
LINE
  5
30D
102
{ACAD_REACTORS
330
57B
102
}
330
1F
100
AcDbEntity
  8
LC-004-002-----0
 62
     7
370
    50
100
AcDbLine
 10
418.664089
 20
255.159425
 30
0.0
 11
418.664089
 21
264.967782
 31
0.0
  0
ARC
  5
30E
102
{ACAD_REACTORS
330
57B
102
}
330
1F
100
AcDbEntity
  8
LC-004-002-----0
 62
     7
370
    50
100
AcDbCircle
 10
413.664089
 20
179.984743
 30
0.0
 40
88.12999999999998
100
AcDbArc
 50
78.873099
 51
90.0
  0
ARC
  5
30F
102
{ACAD_REACTORS
330
57B
102
}
330
1F
100
AcDbEntity
  8
LC-005-002-RND-0
 62
     7
370
    50
100
AcDbCircle
 10
447.414089
 20
262.771333
 30
0.0
 40
1.500000000000026
100
AcDbArc
 50
259.425754
 51
0.0
  0
ARC
  5
310
102
{ACAD_REACTORS
330
57B
102
}
330
1F
100
AcDbEntity
  8
LC-005-002-RND-0
 62
     7
370
    50
100
AcDbCircle
 10
447.414089
 20
262.771333
 30
0.0
 40
1.5
100
AcDbArc
 50
0.0
 51
79.425754
  0
ARC
  5
311
102
{ACAD_REACTORS
330
57B
102
}
330
1F
100
AcDbEntity
  8
LC-004-002-----0
 62
     7
370
    50
100
AcDbCircle
 10
438.224847
 20
213.546688
 30
0.0
 40
51.57502207478764
100
AcDbArc
 50
79.425754
 51
86.119612
  0
ARC
  5
312
102
{ACAD_REACTORS
330
57B
102
}
330
1F
100
AcDbEntity
  8
LC-004-002-----0
 62
     7
370
    50
100
AcDbCircle
 10
438.224847
 20
213.546688
 30
0.0
 40
48.5750220747877
100
AcDbArc
 50
79.425754
 51
86.119612
  0
ARC
  5
313
102
{ACAD_REACTORS
330
57B
102
}
330
1F
100
AcDbEntity
  8
LC-005-002-RND-0
 62
     7
370
    50
100
AcDbCircle
 10
447.679215
 20
352.931437
 30
0.0
 40
88.13000000000024
100
AcDbArc
 50
258.873099
 51
266.119612
  0
ARC
  5
314
102
{ACAD_REACTORS
330
57B
102
}
330
1F
100
AcDbEntity
  8
LC-004-002-----0
 62
     7
370
    50
100
AcDbCircle
 10
389.103332
 20
213.546688
 30
0.0
 40
51.57502207478767
100
AcDbArc
 50
93.880388
 51
100.574246
  0
LINE
  5
315
102
{ACAD_REACTORS
330
57B
102
}
330
1F
100
AcDbEntity
  8
LC-004-002-----0
 62
     7
370
    50
100
AcDbLine
 10
380.189354
 20
261.271333
 30
0.0
 11
402.664089
 21
261.271333
 31
0.0
  0
ARC
  5
316
102
{ACAD_REACTORS
330
57B
102
}
330
1F
100
AcDbEntity
  8
LC-005-002-RND-0
 62
     7
370
    50
100
AcDbCircle
 10
379.914089
 20
262.771333
 30
0.0
 40
1.5
100
AcDbArc
 50
180.0
 51
280.574246
  0
ARC
  5
317
102
{ACAD_REACTORS
330
57B
102
}
330
1F
100
AcDbEntity
  8
LC-005-002-RND-0
 62
     7
370
    50
100
AcDbCircle
 10
379.914089
 20
262.771333
 30
0.0
 40
1.500000000000026
100
AcDbArc
 50
100.574246
 51
180.0
  0
ARC
  5
318
102
{ACAD_REACTORS
330
57B
102
}
330
1F
100
AcDbEntity
  8
LC-004-002-----0
 62
     7
370
    50
100
AcDbCircle
 10
389.103332
 20
213.546688
 30
0.0
 40
48.57502207478773
100
AcDbArc
 50
93.880388
 51
100.574246
  0
LINE
  5
319
102
{ACAD_REACTORS
330
57B
102
}
330
1F
100
AcDbEntity
  8
LC-004-002-----0
 62
     7
370
    50
100
AcDbLine
 10
408.664089
 20
255.159425
 30
0.0
 11
408.664089
 21
264.967782
 31
0.0
  0
ARC
  5
31A
102
{ACAD_REACTORS
330
57B
102
}
330
1F
100
AcDbEntity
  8
LC-004-002-----0
 62
     7
370
    50
100
AcDbCircle
 10
379.648964
 20
352.931437
 30
0.0
 40
91.1300000000001
100
AcDbArc
 50
273.880388
 51
281.126901
  0
ARC
  5
31B
102
{ACAD_REACTORS
330
57B
102
}
330
1F
100
AcDbEntity
  8
LC-004-002-----0
 62
     7
370
    50
100
AcDbCircle
 10
413.664089
 20
179.984743
 30
0.0
 40
85.12999999999985
100
AcDbArc
 50
93.367131
 51
101.126901
  0
LINE
  5
31C
102
{ACAD_REACTORS
330
57B
102
}
330
1F
100
AcDbEntity
  8
LC-004-002-----0
 62
     7
370
    50
100
AcDbLine
 10
415.664089
 20
265.114743
 30
0.0
 11
409.689089
 21
265.114743
 31
0.0
  0
LINE
  5
31D
102
{ACAD_REACTORS
330
57B
102
}
330
1F
100
AcDbEntity
  8
LC-004-002-----0
 62
     7
370
    50
100
AcDbLine
 10
412.664089
 20
250.159425
 30
0.0
 11
413.164089
 21
260.159425
 31
0.0
  0
LINE
  5
31E
102
{ACAD_REACTORS
330
57B
102
}
330
1F
100
AcDbEntity
  8
LC-004-002-----0
 62
     7
370
    50
100
AcDbLine
 10
414.664089
 20
250.159425
 30
0.0
 11
414.164089
 21
260.159425
 31
0.0
  0
LINE
  5
31F
102
{ACAD_REACTORS
330
57B
102
}
330
1F
100
AcDbEntity
  8
LC-004-002-----0
 62
     7
370
    50
100
AcDbLine
 10
417.639089
 20
265.114743
 30
0.0
 11
411.664089
 21
265.114743
 31
0.0
  0
LINE
  5
320
102
{ACAD_REACTORS
330
57C
102
}
330
1F
100
AcDbEntity
  8
LC-004-002-----0
 62
     7
370
    50
100
AcDbLine
 10
388.164089
 20
240.223876
 30
0.0
 11
389.764089
 21
240.223876
 31
0.0
  0
ARC
  5
321
102
{ACAD_REACTORS
330
57C
102
}
330
1F
100
AcDbEntity
  8
LC-005-002-RND-0
 62
     7
370
    50
100
AcDbCircle
 10
445.564089
 20
238.723876
 30
0.0
 40
0.999999999999974
100
AcDbArc
 50
90.890752
 51
180.0
  0
LINE
  5
322
102
{ACAD_REACTORS
330
57C
102
}
330
1F
100
AcDbEntity
  8
LC-004-002-----0
 62
     7
370
    50
100
AcDbLine
 10
375.464089
 20
226.723876
 30
0.0
 11
374.464089
 21
226.723876
 31
0.0
  0
LINE
  5
323
102
{ACAD_REACTORS
330
57C
102
}
330
1F
100
AcDbEntity
  8
LC-004-002-----0
 62
     7
370
    50
100
AcDbLine
 10
371.464089
 20
227.723876
 30
0.0
 11
373.464089
 21
220.259774
 31
0.0
  0
LINE
  5
324
102
{ACAD_REACTORS
330
57C
102
}
330
1F
100
AcDbEntity
  8
LC-004-002-----0
 62
     7
370
    50
100
AcDbLine
 10
374.464089
 20
227.723876
 30
0.0
 11
371.464089
 21
227.723876
 31
0.0
  0
LINE
  5
325
102
{ACAD_REACTORS
330
57C
102
}
330
1F
100
AcDbEntity
  8
LC-004-002-----0
 62
     7
370
    50
100
AcDbLine
 10
374.464089
 20
227.723876
 30
0.0
 11
374.464089
 21
225.723876
 31
0.0
  0
LINE
  5
326
102
{ACAD_REACTORS
330
57C
102
}
330
1F
100
AcDbEntity
  8
LC-004-002-----0
 62
     7
370
    50
100
AcDbLine
 10
375.464089
 20
226.223876
 30
0.0
 11
374.464089
 21
226.223876
 31
0.0
  0
LINE
  5
327
102
{ACAD_REACTORS
330
57C
102
}
330
1F
100
AcDbEntity
  8
LC-004-002-----0
 62
     7
370
    50
100
AcDbLine
 10
373.464089
 20
226.223876
 30
0.0
 11
371.866013
 21
226.223876
 31
0.0
  0
LINE
  5
328
102
{ACAD_REACTORS
330
57C
102
}
330
1F
100
AcDbEntity
  8
LC-004-002-----0
 62
     7
370
    50
100
AcDbLine
 10
375.464089
 20
226.223876
 30
0.0
 11
374.464089
 21
225.723876
 31
0.0
  0
LINE
  5
329
102
{ACAD_REACTORS
330
57C
102
}
330
1F
100
AcDbEntity
  8
LC-004-002-----0
 62
     7
370
    50
100
AcDbLine
 10
388.164089
 20
240.223876
 30
0.0
 11
388.164089
 21
237.523876
 31
0.0
  0
ARC
  5
32A
102
{ACAD_REACTORS
330
57C
102
}
330
1F
100
AcDbEntity
  8
LC-005-002-RND-0
 62
     7
370
    50
100
AcDbCircle
 10
387.164089
 20
237.523876
 30
0.0
 40
1.0
100
AcDbArc
 50
270.0
 51
0.0
  0
LINE
  5
32B
102
{ACAD_REACTORS
330
57C
102
}
330
1F
100
AcDbEntity
  8
LC-004-002-----0
 62
     7
370
    50
100
AcDbLine
 10
375.464089
 20
226.223876
 30
0.0
 11
375.464089
 21
217.473876
 31
0.0
  0
ARC
  5
32C
102
{ACAD_REACTORS
330
57C
102
}
330
1F
100
AcDbEntity
  8
LC-005-002-RND-0
 62
     7
370
    50
100
AcDbCircle
 10
443.564089
 20
237.523876
 30
0.0
 40
1.0
100
AcDbArc
 50
270.0
 51
0.0
  0
ARC
  5
32D
102
{ACAD_REACTORS
330
57C
102
}
330
1F
100
AcDbEntity
  8
LC-005-002-RND-0
 62
     7
370
    50
100
AcDbCircle
 10
440.164089
 20
237.523876
 30
0.0
 40
1.0
100
AcDbArc
 50
180.0
 51
270.0
  0
LINE
  5
32E
102
{ACAD_REACTORS
330
57C
102
}
330
1F
100
AcDbEntity
  8
LC-004-002-----0
 62
     7
370
    50
100
AcDbLine
 10
440.164089
 20
236.523876
 30
0.0
 11
443.564089
 21
236.523876
 31
0.0
  0
LINE
  5
32F
102
{ACAD_REACTORS
330
57C
102
}
330
1F
100
AcDbEntity
  8
LC-004-002-----0
 62
     7
370
    50
100
AcDbLine
 10
374.464089
 20
229.223876
 30
0.0
 11
374.464089
 21
226.723876
 31
0.0
  0
LINE
  5
331
102
{ACAD_REACTORS
330
57C
102
}
330
1F
100
AcDbEntity
  8
LC-006-205-----0
 62
     7
370
    50
100
AcDbLine
 10
460.118178
 20
190.723876
 30
0.0
 11
477.291623
 21
190.723876
 31
0.0
  0
LINE
  5
332
102
{ACAD_REACTORS
330
57C
102
}
330
1F
100
AcDbEntity
  8
LC-004-002-----0
 62
     7
370
    50
100
AcDbLine
 10
461.864089
 20
227.723876
 30
0.0
 11
467.86233
 21
227.723876
 31
0.0
  0
LINE
  5
333
102
{ACAD_REACTORS
330
57C
102
}
330
1F
100
AcDbEntity
  8
LC-004-002-----0
 62
     7
370
    50
100
AcDbLine
 10
460.864089
 20
226.223876
 30
0.0
 11
461.864089
 21
226.223876
 31
0.0
  0
LINE
  5
334
102
{ACAD_REACTORS
330
57C
102
}
330
1F
100
AcDbEntity
  8
LC-004-002-----0
 62
     7
370
    50
100
AcDbLine
 10
460.03753
 20
188.414439
 30
0.0
 11
458.641756
 21
148.44468
 31
0.0
  0
LINE
  5
335
102
{ACAD_REACTORS
330
57C
102
}
330
1F
100
AcDbEntity
  8
LC-004-002-----0
 62
     7
370
    50
100
AcDbLine
 10
435.401241
 20
190.723876
 30
0.0
 11
435.283402
 21
213.229138
 31
0.0
  0
LINE
  5
336
102
{ACAD_REACTORS
330
57C
102
}
330
1F
100
AcDbEntity
  8
LC-004-002-----0
 62
     7
370
    50
100
AcDbLine
 10
460.864089
 20
226.223876
 30
0.0
 11
460.864089
 21
224.723876
 31
0.0
  0
LINE
  5
337
102
{ACAD_REACTORS
330
57C
102
}
330
1F
100
AcDbEntity
  8
LC-004-002-----0
 62
     7
370
    50
100
AcDbLine
 10
410.664089
 20
138.723876
 30
0.0
 11
460.644089
 21
138.723876
 31
0.0
  0
LINE
  5
338
102
{ACAD_REACTORS
330
57C
102
}
330
1F
100
AcDbEntity
  8
LC-004-002-----0
 62
     7
370
    50
100
AcDbLine
 10
435.673514
 20
138.723876
 30
0.0
 11
435.411713
 21
188.723876
 31
0.0
  0
LINE
  5
339
102
{ACAD_REACTORS
330
57C
102
}
330
1F
100
AcDbEntity
  8
LC-004-002-----0
 62
     7
370
    50
100
AcDbLine
 10
462.049555
 20
188.723876
 30
0.0
 11
460.642975
 21
148.44468
 31
0.0
  0
LINE
  5
33A
330
1F
100
AcDbEntity
  8
LC-004-002-----0
 62
     7
370
    50
100
AcDbLine
 10
375.464089
 20
220.473876
 30
0.0
 11
375.464089
 21
214.049082
 31
0.0
  0
ARC
  5
33B
102
{ACAD_REACTORS
330
57C
102
}
330
1F
100
AcDbEntity
  8
LC-006-205-----0
 62
     7
370
    50
100
AcDbCircle
 10
493.554157
 20
213.023876
 30
0.0
 40
29.59999999999981
100
AcDbArc
 50
133.567148
 51
150.223261
  0
LINE
  5
33C
102
{ACAD_REACTORS
330
57C
102
}
330
1F
100
AcDbEntity
  8
LC-006-205-----0
 62
     7
370
    50
100
AcDbLine
 10
499.653021
 20
238.023876
 30
0.0
 11
499.653021
 21
241.988749
 31
0.0
  0
LINE
  5
33D
102
{ACAD_REACTORS
330
57C
102
}
330
1F
100
AcDbEntity
  8
LC-006-205-----0
 62
     7
370
    50
100
AcDbLine
 10
499.653021
 20
238.023876
 30
0.0
 11
504.153021
 21
238.023876
 31
0.0
  0
LINE
  5
33E
102
{ACAD_REACTORS
330
57C
102
}
330
1F
100
AcDbEntity
  8
LC-006-205-----0
 62
     7
370
    50
100
AcDbLine
 10
504.153021
 20
238.023876
 30
0.0
 11
504.153021
 21
240.661243
 31
0.0
  0
ARC
  5
33F
102
{ACAD_REACTORS
330
57C
102
}
330
1F
100
AcDbEntity
  8
LC-006-205-----0
 62
     7
370
    50
100
AcDbCircle
 10
493.554157
 20
213.023876
 30
0.0
 40
29.6
100
AcDbArc
 50
53.517333
 51
69.018302
  0
LINE
  5
340
102
{ACAD_REACTORS
330
57C
102
}
330
1F
100
AcDbEntity
  8
LC-004-002-----0
 62
     7
370
    50
100
AcDbLine
 10
373.464089
 20
226.223876
 30
0.0
 11
373.464089
 21
212.049082
 31
0.0
  0
LINE
  5
341
102
{ACAD_REACTORS
330
57C
102
}
330
1F
100
AcDbEntity
  8
LC-004-002-----0
 62
     7
370
    50
100
AcDbLine
 10
434.041286
 20
213.229138
 30
0.0
 11
433.661646
 21
140.723876
 31
0.0
  0
LINE
  5
342
102
{ACAD_REACTORS
330
57C
102
}
330
1F
100
AcDbEntity
  8
LC-004-002-----0
 62
     7
370
    50
100
AcDbLine
 10
375.464089
 20
218.473876
 30
0.0
 11
375.464089
 21
212.049082
 31
0.0
  0
LINE
  5
343
102
{ACAD_REACTORS
330
57B
102
}
330
1F
100
AcDbEntity
  8
LC-004-002-----0
 62
     7
370
    50
100
AcDbLine
 10
395.414089
 20
241.974617
 30
0.0
 11
395.414089
 21
249.42972
 31
0.0
  0
LINE
  5
344
102
{ACAD_REACTORS
330
57B
102
}
330
1F
100
AcDbEntity
  8
LC-004-002-----0
 62
     7
370
    50
100
AcDbLine
 10
387.469942
 20
251.598924
 30
0.0
 11
392.764089
 21
248.542347
 31
0.0
  0
LINE
  5
345
102
{ACAD_REACTORS
330
57B
102
}
330
1F
100
AcDbEntity
  8
LC-004-002-----0
 62
     7
370
    50
100
AcDbLine
 10
408.664089
 20
255.159425
 30
0.0
 11
404.664089
 21
255.159425
 31
0.0
  0
LINE
  5
346
102
{ACAD_REACTORS
330
57B
102
}
330
1F
100
AcDbEntity
  8
LC-004-002-----0
 62
     7
370
    50
100
AcDbLine
 10
404.664089
 20
255.159425
 30
0.0
 11
404.664089
 21
257.159425
 31
0.0
  0
LINE
  5
347
102
{ACAD_REACTORS
330
57B
102
}
330
1F
100
AcDbEntity
  8
LC-004-002-----0
 62
     7
370
    50
100
AcDbLine
 10
418.664089
 20
255.159425
 30
0.0
 11
422.664089
 21
255.159425
 31
0.0
  0
LINE
  5
348
102
{ACAD_REACTORS
330
57B
102
}
330
1F
100
AcDbEntity
  8
LC-004-002-----0
 62
     7
370
    50
100
AcDbLine
 10
424.664089
 20
259.159425
 30
0.0
 11
424.664089
 21
264.409429
 31
0.0
  0
LINE
  5
349
102
{ACAD_REACTORS
330
57B
102
}
330
1F
100
AcDbEntity
  8
LC-004-002-----0
 62
     7
370
    50
100
AcDbLine
 10
422.664089
 20
255.159425
 30
0.0
 11
422.664089
 21
257.159425
 31
0.0
  0
LINE
  5
34A
102
{ACAD_REACTORS
330
57B
102
}
330
1F
100
AcDbEntity
  8
LC-004-002-----0
 62
     7
370
    50
100
AcDbLine
 10
434.264089
 20
248.369142
 30
0.0
 11
434.264089
 21
247.064849
 31
0.0
  0
LINE
  5
34B
102
{ACAD_REACTORS
330
57B
102
}
330
1F
100
AcDbEntity
  8
LC-004-002-----0
 62
     7
370
    50
100
AcDbLine
 10
448.664089
 20
252.76436
 30
0.0
 11
448.664089
 21
252.26436
 31
0.0
  0
INSERT
  5
356
102
{ACAD_REACTORS
330
57C
102
}
330
1F
100
AcDbEntity
  8
LC-003-005-----0
  6
ByBlock
 62
     7
370
    25
100
AcDbBlockReference
  2
*X3334
 10
0.0
 20
0.0
 30
0.0
  0
LINE
  5
357
102
{ACAD_REACTORS
330
57C
102
}
330
1F
100
AcDbEntity
  8
LC-004-002-----0
 62
     7
370
    50
100
AcDbLine
 10
461.864089
 20
227.723876
 30
0.0
 11
461.864089
 21
225.723876
 31
0.0
  0
LINE
  5
358
102
{ACAD_REACTORS
330
57C
102
}
330
1F
100
AcDbEntity
  8
LC-004-002-----0
 62
     7
370
    50
100
AcDbLine
 10
460.864089
 20
226.223876
 30
0.0
 11
461.864089
 21
225.723876
 31
0.0
  0
LINE
  5
359
102
{ACAD_REACTORS
330
57C
102
}
330
1F
100
AcDbEntity
  8
LC-006-205-----0
 62
     7
370
    50
100
AcDbLine
 10
511.153713
 20
236.826588
 30
0.0
 11
511.153713
 21
189.224387
 31
0.0
  0
ARC
  5
35A
102
{ACAD_REACTORS
330
57C
102
}
330
1F
100
AcDbEntity
  8
LC-006-205-----0
 62
     7
370
    50
100
AcDbCircle
 10
493.554157
 20
213.023876
 30
0.0
 40
29.60000000000021
100
AcDbArc
 50
290.981698
 51
306.482667
  0
LINE
  5
35B
102
{ACAD_REACTORS
330
57C
102
}
330
1F
100
AcDbEntity
  8
LC-006-205-----0
 62
     7
370
    50
100
AcDbLine
 10
511.153021
 20
190.723876
 30
0.0
 11
477.291623
 21
190.723876
 31
0.0
  0
LINE
  5
35C
102
{ACAD_REACTORS
330
57C
102
}
330
1F
100
AcDbEntity
  8
LC-006-205-----0
 62
     7
370
    50
100
AcDbLine
 10
504.153021
 20
188.023876
 30
0.0
 11
504.153021
 21
185.386508
 31
0.0
  0
LINE
  5
35D
102
{ACAD_REACTORS
330
57C
102
}
330
1F
100
AcDbEntity
  8
LC-006-205-----0
 62
     7
370
    50
100
AcDbLine
 10
499.653021
 20
188.023876
 30
0.0
 11
504.153021
 21
188.023876
 31
0.0
  0
ARC
  5
35E
102
{ACAD_REACTORS
330
57C
102
}
330
1F
100
AcDbEntity
  8
LC-006-205-----0
 62
     7
370
    50
100
AcDbCircle
 10
493.554157
 20
213.023876
 30
0.0
 40
29.5999999999998
100
AcDbArc
 50
235.179599
 51
281.890544
  0
LINE
  5
35F
102
{ACAD_REACTORS
330
57C
102
}
330
1F
100
AcDbEntity
  8
LC-006-205-----0
 62
     7
370
    50
100
AcDbLine
 10
499.653021
 20
188.023876
 30
0.0
 11
499.653021
 21
184.059003
 31
0.0
  0
LINE
  5
360
102
{ACAD_REACTORS
330
57C
102
}
330
1F
100
AcDbEntity
  8
LC-006-205-----0
 62
     7
370
    50
100
AcDbLine
 10
435.401241
 20
190.723876
 30
0.0
 11
460.118178
 21
190.723876
 31
0.0
  0
LINE
  5
361
102
{ACAD_REACTORS
330
57C
102
}
330
1F
100
AcDbEntity
  8
LC-006-205-----0
 62
     7
370
    50
100
AcDbLine
 10
511.152576
 20
235.327429
 30
0.0
 11
477.296496
 21
235.327429
 31
0.0
  0
ARC
  5
362
102
{ACAD_REACTORS
330
57C
102
}
330
1F
100
AcDbEntity
  8
LC-004-002-----0
 62
     7
370
    50
100
AcDbCircle
 10
493.554157
 20
213.023876
 30
0.0
 40
27.59999999999996
100
AcDbArc
 50
126.089316
 51
154.918118
  0
LINE
  5
363
102
{ACAD_REACTORS
330
57C
102
}
330
1F
100
AcDbEntity
  8
LC-004-002-----0
 62
     7
370
    50
100
AcDbLine
 10
473.153713
 20
238.523876
 30
0.0
 11
473.153713
 21
234.471064
 31
0.0
  0
LINE
  5
364
102
{ACAD_REACTORS
330
57C
102
}
330
1F
100
AcDbEntity
  8
LC-004-002-----0
 62
     7
370
    50
100
AcDbLine
 10
475.653713
 20
238.523876
 30
0.0
 11
475.653713
 21
236.597889
 31
0.0
  0
LINE
  5
365
102
{ACAD_REACTORS
330
57C
102
}
330
1F
100
AcDbEntity
  8
LC-004-002-----0
 62
     7
370
    50
100
AcDbLine
 10
473.153713
 20
238.523876
 30
0.0
 11
475.653713
 21
238.523876
 31
0.0
  0
LINE
  5
366
102
{ACAD_REACTORS
330
57C
102
}
330
1F
100
AcDbEntity
  8
LC-004-002-----0
 62
     7
370
    50
100
AcDbLine
 10
473.153713
 20
187.523876
 30
0.0
 11
475.653713
 21
187.523876
 31
0.0
  0
LINE
  5
367
102
{ACAD_REACTORS
330
57C
102
}
330
1F
100
AcDbEntity
  8
LC-004-002-----0
 62
     7
370
    50
100
AcDbLine
 10
475.653713
 20
188.723876
 30
0.0
 11
475.653713
 21
187.523876
 31
0.0
  0
LINE
  5
368
102
{ACAD_REACTORS
330
57C
102
}
330
1F
100
AcDbEntity
  8
LC-004-002-----0
 62
     7
370
    50
100
AcDbLine
 10
473.153713
 20
188.723876
 30
0.0
 11
473.153713
 21
187.523876
 31
0.0
  0
LINE
  5
369
102
{ACAD_REACTORS
330
57C
102
}
330
1F
100
AcDbEntity
  8
LC-004-002-----0
 62
     7
370
    50
100
AcDbLine
 10
475.653713
 20
188.723876
 30
0.0
 11
476.652382
 21
188.723876
 31
0.0
  0
ARC
  5
36A
102
{ACAD_REACTORS
330
57C
102
}
330
1F
100
AcDbEntity
  8
LC-006-205-----0
 62
     7
370
    50
100
AcDbCircle
 10
493.554157
 20
213.023876
 30
0.0
 40
29.59999999999993
100
AcDbArc
 50
78.109456
 51
127.210476
  0
ARC
  5
36B
330
1F
100
AcDbEntity
  8
LC-004-002-----0
 62
     7
370
    50
100
AcDbCircle
 10
481.152836
 20
207.882021
 30
0.0
 40
27.14514316662383
100
AcDbArc
 50
141.651937
 51
219.204411
  0
DIMENSION
  5
36C
330
1F
100
AcDbEntity
  8
LC-002-003-----0
 62
     7
370
    25
100
AcDbDimension
  2
*D35
 10
313.6
 20
246.223876
 30
0.0
 11
282.8
 21
192.478621
 31
0.0
 70
   160
  1
105
 71
     5
 42
107.490509
 53
90.0
  3
LC-DIM-L-0140-02-02
100
AcDbAlignedDimension
 13
390.924663
 23
138.733367
 33
0.0
 14
377.364089
 24
246.223876
 34
0.0
 50
90.0
100
AcDbRotatedDimension
  0
INSERT
  5
382
102
{ACAD_REACTORS
330
57B
102
}
330
1F
100
AcDbEntity
  8
LC-003-005-----0
  6
ByBlock
 62
     7
370
    25
100
AcDbBlockReference
  2
*X3436
 10
0.0
 20
0.0
 30
0.0
  0
LINE
  5
383
330
1F
100
AcDbEntity
  8
LC-004-002-----0
 62
     7
370
    50
100
AcDbLine
 10
461.864089
 20
229.223876
 30
0.0
 11
461.864089
 21
227.723876
 31
0.0
  0
LINE
  5
384
102
{ACAD_REACTORS
330
57C
102
}
330
1F
100
AcDbEntity
  8
LC-004-002-----0
 62
     7
370
    50
100
AcDbLine
 10
460.864089
 20
226.723876
 30
0.0
 11
460.864089
 21
225.223876
 31
0.0
  0
LINE
  5
385
102
{ACAD_REACTORS
330
57B
102
}
330
1F
100
AcDbEntity
  8
LC-004-002-----0
 62
     7
370
    50
100
AcDbLine
 10
448.664089
 20
252.76436
 30
0.0
 11
433.164089
 21
252.76436
 31
0.0
  0
INSERT
  5
38D
330
1F
100
AcDbEntity
  8
LC-003-005-----0
  6
ByBlock
 62
     7
370
    25
100
AcDbBlockReference
  2
*X3537
 10
0.0
 20
0.0
 30
0.0
  0
LINE
  5
38E
330
1F
100
AcDbEntity
  8
LC-004-002-----0
 62
     7
370
    50
100
AcDbLine
 10
449.914089
 20
246.223876
 30
0.0
 11
449.914089
 21
239.723876
 31
0.0
  0
LINE
  5
38F
330
1F
100
AcDbEntity
  8
LC-004-002-----0
 62
     7
370
    50
100
AcDbLine
 10
377.414089
 20
246.223876
 30
0.0
 11
377.414089
 21
239.723876
 31
0.0
  0
CIRCLE
  5
390
330
1F
100
AcDbEntity
  8
LC-004-002-----0
 62
     7
370
    50
100
AcDbCircle
 10
501.65845
 20
186.275414
 30
0.0
 40
1.75
  0
INSERT
  5
397
330
1F
100
AcDbEntity
  8
LC-003-005-----0
  6
ByBlock
 62
     7
370
    25
100
AcDbBlockReference
  2
*X3638
 10
0.0
 20
0.0
 30
0.0
  0
INSERT
  5
39F
330
1F
100
AcDbEntity
  8
LC-003-005-----0
  6
ByBlock
 62
     7
370
    25
100
AcDbBlockReference
  2
*X3739
 10
0.0
 20
0.0
 30
0.0
  0
DIMENSION
  5
3A0
330
1F
100
AcDbEntity
  8
LC-002-003-----0
 62
     7
370
    25
100
AcDbDimension
  2
*D40
 10
509.6
 20
346.216991
 30
0.0
 11
478.8
 21
307.165867
 31
0.0
 70
   160
  1
78
 71
     5
 42
78.102248
 53
90.0
  3
LC-DIM-L-0140-02-02
100
AcDbAlignedDimension
 13
413.664089
 23
268.114743
 33
0.0
 14
413.52362
 24
346.216991
 34
0.0
 50
90.0
100
AcDbRotatedDimension
  0
LINE
  5
3AD
330
1F
100
AcDbEntity
  8
LC-004-002-----0
 62
     7
370
    50
100
AcDbLine
 10
512.64676
 20
235.773876
 30
0.0
 11
512.64676
 21
190.273876
 31
0.0
  0
ARC
  5
3AE
330
1F
100
AcDbEntity
  8
LC-001-207-----0
 62
     7
370
    50
100
AcDbCircle
 10
493.554157
 20
213.023876
 30
0.0
 40
29.70000000000026
100
AcDbArc
 50
49.995438
 51
78.158811
  0
ARC
  5
3AF
330
1F
100
AcDbEntity
  8
LC-001-207-----0
 62
     7
370
    50
100
AcDbCircle
 10
487.933168
 20
182.842847
 30
0.0
 40
0.9999999999999742
100
AcDbArc
 50
79.449965
 51
180.0
  0
CIRCLE
  5
3B0
330
1F
100
AcDbEntity
  8
LC-004-002-----0
 62
     7
370
    50
100
AcDbCircle
 10
501.65845
 20
239.772338
 30
0.0
 40
1.75
  0
LINE
  5
3B1
330
1F
100
AcDbEntity
  8
LC-001-207-----0
 62
     7
370
    50
100
AcDbLine
 10
595.302966
 20
190.273876
 30
0.0
 11
595.302966
 21
188.827723
 31
0.0
  0
INSERT
  5
3DB
330
1F
100
AcDbEntity
  8
LC-003-005-----0
  6
ByBlock
 62
     7
370
    25
100
AcDbBlockReference
  2
*X3841
 10
0.0
 20
0.0
 30
0.0
  0
LINE
  5
3DC
330
1F
100
AcDbEntity
  8
LC-001-207-----0
 62
     7
370
    50
100
AcDbLine
 10
513.044924
 20
238.023876
 30
0.0
 11
564.052966
 21
238.023876
 31
0.0
  0
ARC
  5
3DD
330
1F
100
AcDbEntity
  8
LC-001-207-----0
 62
     7
370
    50
100
AcDbCircle
 10
493.554157
 20
213.023876
 30
0.0
 40
29.70000000000015
100
AcDbArc
 50
281.940306
 51
310.004562
  0
INSERT
  5
3E5
330
1F
100
AcDbEntity
  8
LC-003-005-----0
  6
ByBlock
 62
     7
370
    25
100
AcDbBlockReference
  2
*X3942
 10
0.0
 20
0.0
 30
0.0
  0
ARC
  5
3E6
330
1F
100
AcDbEntity
  8
LC-001-207-----0
 62
     7
370
    50
100
AcDbCircle
 10
487.933168
 20
243.204904
 30
0.0
 40
1.0
100
AcDbArc
 50
180.0
 51
280.550035
  0
INSERT
  5
3EF
330
1F
100
AcDbEntity
  8
LC-003-005-----0
  6
ByBlock
 62
     7
370
    25
100
AcDbBlockReference
  2
*X4043
 10
0.0
 20
0.0
 30
0.0
  0
LINE
  5
3F0
330
1F
100
AcDbEntity
  8
LC-001-207-----0
 62
     7
370
    50
100
AcDbLine
 10
564.052966
 20
238.023876
 30
0.0
 11
592.302966
 21
238.023876
 31
0.0
  0
ARC
  5
3F1
330
1F
100
AcDbEntity
  8
LC-004-002-----0
 62
     7
370
    50
100
AcDbCircle
 10
493.554157
 20
213.148134
 30
0.0
 40
32.65621125500474
100
AcDbArc
 50
106.729931
 51
128.660417
  0
LINE
  5
3F2
330
1F
100
AcDbEntity
  8
LC-004-002-----0
 62
     7
370
    50
100
AcDbLine
 10
484.153713
 20
244.422081
 30
0.0
 11
484.153713
 21
241.21576
 31
0.0
  0
INSERT
  5
3F9
330
1F
100
AcDbEntity
  8
LC-003-005-----0
  6
ByBlock
 62
     7
370
    25
100
AcDbBlockReference
  2
*X4144
 10
0.0
 20
0.0
 30
0.0
  0
INSERT
  5
41E
330
1F
100
AcDbEntity
  8
LC-003-005-----0
  6
ByBlock
 62
     7
370
    25
100
AcDbBlockReference
  2
*X4245
 10
0.0
 20
0.0
 30
0.0
  0
INSERT
  5
427
330
1F
100
AcDbEntity
  8
LC-003-005-----0
  6
ByBlock
 62
     7
370
    25
100
AcDbBlockReference
  2
*X4346
 10
0.0
 20
0.0
 30
0.0
  0
INSERT
  5
42C
330
1F
100
AcDbEntity
  8
LC-003-005-----0
  6
ByBlock
 62
     7
370
    25
100
AcDbBlockReference
  2
*X4447
 10
0.0
 20
0.0
 30
0.0
  0
LINE
  5
42D
330
1F
100
AcDbEntity
  8
LC-001-207-----0
 62
     7
370
    50
100
AcDbLine
 10
564.052966
 20
188.023876
 30
0.0
 11
592.302966
 21
188.023876
 31
0.0
  0
LINE
  5
42E
330
1F
100
AcDbEntity
  8
LC-001-207-----0
 62
     7
370
    50
100
AcDbLine
 10
564.052966
 20
190.273876
 30
0.0
 11
595.302966
 21
190.273876
 31
0.0
  0
LINE
  5
42F
330
1F
100
AcDbEntity
  8
LC-001-207-----0
 62
     7
370
    50
100
AcDbLine
 10
592.302966
 20
238.023876
 30
0.0
 11
595.302966
 21
237.220028
 31
0.0
  0
LINE
  5
430
330
1F
100
AcDbEntity
  8
LC-001-207-----0
 62
     7
370
    50
100
AcDbLine
 10
512.64676
 20
190.273876
 30
0.0
 11
564.052966
 21
190.273876
 31
0.0
  0
LINE
  5
431
330
1F
100
AcDbEntity
  8
LC-001-207-----0
 62
     7
370
    50
100
AcDbLine
 10
513.044924
 20
188.023876
 30
0.0
 11
564.052966
 21
188.023876
 31
0.0
  0
LINE
  5
432
102
{ACAD_REACTORS
330
57C
102
}
330
1F
100
AcDbEntity
  8
LC-004-002-----0
 62
     7
370
    50
100
AcDbLine
 10
462.067048
 20
188.723876
 30
0.0
 11
473.153713
 21
188.723876
 31
0.0
  0
DIMENSION
  5
433
330
1F
100
AcDbEntity
  8
LC-002-003-----0
 62
     7
370
    25
100
AcDbDimension
  2
*D48
 10
334.080806
 20
252.26436
 30
0.0
 11
303.280806
 21
249.244118
 31
0.0
 70
   160
  1
0-8(8-16)
 71
     5
 42
6.040485
 53
90.0
  3
LC-DIM-L-0140-02-02
100
AcDbAlignedDimension
 13
377.364089
 23
246.223876
 33
0.0
 14
378.664089
 24
252.26436
 34
0.0
 50
90.0
100
AcDbRotatedDimension
  0
INSERT
  5
44E
330
1F
100
AcDbEntity
  8
LC-003-005-----0
  6
ByBlock
 62
     7
370
    25
100
AcDbBlockReference
  2
*X4549
 10
0.0
 20
0.0
 30
0.0
  0
LINE
  5
44F
330
1F
100
AcDbEntity
  8
LC-001-207-----0
 62
     7
370
    50
100
AcDbLine
 10
592.302966
 20
188.023876
 30
0.0
 11
595.302966
 21
188.827723
 31
0.0
  0
LINE
  5
450
330
1F
100
AcDbEntity
  8
LC-001-207-----0
 62
     7
370
    50
100
AcDbLine
 10
595.302966
 20
237.220028
 30
0.0
 11
595.302966
 21
190.273876
 31
0.0
  0
ARC
  5
451
330
1F
100
AcDbEntity
  8
LC-001-207-----0
 62
     7
370
    50
100
AcDbCircle
 10
493.554157
 20
213.023876
 30
0.0
 40
31.70000000000007
100
AcDbArc
 50
257.827272
 51
307.941072
  0
ARC
  5
452
330
1F
100
AcDbEntity
  8
LC-001-207-----0
 62
     7
370
    50
100
AcDbCircle
 10
493.554157
 20
213.023876
 30
0.0
 40
31.70000000000008
100
AcDbArc
 50
52.058928
 51
102.055789
  0
LINE
  5
453
330
1F
100
AcDbEntity
  8
LC-001-207-----0
 62
     7
370
    50
100
AcDbLine
 10
486.933168
 20
243.204904
 30
0.0
 11
486.933168
 21
244.024723
 31
0.0
  0
LINE
  5
454
330
1F
100
AcDbEntity
  8
LC-001-207-----0
 62
     7
370
    50
100
AcDbLine
 10
486.933168
 20
182.036607
 30
0.0
 11
486.933168
 21
182.842847
 31
0.0
  0
LINE
  5
455
102
{ACAD_REACTORS
330
57A
102
}
330
1F
100
AcDbEntity
  8
LC-004-002-----0
  6
DASHED
 62
     7
370
    25
100
AcDbLine
 10
424.862206
 20
238.962181
 30
0.0
 11
424.376924
 21
238.962181
 31
0.0
  0
LINE
  5
456
102
{ACAD_REACTORS
330
57A
102
}
330
1F
100
AcDbEntity
  8
LC-004-002-----0
  6
DASHED
 62
     7
370
    25
100
AcDbLine
 10
398.42364
 20
230.966802
 30
0.0
 11
398.821991
 21
322.261673
 31
0.0
  0
LINE
  5
457
102
{ACAD_REACTORS
330
57A
102
}
330
1F
100
AcDbEntity
  8
LC-004-002-----0
  6
DASHED
 62
     7
370
    25
100
AcDbLine
 10
398.821991
 20
322.261673
 30
0.0
 11
404.485619
 21
335.261673
 31
0.0
  0
LINE
  5
458
102
{ACAD_REACTORS
330
57A
102
}
330
1F
100
AcDbEntity
  8
LC-004-002-----0
  6
DASHED
 62
     7
370
    25
100
AcDbLine
 10
428.623624
 20
230.96114
 30
0.0
 11
428.225248
 21
322.261673
 31
0.0
  0
LINE
  5
459
102
{ACAD_REACTORS
330
57A
102
}
330
1F
100
AcDbEntity
  8
LC-004-002-----0
  6
DASHED
 62
     7
370
    25
100
AcDbLine
 10
428.225248
 20
322.261673
 30
0.0
 11
422.56162
 21
335.261673
 31
0.0
  0
LINE
  5
45A
102
{ACAD_REACTORS
330
57A
102
}
330
1F
100
AcDbEntity
  8
LC-004-002-----0
  6
DASHED
 62
     7
370
    25
100
AcDbLine
 10
395.52943
 20
238.606219
 30
0.0
 11
396.72362
 21
240.674617
 31
0.0
  0
LINE
  5
45B
102
{ACAD_REACTORS
330
57A
102
}
330
1F
100
AcDbEntity
  8
LC-004-002-----0
  6
DASHED
 62
     7
370
    25
100
AcDbLine
 10
406.670315
 20
234.962181
 30
0.0
 11
406.670315
 21
230.962181
 31
0.0
  0
LINE
  5
45C
102
{ACAD_REACTORS
330
57A
102
}
330
1F
100
AcDbEntity
  8
LC-004-002-----0
  6
DASHED
 62
     7
370
    25
100
AcDbLine
 10
427.564475
 20
234.962181
 30
0.0
 11
427.564475
 21
230.962181
 31
0.0
  0
LINE
  5
45D
102
{ACAD_REACTORS
330
57A
102
}
330
1F
100
AcDbEntity
  8
LC-004-002-----0
  6
DASHED
 62
     7
370
    25
100
AcDbLine
 10
395.52362
 20
238.596156
 30
0.0
 11
395.52362
 21
233.393228
 31
0.0
  0
LINE
  5
45E
102
{ACAD_REACTORS
330
57A
102
}
330
1F
100
AcDbEntity
  8
LC-004-002-----0
  6
DASHED
 62
     7
370
    25
100
AcDbLine
 10
431.52362
 20
238.596156
 30
0.0
 11
431.52362
 21
233.393228
 31
0.0
  0
LINE
  5
45F
102
{ACAD_REACTORS
330
57A
102
}
330
1F
100
AcDbEntity
  8
LC-004-002-----0
  6
DASHED
 62
     7
370
    25
100
AcDbLine
 10
420.376924
 20
234.962181
 30
0.0
 11
420.376924
 21
230.962181
 31
0.0
  0
ARC
  5
460
102
{ACAD_REACTORS
330
57A
102
}
330
1F
100
AcDbEntity
  8
LC-005-002-RND-0
  6
DASHED
 62
     7
370
    25
100
AcDbCircle
 10
424.376924
 20
234.962181
 30
0.0
 40
4.0
100
AcDbArc
 50
90.0
 51
180.0
  0
ARC
  5
461
102
{ACAD_REACTORS
330
57A
102
}
330
1F
100
AcDbEntity
  8
LC-005-002-RND-0
  6
DASHED
 62
     7
370
    25
100
AcDbCircle
 10
402.670315
 20
234.962181
 30
0.0
 40
4.0
100
AcDbArc
 50
0.0
 51
90.0
  0
ARC
  5
462
102
{ACAD_REACTORS
330
57A
102
}
330
1F
100
AcDbEntity
  8
LC-005-002-RND-0
  6
DASHED
 62
     7
370
    25
100
AcDbCircle
 10
424.862206
 20
234.962181
 30
0.0
 40
4.000000000000093
100
AcDbArc
 50
20.862742
 51
90.0
  0
LINE
  5
463
102
{ACAD_REACTORS
330
57A
102
}
330
1F
100
AcDbEntity
  8
LC-004-002-----0
  6
DASHED
 62
     7
370
    25
100
AcDbLine
 10
402.670315
 20
238.962181
 30
0.0
 11
402.185034
 21
238.962181
 31
0.0
  0
ARC
  5
464
102
{ACAD_REACTORS
330
57A
102
}
330
1F
100
AcDbEntity
  8
LC-005-002-RND-0
  6
DASHED
 62
     7
370
    25
100
AcDbCircle
 10
403.482765
 20
234.962181
 30
0.0
 40
3.999999999999874
100
AcDbArc
 50
95.828791
 51
180.0
  0
ARC
  5
465
102
{ACAD_REACTORS
330
57A
102
}
330
1F
100
AcDbEntity
  8
LC-005-002-RND-0
  6
DASHED
 62
     7
370
    25
100
AcDbCircle
 10
423.564475
 20
234.962181
 30
0.0
 40
4.0
100
AcDbArc
 50
0.0
 51
84.171209
  0
ARC
  5
466
102
{ACAD_REACTORS
330
57A
102
}
330
1F
100
AcDbEntity
  8
LC-005-002-RND-0
  6
DASHED
 62
     7
370
    25
100
AcDbCircle
 10
402.185034
 20
234.962181
 30
0.0
 40
4.0
100
AcDbArc
 50
90.0
 51
159.137258
  0
LINE
  5
467
102
{ACAD_REACTORS
330
57A
102
}
330
1F
100
AcDbEntity
  8
LC-004-002-----0
  6
DASHED
 62
     7
370
    25
100
AcDbLine
 10
399.482765
 20
234.962181
 30
0.0
 11
399.482765
 21
230.962181
 31
0.0
  0
ARC
  5
468
330
1F
100
AcDbEntity
  8
LC-005-002-RND-0
 62
     7
370
    50
100
AcDbCircle
 10
409.188223
 20
328.761673
 30
0.0
 40
0.50000000000003
100
AcDbArc
 50
195.0
 51
270.0
  0
LINE
  5
469
102
{ACAD_REACTORS
330
57A
102
}
330
1F
100
AcDbEntity
  8
LC-004-002-----0
  6
DASHED
 62
     7
370
    25
100
AcDbLine
 10
394.02362
 20
327.531968
 30
0.0
 11
396.22362
 21
327.531968
 31
0.0
  0
LINE
  5
46A
102
{ACAD_REACTORS
330
57A
102
}
330
1F
100
AcDbEntity
  8
LC-004-002-----0
  6
DASHED
 62
     7
370
    25
100
AcDbLine
 10
430.32362
 20
322.261673
 30
0.0
 11
398.42362
 21
322.261673
 31
0.0
  0
LINE
  5
46B
102
{ACAD_REACTORS
330
57A
102
}
330
1F
100
AcDbEntity
  8
LC-004-002-----0
  6
DASHED
 62
     7
370
    25
100
AcDbLine
 10
433.02362
 20
327.531968
 30
0.0
 11
430.82362
 21
327.531968
 31
0.0
  0
LINE
  5
46C
102
{ACAD_REACTORS
330
57A
102
}
330
1F
100
AcDbEntity
  8
LC-004-002-----0
  6
DASHED
 62
     7
370
    25
100
AcDbLine
 10
396.72362
 20
240.674617
 30
0.0
 11
396.72362
 21
327.031968
 31
0.0
  0
LINE
  5
46D
102
{ACAD_REACTORS
330
57A
102
}
330
1F
100
AcDbEntity
  8
LC-004-002-----0
  6
DASHED
 62
     7
370
    25
100
AcDbLine
 10
430.82362
 20
327.531968
 30
0.0
 11
430.32362
 21
327.031968
 31
0.0
  0
LINE
  5
46E
102
{ACAD_REACTORS
330
57A
102
}
330
1F
100
AcDbEntity
  8
LC-004-002-----0
  6
DASHED
 62
     7
370
    25
100
AcDbLine
 10
430.32362
 20
327.031968
 30
0.0
 11
430.32362
 21
319.776865
 31
0.0
  0
LINE
  5
46F
102
{ACAD_REACTORS
330
57A
102
}
330
1F
100
AcDbEntity
  8
LC-004-002-----0
  6
DASHED
 62
     7
370
    25
100
AcDbLine
 10
420.376924
 20
230.962181
 30
0.0
 11
413.52362
 21
230.962181
 31
0.0
  0
LINE
  5
470
102
{ACAD_REACTORS
330
57A
102
}
330
1F
100
AcDbEntity
  8
LC-004-002-----0
  6
DASHED
 62
     7
370
    25
100
AcDbLine
 10
396.72362
 20
322.261673
 30
0.0
 11
413.52362
 21
322.261673
 31
0.0
  0
LINE
  5
471
102
{ACAD_REACTORS
330
57A
102
}
330
1F
100
AcDbEntity
  8
LC-004-002-----0
  6
DASHED
 62
     7
370
    25
100
AcDbLine
 10
395.520054
 20
233.393228
 30
0.0
 11
396.92362
 21
230.962181
 31
0.0
  0
LINE
  5
472
102
{ACAD_REACTORS
330
57A
102
}
330
1F
100
AcDbEntity
  8
LC-004-002-----0
  6
DASHED
 62
     7
370
    25
100
AcDbLine
 10
405.52362
 20
337.261673
 30
0.0
 11
396.02362
 21
337.261673
 31
0.0
  0
LINE
  5
473
102
{ACAD_REACTORS
330
57A
102
}
330
1F
100
AcDbEntity
  8
LC-004-002-----0
  6
DASHED
 62
     7
370
    25
100
AcDbLine
 10
405.52362
 20
335.261673
 30
0.0
 11
405.52362
 21
337.261673
 31
0.0
  0
LINE
  5
474
102
{ACAD_REACTORS
330
57A
102
}
330
1F
100
AcDbEntity
  8
LC-004-002-----0
  6
DASHED
 62
     7
370
    25
100
AcDbLine
 10
405.52362
 20
335.261673
 30
0.0
 11
402.52362
 21
335.261673
 31
0.0
  0
LINE
  5
475
102
{ACAD_REACTORS
330
57A
102
}
330
1F
100
AcDbEntity
  8
LC-004-002-----0
  6
DASHED
 62
     7
370
    25
100
AcDbLine
 10
402.52362
 20
335.261673
 30
0.0
 11
402.52362
 21
337.261673
 31
0.0
  0
ARC
  5
476
102
{ACAD_REACTORS
330
57A
102
}
330
1F
100
AcDbEntity
  8
LC-005-002-RND-0
  6
DASHED
 62
     7
370
    25
100
AcDbCircle
 10
396.02362
 20
335.261673
 30
0.0
 40
2.0
100
AcDbArc
 50
90.0
 51
180.0
  0
LINE
  5
477
102
{ACAD_REACTORS
330
57A
102
}
330
1F
100
AcDbEntity
  8
LC-004-002-----0
  6
DASHED
 62
     7
370
    25
100
AcDbLine
 10
396.92362
 20
230.962181
 30
0.0
 11
399.482765
 21
230.962181
 31
0.0
  0
LINE
  5
478
102
{ACAD_REACTORS
330
57A
102
}
330
1F
100
AcDbEntity
  8
LC-004-002-----0
  6
DASHED
 62
     7
370
    25
100
AcDbLine
 10
394.02362
 20
335.261673
 30
0.0
 11
394.02362
 21
327.531968
 31
0.0
  0
LINE
  5
479
102
{ACAD_REACTORS
330
57A
102
}
330
1F
100
AcDbEntity
  8
LC-004-002-----0
  6
DASHED
 62
     7
370
    25
100
AcDbLine
 10
431.527185
 20
233.393228
 30
0.0
 11
430.12362
 21
230.962181
 31
0.0
  0
LINE
  5
47A
102
{ACAD_REACTORS
330
57A
102
}
330
1F
100
AcDbEntity
  8
LC-004-002-----0
  6
DASHED
 62
     7
370
    25
100
AcDbLine
 10
430.32362
 20
240.674617
 30
0.0
 11
430.32362
 21
319.776865
 31
0.0
  0
LINE
  5
47B
102
{ACAD_REACTORS
330
57A
102
}
330
1F
100
AcDbEntity
  8
LC-004-002-----0
  6
DASHED
 62
     7
370
    25
100
AcDbLine
 10
406.670315
 20
230.962181
 30
0.0
 11
413.52362
 21
230.962181
 31
0.0
  0
LINE
  5
47C
102
{ACAD_REACTORS
330
57A
102
}
330
1F
100
AcDbEntity
  8
LC-004-002-----0
  6
DASHED
 62
     7
370
    25
100
AcDbLine
 10
421.52362
 20
335.261673
 30
0.0
 11
421.52362
 21
337.261673
 31
0.0
  0
LINE
  5
47D
102
{ACAD_REACTORS
330
57A
102
}
330
1F
100
AcDbEntity
  8
LC-004-002-----0
  6
DASHED
 62
     7
370
    25
100
AcDbLine
 10
421.52362
 20
335.261673
 30
0.0
 11
424.52362
 21
335.261673
 31
0.0
  0
LINE
  5
47E
102
{ACAD_REACTORS
330
57A
102
}
330
1F
100
AcDbEntity
  8
LC-004-002-----0
  6
DASHED
 62
     7
370
    25
100
AcDbLine
 10
424.52362
 20
335.261673
 30
0.0
 11
424.52362
 21
337.261673
 31
0.0
  0
ARC
  5
47F
102
{ACAD_REACTORS
330
57A
102
}
330
1F
100
AcDbEntity
  8
LC-005-002-RND-0
  6
DASHED
 62
     7
370
    25
100
AcDbCircle
 10
431.02362
 20
335.261673
 30
0.0
 40
2.0
100
AcDbArc
 50
0.0
 51
90.0
  0
LINE
  5
480
102
{ACAD_REACTORS
330
57A
102
}
330
1F
100
AcDbEntity
  8
LC-004-002-----0
  6
DASHED
 62
     7
370
    25
100
AcDbLine
 10
430.12362
 20
230.962181
 30
0.0
 11
427.564475
 21
230.962181
 31
0.0
  0
LINE
  5
481
102
{ACAD_REACTORS
330
57A
102
}
330
1F
100
AcDbEntity
  8
LC-004-002-----0
  6
DASHED
 62
     7
370
    25
100
AcDbLine
 10
431.51781
 20
238.606219
 30
0.0
 11
430.32362
 21
240.674617
 31
0.0
  0
LINE
  5
482
102
{ACAD_REACTORS
330
57A
102
}
330
1F
100
AcDbEntity
  8
LC-004-002-----0
  6
DASHED
 62
     7
370
    25
100
AcDbLine
 10
433.02362
 20
335.261673
 30
0.0
 11
433.02362
 21
329.010335
 31
0.0
  0
LINE
  5
483
102
{ACAD_REACTORS
330
57A
102
}
330
1F
100
AcDbEntity
  8
LC-004-002-----0
  6
DASHED
 62
     7
370
    25
100
AcDbLine
 10
396.22362
 20
327.531968
 30
0.0
 11
396.72362
 21
327.031968
 31
0.0
  0
LINE
  5
484
102
{ACAD_REACTORS
330
57A
102
}
330
1F
100
AcDbEntity
  8
LC-004-002-----0
  6
DASHED
 62
     7
370
    25
100
AcDbLine
 10
418.52362
 20
333.261673
 30
0.0
 11
418.52362
 21
339.641673
 31
0.0
  0
LINE
  5
485
102
{ACAD_REACTORS
330
57A
102
}
330
1F
100
AcDbEntity
  8
LC-004-002-----0
  6
DASHED
 62
     7
370
    25
100
AcDbLine
 10
402.52362
 20
337.261673
 30
0.0
 11
402.52362
 21
338.761673
 31
0.0
  0
LINE
  5
486
102
{ACAD_REACTORS
330
57A
102
}
330
1F
100
AcDbEntity
  8
LC-004-002-----0
  6
DASHED
 62
     7
370
    25
100
AcDbLine
 10
408.52362
 20
339.641673
 30
0.0
 11
405.342338
 21
342.822955
 31
0.0
  0
LINE
  5
487
102
{ACAD_REACTORS
330
57A
102
}
330
1F
100
AcDbEntity
  8
LC-004-002-----0
  6
DASHED
 62
     7
370
    25
100
AcDbLine
 10
408.52362
 20
333.261673
 30
0.0
 11
408.52362
 21
339.641673
 31
0.0
  0
LINE
  5
488
102
{ACAD_REACTORS
330
57A
102
}
330
1F
100
AcDbEntity
  8
LC-004-002-----0
  6
DASHED
 62
     7
370
    25
100
AcDbLine
 10
402.52362
 20
337.261673
 30
0.0
 11
402.52362
 21
342.503322
 31
0.0
  0
LINE
  5
489
102
{ACAD_REACTORS
330
57A
102
}
330
1F
100
AcDbEntity
  8
LC-004-002-----0
  6
DASHED
 62
     7
370
    25
100
AcDbLine
 10
418.52362
 20
339.641673
 30
0.0
 11
421.704902
 21
342.822955
 31
0.0
  0
LINE
  5
48A
102
{ACAD_REACTORS
330
57A
102
}
330
1F
100
AcDbEntity
  8
LC-004-002-----0
  6
DASHED
 62
     7
370
    25
100
AcDbLine
 10
412.52362
 20
322.261673
 30
0.0
 11
412.52362
 21
328.261673
 31
0.0
  0
LINE
  5
48B
102
{ACAD_REACTORS
330
57A
102
}
330
1F
100
AcDbEntity
  8
LC-004-002-----0
  6
DASHED
 62
     7
370
    25
100
AcDbLine
 10
414.52362
 20
322.261673
 30
0.0
 11
414.52362
 21
328.261673
 31
0.0
  0
LINE
  5
48C
102
{ACAD_REACTORS
330
57A
102
}
330
1F
100
AcDbEntity
  8
LC-004-002-----0
  6
DASHED
 62
     7
370
    25
100
AcDbLine
 10
421.52362
 20
337.261673
 30
0.0
 11
431.12362
 21
337.261673
 31
0.0
  0
LINE
  5
48D
102
{ACAD_REACTORS
330
57A
102
}
330
1F
100
AcDbEntity
  8
LC-004-002-----0
  6
DASHED
 62
     7
370
    25
100
AcDbLine
 10
421.704902
 20
342.822955
 30
0.0
 11
424.52362
 21
342.511677
 31
0.0
  0
LINE
  5
48E
102
{ACAD_REACTORS
330
57A
102
}
330
1F
100
AcDbEntity
  8
LC-004-002-----0
  6
DASHED
 62
     7
370
    25
100
AcDbLine
 10
405.342338
 20
342.822955
 30
0.0
 11
402.52362
 21
342.503322
 31
0.0
  0
LINE
  5
48F
102
{ACAD_REACTORS
330
57A
102
}
330
1F
100
AcDbEntity
  8
LC-004-002-----0
  6
DASHED
 62
     7
370
    25
100
AcDbLine
 10
414.52362
 20
328.261673
 30
0.0
 11
418.139956
 21
328.261673
 31
0.0
  0
LINE
  5
490
102
{ACAD_REACTORS
330
57A
102
}
330
1F
100
AcDbEntity
  8
LC-004-002-----0
  6
DASHED
 62
     7
370
    25
100
AcDbLine
 10
433.02362
 20
329.375747
 30
0.0
 11
433.02362
 21
327.531968
 31
0.0
  0
LINE
  5
491
102
{ACAD_REACTORS
330
57A
102
}
330
1F
100
AcDbEntity
  8
LC-004-002-----0
  6
DASHED
 62
     7
370
    25
100
AcDbLine
 10
395.52362
 20
235.375747
 30
0.0
 11
394.02362
 21
235.375747
 31
0.0
  0
LINE
  5
492
102
{ACAD_REACTORS
330
57A
102
}
330
1F
100
AcDbEntity
  8
LC-004-002-----0
  6
DASHED
 62
     7
370
    25
100
AcDbLine
 10
433.02362
 20
235.375747
 30
0.0
 11
431.52362
 21
235.375747
 31
0.0
  0
LINE
  5
493
102
{ACAD_REACTORS
330
57A
102
}
330
1F
100
AcDbEntity
  8
LC-004-002-----0
  6
DASHED
 62
     7
370
    25
100
AcDbLine
 10
414.02362
 20
338.261673
 30
0.0
 11
413.52362
 21
338.261673
 31
0.0
  0
LINE
  5
494
102
{ACAD_REACTORS
330
57A
102
}
330
1F
100
AcDbEntity
  8
LC-004-002-----0
  6
DASHED
 62
     7
370
    25
100
AcDbLine
 10
413.02362
 20
338.261673
 30
0.0
 11
413.52362
 21
338.261673
 31
0.0
  0
LINE
  5
495
102
{ACAD_REACTORS
330
57A
102
}
330
1F
100
AcDbEntity
  8
LC-004-002-----0
  6
DASHED
 62
     7
370
    25
100
AcDbLine
 10
412.52362
 20
328.261673
 30
0.0
 11
413.02362
 21
338.261673
 31
0.0
  0
LINE
  5
496
102
{ACAD_REACTORS
330
57A
102
}
330
1F
100
AcDbEntity
  8
LC-004-002-----0
  6
DASHED
 62
     7
370
    25
100
AcDbLine
 10
414.52362
 20
328.261673
 30
0.0
 11
414.02362
 21
338.261673
 31
0.0
  0
LINE
  5
497
102
{ACAD_REACTORS
330
57A
102
}
330
1F
100
AcDbEntity
  8
LC-004-002-----0
  6
DASHED
 62
     7
370
    25
100
AcDbLine
 10
408.52362
 20
333.261673
 30
0.0
 11
404.52362
 21
333.261673
 31
0.0
  0
LINE
  5
498
102
{ACAD_REACTORS
330
57A
102
}
330
1F
100
AcDbEntity
  8
LC-004-002-----0
  6
DASHED
 62
     7
370
    25
100
AcDbLine
 10
404.52362
 20
333.261673
 30
0.0
 11
404.52362
 21
335.261673
 31
0.0
  0
LINE
  5
499
102
{ACAD_REACTORS
330
57A
102
}
330
1F
100
AcDbEntity
  8
LC-004-002-----0
  6
DASHED
 62
     7
370
    25
100
AcDbLine
 10
418.52362
 20
333.261673
 30
0.0
 11
422.52362
 21
333.261673
 31
0.0
  0
LINE
  5
49A
102
{ACAD_REACTORS
330
57A
102
}
330
1F
100
AcDbEntity
  8
LC-004-002-----0
  6
DASHED
 62
     7
370
    25
100
AcDbLine
 10
424.52362
 20
337.261673
 30
0.0
 11
424.52362
 21
342.511677
 31
0.0
  0
LINE
  5
49B
102
{ACAD_REACTORS
330
57A
102
}
330
1F
100
AcDbEntity
  8
LC-004-002-----0
  6
DASHED
 62
     7
370
    25
100
AcDbLine
 10
422.52362
 20
333.261673
 30
0.0
 11
422.52362
 21
335.261673
 31
0.0
  0
ARC
  5
49C
102
{ACAD_REACTORS
330
57A
102
}
330
1F
100
AcDbEntity
  8
LC-004-002-----0
  6
DASHED
 62
     7
370
    25
100
AcDbCircle
 10
438.084377
 20
291.648936
 30
0.0
 40
48.57502207478761
100
AcDbArc
 50
76.794632
 51
86.119612
  0
ARC
  5
49D
102
{ACAD_REACTORS
330
57A
102
}
330
1F
100
AcDbEntity
  8
LC-005-002-RND-0
  6
DASHED
 62
     7
370
    25
100
AcDbCircle
 10
449.52362
 20
340.39985
 30
0.0
 40
1.500000000000038
100
AcDbArc
 50
256.794632
 51
0.0
  0
LINE
  5
49E
102
{ACAD_REACTORS
330
57A
102
}
330
1F
100
AcDbEntity
  8
LC-004-002-----0
  6
DASHED
 62
     7
370
    25
100
AcDbLine
 10
408.52362
 20
333.261673
 30
0.0
 11
407.813586
 21
333.212023
 31
0.0
  0
LINE
  5
49F
102
{ACAD_REACTORS
330
57A
102
}
330
1F
100
AcDbEntity
  8
LC-004-002-----0
  6
DASHED
 62
     7
370
    25
100
AcDbLine
 10
409.54862
 20
328.261673
 30
0.0
 11
412.52362
 21
328.261673
 31
0.0
  0
ARC
  5
4A0
102
{ACAD_REACTORS
330
57A
102
}
330
1F
100
AcDbEntity
  8
LC-005-002-RND-0
  6
DASHED
 62
     7
370
    25
100
AcDbCircle
 10
419.198776
 20
332.713241
 30
0.0
 40
0.5000000000000006
100
AcDbArc
 50
345.0
 51
86.0
  0
LINE
  5
4A1
102
{ACAD_REACTORS
330
57A
102
}
330
1F
100
AcDbEntity
  8
LC-004-002-----0
  6
DASHED
 62
     7
370
    25
100
AcDbLine
 10
418.52362
 20
333.261673
 30
0.0
 11
419.233654
 21
333.212023
 31
0.0
  0
ARC
  5
4A2
102
{ACAD_REACTORS
330
57A
102
}
330
1F
100
AcDbEntity
  8
LC-005-002-RND-0
  6
DASHED
 62
     7
370
    25
100
AcDbCircle
 10
407.848464
 20
332.713241
 30
0.0
 40
0.5000000000000063
100
AcDbArc
 50
94.0
 51
195.0
  0
ARC
  5
4A3
102
{ACAD_REACTORS
330
57A
102
}
330
1F
100
AcDbEntity
  8
LC-005-002-RND-0
  6
DASHED
 62
     7
370
    25
100
AcDbCircle
 10
418.139956
 20
328.761673
 30
0.0
 40
0.5
100
AcDbArc
 50
270.0
 51
345.0
  0
LINE
  5
4A4
102
{ACAD_REACTORS
330
57A
102
}
330
1F
100
AcDbEntity
  8
LC-004-002-----0
  6
DASHED
 62
     7
370
    25
100
AcDbLine
 10
408.42432
 20
328.632263
 30
0.0
 11
407.365501
 21
332.583831
 31
0.0
  0
LINE
  5
4A5
102
{ACAD_REACTORS
330
57A
102
}
330
1F
100
AcDbEntity
  8
LC-004-002-----0
  6
DASHED
 62
     7
370
    25
100
AcDbLine
 10
408.52362
 20
333.261673
 30
0.0
 11
408.52362
 21
343.07003
 31
0.0
  0
LINE
  5
4A6
102
{ACAD_REACTORS
330
57A
102
}
330
1F
100
AcDbEntity
  8
LC-004-002-----0
  6
DASHED
 62
     7
370
    25
100
AcDbLine
 10
418.622919
 20
328.632263
 30
0.0
 11
419.681738
 21
332.583831
 31
0.0
  0
LINE
  5
4A7
102
{ACAD_REACTORS
330
57A
102
}
330
1F
100
AcDbEntity
  8
LC-004-002-----0
  6
DASHED
 62
     7
370
    25
100
AcDbLine
 10
412.52362
 20
328.261673
 30
0.0
 11
408.858545
 21
328.261673
 31
0.0
  0
LINE
  5
4A8
102
{ACAD_REACTORS
330
57A
102
}
330
1F
100
AcDbEntity
  8
LC-004-002-----0
  6
DASHED
 62
     7
370
    25
100
AcDbLine
 10
409.54862
 20
343.216991
 30
0.0
 11
409.54862
 21
328.261673
 31
0.0
  0
LINE
  5
4A9
102
{ACAD_REACTORS
330
57A
102
}
330
1F
100
AcDbEntity
  8
LC-004-002-----0
  6
DASHED
 62
     7
370
    25
100
AcDbLine
 10
417.49862
 20
343.216991
 30
0.0
 11
417.49862
 21
328.261673
 31
0.0
  0
LINE
  5
4AA
102
{ACAD_REACTORS
330
57A
102
}
330
1F
100
AcDbEntity
  8
LC-004-002-----0
  6
DASHED
 62
     7
370
    25
100
AcDbLine
 10
418.52362
 20
333.261673
 30
0.0
 11
418.52362
 21
343.07003
 31
0.0
  0
LINE
  5
4AB
102
{ACAD_REACTORS
330
57A
102
}
330
1F
100
AcDbEntity
  8
LC-004-002-----0
  6
DASHED
 62
     7
370
    25
100
AcDbLine
 10
417.49862
 20
343.216991
 30
0.0
 11
411.52362
 21
343.216991
 31
0.0
  0
LINE
  5
4AC
102
{ACAD_REACTORS
330
57A
102
}
330
1F
100
AcDbEntity
  8
LC-004-002-----0
  6
DASHED
 62
     7
370
    25
100
AcDbLine
 10
409.54862
 20
343.216991
 30
0.0
 11
415.52362
 21
343.216991
 31
0.0
  0
ARC
  5
4AD
102
{ACAD_REACTORS
330
57A
102
}
330
1F
100
AcDbEntity
  8
LC-005-002-RND-0
  6
DASHED
 62
     7
370
    25
100
AcDbCircle
 10
449.52362
 20
340.39985
 30
0.0
 40
1.5
100
AcDbArc
 50
0.0
 51
76.794632
  0
ARC
  5
4AE
102
{ACAD_REACTORS
330
57A
102
}
330
1F
100
AcDbEntity
  8
LC-004-002-----0
  6
DASHED
 62
     7
370
    25
100
AcDbCircle
 10
438.084377
 20
291.648936
 30
0.0
 40
51.57502207478758
100
AcDbArc
 50
76.794632
 51
86.119612
  0
LINE
  5
4AF
102
{ACAD_REACTORS
330
57A
102
}
330
1F
100
AcDbEntity
  8
LC-004-002-----0
  6
DASHED
 62
     7
370
    25
100
AcDbLine
 10
449.52362
 20
338.89985
 30
0.0
 11
424.52362
 21
338.89985
 31
0.0
  0
ARC
  5
4B0
102
{ACAD_REACTORS
330
57A
102
}
330
1F
100
AcDbEntity
  8
LC-004-002-----0
  6
DASHED
 62
     7
370
    25
100
AcDbCircle
 10
388.962862
 20
291.648936
 30
0.0
 40
51.5750220747877
100
AcDbArc
 50
93.880388
 51
103.205368
  0
ARC
  5
4B1
102
{ACAD_REACTORS
330
57A
102
}
330
1F
100
AcDbEntity
  8
LC-005-002-RND-0
  6
DASHED
 62
     7
370
    25
100
AcDbCircle
 10
377.52362
 20
340.39985
 30
0.0
 40
1.5
100
AcDbArc
 50
180.0
 51
283.205368
  0
ARC
  5
4B2
102
{ACAD_REACTORS
330
57A
102
}
330
1F
100
AcDbEntity
  8
LC-005-002-RND-0
  6
DASHED
 62
     7
370
    25
100
AcDbCircle
 10
377.52362
 20
340.39985
 30
0.0
 40
1.500000000000038
100
AcDbArc
 50
103.205368
 51
180.0
  0
ARC
  5
4B3
102
{ACAD_REACTORS
330
57A
102
}
330
1F
100
AcDbEntity
  8
LC-004-002-----0
  6
DASHED
 62
     7
370
    25
100
AcDbCircle
 10
388.962862
 20
291.648936
 30
0.0
 40
48.57502207478765
100
AcDbArc
 50
93.880388
 51
103.205368
  0
LINE
  5
4B4
102
{ACAD_REACTORS
330
57A
102
}
330
1F
100
AcDbEntity
  8
LC-004-002-----0
  6
DASHED
 62
     7
370
    25
100
AcDbLine
 10
377.52362
 20
338.89985
 30
0.0
 11
402.52362
 21
338.89985
 31
0.0
  0
ARC
  5
4B5
102
{ACAD_REACTORS
330
57A
102
}
330
1F
100
AcDbEntity
  8
LC-004-002-----0
  6
DASHED
 62
     7
370
    25
100
AcDbCircle
 10
379.508494
 20
431.033685
 30
0.0
 40
91.13000000000022
100
AcDbArc
 50
273.880388
 51
281.126901
  0
ARC
  5
4B6
102
{ACAD_REACTORS
330
57A
102
}
330
1F
100
AcDbEntity
  8
LC-005-002-RND-0
  6
DASHED
 62
     7
370
    25
100
AcDbCircle
 10
379.508494
 20
431.033685
 30
0.0
 40
88.13000000000018
100
AcDbArc
 50
273.880388
 51
281.126901
  0
ARC
  5
4B7
102
{ACAD_REACTORS
330
57A
102
}
330
1F
100
AcDbEntity
  8
LC-004-002-----0
  6
DASHED
 62
     7
370
    25
100
AcDbCircle
 10
413.52362
 20
258.086991
 30
0.0
 40
88.13000000000011
100
AcDbArc
 50
90.0
 51
101.126901
  0
ARC
  5
4B8
102
{ACAD_REACTORS
330
57A
102
}
330
1F
100
AcDbEntity
  8
LC-004-002-----0
  6
DASHED
 62
     7
370
    25
100
AcDbCircle
 10
447.538745
 20
431.033685
 30
0.0
 40
91.13000000000027
100
AcDbArc
 50
258.873099
 51
266.119612
  0
ARC
  5
4B9
102
{ACAD_REACTORS
330
57A
102
}
330
1F
100
AcDbEntity
  8
LC-004-002-----0
  6
DASHED
 62
     7
370
    25
100
AcDbCircle
 10
413.52362
 20
258.086991
 30
0.0
 40
85.12999999999975
100
AcDbArc
 50
78.873099
 51
86.632869
  0
ARC
  5
4BA
102
{ACAD_REACTORS
330
57A
102
}
330
1F
100
AcDbEntity
  8
LC-004-002-----0
  6
DASHED
 62
     7
370
    25
100
AcDbCircle
 10
413.52362
 20
258.086991
 30
0.0
 40
88.12999999999998
100
AcDbArc
 50
78.873099
 51
90.0
  0
ARC
  5
4BB
102
{ACAD_REACTORS
330
57A
102
}
330
1F
100
AcDbEntity
  8
LC-005-002-RND-0
  6
DASHED
 62
     7
370
    25
100
AcDbCircle
 10
447.538745
 20
431.033685
 30
0.0
 40
88.13000000000024
100
AcDbArc
 50
258.873099
 51
266.119612
  0
ARC
  5
4BC
102
{ACAD_REACTORS
330
57A
102
}
330
1F
100
AcDbEntity
  8
LC-004-002-----0
  6
DASHED
 62
     7
370
    25
100
AcDbCircle
 10
413.52362
 20
258.086991
 30
0.0
 40
85.12999999999985
100
AcDbArc
 50
93.367131
 51
101.126901
  0
LINE
  5
4BD
102
{ACAD_REACTORS
330
57C
102
}
330
1F
100
AcDbEntity
  8
LC-004-002-----0
 62
     7
370
    50
100
AcDbLine
 10
460.644089
 20
148.44468
 30
0.0
 11
460.644089
 21
138.723876
 31
0.0
  0
LINE
  5
4BE
102
{ACAD_REACTORS
330
57C
102
}
330
1F
100
AcDbEntity
  8
LC-004-002-----0
 62
     7
370
    50
100
AcDbLine
 10
458.64519
 20
138.723876
 30
0.0
 11
458.641756
 21
148.44468
 31
0.0
  0
LINE
  5
4BF
102
{ACAD_REACTORS
330
57B
102
}
330
1F
100
AcDbEntity
  8
LC-004-002-----0
  6
DASHDOT
 62
     7
370
    25
100
AcDbLine
 10
413.664089
 20
346.216879
 30
0.0
 11
413.664089
 21
138.723876
 31
0.0
  0
LINE
  5
4C0
102
{ACAD_REACTORS
330
57C
102
}
330
1F
100
AcDbEntity
  8
LC-003-005-----0
  6
ByBlock
 62
     7
370
    25
100
AcDbLine
 10
413.561571
 20
138.723876
 30
0.0
 11
412.050437
 21
140.23501
 31
0.0
  0
LINE
  5
4C1
102
{ACAD_REACTORS
330
57C
102
}
330
1F
100
AcDbEntity
  8
LC-003-005-----0
  6
ByBlock
 62
     7
370
    25
100
AcDbLine
 10
416.389999
 20
138.723876
 30
0.0
 11
414.389999
 21
140.723876
 31
0.0
  0
LINE
  5
4C2
102
{ACAD_REACTORS
330
57C
102
}
330
1F
100
AcDbEntity
  8
LC-003-005-----0
  6
ByBlock
 62
     7
370
    25
100
AcDbLine
 10
419.218426
 20
138.723876
 30
0.0
 11
417.218426
 21
140.723876
 31
0.0
  0
LINE
  5
4C3
102
{ACAD_REACTORS
330
57C
102
}
330
1F
100
AcDbEntity
  8
LC-003-005-----0
  6
ByBlock
 62
     7
370
    25
100
AcDbLine
 10
422.046853
 20
138.723876
 30
0.0
 11
420.046853
 21
140.723876
 31
0.0
  0
LINE
  5
4C4
102
{ACAD_REACTORS
330
57C
102
}
330
1F
100
AcDbEntity
  8
LC-003-005-----0
  6
ByBlock
 62
     7
370
    25
100
AcDbLine
 10
424.87528
 20
138.723876
 30
0.0
 11
422.87528
 21
140.723876
 31
0.0
  0
LINE
  5
4C5
102
{ACAD_REACTORS
330
57C
102
}
330
1F
100
AcDbEntity
  8
LC-003-005-----0
  6
ByBlock
 62
     7
370
    25
100
AcDbLine
 10
427.703707
 20
138.723876
 30
0.0
 11
425.703707
 21
140.723876
 31
0.0
  0
LINE
  5
4C6
102
{ACAD_REACTORS
330
57C
102
}
330
1F
100
AcDbEntity
  8
LC-003-005-----0
  6
ByBlock
 62
     7
370
    25
100
AcDbLine
 10
430.532134
 20
138.723876
 30
0.0
 11
428.532134
 21
140.723876
 31
0.0
  0
LINE
  5
4C7
102
{ACAD_REACTORS
330
57C
102
}
330
1F
100
AcDbEntity
  8
LC-003-005-----0
  6
ByBlock
 62
     7
370
    25
100
AcDbLine
 10
433.360561
 20
138.723876
 30
0.0
 11
431.360561
 21
140.723876
 31
0.0
  0
LINE
  5
4C8
102
{ACAD_REACTORS
330
57C
102
}
330
1F
100
AcDbEntity
  8
LC-003-005-----0
  6
ByBlock
 62
     7
370
    25
100
AcDbLine
 10
435.670801
 20
139.242063
 30
0.0
 11
433.664392
 21
141.248472
 31
0.0
  0
LINE
  5
4C9
102
{ACAD_REACTORS
330
57C
102
}
330
1F
100
AcDbEntity
  8
LC-003-005-----0
  6
ByBlock
 62
     7
370
    25
100
AcDbLine
 10
435.655913
 20
142.085378
 30
0.0
 11
433.679125
 21
144.062166
 31
0.0
  0
LINE
  5
4CA
102
{ACAD_REACTORS
330
57C
102
}
330
1F
100
AcDbEntity
  8
LC-003-005-----0
  6
ByBlock
 62
     7
370
    25
100
AcDbLine
 10
435.641026
 20
144.928693
 30
0.0
 11
433.693858
 21
146.875861
 31
0.0
  0
LINE
  5
4CB
102
{ACAD_REACTORS
330
57C
102
}
330
1F
100
AcDbEntity
  8
LC-003-005-----0
  6
ByBlock
 62
     7
370
    25
100
AcDbLine
 10
435.626138
 20
147.772008
 30
0.0
 11
433.70859
 21
149.689555
 31
0.0
  0
LINE
  5
4CC
102
{ACAD_REACTORS
330
57C
102
}
330
1F
100
AcDbEntity
  8
LC-003-005-----0
  6
ByBlock
 62
     7
370
    25
100
AcDbLine
 10
435.61125
 20
150.615322
 30
0.0
 11
433.723323
 21
152.50325
 31
0.0
  0
LINE
  5
4CD
102
{ACAD_REACTORS
330
57C
102
}
330
1F
100
AcDbEntity
  8
LC-003-005-----0
  6
ByBlock
 62
     7
370
    25
100
AcDbLine
 10
435.596363
 20
153.458637
 30
0.0
 11
433.738056
 21
155.316944
 31
0.0
  0
LINE
  5
4CE
102
{ACAD_REACTORS
330
57C
102
}
330
1F
100
AcDbEntity
  8
LC-003-005-----0
  6
ByBlock
 62
     7
370
    25
100
AcDbLine
 10
435.581475
 20
156.301952
 30
0.0
 11
433.752788
 21
158.130639
 31
0.0
  0
LINE
  5
4CF
102
{ACAD_REACTORS
330
57C
102
}
330
1F
100
AcDbEntity
  8
LC-003-005-----0
  6
ByBlock
 62
     7
370
    25
100
AcDbLine
 10
435.566587
 20
159.145267
 30
0.0
 11
433.767521
 21
160.944333
 31
0.0
  0
LINE
  5
4D0
102
{ACAD_REACTORS
330
57C
102
}
330
1F
100
AcDbEntity
  8
LC-003-005-----0
  6
ByBlock
 62
     7
370
    25
100
AcDbLine
 10
435.5517
 20
161.988582
 30
0.0
 11
433.782253
 21
163.758028
 31
0.0
  0
LINE
  5
4D1
102
{ACAD_REACTORS
330
57C
102
}
330
1F
100
AcDbEntity
  8
LC-003-005-----0
  6
ByBlock
 62
     7
370
    25
100
AcDbLine
 10
435.536812
 20
164.831897
 30
0.0
 11
433.796986
 21
166.571722
 31
0.0
  0
LINE
  5
4D2
102
{ACAD_REACTORS
330
57C
102
}
330
1F
100
AcDbEntity
  8
LC-003-005-----0
  6
ByBlock
 62
     7
370
    25
100
AcDbLine
 10
435.521924
 20
167.675211
 30
0.0
 11
433.811719
 21
169.385417
 31
0.0
  0
LINE
  5
4D3
102
{ACAD_REACTORS
330
57C
102
}
330
1F
100
AcDbEntity
  8
LC-003-005-----0
  6
ByBlock
 62
     7
370
    25
100
AcDbLine
 10
435.507036
 20
170.518526
 30
0.0
 11
433.826451
 21
172.199111
 31
0.0
  0
LINE
  5
4D4
102
{ACAD_REACTORS
330
57C
102
}
330
1F
100
AcDbEntity
  8
LC-003-005-----0
  6
ByBlock
 62
     7
370
    25
100
AcDbLine
 10
435.492149
 20
173.361841
 30
0.0
 11
433.841184
 21
175.012806
 31
0.0
  0
LINE
  5
4D5
102
{ACAD_REACTORS
330
57C
102
}
330
1F
100
AcDbEntity
  8
LC-003-005-----0
  6
ByBlock
 62
     7
370
    25
100
AcDbLine
 10
435.477261
 20
176.205156
 30
0.0
 11
433.855916
 21
177.826501
 31
0.0
  0
LINE
  5
4D6
102
{ACAD_REACTORS
330
57C
102
}
330
1F
100
AcDbEntity
  8
LC-003-005-----0
  6
ByBlock
 62
     7
370
    25
100
AcDbLine
 10
435.462373
 20
179.048471
 30
0.0
 11
433.870649
 21
180.640195
 31
0.0
  0
LINE
  5
4D7
102
{ACAD_REACTORS
330
57C
102
}
330
1F
100
AcDbEntity
  8
LC-003-005-----0
  6
ByBlock
 62
     7
370
    25
100
AcDbLine
 10
435.447486
 20
181.891785
 30
0.0
 11
433.885382
 21
183.45389
 31
0.0
  0
LINE
  5
4D8
102
{ACAD_REACTORS
330
57C
102
}
330
1F
100
AcDbEntity
  8
LC-003-005-----0
  6
ByBlock
 62
     7
370
    25
100
AcDbLine
 10
435.432598
 20
184.7351
 30
0.0
 11
433.900114
 21
186.267584
 31
0.0
  0
LINE
  5
4D9
102
{ACAD_REACTORS
330
57C
102
}
330
1F
100
AcDbEntity
  8
LC-003-005-----0
  6
ByBlock
 62
     7
370
    25
100
AcDbLine
 10
435.41771
 20
187.578415
 30
0.0
 11
433.914847
 21
189.081279
 31
0.0
  0
LINE
  5
4DA
102
{ACAD_REACTORS
330
57C
102
}
330
1F
100
AcDbEntity
  8
LC-003-005-----0
  6
ByBlock
 62
     7
370
    25
100
AcDbLine
 10
435.402823
 20
190.42173
 30
0.0
 11
433.929579
 21
191.894973
 31
0.0
  0
LINE
  5
4DB
102
{ACAD_REACTORS
330
57C
102
}
330
1F
100
AcDbEntity
  8
LC-003-005-----0
  6
ByBlock
 62
     7
370
    25
100
AcDbLine
 10
435.387935
 20
193.265045
 30
0.0
 11
433.944312
 21
194.708668
 31
0.0
  0
LINE
  5
4DC
102
{ACAD_REACTORS
330
57C
102
}
330
1F
100
AcDbEntity
  8
LC-003-005-----0
  6
ByBlock
 62
     7
370
    25
100
AcDbLine
 10
435.373047
 20
196.10836
 30
0.0
 11
433.959045
 21
197.522362
 31
0.0
  0
LINE
  5
4DD
102
{ACAD_REACTORS
330
57C
102
}
330
1F
100
AcDbEntity
  8
LC-003-005-----0
  6
ByBlock
 62
     7
370
    25
100
AcDbLine
 10
435.358159
 20
198.951674
 30
0.0
 11
433.973777
 21
200.336057
 31
0.0
  0
LINE
  5
4DE
102
{ACAD_REACTORS
330
57C
102
}
330
1F
100
AcDbEntity
  8
LC-003-005-----0
  6
ByBlock
 62
     7
370
    25
100
AcDbLine
 10
435.343272
 20
201.794989
 30
0.0
 11
433.98851
 21
203.149751
 31
0.0
  0
LINE
  5
4DF
102
{ACAD_REACTORS
330
57C
102
}
330
1F
100
AcDbEntity
  8
LC-003-005-----0
  6
ByBlock
 62
     7
370
    25
100
AcDbLine
 10
435.328384
 20
204.638304
 30
0.0
 11
434.003242
 21
205.963446
 31
0.0
  0
LINE
  5
4E0
102
{ACAD_REACTORS
330
57C
102
}
330
1F
100
AcDbEntity
  8
LC-003-005-----0
  6
ByBlock
 62
     7
370
    25
100
AcDbLine
 10
435.313496
 20
207.481619
 30
0.0
 11
434.017975
 21
208.77714
 31
0.0
  0
LINE
  5
4E1
102
{ACAD_REACTORS
330
57C
102
}
330
1F
100
AcDbEntity
  8
LC-003-005-----0
  6
ByBlock
 62
     7
370
    25
100
AcDbLine
 10
435.298609
 20
210.324934
 30
0.0
 11
434.032708
 21
211.590835
 31
0.0
  0
LINE
  5
4E2
102
{ACAD_REACTORS
330
57C
102
}
330
1F
100
AcDbEntity
  8
LC-003-005-----0
  6
ByBlock
 62
     7
370
    70
100
AcDbLine
 10
435.283721
 20
213.168249
 30
0.0
 11
435.222832
 21
213.229138
 31
0.0
  0
LINE
  5
4E3
102
{ACAD_REACTORS
330
57C
102
}
330
1F
100
AcDbEntity
  8
LC-003-005-----0
  6
ByBlock
 62
     7
370
    25
100
AcDbLine
 10
460.644089
 20
139.724619
 30
0.0
 11
458.64413
 21
141.724579
 31
0.0
  0
LINE
  5
4E4
102
{ACAD_REACTORS
330
57C
102
}
330
1F
100
AcDbEntity
  8
LC-003-005-----0
  6
ByBlock
 62
     7
370
    25
100
AcDbLine
 10
460.644089
 20
142.553046
 30
0.0
 11
458.64313
 21
144.554005
 31
0.0
  0
LINE
  5
4E5
102
{ACAD_REACTORS
330
57C
102
}
330
1F
100
AcDbEntity
  8
LC-003-005-----0
  6
ByBlock
 62
     7
370
    25
100
AcDbLine
 10
460.644089
 20
145.381473
 30
0.0
 11
458.642131
 21
147.383432
 31
0.0
  0
LINE
  5
4E6
102
{ACAD_REACTORS
330
57C
102
}
330
1F
100
AcDbEntity
  8
LC-003-005-----0
  6
ByBlock
 62
     7
370
    25
100
AcDbLine
 10
460.644089
 20
148.2099
 30
0.0
 11
458.701429
 21
150.152561
 31
0.0
  0
LINE
  5
4E7
102
{ACAD_REACTORS
330
57C
102
}
330
1F
100
AcDbEntity
  8
LC-003-005-----0
  6
ByBlock
 62
     7
370
    25
100
AcDbLine
 10
460.731563
 20
150.950854
 30
0.0
 11
458.796918
 21
152.885499
 31
0.0
  0
LINE
  5
4E8
102
{ACAD_REACTORS
330
57C
102
}
330
1F
100
AcDbEntity
  8
LC-003-005-----0
  6
ByBlock
 62
     7
370
    25
100
AcDbLine
 10
460.826955
 20
153.683889
 30
0.0
 11
458.892406
 21
155.618438
 31
0.0
  0
LINE
  5
4E9
102
{ACAD_REACTORS
330
57C
102
}
330
1F
100
AcDbEntity
  8
LC-003-005-----0
  6
ByBlock
 62
     7
370
    25
100
AcDbLine
 10
460.922347
 20
156.416924
 30
0.0
 11
458.987895
 21
158.351376
 31
0.0
  0
LINE
  5
4EA
102
{ACAD_REACTORS
330
57C
102
}
330
1F
100
AcDbEntity
  8
LC-003-005-----0
  6
ByBlock
 62
     7
370
    25
100
AcDbLine
 10
461.017738
 20
159.14996
 30
0.0
 11
459.083384
 21
161.084314
 31
0.0
  0
LINE
  5
4EB
102
{ACAD_REACTORS
330
57C
102
}
330
1F
100
AcDbEntity
  8
LC-003-005-----0
  6
ByBlock
 62
     7
370
    25
100
AcDbLine
 10
461.11313
 20
161.882995
 30
0.0
 11
459.178872
 21
163.817253
 31
0.0
  0
LINE
  5
4EC
102
{ACAD_REACTORS
330
57C
102
}
330
1F
100
AcDbEntity
  8
LC-003-005-----0
  6
ByBlock
 62
     7
370
    25
100
AcDbLine
 10
461.208522
 20
164.61603
 30
0.0
 11
459.274361
 21
166.550191
 31
0.0
  0
LINE
  5
4ED
102
{ACAD_REACTORS
330
57C
102
}
330
1F
100
AcDbEntity
  8
LC-003-005-----0
  6
ByBlock
 62
     7
370
    25
100
AcDbLine
 10
461.303914
 20
167.349066
 30
0.0
 11
459.36985
 21
169.28313
 31
0.0
  0
LINE
  5
4EE
102
{ACAD_REACTORS
330
57C
102
}
330
1F
100
AcDbEntity
  8
LC-003-005-----0
  6
ByBlock
 62
     7
370
    25
100
AcDbLine
 10
461.399306
 20
170.082101
 30
0.0
 11
459.465339
 21
172.016068
 31
0.0
  0
LINE
  5
4EF
102
{ACAD_REACTORS
330
57C
102
}
330
1F
100
AcDbEntity
  8
LC-003-005-----0
  6
ByBlock
 62
     7
370
    25
100
AcDbLine
 10
461.494697
 20
172.815136
 30
0.0
 11
459.560827
 21
174.749007
 31
0.0
  0
LINE
  5
4F0
102
{ACAD_REACTORS
330
57C
102
}
330
1F
100
AcDbEntity
  8
LC-003-005-----0
  6
ByBlock
 62
     7
370
    25
100
AcDbLine
 10
461.590089
 20
175.548172
 30
0.0
 11
459.656316
 21
177.481945
 31
0.0
  0
LINE
  5
4F1
102
{ACAD_REACTORS
330
57C
102
}
330
1F
100
AcDbEntity
  8
LC-003-005-----0
  6
ByBlock
 62
     7
370
    25
100
AcDbLine
 10
461.685481
 20
178.281207
 30
0.0
 11
459.751805
 21
180.214884
 31
0.0
  0
LINE
  5
4F2
102
{ACAD_REACTORS
330
57C
102
}
330
1F
100
AcDbEntity
  8
LC-003-005-----0
  6
ByBlock
 62
     7
370
    25
100
AcDbLine
 10
461.780873
 20
181.014242
 30
0.0
 11
459.847293
 21
182.947822
 31
0.0
  0
LINE
  5
4F3
102
{ACAD_REACTORS
330
57C
102
}
330
1F
100
AcDbEntity
  8
LC-003-005-----0
  6
ByBlock
 62
     7
370
    25
100
AcDbLine
 10
461.876265
 20
183.747278
 30
0.0
 11
459.942782
 21
185.68076
 31
0.0
  0
LINE
  5
4F4
102
{ACAD_REACTORS
330
57C
102
}
330
1F
100
AcDbEntity
  8
LC-003-005-----0
  6
ByBlock
 62
     7
370
    25
100
AcDbLine
 10
461.971656
 20
186.480313
 30
0.0
 11
460.038271
 21
188.413699
 31
0.0
  0
LINE
  5
4F5
102
{ACAD_REACTORS
330
57C
102
}
330
1F
100
AcDbEntity
  8
LC-003-005-----0
  6
ByBlock
 62
     7
370
    25
100
AcDbLine
 10
382.569196
 20
141.43198
 30
0.0
 11
378.183786
 21
145.81739
 31
0.0
  0
LINE
  5
4F6
102
{ACAD_REACTORS
330
57C
102
}
330
1F
100
AcDbEntity
  8
LC-003-005-----0
  6
ByBlock
 62
     7
370
    25
100
AcDbLine
 10
387.638885
 20
139.190718
 30
0.0
 11
383.84039
 21
142.989213
 31
0.0
  0
LINE
  5
4F7
102
{ACAD_REACTORS
330
57C
102
}
330
1F
100
AcDbEntity
  8
LC-003-005-----0
  6
ByBlock
 62
     7
370
    25
100
AcDbLine
 10
379.74102
 20
147.088583
 30
0.0
 11
375.942525
 21
150.887078
 31
0.0
  0
LINE
  5
4F8
102
{ACAD_REACTORS
330
57C
102
}
330
1F
100
AcDbEntity
  8
LC-003-005-----0
  6
ByBlock
 62
     7
370
    25
100
AcDbLine
 10
390.924663
 20
138.733367
 30
0.0
 11
388.644998
 21
141.013033
 31
0.0
  0
LINE
  5
4F9
102
{ACAD_REACTORS
330
57C
102
}
330
1F
100
AcDbEntity
  8
LC-003-005-----0
  6
ByBlock
 62
     7
370
    25
100
AcDbLine
 10
377.764839
 20
151.893191
 30
0.0
 11
375.485172
 21
154.172858
 31
0.0
  0
LINE
  5
4FA
102
{ACAD_REACTORS
330
57C
102
}
330
1F
100
AcDbEntity
  8
LC-003-005-----0
  6
ByBlock
 62
     7
370
    25
100
AcDbLine
 10
393.762582
 20
138.723876
 30
0.0
 11
391.762582
 21
140.723876
 31
0.0
  0
LINE
  5
4FB
102
{ACAD_REACTORS
330
57C
102
}
330
1F
100
AcDbEntity
  8
LC-003-005-----0
  6
ByBlock
 62
     7
370
    25
100
AcDbLine
 10
377.456459
 20
155.029999
 30
0.0
 11
375.382827
 21
157.10363
 31
0.0
  0
LINE
  5
4FC
102
{ACAD_REACTORS
330
57C
102
}
330
1F
100
AcDbEntity
  8
LC-003-005-----0
  6
ByBlock
 62
     7
370
    25
100
AcDbLine
 10
396.591009
 20
138.723876
 30
0.0
 11
394.591009
 21
140.723876
 31
0.0
  0
LINE
  5
4FD
102
{ACAD_REACTORS
330
57C
102
}
330
1F
100
AcDbEntity
  8
LC-003-005-----0
  6
ByBlock
 62
     7
370
    25
100
AcDbLine
 10
377.354114
 20
157.96077
 30
0.0
 11
375.280482
 21
160.034402
 31
0.0
  0
LINE
  5
4FE
102
{ACAD_REACTORS
330
57C
102
}
330
1F
100
AcDbEntity
  8
LC-003-005-----0
  6
ByBlock
 62
     7
370
    25
100
AcDbLine
 10
399.419436
 20
138.723876
 30
0.0
 11
397.419436
 21
140.723876
 31
0.0
  0
LINE
  5
4FF
102
{ACAD_REACTORS
330
57C
102
}
330
1F
100
AcDbEntity
  8
LC-003-005-----0
  6
ByBlock
 62
     7
370
    25
100
AcDbLine
 10
377.251769
 20
160.891542
 30
0.0
 11
375.178137
 21
162.965174
 31
0.0
  0
LINE
  5
500
102
{ACAD_REACTORS
330
57C
102
}
330
1F
100
AcDbEntity
  8
LC-003-005-----0
  6
ByBlock
 62
     7
370
    25
100
AcDbLine
 10
402.247863
 20
138.723876
 30
0.0
 11
400.247863
 21
140.723876
 31
0.0
  0
LINE
  5
501
102
{ACAD_REACTORS
330
57C
102
}
330
1F
100
AcDbEntity
  8
LC-003-005-----0
  6
ByBlock
 62
     7
370
    25
100
AcDbLine
 10
377.149424
 20
163.822314
 30
0.0
 11
375.075793
 21
165.895946
 31
0.0
  0
LINE
  5
502
102
{ACAD_REACTORS
330
57C
102
}
330
1F
100
AcDbEntity
  8
LC-003-005-----0
  6
ByBlock
 62
     7
370
    25
100
AcDbLine
 10
405.07629
 20
138.723876
 30
0.0
 11
403.07629
 21
140.723876
 31
0.0
  0
LINE
  5
503
102
{ACAD_REACTORS
330
57C
102
}
330
1F
100
AcDbEntity
  8
LC-003-005-----0
  6
ByBlock
 62
     7
370
    25
100
AcDbLine
 10
377.04708
 20
166.753086
 30
0.0
 11
374.973448
 21
168.826718
 31
0.0
  0
LINE
  5
504
102
{ACAD_REACTORS
330
57C
102
}
330
1F
100
AcDbEntity
  8
LC-003-005-----0
  6
ByBlock
 62
     7
370
    25
100
AcDbLine
 10
407.904717
 20
138.723876
 30
0.0
 11
405.904717
 21
140.723876
 31
0.0
  0
LINE
  5
505
102
{ACAD_REACTORS
330
57C
102
}
330
1F
100
AcDbEntity
  8
LC-003-005-----0
  6
ByBlock
 62
     7
370
    25
100
AcDbLine
 10
376.944735
 20
169.683858
 30
0.0
 11
374.871103
 21
171.75749
 31
0.0
  0
LINE
  5
506
102
{ACAD_REACTORS
330
57C
102
}
330
1F
100
AcDbEntity
  8
LC-003-005-----0
  6
ByBlock
 62
     7
370
    25
100
AcDbLine
 10
376.84239
 20
172.61463
 30
0.0
 11
374.768758
 21
174.688262
 31
0.0
  0
LINE
  5
507
102
{ACAD_REACTORS
330
57C
102
}
330
1F
100
AcDbEntity
  8
LC-003-005-----0
  6
ByBlock
 62
     7
370
    25
100
AcDbLine
 10
412.050437
 20
140.23501
 30
0.0
 11
411.561571
 21
140.723876
 31
0.0
  0
LINE
  5
508
102
{ACAD_REACTORS
330
57C
102
}
330
1F
100
AcDbEntity
  8
LC-003-005-----0
  6
ByBlock
 62
     7
370
    25
100
AcDbLine
 10
376.740045
 20
175.545402
 30
0.0
 11
374.666413
 21
177.619034
 31
0.0
  0
LINE
  5
509
102
{ACAD_REACTORS
330
57C
102
}
330
1F
100
AcDbEntity
  8
LC-003-005-----0
  6
ByBlock
 62
     7
370
    25
100
AcDbLine
 10
376.6377
 20
178.476174
 30
0.0
 11
374.564068
 21
180.549806
 31
0.0
  0
LINE
  5
50A
102
{ACAD_REACTORS
330
57C
102
}
330
1F
100
AcDbEntity
  8
LC-003-005-----0
  6
ByBlock
 62
     7
370
    25
100
AcDbLine
 10
376.535356
 20
181.406946
 30
0.0
 11
374.461724
 21
183.480578
 31
0.0
  0
LINE
  5
50B
102
{ACAD_REACTORS
330
57C
102
}
330
1F
100
AcDbEntity
  8
LC-003-005-----0
  6
ByBlock
 62
     7
370
    25
100
AcDbLine
 10
376.433011
 20
184.337718
 30
0.0
 11
374.359379
 21
186.41135
 31
0.0
  0
LINE
  5
50C
102
{ACAD_REACTORS
330
57C
102
}
330
1F
100
AcDbEntity
  8
LC-003-005-----0
  6
ByBlock
 62
     7
370
    25
100
AcDbLine
 10
376.330666
 20
187.26849
 30
0.0
 11
374.257034
 21
189.342122
 31
0.0
  0
LINE
  5
50D
102
{ACAD_REACTORS
330
57C
102
}
330
1F
100
AcDbEntity
  8
LC-003-005-----0
  6
ByBlock
 62
     7
370
    25
100
AcDbLine
 10
376.228321
 20
190.199262
 30
0.0
 11
374.154689
 21
192.272894
 31
0.0
  0
LINE
  5
50E
102
{ACAD_REACTORS
330
57C
102
}
330
1F
100
AcDbEntity
  8
LC-003-005-----0
  6
ByBlock
 62
     7
370
    25
100
AcDbLine
 10
376.125976
 20
193.130034
 30
0.0
 11
374.052344
 21
195.203666
 31
0.0
  0
LINE
  5
50F
102
{ACAD_REACTORS
330
57C
102
}
330
1F
100
AcDbEntity
  8
LC-003-005-----0
  6
ByBlock
 62
     7
370
    25
100
AcDbLine
 10
376.023632
 20
196.060806
 30
0.0
 11
373.95
 21
198.134438
 31
0.0
  0
LINE
  5
510
102
{ACAD_REACTORS
330
57C
102
}
330
1F
100
AcDbEntity
  8
LC-003-005-----0
  6
ByBlock
 62
     7
370
    25
100
AcDbLine
 10
375.921287
 20
198.991578
 30
0.0
 11
373.847655
 21
201.065209
 31
0.0
  0
LINE
  5
511
102
{ACAD_REACTORS
330
57C
102
}
330
1F
100
AcDbEntity
  8
LC-003-005-----0
  6
ByBlock
 62
     7
370
    25
100
AcDbLine
 10
375.818942
 20
201.922349
 30
0.0
 11
373.74531
 21
203.995981
 31
0.0
  0
LINE
  5
512
102
{ACAD_REACTORS
330
57C
102
}
330
1F
100
AcDbEntity
  8
LC-003-005-----0
  6
ByBlock
 62
     7
370
    25
100
AcDbLine
 10
375.716597
 20
204.853121
 30
0.0
 11
373.642965
 21
206.926753
 31
0.0
  0
LINE
  5
513
102
{ACAD_REACTORS
330
57C
102
}
330
1F
100
AcDbEntity
  8
LC-003-005-----0
  6
ByBlock
 62
     7
370
    25
100
AcDbLine
 10
375.614252
 20
207.783893
 30
0.0
 11
373.54062
 21
209.857525
 31
0.0
  0
LINE
  5
514
102
{ACAD_REACTORS
330
57C
102
}
330
1F
100
AcDbEntity
  8
LC-003-005-----0
  6
ByBlock
 62
     7
370
    25
100
AcDbLine
 10
375.511907
 20
210.714665
 30
0.0
 11
373.464089
 21
212.762483
 31
0.0
  0
LINE
  5
515
102
{ACAD_REACTORS
330
57C
102
}
330
1F
100
AcDbEntity
  8
LC-003-005-----0
  6
ByBlock
 62
     7
370
    25
100
AcDbLine
 10
375.464089
 20
213.59091
 30
0.0
 11
373.464089
 21
215.59091
 31
0.0
  0
LINE
  5
516
102
{ACAD_REACTORS
330
57C
102
}
330
1F
100
AcDbEntity
  8
LC-003-005-----0
  6
ByBlock
 62
     7
370
    25
100
AcDbLine
 10
375.464089
 20
216.419338
 30
0.0
 11
373.464089
 21
218.419338
 31
0.0
  0
LINE
  5
517
102
{ACAD_REACTORS
330
57C
102
}
330
1F
100
AcDbEntity
  8
LC-003-005-----0
  6
ByBlock
 62
     7
370
    25
100
AcDbLine
 10
375.464089
 20
219.247765
 30
0.0
 11
373.464089
 21
221.247765
 31
0.0
  0
LINE
  5
518
102
{ACAD_REACTORS
330
57C
102
}
330
1F
100
AcDbEntity
  8
LC-003-005-----0
  6
ByBlock
 62
     7
370
    25
100
AcDbLine
 10
375.464089
 20
222.076192
 30
0.0
 11
373.464089
 21
224.076192
 31
0.0
  0
LINE
  5
519
102
{ACAD_REACTORS
330
57C
102
}
330
1F
100
AcDbEntity
  8
LC-003-005-----0
  6
ByBlock
 62
     7
370
    25
100
AcDbLine
 10
375.464089
 20
224.904619
 30
0.0
 11
374.584585
 21
225.784124
 31
0.0
  0
LINE
  5
51A
102
{ACAD_REACTORS
330
57C
102
}
330
1F
100
AcDbEntity
  8
LC-003-005-----0
  6
ByBlock
 62
     7
370
    25
100
AcDbLine
 10
374.464089
 20
225.904619
 30
0.0
 11
372.644833
 21
227.723876
 31
0.0
  0
LINE
  5
51B
102
{ACAD_REACTORS
330
57C
102
}
330
1F
100
AcDbEntity
  8
LC-003-005-----0
  6
ByBlock
 62
     7
370
    25
100
AcDbLine
 10
410.698617
 20
138.758403
 30
0.0
 11
408.733144
 21
140.723876
 31
0.0
  0
DIMENSION
  5
51C
330
1F
100
AcDbEntity
  8
LC-002-003-----0
 62
     7
370
    25
100
AcDbDimension
  2
*D50
 10
375.942525
 20
78.4
 30
0.0
 11
418.293307
 21
109.2
 31
0.0
 70
   160
  1
%%c85
 71
     5
 42
84.701565
  3
LC-DIM-L-0140-02-02
100
AcDbAlignedDimension
 13
460.644089
 23
138.723876
 33
0.0
 14
375.942525
 24
150.887078
 34
0.0
100
AcDbRotatedDimension
  0
DIMENSION
  5
529
330
1F
100
AcDbEntity
  8
LC-002-003-----0
 62
     7
370
    25
100
AcDbDimension
  2
*D51
 10
378.414089
 20
374.22
 30
0.0
 11
413.664089
 21
405.02
 31
0.0
 70
   160
  1
%%c75
 71
     5
 42
70.5
  3
LC-DIM-L-0140-02-02
100
AcDbAlignedDimension
 13
448.914089
 23
262.771333
 33
0.0
 14
378.414089
 24
262.771333
 34
0.0
100
AcDbRotatedDimension
  0
DIMENSION
  5
536
330
1F
100
AcDbEntity
  8
LC-002-003-----0
 62
     7
370
    25
100
AcDbDimension
  2
*D52
 10
548.8
 20
157.273499
 30
0.0
 11
518.0
 21
152.064
 31
0.0
 70
   160
  1
50
 71
     5
 42
55.955639
 53
90.0
  3
LC-DIM-L-0140-02-02
100
AcDbAlignedDimension
 13
435.283402
 23
213.229138
 33
0.0
 14
394.164089
 24
157.273499
 34
0.0
 50
90.0
100
AcDbRotatedDimension
  0
LINE
  5
544
102
{ACAD_REACTORS
330
57E
102
}
330
1F
100
AcDbEntity
  8
LC-004-002-----0
  6
DASHED
 62
     7
370
    25
100
AcDbLine
 10
586.477448
 20
162.367509
 30
0.0
 11
590.100915
 21
162.367509
 31
0.0
  0
ARC
  5
545
102
{ACAD_REACTORS
330
57E
102
}
330
1F
100
AcDbEntity
  8
LC-001-207-----0
 62
     7
370
    50
100
AcDbCircle
 10
493.457993
 20
213.173901
 30
0.0
 40
29.70000000000018
100
AcDbArc
 50
54.721682
 51
89.141305
  0
ARC
  5
546
102
{ACAD_REACTORS
330
57E
102
}
330
1F
100
AcDbEntity
  8
LC-004-002-----0
  6
DASHED
 62
     7
370
    25
100
AcDbCircle
 10
478.508163
 20
186.359864
 30
0.0
 40
1.000000000000003
100
AcDbArc
 50
60.858695
 51
165.0
  0
LINE
  5
547
102
{ACAD_REACTORS
330
57E
102
}
330
1F
100
AcDbEntity
  8
LC-004-002-----0
  6
DASHED
 62
     7
370
    25
100
AcDbLine
 10
477.542237
 20
186.618683
 30
0.0
 11
476.964985
 21
184.464351
 31
0.0
  0
LINE
  5
548
102
{ACAD_REACTORS
330
57E
102
}
330
1F
100
AcDbEntity
  8
LC-004-002-----0
  6
DASHED
 62
     7
370
    25
100
AcDbLine
 10
590.100915
 20
162.367509
 30
0.0
 11
590.440532
 21
163.634975
 31
0.0
  0
LINE
  5
549
102
{ACAD_REACTORS
330
57E
102
}
330
1F
100
AcDbEntity
  8
LC-004-002-----0
  6
DASHED
 62
     7
370
    25
100
AcDbLine
 10
590.440532
 20
163.634975
 30
0.0
 11
602.216798
 21
207.5846
 31
0.0
  0
LINE
  5
54A
102
{ACAD_REACTORS
330
57E
102
}
330
1F
100
AcDbEntity
  8
LC-004-002-----0
  6
DASHED
 62
     7
370
    25
100
AcDbLine
 10
602.216798
 20
207.5846
 30
0.0
 11
602.556415
 21
208.852067
 31
0.0
  0
LINE
  5
54B
102
{ACAD_REACTORS
330
57E
102
}
330
1F
100
AcDbEntity
  8
LC-004-002-----0
  6
DASHDOT
 62
     7
370
    25
100
AcDbLine
 10
596.328665
 20
185.609788
 30
0.0
 11
466.781704
 21
220.321791
 31
0.0
  0
LINE
  5
54C
102
{ACAD_REACTORS
330
57E
102
}
330
1F
100
AcDbEntity
  8
LC-004-002-----0
  6
DASHED
 62
     7
370
    25
100
AcDbLine
 10
599.418401
 20
210.6638
 30
0.0
 11
602.556415
 21
208.852067
 31
0.0
  0
ARC
  5
54D
102
{ACAD_REACTORS
330
57E
102
}
330
1F
100
AcDbEntity
  8
LC-004-002-----0
  6
DASHED
 62
     7
370
    25
100
AcDbCircle
 10
493.918079
 20
243.870453
 30
0.0
 40
1.00000000000003
100
AcDbArc
 50
165.0
 51
269.141305
  0
LINE
  5
54E
102
{ACAD_REACTORS
330
57E
102
}
330
1F
100
AcDbEntity
  8
LC-004-002-----0
  6
DASHED
 62
     7
370
    25
100
AcDbLine
 10
519.318986
 20
232.126373
 30
0.0
 11
599.418401
 21
210.6638
 31
0.0
  0
LINE
  5
54F
102
{ACAD_REACTORS
330
57E
102
}
330
1F
100
AcDbEntity
  8
LC-004-002-----0
  6
DASHED
 62
     7
370
    25
100
AcDbLine
 10
506.378034
 20
183.830082
 30
0.0
 11
586.477448
 21
162.367509
 31
0.0
  0
LINE
  5
550
102
{ACAD_REACTORS
330
57E
102
}
330
1F
100
AcDbEntity
  8
LC-004-002-----0
  6
DASHED
 62
     7
370
    25
100
AcDbLine
 10
517.788165
 20
230.207184
 30
0.0
 11
602.216798
 21
207.5846
 31
0.0
  0
LINE
  5
551
102
{ACAD_REACTORS
330
57E
102
}
330
1F
100
AcDbEntity
  8
LC-004-002-----0
  6
DASHED
 62
     7
370
    25
100
AcDbLine
 10
506.011899
 20
186.257559
 30
0.0
 11
590.440532
 21
163.634975
 31
0.0
  0
LINE
  5
552
102
{ACAD_REACTORS
330
57E
102
}
330
1F
100
AcDbEntity
  8
LC-004-002-----0
  6
DASHED
 62
     7
370
    25
100
AcDbLine
 10
492.952153
 20
244.129272
 30
0.0
 11
493.529404
 21
246.283604
 31
0.0
  0
LINE
  5
553
102
{ACAD_REACTORS
330
57E
102
}
330
1F
100
AcDbEntity
  8
LC-004-002-----0
  6
DASHED
 62
     7
370
    25
100
AcDbLine
 10
493.529404
 20
246.283604
 30
0.0
 11
501.739774
 21
244.083642
 31
0.0
  0
LINE
  5
554
102
{ACAD_REACTORS
330
57E
102
}
330
1F
100
AcDbEntity
  8
LC-004-002-----0
  6
DASHED
 62
     7
370
    25
100
AcDbLine
 10
476.964985
 20
184.464351
 30
0.0
 11
485.271948
 21
182.238508
 31
0.0
  0
ARC
  5
555
102
{ACAD_REACTORS
330
57E
102
}
330
1F
100
AcDbEntity
  8
LC-004-002-----0
  6
DASHED
 62
     7
370
    25
100
AcDbCircle
 10
493.554157
 20
213.148134
 30
0.0
 40
32.00000000000085
100
AcDbArc
 50
36.375167
 51
75.17905
  0
ARC
  5
556
102
{ACAD_REACTORS
330
57E
102
}
330
1F
100
AcDbEntity
  8
LC-004-002-----0
  6
DASHED
 62
     7
370
    25
100
AcDbCircle
 10
493.554157
 20
213.148134
 30
0.0
 40
32.00000000000124
100
AcDbArc
 50
255.0
 51
293.624833
  0
ARC
  5
557
102
{ACAD_REACTORS
330
57E
102
}
330
1F
100
AcDbEntity
  8
LC-004-002-----0
  6
DASHED
 62
     7
370
    25
100
AcDbCircle
 10
493.457993
 20
213.173901
 30
0.0
 40
29.7000000000002
100
AcDbArc
 50
34.995438
 51
54.721682
  0
ARC
  5
558
102
{ACAD_REACTORS
330
57E
102
}
330
1F
100
AcDbEntity
  8
LC-004-002-----0
  6
DASHED
 62
     7
370
    25
100
AcDbCircle
 10
493.457993
 20
213.173901
 30
0.0
 40
29.70000000000012
100
AcDbArc
 50
240.858695
 51
295.004562
  0
LINE
  5
559
330
1F
100
AcDbEntity
  8
LC-004-002-----0
  6
DASHED
 62
     7
370
    25
100
AcDbLine
 10
517.788165
 20
230.207184
 30
0.0
 11
506.011899
 21
186.257559
 31
0.0
  0
INSERT
  5
578
330
1F
100
AcDbEntity
  8
LC-002-003-----0
 62
     7
370
    25
100
AcDbBlockReference
  2
LCDIM1
 10
0.0
 20
0.0
 30
0.0
  0
ENDSEC
  0
SECTION
  2
OBJECTS
  0
DICTIONARY
  5
C
330
0
100
AcDbDictionary
281
     1
  3
ACAD_GROUP
350
D
  3
ACAD_LAYOUT
350
1A
  3
ACAD_MLINESTYLE
350
17
  3
ACAD_PLOTSETTINGS
350
19
  3
ACAD_PLOTSTYLENAME
350
E
  0
DICTIONARY
  5
D
102
{ACAD_REACTORS
330
C
102
}
330
C
100
AcDbDictionary
281
     1
  3
LCGROUP302
350
579
  3
LCGROUP578
350
57A
  3
LCGROUP76
350
57C
  3
LCGROUP79
350
57B
  3
LCGROUP800
350
57E
  3
LCGROUP90
350
57D
  0
DICTIONARY
  5
1A
102
{ACAD_REACTORS
330
C
102
}
330
C
100
AcDbDictionary
281
     1
  3
Layout1
350
1E
  3
Layout2
350
26
  3
Model
350
22
  0
DICTIONARY
  5
17
102
{ACAD_REACTORS
330
C
102
}
330
C
100
AcDbDictionary
281
     1
  3
Standard
350
18
  0
DICTIONARY
  5
19
102
{ACAD_REACTORS
330
C
102
}
330
C
100
AcDbDictionary
281
     1
  0
ACDBDICTIONARYWDFLT
  5
E
102
{ACAD_REACTORS
330
C
102
}
330
C
100
AcDbDictionary
281
     1
  3
Normal
350
F
100
AcDbDictionaryWithDefault
340
F
  0
GROUP
  5
579
102
{ACAD_REACTORS
330
D
102
}
330
D
100
AcDbGroup
300
GRP302
 70
     1
 71
     1
340
25D
  0
GROUP
  5
57A
102
{ACAD_REACTORS
330
D
102
}
330
D
100
AcDbGroup
300
GRP578
 70
     1
 71
     1
340
455
340
456
340
457
340
458
340
459
340
45A
340
45B
340
45C
340
45D
340
45E
340
45F
340
460
340
461
340
462
340
463
340
464
340
465
340
466
340
467
340
469
340
46A
340
46B
340
46C
340
46D
340
46E
340
46F
340
470
340
471
340
472
340
473
340
474
340
475
340
476
340
477
340
478
340
479
340
47A
340
47B
340
47C
340
47D
340
47E
340
47F
340
480
340
481
340
482
340
483
340
484
340
485
340
486
340
487
340
488
340
489
340
48A
340
48B
340
48C
340
48D
340
48E
340
48F
340
490
340
491
340
492
340
493
340
494
340
495
340
496
340
497
340
498
340
499
340
49A
340
49B
340
49C
340
49D
340
49E
340
49F
340
4A0
340
4A1
340
4A2
340
4A3
340
4A4
340
4A5
340
4A6
340
4A7
340
4A8
340
4A9
340
4AA
340
4AB
340
4AC
340
4AD
340
4AE
340
4AF
340
4B0
340
4B1
340
4B2
340
4B3
340
4B4
340
4B5
340
4B6
340
4B7
340
4B8
340
4B9
340
4BA
340
4BB
340
4BC
  0
GROUP
  5
57C
102
{ACAD_REACTORS
330
D
102
}
330
D
100
AcDbGroup
300
GRP76
 70
     1
 71
     1
340
4F
340
51
340
68
340
7F
340
80
340
10B
340
10C
340
16C
340
189
340
193
340
1D3
340
1D6
340
1D8
340
1D9
340
1F7
340
1F8
340
1FF
340
203
340
20B
340
20C
340
20D
340
20E
340
20F
340
210
340
211
340
212
340
213
340
214
340
215
340
216
340
217
340
218
340
219
340
21A
340
21B
340
21C
340
21D
340
21E
340
21F
340
220
340
221
340
222
340
223
340
224
340
225
340
226
340
227
340
228
340
229
340
22A
340
22B
340
22C
340
22D
340
22E
340
22F
340
230
340
235
340
236
340
238
340
239
340
23A
340
259
340
25B
340
2BC
340
2CA
340
2FA
340
307
340
320
340
321
340
322
340
323
340
324
340
325
340
326
340
327
340
328
340
329
340
32A
340
32B
340
32C
340
32D
340
32E
340
32F
340
331
340
332
340
333
340
334
340
335
340
336
340
337
340
338
340
339
340
33B
340
33C
340
33D
340
33E
340
33F
340
340
340
341
340
342
340
356
340
357
340
358
340
359
340
35A
340
35B
340
35C
340
35D
340
35E
340
35F
340
360
340
361
340
362
340
363
340
364
340
365
340
366
340
367
340
368
340
369
340
36A
340
384
340
432
340
4BD
340
4BE
340
4C0
340
4C1
340
4C2
340
4C3
340
4C4
340
4C5
340
4C6
340
4C7
340
4C8
340
4C9
340
4CA
340
4CB
340
4CC
340
4CD
340
4CE
340
4CF
340
4D0
340
4D1
340
4D2
340
4D3
340
4D4
340
4D5
340
4D6
340
4D7
340
4D8
340
4D9
340
4DA
340
4DB
340
4DC
340
4DD
340
4DE
340
4DF
340
4E0
340
4E1
340
4E2
340
4E3
340
4E4
340
4E5
340
4E6
340
4E7
340
4E8
340
4E9
340
4EA
340
4EB
340
4EC
340
4ED
340
4EE
340
4EF
340
4F0
340
4F1
340
4F2
340
4F3
340
4F4
340
4F5
340
4F6
340
4F7
340
4F8
340
4F9
340
4FA
340
4FB
340
4FC
340
4FD
340
4FE
340
4FF
340
500
340
501
340
502
340
503
340
504
340
505
340
506
340
507
340
508
340
509
340
50A
340
50B
340
50C
340
50D
340
50E
340
50F
340
510
340
511
340
512
340
513
340
514
340
515
340
516
340
517
340
518
340
519
340
51A
340
51B
  0
GROUP
  5
57B
102
{ACAD_REACTORS
330
D
102
}
330
D
100
AcDbGroup
300
GRP79
 70
     1
 71
     1
340
52
340
81
340
83
340
84
340
9D
340
B6
340
CE
340
D0
340
D1
340
D2
340
D3
340
D4
340
D5
340
D6
340
E6
340
E7
340
E8
340
E9
340
101
340
102
340
103
340
104
340
106
340
107
340
108
340
109
340
10A
340
10D
340
11E
340
11F
340
120
340
121
340
122
340
123
340
124
340
125
340
126
340
127
340
128
340
129
340
12A
340
12B
340
12C
340
12D
340
12E
340
12F
340
130
340
131
340
132
340
138
340
139
340
13A
340
13B
340
13C
340
13D
340
13E
340
13F
340
140
340
141
340
142
340
143
340
144
340
145
340
146
340
147
340
148
340
149
340
14A
340
14B
340
14C
340
14D
340
158
340
159
340
15A
340
15B
340
16B
340
17B
340
18A
340
18B
340
18C
340
18D
340
18E
340
18F
340
190
340
191
340
192
340
194
340
195
340
196
340
197
340
198
340
199
340
19A
340
19B
340
19C
340
19D
340
19E
340
19F
340
1A0
340
1AE
340
1BD
340
1BE
340
1BF
340
1C0
340
1C1
340
1D4
340
1E4
340
1E5
340
1E6
340
1E7
340
1E8
340
1E9
340
1EA
340
1EB
340
1F6
340
1FE
340
200
340
201
340
202
340
204
340
205
340
206
340
207
340
237
340
240
340
241
340
242
340
243
340
24A
340
24B
340
24C
340
25A
340
25C
340
25E
340
25F
340
280
340
281
340
287
340
288
340
2A9
340
2AA
340
2AB
340
2AC
340
2AD
340
2AE
340
2AF
340
2B6
340
2BD
340
2BE
340
2BF
340
2C0
340
2C8
340
2C9
340
2E0
340
2F9
340
2FB
340
2FC
340
2FD
340
2FE
340
2FF
340
300
340
301
340
302
340
303
340
304
340
305
340
306
340
308
340
309
340
30A
340
30B
340
30C
340
30D
340
30E
340
30F
340
310
340
311
340
312
340
313
340
314
340
315
340
316
340
317
340
318
340
319
340
31A
340
31B
340
31C
340
31D
340
31E
340
31F
340
343
340
344
340
345
340
346
340
347
340
348
340
349
340
34A
340
34B
340
382
340
385
340
4BF
  0
GROUP
  5
57E
102
{ACAD_REACTORS
330
D
102
}
330
D
100
AcDbGroup
300
GRP800
 70
     1
 71
     1
340
544
340
545
340
546
340
547
340
548
340
549
340
54A
340
54B
340
54C
340
54D
340
54E
340
54F
340
550
340
551
340
552
340
553
340
554
340
555
340
556
340
557
340
558
  0
GROUP
  5
57D
102
{ACAD_REACTORS
330
D
102
}
330
D
100
AcDbGroup
300
GRP90
 70
     1
 71
     1
340
CF
340
105
340
1C2
340
1C3
340
1D7
340
208
  0
LAYOUT
  5
1E
102
{ACAD_REACTORS
330
1A
102
}
330
1A
100
AcDbPlotSettings
  1

  2

  4

  6

 40
0.0
 41
0.0
 42
0.0
 43
0.0
 44
0.0
 45
0.0
 46
0.0
 47
0.0
 48
0.0
 49
0.0
140
0.0
141
0.0
142
1.0
143
1.0
 70
   688
 72
     0
 73
     0
 74
     5
  7

 75
    16
147
1.0
148
0.0
149
0.0
100
AcDbLayout
  1
Layout1
 70
     1
 71
     1
 10
0.0
 20
0.0
 11
840.0
 21
594.0
 12
0.0
 22
0.0
 32
0.0
 14
0.0
 24
0.0
 34
0.0
 15
840.0
 25
594.0
 35
0.0
146
0.0
 13
0.0
 23
0.0
 33
0.0
 16
1.0
 26
0.0
 36
0.0
 17
0.0
 27
1.0
 37
0.0
 76
     0
330
1B
  0
LAYOUT
  5
26
102
{ACAD_REACTORS
330
1A
102
}
330
1A
100
AcDbPlotSettings
  1

  2

  4

  6

 40
0.0
 41
0.0
 42
0.0
 43
0.0
 44
0.0
 45
0.0
 46
0.0
 47
0.0
 48
0.0
 49
0.0
140
0.0
141
0.0
142
1.0
143
1.0
 70
   688
 72
     0
 73
     0
 74
     5
  7

 75
    16
147
1.0
148
0.0
149
0.0
100
AcDbLayout
  1
Layout2
 70
     1
 71
     2
 10
0.0
 20
0.0
 11
0.0
 21
0.0
 12
0.0
 22
0.0
 32
0.0
 14
0.0
 24
0.0
 34
0.0
 15
0.0
 25
0.0
 35
0.0
146
0.0
 13
0.0
 23
0.0
 33
0.0
 16
1.0
 26
0.0
 36
0.0
 17
0.0
 27
1.0
 37
0.0
 76
     0
330
23
  0
LAYOUT
  5
22
102
{ACAD_REACTORS
330
1A
102
}
330
1A
100
AcDbPlotSettings
  1

  2

  4

  6

 40
0.0
 41
0.0
 42
0.0
 43
0.0
 44
0.0
 45
0.0
 46
0.0
 47
0.0
 48
0.0
 49
0.0
140
0.0
141
0.0
142
1.0
143
1.0
 70
  1776
 72
     0
 73
     0
 74
     0
  7

 75
     0
147
1.0
148
0.0
149
0.0
100
AcDbLayout
  1
Model
 70
     1
 71
     0
 10
0.0
 20
0.0
 11
840.0
 21
594.0
 12
0.0
 22
0.0
 32
0.0
 14
0.0
 24
0.0
 34
0.0
 15
840.0
 25
594.0
 35
0.0
146
0.0
 13
0.0
 23
0.0
 33
0.0
 16
1.0
 26
0.0
 36
0.0
 17
0.0
 27
1.0
 37
0.0
 76
     0
330
1F
  0
MLINESTYLE
  5
18
102
{ACAD_REACTORS
330
17
102
}
330
17
100
AcDbMlineStyle
  2
Standard
 70
     0
  3

 62
   256
 51
90.0
 52
90.0
 71
     2
 49
0.5
 62
   256
  6
BYLAYER
 49
-0.5
 62
   256
  6
BYLAYER
  0
ACDBPLACEHOLDER
  5
F
102
{ACAD_REACTORS
330
E
102
}
330
E
  0
ENDSEC
  0
EOF
