  0
SECTION
  2
HEADER
  9
$ACADVER
  1
AC1015
  9
$ACADMAINTVER
 70
     6
  9
$DWGCODEPAGE
  3
ANSI_1252
  9
$INSBASE
 10
0.0
 20
0.0
 30
0.0
  9
$EXTMIN
 10
-208.239346
 20
-148.598041
 30
0.0
  9
$EXTMAX
 10
631.760654
 20
445.401959
 30
0.0
  9
$LIMMIN
 10
-208.239346
 20
-148.598041
  9
$LIMMAX
 10
631.760654
 20
445.401959
  9
$ORTHOMODE
 70
     0
  9
$REGENMODE
 70
     1
  9
$FILLMODE
 70
     1
  9
$QTEXTMODE
 70
     0
  9
$MIRRTEXT
 70
     1
  9
$LTSCALE
 40
2.0
  9
$ATTMODE
 70
     1
  9
$TEXTSIZE
 40
2.5
  9
$TRACEWID
 40
1.0
  9
$TEXTSTYLE
  7
Standard
  9
$CLAYER
  8
0
  9
$CELTYPE
  6
ByLayer
  9
$CECOLOR
 62
     7
  9
$CELTSCALE
 40
1.0
  9
$DISPSILH
 70
     0
  9
$DIMSCALE
 40
2.0
  9
$DIMASZ
 40
3.5
  9
$DIMEXO
 40
0.625
  9
$DIMDLI
 40
3.75
  9
$DIMRND
 40
0.0
  9
$DIMDLE
 40
0.0
  9
$DIMEXE
 40
1.25
  9
$DIMTP
 40
0.0
  9
$DIMTM
 40
0.0
  9
$DIMTXT
 40
3.5
  9
$DIMCEN
 40
2.5
  9
$DIMTSZ
 40
0.0
  9
$DIMTOL
 70
     0
  9
$DIMLIM
 70
     0
  9
$DIMTIH
 70
     0
  9
$DIMTOH
 70
     0
  9
$DIMSE1
 70
     0
  9
$DIMSE2
 70
     0
  9
$DIMTAD
 70
     1
  9
$DIMZIN
 70
     8
  9
$DIMBLK
  1

  9
$DIMASO
 70
     1
  9
$DIMSHO
 70
     1
  9
$DIMPOST
  1

  9
$DIMAPOST
  1

  9
$DIMALT
 70
     0
  9
$DIMALTD
 70
     3
  9
$DIMALTF
 40
0.03937
  9
$DIMLFAC
 40
1.0
  9
$DIMTOFL
 70
     1
  9
$DIMTVP
 40
0.0
  9
$DIMTIX
 70
     0
  9
$DIMSOXD
 70
     0
  9
$DIMSAH
 70
     0
  9
$DIMBLK1
  1

  9
$DIMBLK2
  1

  9
$DIMSTYLE
  2
ISO-25
  9
$DIMCLRD
 70
     0
  9
$DIMCLRE
 70
     0
  9
$DIMCLRT
 70
     0
  9
$DIMTFAC
 40
1.0
  9
$DIMGAP
 40
0.625
  9
$DIMJUST
 70
     0
  9
$DIMSD1
 70
     0
  9
$DIMSD2
 70
     0
  9
$DIMTOLJ
 70
     0
  9
$DIMTZIN
 70
     8
  9
$DIMALTZ
 70
     0
  9
$DIMALTTZ
 70
     0
  9
$DIMUPT
 70
     0
  9
$DIMDEC
 70
     2
  9
$DIMTDEC
 70
     2
  9
$DIMALTU
 70
     2
  9
$DIMALTTD
 70
     3
  9
$DIMTXSTY
  7
Standard
  9
$DIMAUNIT
 70
     0
  9
$DIMADEC
 70
     0
  9
$DIMALTRND
 40
0.0
  9
$DIMAZIN
 70
     0
  9
$DIMDSEP
 70
    44
  9
$DIMATFIT
 70
     3
  9
$DIMFRAC
 70
     0
  9
$DIMLDRBLK
  1

  9
$DIMLUNIT
 70
     2
  9
$DIMLWD
 70
    -2
  9
$DIMLWE
 70
    -2
  9
$DIMTMOVE
 70
     0
  9
$LUNITS
 70
     2
  9
$LUPREC
 70
     4
  9
$SKETCHINC
 40
1.0
  9
$FILLETRAD
 40
10.0
  9
$AUNITS
 70
     0
  9
$AUPREC
 70
     0
  9
$MENU
  1
.
  9
$ELEVATION
 40
0.0
  9
$PELEVATION
 40
0.0
  9
$THICKNESS
 40
0.0
  9
$LIMCHECK
 70
     0
  9
$CHAMFERA
 40
10.0
  9
$CHAMFERB
 40
10.0
  9
$CHAMFERC
 40
20.0
  9
$CHAMFERD
 40
0.0
  9
$SKPOLY
 70
     0
  9
$TDCREATE
 40
2456878.258633576
  9
$TDUCREATE
 40
2456878.175300243
  9
$TDUPDATE
 40
2456878.258633588
  9
$TDUUPDATE
 40
2456878.175300255
  9
$TDINDWG
 40
0.0000000116
  9
$TDUSRTIMER
 40
0.0000000116
  9
$USRTIMER
 70
     1
  9
$ANGBASE
 50
0.0
  9
$ANGDIR
 70
     0
  9
$PDMODE
 70
     0
  9
$PDSIZE
 40
0.0
  9
$PLINEWID
 40
0.0
  9
$SPLFRAME
 70
     0
  9
$SPLINETYPE
 70
     6
  9
$SPLINESEGS
 70
     8
  9
$HANDSEED
  5
29E
  9
$SURFTAB1
 70
     6
  9
$SURFTAB2
 70
     6
  9
$SURFTYPE
 70
     6
  9
$SURFU
 70
     6
  9
$SURFV
 70
     6
  9
$UCSBASE
  2

  9
$UCSNAME
  2

  9
$UCSORG
 10
0.0
 20
0.0
 30
0.0
  9
$UCSXDIR
 10
1.0
 20
0.0
 30
0.0
  9
$UCSYDIR
 10
0.0
 20
1.0
 30
0.0
  9
$UCSORTHOREF
  2

  9
$UCSORTHOVIEW
 70
     0
  9
$UCSORGTOP
 10
0.0
 20
0.0
 30
0.0
  9
$UCSORGBOTTOM
 10
0.0
 20
0.0
 30
0.0
  9
$UCSORGLEFT
 10
0.0
 20
0.0
 30
0.0
  9
$UCSORGRIGHT
 10
0.0
 20
0.0
 30
0.0
  9
$UCSORGFRONT
 10
0.0
 20
0.0
 30
0.0
  9
$UCSORGBACK
 10
0.0
 20
0.0
 30
0.0
  9
$PUCSBASE
  2

  9
$PUCSNAME
  2

  9
$PUCSORG
 10
0.0
 20
0.0
 30
0.0
  9
$PUCSXDIR
 10
1.0
 20
0.0
 30
0.0
  9
$PUCSYDIR
 10
0.0
 20
1.0
 30
0.0
  9
$PUCSORTHOREF
  2

  9
$PUCSORTHOVIEW
 70
     0
  9
$PUCSORGTOP
 10
0.0
 20
0.0
 30
0.0
  9
$PUCSORGBOTTOM
 10
0.0
 20
0.0
 30
0.0
  9
$PUCSORGLEFT
 10
0.0
 20
0.0
 30
0.0
  9
$PUCSORGRIGHT
 10
0.0
 20
0.0
 30
0.0
  9
$PUCSORGFRONT
 10
0.0
 20
0.0
 30
0.0
  9
$PUCSORGBACK
 10
0.0
 20
0.0
 30
0.0
  9
$USERI1
 70
     0
  9
$USERI2
 70
     0
  9
$USERI3
 70
     0
  9
$USERI4
 70
     0
  9
$USERI5
 70
     0
  9
$USERR1
 40
0.0
  9
$USERR2
 40
0.0
  9
$USERR3
 40
0.0
  9
$USERR4
 40
0.0
  9
$USERR5
 40
0.0
  9
$WORLDVIEW
 70
     1
  9
$SHADEDGE
 70
     3
  9
$SHADEDIF
 70
    70
  9
$TILEMODE
 70
     1
  9
$MAXACTVP
 70
    64
  9
$PINSBASE
 10
0.0
 20
0.0
 30
0.0
  9
$PLIMCHECK
 70
     0
  9
$PEXTMIN
 10
-208.239346
 20
-148.598041
 30
0.0
  9
$PEXTMAX
 10
631.760654
 20
445.401959
 30
0.0
  9
$PLIMMIN
 10
-208.239346
 20
-148.598041
  9
$PLIMMAX
 10
631.760654
 20
445.401959
  9
$UNITMODE
 70
     0
  9
$VISRETAIN
 70
     1
  9
$PLINEGEN
 70
     0
  9
$PSLTSCALE
 70
     1
  9
$TREEDEPTH
 70
  3020
  9
$CMLSTYLE
  2
Standard
  9
$CMLJUST
 70
     0
  9
$CMLSCALE
 40
20.0
  9
$PROXYGRAPHICS
 70
     1
  9
$MEASUREMENT
 70
     1
  9
$CELWEIGHT
370
    -1
  9
$ENDCAPS
280
     0
  9
$JOINSTYLE
280
     0
  9
$LWDISPLAY
290
     0
  9
$INSUNITS
 70
     4
  9
$HYPERLINKBASE
  1

  9
$STYLESHEET
  1

  9
$XEDIT
290
     1
  9
$CEPSNTYPE
380
     0
  9
$PSTYLEMODE
290
     1
  9
$FINGERPRINTGUID
  2
{FAEB1C30-E019-11D5-929B-00C0DF256EC4}
  9
$VERSIONGUID
  2
{FAEB1C32-E019-11D5-929B-00C0DF256EC4}
  9
$EXTNAMES
290
     1
  9
$PSVPSCALE
 40
0.0
  9
$OLESTARTUP
290
     0
  0
ENDSEC
  0
SECTION
  2
CLASSES
  0
CLASS
  1
ACDBDICTIONARYWDFLT
  2
AcDbDictionaryWithDefault
  3
ObjectDBX Classes
 90
        0
280
     0
281
     0
  0
CLASS
  1
ACDBPLACEHOLDER
  2
AcDbPlaceHolder
  3
ObjectDBX Classes
 90
        0
280
     0
281
     0
  0
CLASS
  1
LAYOUT
  2
AcDbLayout
  3
ObjectDBX Classes
 90
        0
280
     0
281
     0
  0
ENDSEC
  0
SECTION
  2
TABLES
  0
TABLE
  2
VPORT
  5
8
330
0
100
AcDbSymbolTable
 70
     2
  0
VPORT
  5
29
330
8
100
AcDbSymbolTableRecord
100
AcDbViewportTableRecord
  2
*ACTIVE
 70
     0
 10
0.0
 20
0.0
 11
1.0
 21
1.0
 12
211.760654
 22
148.401959
 13
0.0
 23
0.0
 14
1.0
 24
1.0
 15
0.0
 25
0.0
 16
0.0
 26
0.0
 36
1.0
 17
0.0
 27
0.0
 37
0.0
 40
594.0
 41
1.414141
 42
50.0
 43
0.0
 44
0.0
 50
0.0
 51
0.0
 71
    16
 72
   100
 73
     1
 74
     0
 75
     0
 76
     0
 77
     0
 78
     0
281
     0
 65
     0
110
0.0
120
0.0
130
0.0
111
1.0
121
0.0
131
0.0
112
0.0
122
1.0
132
0.0
 79
     0
146
0.0
  0
ENDTAB
  0
TABLE
  2
LTYPE
  5
5
330
0
100
AcDbSymbolTable
 70
     3
  0
LTYPE
  5
14
330
5
100
AcDbSymbolTableRecord
100
AcDbLinetypeTableRecord
  2
ByBlock
 70
     0
  3

 72
    65
 73
     0
 40
0.0
  0
LTYPE
  5
15
330
5
100
AcDbSymbolTableRecord
100
AcDbLinetypeTableRecord
  2
ByLayer
 70
     0
  3

 72
    65
 73
     0
 40
0.0
  0
LTYPE
  5
16
330
5
100
AcDbSymbolTableRecord
100
AcDbLinetypeTableRecord
  2
Continuous
 70
     0
  3
Solid line
 72
    65
 73
     0
 40
0.0
  0
LTYPE
  5
2A
330
5
100
AcDbSymbolTableRecord
100
AcDbLinetypeTableRecord
  2
DASHED
 70
     0
  3
__ __ __ __ __
 72
    65
 73
     2
 40
6.25
 49
5.0
 74
     4
 75
     0
340
0
 46
1.0
 50
0.0
 44
0.0
 45
0.0
 49
-1.25
 74
     4
 75
     0
340
0
 46
1.0
 50
0.0
 44
0.0
 45
0.0
  0
LTYPE
  5
29C
330
5
100
AcDbSymbolTableRecord
100
AcDbLinetypeTableRecord
  2
DASHDOT
 70
     0
  3
__ . __ . __ . __ . __
 72
    65
 73
     4
 40
7.5
 49
5.0
 74
     4
 75
     0
340
0
 46
1.0
 50
0.0
 44
0.0
 45
0.0
 49
-1.25
 74
     4
 75
     0
340
0
 46
1.0
 50
0.0
 44
0.0
 45
0.0
 49
0.0
 74
     4
 75
     0
340
0
 46
1.0
 50
0.0
 44
0.0
 45
0.0
 49
-1.25
 74
     4
 75
     0
340
0
 46
1.0
 50
0.0
 44
0.0
 45
0.0
  0
ENDTAB
  0
TABLE
  2
LAYER
  5
2
330
0
100
AcDbSymbolTable
 70
     7
  0
LAYER
  5
10
330
2
100
AcDbSymbolTableRecord
100
AcDbLayerTableRecord
  2
0
 70
     0
 62
     7
  6
Continuous
370
    -3
390
F
  0
LAYER
  5
2B
330
2
100
AcDbSymbolTableRecord
100
AcDbLayerTableRecord
  2
LC-INFO-1-2-mm-A3-0
 70
     1
 62
     7
  6
ByBlock
370
    -3
390
F
  0
LAYER
  5
2C
330
2
100
AcDbSymbolTableRecord
100
AcDbLayerTableRecord
  2
LC-CUT-HIDDEN
 70
     0
 62
     7
  6
DASHED
370
    -3
390
F
  0
LAYER
  5
2D
330
2
100
AcDbSymbolTableRecord
100
AcDbLayerTableRecord
  2
LC-VIEWPORT
 70
     0
 62
     7
  6
ByBlock
370
    -3
390
F
  0
LAYER
  5
2E
330
2
100
AcDbSymbolTableRecord
100
AcDbLayerTableRecord
  2
LC-3D-HIDDEN
 70
     0
 62
     9
  6
DASHED
370
    -3
390
F
  0
LAYER
  5
30
330
2
100
AcDbSymbolTableRecord
100
AcDbLayerTableRecord
  2
LC-001-100-D00-0
 70
     0
 62
     1
  6
ByBlock
370
    -3
390
F
  0
LAYER
  5
249
330
2
100
AcDbSymbolTableRecord
100
AcDbLayerTableRecord
  2
Defpoints
 70
     0
 62
     7
  6
Continuous
290
     0
370
    -3
390
F
  0
ENDTAB
  0
TABLE
  2
STYLE
  5
3
330
0
100
AcDbSymbolTable
 70
     3
  0
STYLE
  5
11
330
3
100
AcDbSymbolTableRecord
100
AcDbTextStyleTableRecord
  2
Standard
 70
     0
 40
0.0
 41
1.0
 50
0.0
 71
     0
 42
2.5
  3
txt
  4

  0
STYLE
  5
2F
330
3
100
AcDbSymbolTableRecord
100
AcDbTextStyleTableRecord
  2
LCTX15-400-0-0-Arial
 70
     0
 40
0.0
 41
0.8
 50
0.0
 71
     0
 42
3.5
  3

  4

1001
ACAD
1000
Arial
1071
 16777218
  0
STYLE
  5
246
330
3
100
AcDbSymbolTableRecord
100
AcDbTextStyleTableRecord
  2
LCTX15-400-0-0pDIN-Schrift
 70
     0
 40
2.5
 41
0.8
 50
15.0
 71
     0
 42
3.5
  3
STANDARD
  4

  0
ENDTAB
  0
TABLE
  2
VIEW
  5
6
330
0
100
AcDbSymbolTable
 70
     0
  0
ENDTAB
  0
TABLE
  2
UCS
  5
7
330
0
100
AcDbSymbolTable
 70
     0
  0
ENDTAB
  0
TABLE
  2
APPID
  5
9
330
0
100
AcDbSymbolTable
 70
     1
  0
APPID
  5
12
330
9
100
AcDbSymbolTableRecord
100
AcDbRegAppTableRecord
  2
ACAD
 70
     0
  0
ENDTAB
  0
TABLE
  2
DIMSTYLE
  5
A
330
0
100
AcDbSymbolTable
 70
     2
100
AcDbDimStyleTable
  0
DIMSTYLE
105
27
330
A
100
AcDbSymbolTableRecord
100
AcDbDimStyleTableRecord
  2
ISO-25
 70
     0
 41
2.5
 42
0.625
 43
3.75
 44
1.25
 73
     0
 74
     0
 77
     1
 78
     8
140
2.5
141
2.5
143
0.03937
147
0.625
171
     3
172
     1
271
     2
272
     2
274
     3
278
    44
283
     0
284
     8
340
11
  0
DIMSTYLE
105
247
102
{ACAD_REACTORS
330
248
330
257
330
264
330
273
330
280
330
28F
102
}
330
A
100
AcDbSymbolTableRecord
100
AcDbDimStyleTableRecord
  2
LC-DIM-L-0140-02-02
 70
     0
 40
2.0
 41
14.0
 42
0.0
 43
7.5
 44
1.8
 73
     0
 74
     0
 77
     1
 78
     8
 79
     2
140
14.0
141
0.0
146
0.71
147
1.5
176
     2
177
     2
178
     2
179
     2
271
     2
278
    44
289
     1
340
246
  0
ENDTAB
  0
TABLE
  2
BLOCK_RECORD
  5
1
330
0
100
AcDbSymbolTable
 70
    23
  0
BLOCK_RECORD
  5
1F
330
1
100
AcDbSymbolTableRecord
100
AcDbBlockTableRecord
  2
*Model_Space
340
22
  0
BLOCK_RECORD
  5
1B
330
1
100
AcDbSymbolTableRecord
100
AcDbBlockTableRecord
  2
*Paper_Space
340
1E
  0
BLOCK_RECORD
  5
23
330
1
100
AcDbSymbolTableRecord
100
AcDbBlockTableRecord
  2
*Paper_Space0
340
26
  0
BLOCK_RECORD
  5
55
330
1
100
AcDbSymbolTableRecord
100
AcDbBlockTableRecord
  2
KLON1
340
0
102
{BLKREFS
331
81
102
}
  0
BLOCK_RECORD
  5
B4
330
1
100
AcDbSymbolTableRecord
100
AcDbBlockTableRecord
  2
KLON2
340
0
102
{BLKREFS
331
D5
102
}
  0
BLOCK_RECORD
  5
D9
330
1
100
AcDbSymbolTableRecord
100
AcDbBlockTableRecord
  2
KLON3
340
0
102
{BLKREFS
331
E6
102
}
  0
BLOCK_RECORD
  5
F0
330
1
100
AcDbSymbolTableRecord
100
AcDbBlockTableRecord
  2
POLY1
340
0
102
{BLKREFS
331
FB
102
}
  0
BLOCK_RECORD
  5
10D
330
1
100
AcDbSymbolTableRecord
100
AcDbBlockTableRecord
  2
POLY2
340
0
102
{BLKREFS
331
118
102
}
  0
BLOCK_RECORD
  5
147
330
1
100
AcDbSymbolTableRecord
100
AcDbBlockTableRecord
  2
KLON4
340
0
102
{BLKREFS
331
165
102
}
  0
BLOCK_RECORD
  5
1B3
330
1
100
AcDbSymbolTableRecord
100
AcDbBlockTableRecord
  2
KLON5
340
0
102
{BLKREFS
331
1B8
102
}
  0
BLOCK_RECORD
  5
1B9
330
1
100
AcDbSymbolTableRecord
100
AcDbBlockTableRecord
  2
KLON6
340
0
102
{BLKREFS
331
1C4
102
}
  0
BLOCK_RECORD
  5
1C5
330
1
100
AcDbSymbolTableRecord
100
AcDbBlockTableRecord
  2
KLON7
340
0
102
{BLKREFS
331
1D1
102
}
  0
BLOCK_RECORD
  5
1D4
330
1
100
AcDbSymbolTableRecord
100
AcDbBlockTableRecord
  2
KLON8
340
0
102
{BLKREFS
331
1DD
102
}
  0
BLOCK_RECORD
  5
1DE
330
1
100
AcDbSymbolTableRecord
100
AcDbBlockTableRecord
  2
KLON9
340
0
102
{BLKREFS
331
1E8
102
}
  0
BLOCK_RECORD
  5
1E9
330
1
100
AcDbSymbolTableRecord
100
AcDbBlockTableRecord
  2
KLON10
340
0
102
{BLKREFS
331
204
102
}
  0
BLOCK_RECORD
  5
206
330
1
100
AcDbSymbolTableRecord
100
AcDbBlockTableRecord
  2
KLON11
340
0
102
{BLKREFS
331
21D
102
}
  0
BLOCK_RECORD
  5
21E
330
1
100
AcDbSymbolTableRecord
100
AcDbBlockTableRecord
  2
KLON12
340
0
102
{BLKREFS
331
230
102
}
  0
BLOCK_RECORD
  5
231
330
1
100
AcDbSymbolTableRecord
100
AcDbBlockTableRecord
  2
KLON13
340
0
102
{BLKREFS
331
23A
102
}
  0
BLOCK_RECORD
  5
23B
330
1
100
AcDbSymbolTableRecord
100
AcDbBlockTableRecord
  2
KLON14
340
0
102
{BLKREFS
331
245
102
}
  0
BLOCK_RECORD
  5
24A
330
1
100
AcDbSymbolTableRecord
100
AcDbBlockTableRecord
  2
*D17
340
0
  0
BLOCK_RECORD
  5
258
330
1
100
AcDbSymbolTableRecord
100
AcDbBlockTableRecord
  2
*D18
340
0
  0
BLOCK_RECORD
  5
265
330
1
100
AcDbSymbolTableRecord
100
AcDbBlockTableRecord
  2
*D19
340
0
  0
BLOCK_RECORD
  5
274
330
1
100
AcDbSymbolTableRecord
100
AcDbBlockTableRecord
  2
*D20
340
0
  0
BLOCK_RECORD
  5
281
330
1
100
AcDbSymbolTableRecord
100
AcDbBlockTableRecord
  2
*D21
340
0
  0
BLOCK_RECORD
  5
290
330
1
100
AcDbSymbolTableRecord
100
AcDbBlockTableRecord
  2
*D22
340
0
  0
ENDTAB
  0
ENDSEC
  0
SECTION
  2
BLOCKS
  0
BLOCK
  5
20
330
1F
100
AcDbEntity
  8
0
100
AcDbBlockBegin
  2
*Model_Space
 70
     0
 71
     0
 10
0.0
 20
0.0
 30
0.0
  3
*Model_Space
  1

  0
ENDBLK
  5
21
330
1F
100
AcDbEntity
  8
0
100
AcDbBlockEnd
  0
BLOCK
  5
1C
330
1B
100
AcDbEntity
 67
     1
  8
0
100
AcDbBlockBegin
  2
*Paper_Space
 70
     0
 71
     0
 10
0.0
 20
0.0
 30
0.0
  3
*Paper_Space
  1

  0
ENDBLK
  5
1D
330
1B
100
AcDbEntity
 67
     1
  8
0
100
AcDbBlockEnd
  0
BLOCK
  5
24
330
23
100
AcDbEntity
  8
0
100
AcDbBlockBegin
  2
*Paper_Space0
 70
     0
 71
     0
 10
0.0
 20
0.0
 30
0.0
  3
*Paper_Space0
  1

  0
ENDBLK
  5
25
330
23
100
AcDbEntity
  8
0
100
AcDbBlockEnd
  0
BLOCK
  5
56
330
55
100
AcDbEntity
  8
0
100
AcDbBlockBegin
  2
KLON1
 70
     0
 71
     0
 10
0.0
 20
0.0
 30
0.0
  3
KLON1
  1

  4
KLON1
  0
LINE
  5
58
330
55
100
AcDbEntity
  8
LC-001-100-D00-0
 62
     7
370
    15
100
AcDbLine
 10
194.382265
 20
283.957967
 30
0.0
 11
194.503005
 21
283.957967
 31
0.0
  0
LINE
  5
59
330
55
100
AcDbEntity
  8
LC-001-100-D00-0
 62
     7
370
    15
100
AcDbLine
 10
194.503005
 20
283.957967
 30
0.0
 11
194.864526
 21
283.957967
 31
0.0
  0
LINE
  5
5A
330
55
100
AcDbEntity
  8
LC-001-100-D00-0
 62
     7
370
    15
100
AcDbLine
 10
194.864526
 20
283.957967
 30
0.0
 11
195.464697
 21
283.957967
 31
0.0
  0
LINE
  5
5B
330
55
100
AcDbEntity
  8
LC-001-100-D00-0
 62
     7
370
    15
100
AcDbLine
 10
195.464697
 20
283.957967
 30
0.0
 11
196.300003
 21
283.957967
 31
0.0
  0
LINE
  5
5C
330
55
100
AcDbEntity
  8
LC-001-100-D00-0
 62
     7
370
    15
100
AcDbLine
 10
196.300003
 20
283.957967
 30
0.0
 11
197.365537
 21
283.957967
 31
0.0
  0
LINE
  5
5D
330
55
100
AcDbEntity
  8
LC-001-100-D00-0
 62
     7
370
    15
100
AcDbLine
 10
197.365537
 20
283.957967
 30
0.0
 11
198.655054
 21
283.957967
 31
0.0
  0
LINE
  5
5E
330
55
100
AcDbEntity
  8
LC-001-100-D00-0
 62
     7
370
    15
100
AcDbLine
 10
198.655054
 20
283.957967
 30
0.0
 11
200.160976
 21
283.957967
 31
0.0
  0
LINE
  5
5F
330
55
100
AcDbEntity
  8
LC-001-100-D00-0
 62
     7
370
    15
100
AcDbLine
 10
200.160976
 20
283.957967
 30
0.0
 11
201.874472
 21
283.957967
 31
0.0
  0
LINE
  5
60
330
55
100
AcDbEntity
  8
LC-001-100-D00-0
 62
     7
370
    15
100
AcDbLine
 10
201.874472
 20
283.957967
 30
0.0
 11
203.785486
 21
283.957967
 31
0.0
  0
LINE
  5
61
330
55
100
AcDbEntity
  8
LC-001-100-D00-0
 62
     7
370
    15
100
AcDbLine
 10
203.785486
 20
283.957967
 30
0.0
 11
205.882801
 21
283.957967
 31
0.0
  0
LINE
  5
62
330
55
100
AcDbEntity
  8
LC-001-100-D00-0
 62
     7
370
    15
100
AcDbLine
 10
205.882801
 20
283.957967
 30
0.0
 11
208.154112
 21
283.957967
 31
0.0
  0
LINE
  5
63
330
55
100
AcDbEntity
  8
LC-001-100-D00-0
 62
     7
370
    15
100
AcDbLine
 10
208.154112
 20
283.957967
 30
0.0
 11
210.586089
 21
283.957967
 31
0.0
  0
LINE
  5
64
330
55
100
AcDbEntity
  8
LC-001-100-D00-0
 62
     7
370
    15
100
AcDbLine
 10
210.586089
 20
283.957967
 30
0.0
 11
213.16446
 21
283.957967
 31
0.0
  0
LINE
  5
65
330
55
100
AcDbEntity
  8
LC-001-100-D00-0
 62
     7
370
    15
100
AcDbLine
 10
213.16446
 20
283.957967
 30
0.0
 11
215.874094
 21
283.957967
 31
0.0
  0
LINE
  5
66
330
55
100
AcDbEntity
  8
LC-001-100-D00-0
 62
     7
370
    15
100
AcDbLine
 10
215.874094
 20
283.957967
 30
0.0
 11
218.69909
 21
283.957967
 31
0.0
  0
LINE
  5
67
330
55
100
AcDbEntity
  8
LC-001-100-D00-0
 62
     7
370
    15
100
AcDbLine
 10
218.69909
 20
283.957967
 30
0.0
 11
221.62287
 21
283.957967
 31
0.0
  0
LINE
  5
68
330
55
100
AcDbEntity
  8
LC-001-100-D00-0
 62
     7
370
    15
100
AcDbLine
 10
221.62287
 20
283.957967
 30
0.0
 11
224.628276
 21
283.957967
 31
0.0
  0
LINE
  5
69
330
55
100
AcDbEntity
  8
LC-001-100-D00-0
 62
     7
370
    15
100
AcDbLine
 10
224.628276
 20
283.957967
 30
0.0
 11
227.69767
 21
283.957967
 31
0.0
  0
LINE
  5
6A
330
55
100
AcDbEntity
  8
LC-001-100-D00-0
 62
     7
370
    15
100
AcDbLine
 10
227.69767
 20
283.957967
 30
0.0
 11
230.813042
 21
283.957967
 31
0.0
  0
LINE
  5
6B
330
55
100
AcDbEntity
  8
LC-001-100-D00-0
 62
     7
370
    15
100
AcDbLine
 10
230.813042
 20
283.957967
 30
0.0
 11
233.956107
 21
283.957967
 31
0.0
  0
LINE
  5
6C
330
55
100
AcDbEntity
  8
LC-001-100-D00-0
 62
     7
370
    15
100
AcDbLine
 10
233.956107
 20
283.957967
 30
0.0
 11
237.108422
 21
283.957967
 31
0.0
  0
LINE
  5
6D
330
55
100
AcDbEntity
  8
LC-001-100-D00-0
 62
     7
370
    15
100
AcDbLine
 10
237.108422
 20
283.957967
 30
0.0
 11
240.251487
 21
283.957952
 31
0.0
  0
LINE
  5
6E
330
55
100
AcDbEntity
  8
LC-001-100-D00-0
 62
     7
370
    15
100
AcDbLine
 10
240.251487
 20
283.957952
 30
0.0
 11
243.366859
 21
283.957952
 31
0.0
  0
LINE
  5
6F
330
55
100
AcDbEntity
  8
LC-001-100-D00-0
 62
     7
370
    15
100
AcDbLine
 10
243.366859
 20
283.957952
 30
0.0
 11
246.436253
 21
283.957952
 31
0.0
  0
LINE
  5
70
330
55
100
AcDbEntity
  8
LC-001-100-D00-0
 62
     7
370
    15
100
AcDbLine
 10
246.436253
 20
283.957952
 30
0.0
 11
249.441659
 21
283.957952
 31
0.0
  0
LINE
  5
71
330
55
100
AcDbEntity
  8
LC-001-100-D00-0
 62
     7
370
    15
100
AcDbLine
 10
249.441659
 20
283.957952
 30
0.0
 11
252.36544
 21
283.957952
 31
0.0
  0
LINE
  5
72
330
55
100
AcDbEntity
  8
LC-001-100-D00-0
 62
     7
370
    15
100
AcDbLine
 10
252.36544
 20
283.957952
 30
0.0
 11
255.190436
 21
283.957952
 31
0.0
  0
LINE
  5
73
330
55
100
AcDbEntity
  8
LC-001-100-D00-0
 62
     7
370
    15
100
AcDbLine
 10
255.190436
 20
283.957952
 30
0.0
 11
257.90007
 21
283.957952
 31
0.0
  0
LINE
  5
74
330
55
100
AcDbEntity
  8
LC-001-100-D00-0
 62
     7
370
    15
100
AcDbLine
 10
257.90007
 20
283.957952
 30
0.0
 11
260.47844
 21
283.957952
 31
0.0
  0
LINE
  5
75
330
55
100
AcDbEntity
  8
LC-001-100-D00-0
 62
     7
370
    15
100
AcDbLine
 10
260.47844
 20
283.957952
 30
0.0
 11
262.910418
 21
283.957952
 31
0.0
  0
LINE
  5
76
330
55
100
AcDbEntity
  8
LC-001-100-D00-0
 62
     7
370
    15
100
AcDbLine
 10
262.910418
 20
283.957952
 30
0.0
 11
265.181727
 21
283.957952
 31
0.0
  0
LINE
  5
77
330
55
100
AcDbEntity
  8
LC-001-100-D00-0
 62
     7
370
    15
100
AcDbLine
 10
265.181727
 20
283.957952
 30
0.0
 11
267.279044
 21
283.957952
 31
0.0
  0
LINE
  5
78
330
55
100
AcDbEntity
  8
LC-001-100-D00-0
 62
     7
370
    15
100
AcDbLine
 10
267.279044
 20
283.957952
 30
0.0
 11
269.190058
 21
283.957952
 31
0.0
  0
LINE
  5
79
330
55
100
AcDbEntity
  8
LC-001-100-D00-0
 62
     7
370
    15
100
AcDbLine
 10
269.190058
 20
283.957952
 30
0.0
 11
270.903554
 21
283.957952
 31
0.0
  0
LINE
  5
7A
330
55
100
AcDbEntity
  8
LC-001-100-D00-0
 62
     7
370
    15
100
AcDbLine
 10
270.903554
 20
283.957952
 30
0.0
 11
272.409476
 21
283.957952
 31
0.0
  0
LINE
  5
7B
330
55
100
AcDbEntity
  8
LC-001-100-D00-0
 62
     7
370
    15
100
AcDbLine
 10
272.409476
 20
283.957952
 30
0.0
 11
273.698989
 21
283.957952
 31
0.0
  0
LINE
  5
7C
330
55
100
AcDbEntity
  8
LC-001-100-D00-0
 62
     7
370
    15
100
AcDbLine
 10
273.698989
 20
283.957952
 30
0.0
 11
274.764526
 21
283.957952
 31
0.0
  0
LINE
  5
7D
330
55
100
AcDbEntity
  8
LC-001-100-D00-0
 62
     7
370
    15
100
AcDbLine
 10
274.764526
 20
283.957952
 30
0.0
 11
275.59983
 21
283.957952
 31
0.0
  0
LINE
  5
7E
330
55
100
AcDbEntity
  8
LC-001-100-D00-0
 62
     7
370
    15
100
AcDbLine
 10
275.59983
 20
283.957952
 30
0.0
 11
276.200004
 21
283.957952
 31
0.0
  0
LINE
  5
7F
330
55
100
AcDbEntity
  8
LC-001-100-D00-0
 62
     7
370
    15
100
AcDbLine
 10
276.200004
 20
283.957952
 30
0.0
 11
276.561521
 21
283.957952
 31
0.0
  0
LINE
  5
80
330
55
100
AcDbEntity
  8
LC-001-100-D00-0
 62
     7
370
    15
100
AcDbLine
 10
276.561521
 20
283.957952
 30
0.0
 11
276.682265
 21
283.957952
 31
0.0
  0
ENDBLK
  5
57
330
55
100
AcDbEntity
  8
0
100
AcDbBlockEnd
  0
BLOCK
  5
B5
330
B4
100
AcDbEntity
  8
0
100
AcDbBlockBegin
  2
KLON2
 70
     0
 71
     0
 10
0.0
 20
0.0
 30
0.0
  3
KLON2
  1

  4
KLON2
  0
LINE
  5
B7
330
B4
100
AcDbEntity
  8
LC-001-100-D00-0
 62
     7
370
    15
100
AcDbLine
 10
257.532257
 20
118.957953
 30
0.0
 11
257.411739
 21
118.957953
 31
0.0
  0
LINE
  5
B8
330
B4
100
AcDbEntity
  8
LC-001-100-D00-0
 62
     7
370
    15
100
AcDbLine
 10
257.411739
 20
118.957953
 30
0.0
 11
257.051505
 21
118.957953
 31
0.0
  0
LINE
  5
B9
330
B4
100
AcDbEntity
  8
LC-001-100-D00-0
 62
     7
370
    15
100
AcDbLine
 10
257.051505
 20
118.957953
 30
0.0
 11
256.455501
 21
118.957953
 31
0.0
  0
LINE
  5
BA
330
B4
100
AcDbEntity
  8
LC-001-100-D00-0
 62
     7
370
    15
100
AcDbLine
 10
256.455501
 20
118.957953
 30
0.0
 11
255.630258
 21
118.957953
 31
0.0
  0
LINE
  5
BB
330
B4
100
AcDbEntity
  8
LC-001-100-D00-0
 62
     7
370
    15
100
AcDbLine
 10
255.630258
 20
118.957953
 30
0.0
 11
254.584817
 21
118.957953
 31
0.0
  0
LINE
  5
BC
330
B4
100
AcDbEntity
  8
LC-001-100-D00-0
 62
     7
370
    15
100
AcDbLine
 10
254.584817
 20
118.957953
 30
0.0
 11
253.330631
 21
118.957953
 31
0.0
  0
LINE
  5
BD
330
B4
100
AcDbEntity
  8
LC-001-100-D00-0
 62
     7
370
    15
100
AcDbLine
 10
253.330631
 20
118.957953
 30
0.0
 11
251.881443
 21
118.957953
 31
0.0
  0
LINE
  5
BE
330
B4
100
AcDbEntity
  8
LC-001-100-D00-0
 62
     7
370
    15
100
AcDbLine
 10
251.881443
 20
118.957953
 30
0.0
 11
250.25313
 21
118.957953
 31
0.0
  0
LINE
  5
BF
330
B4
100
AcDbEntity
  8
LC-001-100-D00-0
 62
     7
370
    15
100
AcDbLine
 10
250.25313
 20
118.957953
 30
0.0
 11
248.463533
 21
118.957953
 31
0.0
  0
LINE
  5
C0
330
B4
100
AcDbEntity
  8
LC-001-100-D00-0
 62
     7
370
    15
100
AcDbLine
 10
248.463533
 20
118.957953
 30
0.0
 11
246.532257
 21
118.957953
 31
0.0
  0
LINE
  5
C1
330
B4
100
AcDbEntity
  8
LC-001-100-D00-0
 62
     7
370
    15
100
AcDbLine
 10
246.532257
 20
118.957953
 30
0.0
 11
244.480463
 21
118.957953
 31
0.0
  0
LINE
  5
C2
330
B4
100
AcDbEntity
  8
LC-001-100-D00-0
 62
     7
370
    15
100
AcDbLine
 10
244.480463
 20
118.957953
 30
0.0
 11
242.330631
 21
118.957954
 31
0.0
  0
LINE
  5
C3
330
B4
100
AcDbEntity
  8
LC-001-100-D00-0
 62
     7
370
    15
100
AcDbLine
 10
242.330631
 20
118.957954
 30
0.0
 11
240.106315
 21
118.957954
 31
0.0
  0
LINE
  5
C4
330
B4
100
AcDbEntity
  8
LC-001-100-D00-0
 62
     7
370
    15
100
AcDbLine
 10
240.106315
 20
118.957954
 30
0.0
 11
237.831884
 21
118.957954
 31
0.0
  0
LINE
  5
C5
330
B4
100
AcDbEntity
  8
LC-001-100-D00-0
 62
     7
370
    15
100
AcDbLine
 10
237.831884
 20
118.957954
 30
0.0
 11
235.532257
 21
118.957954
 31
0.0
  0
LINE
  5
C6
330
B4
100
AcDbEntity
  8
LC-001-100-D00-0
 62
     7
370
    15
100
AcDbLine
 10
235.532257
 20
118.957954
 30
0.0
 11
233.232631
 21
118.957954
 31
0.0
  0
LINE
  5
C7
330
B4
100
AcDbEntity
  8
LC-001-100-D00-0
 62
     7
370
    15
100
AcDbLine
 10
233.232631
 20
118.957954
 30
0.0
 11
230.9582
 21
118.957954
 31
0.0
  0
LINE
  5
C8
330
B4
100
AcDbEntity
  8
LC-001-100-D00-0
 62
     7
370
    15
100
AcDbLine
 10
230.9582
 20
118.957954
 30
0.0
 11
228.733883
 21
118.957954
 31
0.0
  0
LINE
  5
C9
330
B4
100
AcDbEntity
  8
LC-001-100-D00-0
 62
     7
370
    15
100
AcDbLine
 10
228.733883
 20
118.957954
 30
0.0
 11
226.584052
 21
118.957954
 31
0.0
  0
LINE
  5
CA
330
B4
100
AcDbEntity
  8
LC-001-100-D00-0
 62
     7
370
    15
100
AcDbLine
 10
226.584052
 20
118.957954
 30
0.0
 11
224.532258
 21
118.957954
 31
0.0
  0
LINE
  5
CB
330
B4
100
AcDbEntity
  8
LC-001-100-D00-0
 62
     7
370
    15
100
AcDbLine
 10
224.532258
 20
118.957954
 30
0.0
 11
222.600982
 21
118.957954
 31
0.0
  0
LINE
  5
CC
330
B4
100
AcDbEntity
  8
LC-001-100-D00-0
 62
     7
370
    15
100
AcDbLine
 10
222.600982
 20
118.957954
 30
0.0
 11
220.811385
 21
118.957954
 31
0.0
  0
LINE
  5
CD
330
B4
100
AcDbEntity
  8
LC-001-100-D00-0
 62
     7
370
    15
100
AcDbLine
 10
220.811385
 20
118.957954
 30
0.0
 11
219.183072
 21
118.957955
 31
0.0
  0
LINE
  5
CE
330
B4
100
AcDbEntity
  8
LC-001-100-D00-0
 62
     7
370
    15
100
AcDbLine
 10
219.183072
 20
118.957955
 30
0.0
 11
217.733884
 21
118.957955
 31
0.0
  0
LINE
  5
CF
330
B4
100
AcDbEntity
  8
LC-001-100-D00-0
 62
     7
370
    15
100
AcDbLine
 10
217.733884
 20
118.957955
 30
0.0
 11
216.479698
 21
118.957955
 31
0.0
  0
LINE
  5
D0
330
B4
100
AcDbEntity
  8
LC-001-100-D00-0
 62
     7
370
    15
100
AcDbLine
 10
216.479698
 20
118.957955
 30
0.0
 11
215.434257
 21
118.957955
 31
0.0
  0
LINE
  5
D1
330
B4
100
AcDbEntity
  8
LC-001-100-D00-0
 62
     7
370
    15
100
AcDbLine
 10
215.434257
 20
118.957955
 30
0.0
 11
214.609014
 21
118.957955
 31
0.0
  0
LINE
  5
D2
330
B4
100
AcDbEntity
  8
LC-001-100-D00-0
 62
     7
370
    15
100
AcDbLine
 10
214.609014
 20
118.957955
 30
0.0
 11
214.01301
 21
118.957955
 31
0.0
  0
LINE
  5
D3
330
B4
100
AcDbEntity
  8
LC-001-100-D00-0
 62
     7
370
    15
100
AcDbLine
 10
214.01301
 20
118.957955
 30
0.0
 11
213.652776
 21
118.957955
 31
0.0
  0
LINE
  5
D4
330
B4
100
AcDbEntity
  8
LC-001-100-D00-0
 62
     7
370
    15
100
AcDbLine
 10
213.652776
 20
118.957955
 30
0.0
 11
213.532258
 21
118.957955
 31
0.0
  0
ENDBLK
  5
B6
330
B4
100
AcDbEntity
  8
0
100
AcDbBlockEnd
  0
BLOCK
  5
DA
330
D9
100
AcDbEntity
  8
0
100
AcDbBlockBegin
  2
KLON3
 70
     0
 71
     0
 10
0.0
 20
0.0
 30
0.0
  3
KLON3
  1

  4
KLON3
  0
LINE
  5
DC
330
D9
100
AcDbEntity
  8
LC-001-100-D00-0
 62
     7
370
    15
100
AcDbLine
 10
264.532264
 20
259.257951
 30
0.0
 11
264.408555
 21
259.257951
 31
0.0
  0
LINE
  5
DD
330
D9
100
AcDbEntity
  8
LC-001-100-D00-0
 62
     7
370
    15
100
AcDbLine
 10
264.408555
 20
259.257951
 30
0.0
 11
264.038484
 21
259.257951
 31
0.0
  0
LINE
  5
DE
330
D9
100
AcDbEntity
  8
LC-001-100-D00-0
 62
     7
370
    15
100
AcDbLine
 10
264.038484
 20
259.257951
 30
0.0
 11
263.425207
 21
259.257951
 31
0.0
  0
LINE
  5
DF
330
D9
100
AcDbEntity
  8
LC-001-100-D00-0
 62
     7
370
    15
100
AcDbLine
 10
263.425207
 20
259.257951
 30
0.0
 11
262.573959
 21
259.257951
 31
0.0
  0
LINE
  5
E0
330
D9
100
AcDbEntity
  8
LC-001-100-D00-0
 62
     7
370
    15
100
AcDbLine
 10
262.573959
 20
259.257951
 30
0.0
 11
261.491999
 21
259.257951
 31
0.0
  0
LINE
  5
E1
330
D9
100
AcDbEntity
  8
LC-001-100-D00-0
 62
     7
370
    15
100
AcDbLine
 10
261.491999
 20
259.257951
 30
0.0
 11
260.188561
 21
259.257951
 31
0.0
  0
LINE
  5
E2
330
D9
100
AcDbEntity
  8
LC-001-100-D00-0
 62
     7
370
    15
100
AcDbLine
 10
260.188561
 20
259.257951
 30
0.0
 11
258.674763
 21
259.257966
 31
0.0
  0
LINE
  5
E3
330
D9
100
AcDbEntity
  8
LC-001-100-D00-0
 62
     7
370
    15
100
AcDbLine
 10
258.674763
 20
259.257966
 30
0.0
 11
256.963523
 21
259.257966
 31
0.0
  0
LINE
  5
E4
330
D9
100
AcDbEntity
  8
LC-001-100-D00-0
 62
     7
370
    15
100
AcDbLine
 10
256.963523
 20
259.257966
 30
0.0
 11
255.069436
 21
259.257966
 31
0.0
  0
LINE
  5
E5
330
D9
100
AcDbEntity
  8
LC-001-100-D00-0
 62
     7
370
    15
100
AcDbLine
 10
255.069436
 20
259.257966
 30
0.0
 11
254.532264
 21
259.257966
 31
0.0
  0
ENDBLK
  5
DB
330
D9
100
AcDbEntity
  8
0
100
AcDbBlockEnd
  0
BLOCK
  5
F1
330
F0
100
AcDbEntity
  8
0
100
AcDbBlockBegin
  2
POLY1
 70
     0
 71
     0
 10
0.0
 20
0.0
 30
0.0
  3
POLY1
  1

  4
POLY1
  0
LINE
  5
F3
330
F0
100
AcDbEntity
  8
LC-001-100-D00-0
 62
     7
370
    50
100
AcDbLine
 10
206.243129
 20
260.024169
 30
0.0
 11
206.243129
 21
260.024169
 31
0.0
  0
LINE
  5
F4
330
F0
100
AcDbEntity
  8
LC-001-100-D00-0
 62
     7
370
    50
100
AcDbLine
 10
206.243129
 20
260.024169
 30
0.0
 11
205.725151
 21
261.103508
 31
0.0
  0
LINE
  5
F5
330
F0
100
AcDbEntity
  8
LC-001-100-D00-0
 62
     7
370
    50
100
AcDbLine
 10
205.725151
 20
261.103508
 30
0.0
 11
205.725151
 21
261.103508
 31
0.0
  0
LINE
  5
F6
330
F0
100
AcDbEntity
  8
LC-001-100-D00-0
 62
     7
370
    50
100
AcDbLine
 10
205.725151
 20
261.103508
 30
0.0
 11
203.528516
 21
265.680757
 31
0.0
  0
LINE
  5
F7
330
F0
100
AcDbEntity
  8
LC-001-100-D00-0
 62
     7
370
    50
100
AcDbLine
 10
203.528516
 20
265.680757
 30
0.0
 11
203.528516
 21
265.680757
 31
0.0
  0
LINE
  5
F8
330
F0
100
AcDbEntity
  8
LC-001-100-D00-0
 62
     7
370
    50
100
AcDbLine
 10
203.528516
 20
265.680757
 30
0.0
 11
201.334294
 21
270.259164
 31
0.0
  0
LINE
  5
F9
330
F0
100
AcDbEntity
  8
LC-001-100-D00-0
 62
     7
370
    50
100
AcDbLine
 10
201.334294
 20
270.259164
 30
0.0
 11
201.334294
 21
270.259164
 31
0.0
  0
LINE
  5
FA
330
F0
100
AcDbEntity
  8
LC-001-100-D00-0
 62
     7
370
    50
100
AcDbLine
 10
201.334294
 20
270.259164
 30
0.0
 11
199.657481
 21
273.757958
 31
0.0
  0
ENDBLK
  5
F2
330
F0
100
AcDbEntity
  8
0
100
AcDbBlockEnd
  0
BLOCK
  5
10E
330
10D
100
AcDbEntity
  8
0
100
AcDbBlockBegin
  2
POLY2
 70
     0
 71
     0
 10
0.0
 20
0.0
 30
0.0
  3
POLY2
  1

  4
POLY2
  0
LINE
  5
110
330
10D
100
AcDbEntity
  8
LC-001-100-D00-0
 62
     7
370
    50
100
AcDbLine
 10
271.407045
 20
273.757958
 30
0.0
 11
271.407045
 21
273.757958
 31
0.0
  0
LINE
  5
111
330
10D
100
AcDbEntity
  8
LC-001-100-D00-0
 62
     7
370
    50
100
AcDbLine
 10
271.407045
 20
273.757958
 30
0.0
 11
269.730236
 21
270.259157
 31
0.0
  0
LINE
  5
112
330
10D
100
AcDbEntity
  8
LC-001-100-D00-0
 62
     7
370
    50
100
AcDbLine
 10
269.730236
 20
270.259157
 30
0.0
 11
269.730236
 21
270.259157
 31
0.0
  0
LINE
  5
113
330
10D
100
AcDbEntity
  8
LC-001-100-D00-0
 62
     7
370
    50
100
AcDbLine
 10
269.730236
 20
270.259157
 30
0.0
 11
267.536022
 21
265.680747
 31
0.0
  0
LINE
  5
114
330
10D
100
AcDbEntity
  8
LC-001-100-D00-0
 62
     7
370
    50
100
AcDbLine
 10
267.536022
 20
265.680747
 30
0.0
 11
267.536022
 21
265.680747
 31
0.0
  0
LINE
  5
115
330
10D
100
AcDbEntity
  8
LC-001-100-D00-0
 62
     7
370
    50
100
AcDbLine
 10
267.536022
 20
265.680747
 30
0.0
 11
265.339377
 21
261.103503
 31
0.0
  0
LINE
  5
116
330
10D
100
AcDbEntity
  8
LC-001-100-D00-0
 62
     7
370
    50
100
AcDbLine
 10
265.339377
 20
261.103503
 30
0.0
 11
265.339377
 21
261.103503
 31
0.0
  0
LINE
  5
117
330
10D
100
AcDbEntity
  8
LC-001-100-D00-0
 62
     7
370
    50
100
AcDbLine
 10
265.339377
 20
261.103503
 30
0.0
 11
264.821399
 21
260.024169
 31
0.0
  0
ENDBLK
  5
10F
330
10D
100
AcDbEntity
  8
0
100
AcDbBlockEnd
  0
BLOCK
  5
148
330
147
100
AcDbEntity
  8
0
100
AcDbBlockBegin
  2
KLON4
 70
     0
 71
     0
 10
0.0
 20
0.0
 30
0.0
  3
KLON4
  1

  4
KLON4
  0
LINE
  5
14A
330
147
100
AcDbEntity
  8
LC-001-100-D00-0
 62
     7
370
    15
100
AcDbLine
 10
253.532262
 20
210.257956
 30
0.0
 11
253.410551
 21
210.257956
 31
0.0
  0
LINE
  5
14B
330
147
100
AcDbEntity
  8
LC-001-100-D00-0
 62
     7
370
    15
100
AcDbLine
 10
253.410551
 20
210.257956
 30
0.0
 11
253.047069
 21
210.257956
 31
0.0
  0
LINE
  5
14C
330
147
100
AcDbEntity
  8
LC-001-100-D00-0
 62
     7
370
    15
100
AcDbLine
 10
253.047069
 20
210.257956
 30
0.0
 11
252.446729
 21
210.257956
 31
0.0
  0
LINE
  5
14D
330
147
100
AcDbEntity
  8
LC-001-100-D00-0
 62
     7
370
    15
100
AcDbLine
 10
252.446729
 20
210.257956
 30
0.0
 11
251.617649
 21
210.257956
 31
0.0
  0
LINE
  5
14E
330
147
100
AcDbEntity
  8
LC-001-100-D00-0
 62
     7
370
    15
100
AcDbLine
 10
251.617649
 20
210.257956
 30
0.0
 11
250.571042
 21
210.257956
 31
0.0
  0
LINE
  5
14F
330
147
100
AcDbEntity
  8
LC-001-100-D00-0
 62
     7
370
    15
100
AcDbLine
 10
250.571042
 20
210.257956
 30
0.0
 11
249.321061
 21
210.257956
 31
0.0
  0
LINE
  5
150
330
147
100
AcDbEntity
  8
LC-001-100-D00-0
 62
     7
370
    15
100
AcDbLine
 10
249.321061
 20
210.257956
 30
0.0
 11
247.88461
 21
210.257956
 31
0.0
  0
LINE
  5
151
330
147
100
AcDbEntity
  8
LC-001-100-D00-0
 62
     7
370
    15
100
AcDbLine
 10
247.88461
 20
210.257956
 30
0.0
 11
246.281116
 21
210.257956
 31
0.0
  0
LINE
  5
152
330
147
100
AcDbEntity
  8
LC-001-100-D00-0
 62
     7
370
    15
100
AcDbLine
 10
246.281116
 20
210.257956
 30
0.0
 11
244.532262
 21
210.257956
 31
0.0
  0
LINE
  5
153
330
147
100
AcDbEntity
  8
LC-001-100-D00-0
 62
     7
370
    15
100
AcDbLine
 10
244.532262
 20
210.257956
 30
0.0
 11
242.661697
 21
210.257956
 31
0.0
  0
LINE
  5
154
330
147
100
AcDbEntity
  8
LC-001-100-D00-0
 62
     7
370
    15
100
AcDbLine
 10
242.661697
 20
210.257956
 30
0.0
 11
240.69472
 21
210.257956
 31
0.0
  0
LINE
  5
155
330
147
100
AcDbEntity
  8
LC-001-100-D00-0
 62
     7
370
    15
100
AcDbLine
 10
240.69472
 20
210.257956
 30
0.0
 11
238.657929
 21
210.257956
 31
0.0
  0
LINE
  5
156
330
147
100
AcDbEntity
  8
LC-001-100-D00-0
 62
     7
370
    15
100
AcDbLine
 10
238.657929
 20
210.257956
 30
0.0
 11
236.578868
 21
210.257956
 31
0.0
  0
LINE
  5
157
330
147
100
AcDbEntity
  8
LC-001-100-D00-0
 62
     7
370
    15
100
AcDbLine
 10
236.578868
 20
210.257956
 30
0.0
 11
234.485655
 21
210.257956
 31
0.0
  0
LINE
  5
158
330
147
100
AcDbEntity
  8
LC-001-100-D00-0
 62
     7
370
    15
100
AcDbLine
 10
234.485655
 20
210.257956
 30
0.0
 11
232.406594
 21
210.257956
 31
0.0
  0
LINE
  5
159
330
147
100
AcDbEntity
  8
LC-001-100-D00-0
 62
     7
370
    15
100
AcDbLine
 10
232.406594
 20
210.257956
 30
0.0
 11
230.369803
 21
210.257956
 31
0.0
  0
LINE
  5
15A
330
147
100
AcDbEntity
  8
LC-001-100-D00-0
 62
     7
370
    15
100
AcDbLine
 10
230.369803
 20
210.257956
 30
0.0
 11
228.402826
 21
210.257964
 31
0.0
  0
LINE
  5
15B
330
147
100
AcDbEntity
  8
LC-001-100-D00-0
 62
     7
370
    15
100
AcDbLine
 10
228.402826
 20
210.257964
 30
0.0
 11
226.532262
 21
210.257964
 31
0.0
  0
LINE
  5
15C
330
147
100
AcDbEntity
  8
LC-001-100-D00-0
 62
     7
370
    15
100
AcDbLine
 10
226.532262
 20
210.257964
 30
0.0
 11
224.783406
 21
210.257964
 31
0.0
  0
LINE
  5
15D
330
147
100
AcDbEntity
  8
LC-001-100-D00-0
 62
     7
370
    15
100
AcDbLine
 10
224.783406
 20
210.257964
 30
0.0
 11
223.179912
 21
210.257964
 31
0.0
  0
LINE
  5
15E
330
147
100
AcDbEntity
  8
LC-001-100-D00-0
 62
     7
370
    15
100
AcDbLine
 10
223.179912
 20
210.257964
 30
0.0
 11
221.743461
 21
210.257964
 31
0.0
  0
LINE
  5
15F
330
147
100
AcDbEntity
  8
LC-001-100-D00-0
 62
     7
370
    15
100
AcDbLine
 10
221.743461
 20
210.257964
 30
0.0
 11
220.49348
 21
210.257964
 31
0.0
  0
LINE
  5
160
330
147
100
AcDbEntity
  8
LC-001-100-D00-0
 62
     7
370
    15
100
AcDbLine
 10
220.49348
 20
210.257964
 30
0.0
 11
219.446873
 21
210.257964
 31
0.0
  0
LINE
  5
161
330
147
100
AcDbEntity
  8
LC-001-100-D00-0
 62
     7
370
    15
100
AcDbLine
 10
219.446873
 20
210.257964
 30
0.0
 11
218.617795
 21
210.257964
 31
0.0
  0
LINE
  5
162
330
147
100
AcDbEntity
  8
LC-001-100-D00-0
 62
     7
370
    15
100
AcDbLine
 10
218.617795
 20
210.257964
 30
0.0
 11
218.017453
 21
210.257964
 31
0.0
  0
LINE
  5
163
330
147
100
AcDbEntity
  8
LC-001-100-D00-0
 62
     7
370
    15
100
AcDbLine
 10
218.017453
 20
210.257964
 30
0.0
 11
217.653971
 21
210.257964
 31
0.0
  0
LINE
  5
164
330
147
100
AcDbEntity
  8
LC-001-100-D00-0
 62
     7
370
    15
100
AcDbLine
 10
217.653971
 20
210.257964
 30
0.0
 11
217.532262
 21
210.257964
 31
0.0
  0
ENDBLK
  5
149
330
147
100
AcDbEntity
  8
0
100
AcDbBlockEnd
  0
BLOCK
  5
1B4
330
1B3
100
AcDbEntity
  8
0
100
AcDbBlockBegin
  2
KLON5
 70
     0
 71
     0
 10
0.0
 20
0.0
 30
0.0
  3
KLON5
  1

  4
KLON5
  0
LINE
  5
1B6
330
1B3
100
AcDbEntity
  8
LC-001-100-D00-0
 62
     7
370
    25
100
AcDbLine
 10
179.532264
 20
273.193048
 30
0.0
 11
182.914718
 21
276.575502
 31
0.0
  0
LINE
  5
1B7
330
1B3
100
AcDbEntity
  8
LC-001-100-D00-0
 62
     7
370
    25
100
AcDbLine
 10
186.777432
 20
271.457956
 30
0.0
 11
188.532264
 21
273.212788
 31
0.0
  0
ENDBLK
  5
1B5
330
1B3
100
AcDbEntity
  8
0
100
AcDbBlockEnd
  0
BLOCK
  5
1BA
330
1B9
100
AcDbEntity
  8
0
100
AcDbBlockBegin
  2
KLON6
 70
     0
 71
     0
 10
0.0
 20
0.0
 30
0.0
  3
KLON6
  1

  4
KLON6
  0
LINE
  5
1BC
330
1B9
100
AcDbEntity
  8
LC-001-100-D00-0
 62
     7
370
    25
100
AcDbLine
 10
356.922031
 20
279.957949
 30
0.0
 11
358.422031
 21
281.457949
 31
0.0
  0
LINE
  5
1BD
330
1B9
100
AcDbEntity
  8
LC-001-100-D00-0
 62
     7
370
    25
100
AcDbLine
 10
347.941775
 20
279.957949
 30
0.0
 11
349.441775
 21
281.457949
 31
0.0
  0
LINE
  5
1BE
330
1B9
100
AcDbEntity
  8
LC-001-100-D00-0
 62
     7
370
    25
100
AcDbLine
 10
338.944241
 20
279.940671
 30
0.0
 11
340.081263
 21
281.077693
 31
0.0
  0
LINE
  5
1BF
330
1B9
100
AcDbEntity
  8
LC-001-100-D00-0
 62
     7
370
    25
100
AcDbLine
 10
329.981263
 20
279.95795
 30
0.0
 11
331.481263
 21
281.45795
 31
0.0
  0
LINE
  5
1C0
330
1B9
100
AcDbEntity
  8
LC-001-100-D00-0
 62
     7
370
    25
100
AcDbLine
 10
321.001008
 20
279.95795
 30
0.0
 11
322.501008
 21
281.45795
 31
0.0
  0
LINE
  5
1C1
330
1B9
100
AcDbEntity
  8
LC-001-100-D00-0
 62
     7
370
    25
100
AcDbLine
 10
312.020752
 20
279.957951
 30
0.0
 11
313.520752
 21
281.45795
 31
0.0
  0
LINE
  5
1C2
330
1B9
100
AcDbEntity
  8
LC-001-100-D00-0
 62
     7
370
    25
100
AcDbLine
 10
303.040496
 20
279.957951
 30
0.0
 11
304.540496
 21
281.457951
 31
0.0
  0
LINE
  5
1C3
330
1B9
100
AcDbEntity
  8
LC-001-100-D00-0
 62
     7
370
    25
100
AcDbLine
 10
294.06024
 20
279.957951
 30
0.0
 11
295.56024
 21
281.457951
 31
0.0
  0
ENDBLK
  5
1BB
330
1B9
100
AcDbEntity
  8
0
100
AcDbBlockEnd
  0
BLOCK
  5
1C6
330
1C5
100
AcDbEntity
  8
0
100
AcDbBlockBegin
  2
KLON7
 70
     0
 71
     0
 10
0.0
 20
0.0
 30
0.0
  3
KLON7
  1

  4
KLON7
  0
LINE
  5
1C8
330
1C5
100
AcDbEntity
  8
LC-001-100-D00-0
 62
     7
370
    25
100
AcDbLine
 10
183.776136
 20
277.436921
 30
0.0
 11
184.874212
 21
278.534997
 31
0.0
  0
LINE
  5
1C9
330
1C5
100
AcDbEntity
  8
LC-001-100-D00-0
 62
     7
370
    25
100
AcDbLine
 10
177.316916
 20
279.957956
 30
0.0
 11
178.816916
 21
281.457956
 31
0.0
  0
LINE
  5
1CA
330
1C5
100
AcDbEntity
  8
LC-001-100-D00-0
 62
     7
370
    25
100
AcDbLine
 10
168.33666
 20
279.957957
 30
0.0
 11
169.83666
 21
281.457957
 31
0.0
  0
LINE
  5
1CB
330
1C5
100
AcDbEntity
  8
LC-001-100-D00-0
 62
     7
370
    25
100
AcDbLine
 10
159.356404
 20
279.957957
 30
0.0
 11
160.856404
 21
281.457957
 31
0.0
  0
LINE
  5
1CC
330
1C5
100
AcDbEntity
  8
LC-001-100-D00-0
 62
     7
370
    25
100
AcDbLine
 10
150.376149
 20
279.957957
 30
0.0
 11
151.876149
 21
281.457957
 31
0.0
  0
LINE
  5
1CD
330
1C5
100
AcDbEntity
  8
LC-001-100-D00-0
 62
     7
370
    25
100
AcDbLine
 10
141.395893
 20
279.957958
 30
0.0
 11
142.895893
 21
281.457958
 31
0.0
  0
LINE
  5
1CE
330
1C5
100
AcDbEntity
  8
LC-001-100-D00-0
 62
     7
370
    25
100
AcDbLine
 10
132.415637
 20
279.957958
 30
0.0
 11
133.915637
 21
281.457958
 31
0.0
  0
LINE
  5
1CF
330
1C5
100
AcDbEntity
  8
LC-001-100-D00-0
 62
     7
370
    25
100
AcDbLine
 10
123.435382
 20
279.957959
 30
0.0
 11
124.935381
 21
281.457959
 31
0.0
  0
LINE
  5
1D0
330
1C5
100
AcDbEntity
  8
LC-001-100-D00-0
 62
     7
370
    25
100
AcDbLine
 10
114.455126
 20
279.957959
 30
0.0
 11
115.955126
 21
281.457959
 31
0.0
  0
ENDBLK
  5
1C7
330
1C5
100
AcDbEntity
  8
0
100
AcDbBlockEnd
  0
BLOCK
  5
1D5
330
1D4
100
AcDbEntity
  8
0
100
AcDbBlockBegin
  2
KLON8
 70
     0
 71
     0
 10
0.0
 20
0.0
 30
0.0
  3
KLON8
  1

  4
KLON8
  0
LINE
  5
1D7
330
1D4
100
AcDbEntity
  8
LC-001-100-D00-0
 62
     7
370
    25
100
AcDbLine
 10
253.532263
 20
239.429973
 30
0.0
 11
254.532263
 21
240.429974
 31
0.0
  0
LINE
  5
1D8
330
1D4
100
AcDbEntity
  8
LC-001-100-D00-0
 62
     7
370
    25
100
AcDbLine
 10
253.532262
 20
230.449713
 30
0.0
 11
254.532262
 21
231.449713
 31
0.0
  0
LINE
  5
1D9
330
1D4
100
AcDbEntity
  8
LC-001-100-D00-0
 62
     7
370
    25
100
AcDbLine
 10
253.532262
 20
221.469453
 30
0.0
 11
254.532262
 21
222.469453
 31
0.0
  0
LINE
  5
1DA
330
1D4
100
AcDbEntity
  8
LC-001-100-D00-0
 62
     7
370
    25
100
AcDbLine
 10
253.532261
 20
212.489172
 30
0.0
 11
254.532262
 21
213.489172
 31
0.0
  0
LINE
  5
1DB
330
1D4
100
AcDbEntity
  8
LC-001-100-D00-0
 62
     7
370
    25
100
AcDbLine
 10
254.400156
 20
267.238604
 30
0.0
 11
261.051619
 21
273.890066
 31
0.0
  0
LINE
  5
1DC
330
1D4
100
AcDbEntity
  8
LC-001-100-D00-0
 62
     7
370
    25
100
AcDbLine
 10
269.035639
 20
281.874086
 30
0.0
 11
270.916136
 21
283.754584
 31
0.0
  0
ENDBLK
  5
1D6
330
1D4
100
AcDbEntity
  8
0
100
AcDbBlockEnd
  0
BLOCK
  5
1DF
330
1DE
100
AcDbEntity
  8
0
100
AcDbBlockBegin
  2
KLON9
 70
     0
 71
     0
 10
0.0
 20
0.0
 30
0.0
  3
KLON9
  1

  4
KLON9
  0
LINE
  5
1E1
330
1DE
100
AcDbEntity
  8
LC-001-100-D00-0
 62
     7
370
    25
100
AcDbLine
 10
216.532263
 20
256.311511
 30
0.0
 11
217.532263
 21
257.311511
 31
0.0
  0
LINE
  5
1E2
330
1DE
100
AcDbEntity
  8
LC-001-100-D00-0
 62
     7
370
    25
100
AcDbLine
 10
216.532263
 20
247.331251
 30
0.0
 11
217.532263
 21
248.331251
 31
0.0
  0
LINE
  5
1E3
330
1DE
100
AcDbEntity
  8
LC-001-100-D00-0
 62
     7
370
    25
100
AcDbLine
 10
197.077437
 20
281.757961
 30
0.0
 11
199.077437
 21
283.757961
 31
0.0
  0
LINE
  5
1E4
330
1DE
100
AcDbEntity
  8
LC-001-100-D00-0
 62
     7
370
    25
100
AcDbLine
 10
216.532263
 20
238.35099
 30
0.0
 11
217.532263
 21
239.35099
 31
0.0
  0
LINE
  5
1E5
330
1DE
100
AcDbEntity
  8
LC-001-100-D00-0
 62
     7
370
    25
100
AcDbLine
 10
200.032264
 20
275.732528
 30
0.0
 11
202.032264
 21
277.732529
 31
0.0
  0
LINE
  5
1E6
330
1DE
100
AcDbEntity
  8
LC-001-100-D00-0
 62
     7
370
    25
100
AcDbLine
 10
216.532262
 20
229.37071
 30
0.0
 11
217.532262
 21
230.37071
 31
0.0
  0
LINE
  5
1E7
330
1DE
100
AcDbEntity
  8
LC-001-100-D00-0
 62
     7
370
    25
100
AcDbLine
 10
206.946665
 20
273.666649
 30
0.0
 11
207.81823
 21
274.538214
 31
0.0
  0
ENDBLK
  5
1E0
330
1DE
100
AcDbEntity
  8
0
100
AcDbBlockEnd
  0
BLOCK
  5
1EA
330
1E9
100
AcDbEntity
  8
0
100
AcDbBlockBegin
  2
KLON10
 70
     0
 71
     0
 10
0.0
 20
0.0
 30
0.0
  3
KLON10
  1

  4
KLON10
  0
LINE
  5
1EC
330
1E9
100
AcDbEntity
  8
LC-001-100-D00-0
 62
     7
370
    25
100
AcDbLine
 10
257.348536
 20
198.344966
 30
0.0
 11
259.501927
 21
200.498357
 31
0.0
  0
LINE
  5
1ED
330
1E9
100
AcDbEntity
  8
LC-001-100-D00-0
 62
     7
370
    25
100
AcDbLine
 10
263.791863
 20
204.788293
 30
0.0
 11
265.945254
 21
206.941684
 31
0.0
  0
LINE
  5
1EE
330
1E9
100
AcDbEntity
  8
LC-001-100-D00-0
 62
     7
370
    25
100
AcDbLine
 10
248.281273
 20
198.257959
 30
0.0
 11
249.781273
 21
199.757959
 31
0.0
  0
LINE
  5
1EF
330
1E9
100
AcDbEntity
  8
LC-001-100-D00-0
 62
     7
370
    25
100
AcDbLine
 10
264.532262
 20
214.508948
 30
0.0
 11
266.032262
 21
216.008948
 31
0.0
  0
LINE
  5
1F0
330
1E9
100
AcDbEntity
  8
LC-001-100-D00-0
 62
     7
370
    25
100
AcDbLine
 10
239.301017
 20
198.25796
 30
0.0
 11
240.801017
 21
199.75796
 31
0.0
  0
LINE
  5
1F1
330
1E9
100
AcDbEntity
  8
LC-001-100-D00-0
 62
     7
370
    25
100
AcDbLine
 10
264.532262
 20
223.489204
 30
0.0
 11
266.032262
 21
224.989204
 31
0.0
  0
LINE
  5
1F2
330
1E9
100
AcDbEntity
  8
LC-001-100-D00-0
 62
     7
370
    25
100
AcDbLine
 10
230.320761
 20
198.25796
 30
0.0
 11
231.820761
 21
199.75796
 31
0.0
  0
LINE
  5
1F3
330
1E9
100
AcDbEntity
  8
LC-001-100-D00-0
 62
     7
370
    25
100
AcDbLine
 10
264.532262
 20
232.469461
 30
0.0
 11
266.032262
 21
233.969461
 31
0.0
  0
LINE
  5
1F4
330
1E9
100
AcDbEntity
  8
LC-001-100-D00-0
 62
     7
370
    25
100
AcDbLine
 10
221.340506
 20
198.25796
 30
0.0
 11
222.840506
 21
199.75796
 31
0.0
  0
LINE
  5
1F5
330
1E9
100
AcDbEntity
  8
LC-001-100-D00-0
 62
     7
370
    25
100
AcDbLine
 10
264.532263
 20
241.449717
 30
0.0
 11
266.032263
 21
242.949718
 31
0.0
  0
LINE
  5
1F6
330
1E9
100
AcDbEntity
  8
LC-001-100-D00-0
 62
     7
370
    25
100
AcDbLine
 10
212.648517
 20
198.546228
 30
0.0
 11
213.931789
 21
199.829499
 31
0.0
  0
LINE
  5
1F7
330
1E9
100
AcDbEntity
  8
LC-001-100-D00-0
 62
     7
370
    25
100
AcDbLine
 10
264.532263
 20
250.429974
 30
0.0
 11
266.032263
 21
251.929974
 31
0.0
  0
LINE
  5
1F8
330
1E9
100
AcDbEntity
  8
LC-001-100-D00-0
 62
     7
370
    25
100
AcDbLine
 10
207.183485
 20
202.061452
 30
0.0
 11
208.252767
 21
203.130734
 31
0.0
  0
LINE
  5
1F9
330
1E9
100
AcDbEntity
  8
LC-001-100-D00-0
 62
     7
370
    25
100
AcDbLine
 10
264.740271
 20
259.618238
 30
0.0
 11
267.999025
 21
262.876992
 31
0.0
  0
LINE
  5
1FA
330
1E9
100
AcDbEntity
  8
LC-001-100-D00-0
 62
     7
370
    25
100
AcDbLine
 10
205.032261
 20
208.890484
 30
0.0
 11
206.532261
 21
210.390484
 31
0.0
  0
LINE
  5
1FB
330
1E9
100
AcDbEntity
  8
LC-001-100-D00-0
 62
     7
370
    25
100
AcDbLine
 10
271.532264
 20
275.390487
 30
0.0
 11
273.399735
 21
277.257958
 31
0.0
  0
LINE
  5
1FC
330
1E9
100
AcDbEntity
  8
LC-001-100-D00-0
 62
     7
370
    25
100
AcDbLine
 10
205.032262
 20
217.870741
 30
0.0
 11
206.532262
 21
219.370741
 31
0.0
  0
LINE
  5
1FD
330
1E9
100
AcDbEntity
  8
LC-001-100-D00-0
 62
     7
370
    25
100
AcDbLine
 10
205.032262
 20
226.850997
 30
0.0
 11
206.532262
 21
228.350997
 31
0.0
  0
LINE
  5
1FE
330
1E9
100
AcDbEntity
  8
LC-001-100-D00-0
 62
     7
370
    25
100
AcDbLine
 10
205.032262
 20
235.831254
 30
0.0
 11
206.532263
 21
237.331254
 31
0.0
  0
LINE
  5
1FF
330
1E9
100
AcDbEntity
  8
LC-001-100-D00-0
 62
     7
370
    25
100
AcDbLine
 10
205.032263
 20
244.81151
 30
0.0
 11
206.532263
 21
246.311511
 31
0.0
  0
LINE
  5
200
330
1E9
100
AcDbEntity
  8
LC-001-100-D00-0
 62
     7
370
    25
100
AcDbLine
 10
205.032263
 20
253.791767
 30
0.0
 11
206.532263
 21
255.291767
 31
0.0
  0
LINE
  5
201
330
1E9
100
AcDbEntity
  8
LC-001-100-D00-0
 62
     7
370
    25
100
AcDbLine
 10
203.735029
 20
261.474789
 30
0.0
 11
204.860065
 21
262.599825
 31
0.0
  0
LINE
  5
202
330
1E9
100
AcDbEntity
  8
LC-001-100-D00-0
 62
     7
370
    25
100
AcDbLine
 10
200.832858
 20
267.552874
 30
0.0
 11
201.957894
 21
268.67791
 31
0.0
  0
LINE
  5
203
330
1E9
100
AcDbEntity
  8
LC-001-100-D00-0
 62
     7
370
    25
100
AcDbLine
 10
198.032476
 20
273.732748
 30
0.0
 11
199.532264
 21
275.232536
 31
0.0
  0
ENDBLK
  5
1EB
330
1E9
100
AcDbEntity
  8
0
100
AcDbBlockEnd
  0
BLOCK
  5
207
330
206
100
AcDbEntity
  8
0
100
AcDbBlockBegin
  2
KLON11
 70
     0
 71
     0
 10
0.0
 20
0.0
 30
0.0
  3
KLON11
  1

  4
KLON11
  0
LINE
  5
209
330
206
100
AcDbEntity
  8
LC-001-100-D00-0
 62
     7
370
    25
100
AcDbLine
 10
210.532258
 20
124.58792
 30
0.0
 11
213.532258
 21
127.58792
 31
0.0
  0
LINE
  5
20A
330
206
100
AcDbEntity
  8
LC-001-100-D00-0
 62
     7
370
    25
100
AcDbLine
 10
210.532258
 20
133.568176
 30
0.0
 11
213.532258
 21
136.568176
 31
0.0
  0
LINE
  5
20B
330
206
100
AcDbEntity
  8
LC-001-100-D00-0
 62
     7
370
    25
100
AcDbLine
 10
210.532258
 20
142.548433
 30
0.0
 11
213.532259
 21
145.548433
 31
0.0
  0
LINE
  5
20C
330
206
100
AcDbEntity
  8
LC-001-100-D00-0
 62
     7
370
    25
100
AcDbLine
 10
210.532259
 20
151.528689
 30
0.0
 11
213.532259
 21
154.528689
 31
0.0
  0
LINE
  5
20D
330
206
100
AcDbEntity
  8
LC-001-100-D00-0
 62
     7
370
    25
100
AcDbLine
 10
210.532259
 20
160.508946
 30
0.0
 11
213.532259
 21
163.508946
 31
0.0
  0
LINE
  5
20E
330
206
100
AcDbEntity
  8
LC-001-100-D00-0
 62
     7
370
    25
100
AcDbLine
 10
210.53226
 20
169.489202
 30
0.0
 11
213.53226
 21
172.489202
 31
0.0
  0
LINE
  5
20F
330
206
100
AcDbEntity
  8
LC-001-100-D00-0
 62
     7
370
    25
100
AcDbLine
 10
207.776508
 20
175.713707
 30
0.0
 11
209.897829
 21
177.835027
 31
0.0
  0
LINE
  5
210
330
206
100
AcDbEntity
  8
LC-001-100-D00-0
 62
     7
370
    25
100
AcDbLine
 10
203.28638
 20
180.203835
 30
0.0
 11
205.407701
 21
182.325155
 31
0.0
  0
LINE
  5
211
330
206
100
AcDbEntity
  8
LC-001-100-D00-0
 62
     7
370
    25
100
AcDbLine
 10
198.796252
 20
184.693963
 30
0.0
 11
200.917573
 21
186.815284
 31
0.0
  0
LINE
  5
212
330
206
100
AcDbEntity
  8
LC-001-100-D00-0
 62
     7
370
    25
100
AcDbLine
 10
194.306125
 20
189.184092
 30
0.0
 11
196.427445
 21
191.305412
 31
0.0
  0
LINE
  5
213
330
206
100
AcDbEntity
  8
LC-001-100-D00-0
 62
     7
370
    25
100
AcDbLine
 10
190.827977
 20
194.6862
 30
0.0
 11
193.632261
 21
197.490484
 31
0.0
  0
LINE
  5
214
330
206
100
AcDbEntity
  8
LC-001-100-D00-0
 62
     7
370
    25
100
AcDbLine
 10
190.532261
 20
203.37074
 30
0.0
 11
193.632261
 21
206.47074
 31
0.0
  0
LINE
  5
215
330
206
100
AcDbEntity
  8
LC-001-100-D00-0
 62
     7
370
    25
100
AcDbLine
 10
190.532261
 20
212.350997
 30
0.0
 11
193.632262
 21
215.450997
 31
0.0
  0
LINE
  5
216
330
206
100
AcDbEntity
  8
LC-001-100-D00-0
 62
     7
370
    25
100
AcDbLine
 10
190.532262
 20
221.331253
 30
0.0
 11
193.632262
 21
224.431253
 31
0.0
  0
LINE
  5
217
330
206
100
AcDbEntity
  8
LC-001-100-D00-0
 62
     7
370
    25
100
AcDbLine
 10
190.532262
 20
230.31151
 30
0.0
 11
193.632262
 21
233.41151
 31
0.0
  0
LINE
  5
218
330
206
100
AcDbEntity
  8
LC-001-100-D00-0
 62
     7
370
    25
100
AcDbLine
 10
190.532263
 20
239.291766
 30
0.0
 11
193.632263
 21
242.391766
 31
0.0
  0
LINE
  5
219
330
206
100
AcDbEntity
  8
LC-001-100-D00-0
 62
     7
370
    25
100
AcDbLine
 10
190.532263
 20
248.272023
 30
0.0
 11
193.632263
 21
251.372023
 31
0.0
  0
LINE
  5
21A
330
206
100
AcDbEntity
  8
LC-001-100-D00-0
 62
     7
370
    25
100
AcDbLine
 10
190.423828
 20
257.143844
 30
0.0
 11
193.632264
 21
260.352279
 31
0.0
  0
LINE
  5
21B
330
206
100
AcDbEntity
  8
LC-001-100-D00-0
 62
     7
370
    25
100
AcDbLine
 10
187.115313
 20
262.815585
 30
0.0
 11
193.632264
 21
269.332536
 31
0.0
  0
LINE
  5
21C
330
206
100
AcDbEntity
  8
LC-001-100-D00-0
 62
     7
370
    25
100
AcDbLine
 10
183.806798
 20
268.487326
 30
0.0
 11
186.777428
 21
271.457956
 31
0.0
  0
ENDBLK
  5
208
330
206
100
AcDbEntity
  8
0
100
AcDbBlockEnd
  0
BLOCK
  5
21F
330
21E
100
AcDbEntity
  8
0
100
AcDbBlockBegin
  2
KLON12
 70
     0
 71
     0
 10
0.0
 20
0.0
 30
0.0
  3
KLON12
  1

  4
KLON12
  0
LINE
  5
221
330
21E
100
AcDbEntity
  8
LC-001-100-D00-0
 62
     7
370
    25
100
AcDbLine
 10
258.783828
 20
118.957953
 30
0.0
 11
260.074151
 21
120.248276
 31
0.0
  0
LINE
  5
222
330
21E
100
AcDbEntity
  8
LC-001-100-D00-0
 62
     7
370
    25
100
AcDbLine
 10
257.532258
 20
126.686639
 30
0.0
 11
260.532258
 21
129.686639
 31
0.0
  0
LINE
  5
223
330
21E
100
AcDbEntity
  8
LC-001-100-D00-0
 62
     7
370
    25
100
AcDbLine
 10
257.532258
 20
135.666896
 30
0.0
 11
260.532258
 21
138.666896
 31
0.0
  0
LINE
  5
224
330
21E
100
AcDbEntity
  8
LC-001-100-D00-0
 62
     7
370
    25
100
AcDbLine
 10
257.532259
 20
144.647152
 30
0.0
 11
260.532259
 21
147.647152
 31
0.0
  0
LINE
  5
225
330
21E
100
AcDbEntity
  8
LC-001-100-D00-0
 62
     7
370
    25
100
AcDbLine
 10
257.532259
 20
153.627409
 30
0.0
 11
260.532259
 21
156.627409
 31
0.0
  0
LINE
  5
226
330
21E
100
AcDbEntity
  8
LC-001-100-D00-0
 62
     7
370
    25
100
AcDbLine
 10
257.532259
 20
162.607665
 30
0.0
 11
260.532259
 21
165.607665
 31
0.0
  0
LINE
  5
227
330
21E
100
AcDbEntity
  8
LC-001-100-D00-0
 62
     7
370
    25
100
AcDbLine
 10
257.53226
 20
171.587922
 30
0.0
 11
280.084012
 21
194.139674
 31
0.0
  0
LINE
  5
228
330
21E
100
AcDbEntity
  8
LC-001-100-D00-0
 62
     7
370
    25
100
AcDbLine
 10
277.432261
 20
200.468179
 30
0.0
 11
280.532261
 21
203.568179
 31
0.0
  0
LINE
  5
229
330
21E
100
AcDbEntity
  8
LC-001-100-D00-0
 62
     7
370
    25
100
AcDbLine
 10
277.432261
 20
209.448435
 30
0.0
 11
280.532261
 21
212.548436
 31
0.0
  0
LINE
  5
22A
330
21E
100
AcDbEntity
  8
LC-001-100-D00-0
 62
     7
370
    25
100
AcDbLine
 10
277.432262
 20
218.428692
 30
0.0
 11
280.532262
 21
221.528692
 31
0.0
  0
LINE
  5
22B
330
21E
100
AcDbEntity
  8
LC-001-100-D00-0
 62
     7
370
    25
100
AcDbLine
 10
277.432262
 20
227.408948
 30
0.0
 11
280.532262
 21
230.508949
 31
0.0
  0
LINE
  5
22C
330
21E
100
AcDbEntity
  8
LC-001-100-D00-0
 62
     7
370
    25
100
AcDbLine
 10
277.432263
 20
236.389205
 30
0.0
 11
280.532263
 21
239.489205
 31
0.0
  0
LINE
  5
22D
330
21E
100
AcDbEntity
  8
LC-001-100-D00-0
 62
     7
370
    25
100
AcDbLine
 10
277.432263
 20
245.369461
 30
0.0
 11
280.532263
 21
248.469462
 31
0.0
  0
LINE
  5
22E
330
21E
100
AcDbEntity
  8
LC-001-100-D00-0
 62
     7
370
    25
100
AcDbLine
 10
277.432263
 20
254.349718
 30
0.0
 11
281.220736
 21
258.138191
 31
0.0
  0
LINE
  5
22F
330
21E
100
AcDbEntity
  8
LC-001-100-D00-0
 62
     7
370
    25
100
AcDbLine
 10
277.432264
 20
263.329975
 30
0.0
 11
286.666542
 21
272.564253
 31
0.0
  0
ENDBLK
  5
220
330
21E
100
AcDbEntity
  8
0
100
AcDbBlockEnd
  0
BLOCK
  5
232
330
231
100
AcDbEntity
  8
0
100
AcDbBlockBegin
  2
KLON13
 70
     0
 71
     0
 10
0.0
 20
0.0
 30
0.0
  3
KLON13
  1

  4
KLON13
  0
LINE
  5
234
330
231
100
AcDbEntity
  8
LC-001-100-D00-0
 62
     7
370
    25
100
AcDbLine
 10
275.682263
 20
243.619461
 30
0.0
 11
278.532263
 21
246.469462
 31
0.0
  0
LINE
  5
235
330
231
100
AcDbEntity
  8
LC-001-100-D00-0
 62
     7
370
    25
100
AcDbLine
 10
275.682263
 20
252.599718
 30
0.0
 11
278.532263
 21
255.449718
 31
0.0
  0
LINE
  5
236
330
231
100
AcDbEntity
  8
LC-001-100-D00-0
 62
     7
370
    25
100
AcDbLine
 10
273.032263
 20
258.929974
 30
0.0
 11
278.532264
 21
264.429975
 31
0.0
  0
LINE
  5
237
330
231
100
AcDbEntity
  8
LC-001-100-D00-0
 62
     7
370
    25
100
AcDbLine
 10
273.032264
 20
267.910231
 30
0.0
 11
278.532264
 21
273.410231
 31
0.0
  0
LINE
  5
238
330
231
100
AcDbEntity
  8
LC-001-100-D00-0
 62
     7
370
    25
100
AcDbLine
 10
286.579985
 20
281.457952
 30
0.0
 11
288.083968
 21
282.961935
 31
0.0
  0
LINE
  5
239
330
231
100
AcDbEntity
  8
LC-001-100-D00-0
 62
     7
370
    25
100
AcDbLine
 10
275.682264
 20
279.540487
 30
0.0
 11
280.063257
 21
283.92148
 31
0.0
  0
ENDBLK
  5
233
330
231
100
AcDbEntity
  8
0
100
AcDbBlockEnd
  0
BLOCK
  5
23C
330
23B
100
AcDbEntity
  8
0
100
AcDbBlockBegin
  2
KLON14
 70
     0
 71
     0
 10
0.0
 20
0.0
 30
0.0
  3
KLON14
  1

  4
KLON14
  0
LINE
  5
23E
330
23B
100
AcDbEntity
  8
LC-001-100-D00-0
 62
     7
370
    25
100
AcDbLine
 10
192.532263
 20
241.291766
 30
0.0
 11
195.382263
 21
244.141767
 31
0.0
  0
LINE
  5
23F
330
23B
100
AcDbEntity
  8
LC-001-100-D00-0
 62
     7
370
    25
100
AcDbLine
 10
192.532263
 20
250.272023
 30
0.0
 11
195.382263
 21
253.122023
 31
0.0
  0
LINE
  5
240
330
23B
100
AcDbEntity
  8
LC-001-100-D00-0
 62
     7
370
    25
100
AcDbLine
 10
196.218202
 20
253.957962
 30
0.0
 11
198.032263
 21
255.772023
 31
0.0
  0
LINE
  5
241
330
23B
100
AcDbEntity
  8
LC-001-100-D00-0
 62
     7
370
    25
100
AcDbLine
 10
192.532264
 20
259.252279
 30
0.0
 11
198.032264
 21
264.75228
 31
0.0
  0
LINE
  5
242
330
23B
100
AcDbEntity
  8
LC-001-100-D00-0
 62
     7
370
    25
100
AcDbLine
 10
192.532264
 20
268.232536
 30
0.0
 11
197.782264
 21
273.482536
 31
0.0
  0
LINE
  5
243
330
23B
100
AcDbEntity
  8
LC-001-100-D00-0
 62
     7
370
    25
100
AcDbLine
 10
192.532264
 20
277.212792
 30
0.0
 11
195.382264
 21
280.062793
 31
0.0
  0
LINE
  5
244
330
23B
100
AcDbEntity
  8
LC-001-100-D00-0
 62
     7
370
    25
100
AcDbLine
 10
187.797172
 20
281.457956
 30
0.0
 11
190.224988
 21
283.885772
 31
0.0
  0
ENDBLK
  5
23D
330
23B
100
AcDbEntity
  8
0
100
AcDbBlockEnd
  0
BLOCK
  5
255
330
24A
100
AcDbEntity
  8
0
100
AcDbBlockBegin
  2
*D17
 70
     1
 71
     0
 10
0.0
 20
0.0
 30
0.0
  3
*D17
  1

  0
LINE
  5
24B
330
24A
100
AcDbEntity
  8
LC-001-100-D00-0
 62
     2
370
    -2
100
AcDbLine
 10
210.532258
 20
121.957955
 30
0.0
 11
210.532258
 21
84.807959
 31
0.0
  0
LINE
  5
24C
330
24A
100
AcDbEntity
  8
LC-001-100-D00-0
 62
     2
370
    -2
100
AcDbLine
 10
260.532258
 20
121.957953
 30
0.0
 11
260.532258
 21
84.807959
 31
0.0
  0
LINE
  5
24D
330
24A
100
AcDbEntity
  8
LC-001-100-D00-0
 62
     2
370
    -2
100
AcDbLine
 10
182.532258
 20
88.407959
 30
0.0
 11
154.532258
 21
88.407959
 31
0.0
  0
LINE
  5
24E
330
24A
100
AcDbEntity
  8
LC-001-100-D00-0
 62
     2
370
    -2
100
AcDbLine
 10
288.532258
 20
88.407959
 30
0.0
 11
347.247252
 21
88.407959
 31
0.0
  0
SOLID
  5
24F
330
24A
100
AcDbEntity
  8
LC-001-100-D00-0
 62
     2
100
AcDbTrace
 10
182.532258
 20
83.741293
 30
0.0
 11
182.532258
 21
93.074626
 31
0.0
 12
210.532258
 22
88.407959
 32
0.0
 13
210.532258
 23
88.407959
 33
0.0
  0
SOLID
  5
250
330
24A
100
AcDbEntity
  8
LC-001-100-D00-0
 62
     2
100
AcDbTrace
 10
288.532258
 20
93.074626
 30
0.0
 11
288.532258
 21
83.741293
 31
0.0
 12
260.532258
 22
88.407959
 32
0.0
 13
260.532258
 23
88.407959
 33
0.0
  0
MTEXT
  5
251
330
24A
100
AcDbEntity
  8
LC-001-100-D00-0
 62
     2
100
AcDbMText
 10
301.210494
 20
119.207959
 30
0.0
 40
28.0
 41
0.0
 71
     5
 72
     1
  1
\A1;DN50
  7
LCTX15-400-0-0pDIN-Schrift
 73
     1
 44
1.0
  0
POINT
  5
252
330
24A
100
AcDbEntity
  8
Defpoints
 62
     0
100
AcDbPoint
 10
210.532258
 20
121.957955
 30
0.0
  0
POINT
  5
253
330
24A
100
AcDbEntity
  8
Defpoints
 62
     0
100
AcDbPoint
 10
260.532258
 20
121.957953
 30
0.0
  0
POINT
  5
254
330
24A
100
AcDbEntity
  8
Defpoints
 62
     0
100
AcDbPoint
 10
260.532258
 20
88.407959
 30
0.0
  0
ENDBLK
  5
256
330
24A
100
AcDbEntity
  8
0
100
AcDbBlockEnd
  0
BLOCK
  5
262
330
258
100
AcDbEntity
  8
0
100
AcDbBlockBegin
  2
*D18
 70
     1
 71
     0
 10
0.0
 20
0.0
 30
0.0
  3
*D18
  1

  0
LINE
  5
259
330
258
100
AcDbEntity
  8
LC-001-100-D00-0
 62
     2
370
    -2
100
AcDbLine
 10
109.532264
 20
279.957959
 30
0.0
 11
109.532264
 21
325.449959
 31
0.0
  0
LINE
  5
25A
330
258
100
AcDbEntity
  8
LC-001-100-D00-0
 62
     2
370
    -2
100
AcDbLine
 10
361.532264
 20
279.957948
 30
0.0
 11
361.532264
 21
325.449959
 31
0.0
  0
LINE
  5
25B
330
258
100
AcDbEntity
  8
LC-001-100-D00-0
 62
     2
370
    -2
100
AcDbLine
 10
137.532264
 20
321.849959
 30
0.0
 11
333.532264
 21
321.849959
 31
0.0
  0
SOLID
  5
25C
330
258
100
AcDbEntity
  8
LC-001-100-D00-0
 62
     2
100
AcDbTrace
 10
137.532264
 20
326.516626
 30
0.0
 11
137.532264
 21
317.183293
 31
0.0
 12
109.532264
 22
321.849959
 32
0.0
 13
109.532264
 23
321.849959
 33
0.0
  0
SOLID
  5
25D
330
258
100
AcDbEntity
  8
LC-001-100-D00-0
 62
     2
100
AcDbTrace
 10
333.532264
 20
317.183293
 30
0.0
 11
333.532264
 21
326.516626
 31
0.0
 12
361.532264
 22
321.849959
 32
0.0
 13
361.532264
 23
321.849959
 33
0.0
  0
MTEXT
  5
25E
330
258
100
AcDbEntity
  8
LC-001-100-D00-0
 62
     2
100
AcDbMText
 10
237.317751
 20
352.649959
 30
0.0
 40
28.0
 41
0.0
 71
     5
 72
     1
  1
\A1;%%c252
  7
LCTX15-400-0-0pDIN-Schrift
 73
     1
 44
1.0
  0
POINT
  5
25F
330
258
100
AcDbEntity
  8
Defpoints
 62
     0
100
AcDbPoint
 10
109.532264
 20
279.957959
 30
0.0
  0
POINT
  5
260
330
258
100
AcDbEntity
  8
Defpoints
 62
     0
100
AcDbPoint
 10
361.532264
 20
279.957948
 30
0.0
  0
POINT
  5
261
330
258
100
AcDbEntity
  8
Defpoints
 62
     0
100
AcDbPoint
 10
361.532264
 20
321.849959
 30
0.0
  0
ENDBLK
  5
263
330
258
100
AcDbEntity
  8
0
100
AcDbBlockEnd
  0
BLOCK
  5
271
330
265
100
AcDbEntity
  8
0
100
AcDbBlockBegin
  2
*D19
 70
     1
 71
     0
 10
0.0
 20
0.0
 30
0.0
  3
*D19
  1

  0
LINE
  5
266
330
265
100
AcDbEntity
  8
LC-001-100-D00-0
 62
     2
370
    -2
100
AcDbLine
 10
216.532261
 20
210.257961
 30
0.0
 11
162.370854
 21
210.257961
 31
0.0
  0
LINE
  5
267
330
265
100
AcDbEntity
  8
LC-001-100-D00-0
 62
     2
370
    -2
100
AcDbLine
 10
206.532264
 20
259.257961
 30
0.0
 11
162.370854
 21
259.257961
 31
0.0
  0
LINE
  5
268
330
265
100
AcDbEntity
  8
LC-001-100-D00-0
 62
     2
370
    -2
100
AcDbLine
 10
165.970854
 20
182.257961
 30
0.0
 11
165.970854
 21
154.257961
 31
0.0
  0
LINE
  5
269
330
265
100
AcDbEntity
  8
LC-001-100-D00-0
 62
     2
370
    -2
100
AcDbLine
 10
165.970854
 20
287.257961
 30
0.0
 11
165.970854
 21
315.257961
 31
0.0
  0
LINE
  5
26A
330
265
100
AcDbEntity
  8
LC-001-100-D00-0
 62
     2
370
    -2
100
AcDbLine
 10
165.970854
 20
210.257961
 30
0.0
 11
165.970854
 21
259.257961
 31
0.0
  0
SOLID
  5
26B
330
265
100
AcDbEntity
  8
LC-001-100-D00-0
 62
     2
100
AcDbTrace
 10
170.637521
 20
182.257961
 30
0.0
 11
161.304188
 21
182.257961
 31
0.0
 12
165.970854
 22
210.257961
 32
0.0
 13
165.970854
 23
210.257961
 33
0.0
  0
SOLID
  5
26C
330
265
100
AcDbEntity
  8
LC-001-100-D00-0
 62
     2
100
AcDbTrace
 10
161.304188
 20
287.257961
 30
0.0
 11
170.637521
 21
287.257961
 31
0.0
 12
165.970854
 22
259.257961
 32
0.0
 13
165.970854
 23
259.257961
 33
0.0
  0
MTEXT
  5
26D
330
265
100
AcDbEntity
  8
LC-001-100-D00-0
 62
     2
100
AcDbMText
 10
135.170854
 20
217.899959
 30
0.0
 40
28.0
 41
0.0
 71
     5
 72
     1
  1
\A1;50
  7
LCTX15-400-0-0pDIN-Schrift
 11
6.123031769111886E-17
 21
1.0
 31
0.0
 73
     1
 44
1.0
  0
POINT
  5
26E
330
265
100
AcDbEntity
  8
Defpoints
 62
     0
100
AcDbPoint
 10
216.532261
 20
210.257961
 30
0.0
  0
POINT
  5
26F
330
265
100
AcDbEntity
  8
Defpoints
 62
     0
100
AcDbPoint
 10
206.532264
 20
259.257961
 30
0.0
  0
POINT
  5
270
330
265
100
AcDbEntity
  8
Defpoints
 62
     0
100
AcDbPoint
 10
165.970854
 20
259.257961
 30
0.0
  0
ENDBLK
  5
272
330
265
100
AcDbEntity
  8
0
100
AcDbBlockEnd
  0
BLOCK
  5
27E
330
274
100
AcDbEntity
  8
0
100
AcDbBlockBegin
  2
*D20
 70
     1
 71
     0
 10
0.0
 20
0.0
 30
0.0
  3
*D20
  1

  0
LINE
  5
275
330
274
100
AcDbEntity
  8
LC-001-100-D00-0
 62
     2
370
    -2
100
AcDbLine
 10
109.532264
 20
281.457959
 30
0.0
 11
79.310288
 21
281.457959
 31
0.0
  0
LINE
  5
276
330
274
100
AcDbEntity
  8
LC-001-100-D00-0
 62
     2
370
    -2
100
AcDbLine
 10
211.336105
 20
118.957955
 30
0.0
 11
79.310288
 21
118.957955
 31
0.0
  0
LINE
  5
277
330
274
100
AcDbEntity
  8
LC-001-100-D00-0
 62
     2
370
    -2
100
AcDbLine
 10
82.910288
 20
253.457959
 30
0.0
 11
82.910288
 21
146.957955
 31
0.0
  0
SOLID
  5
278
330
274
100
AcDbEntity
  8
LC-001-100-D00-0
 62
     2
100
AcDbTrace
 10
87.576955
 20
253.457959
 30
0.0
 11
78.243621
 21
253.457959
 31
0.0
 12
82.910288
 22
281.457959
 32
0.0
 13
82.910288
 23
281.457959
 33
0.0
  0
SOLID
  5
279
330
274
100
AcDbEntity
  8
LC-001-100-D00-0
 62
     2
100
AcDbTrace
 10
78.243621
 20
146.957955
 30
0.0
 11
87.576955
 21
146.957955
 31
0.0
 12
82.910288
 22
118.957955
 32
0.0
 13
82.910288
 23
118.957955
 33
0.0
  0
MTEXT
  5
27A
330
274
100
AcDbEntity
  8
LC-001-100-D00-0
 62
     2
100
AcDbMText
 10
52.110288
 20
196.515959
 30
0.0
 40
28.0
 41
0.0
 71
     5
 72
     1
  1
\A1;162
  7
LCTX15-400-0-0pDIN-Schrift
 11
6.123031769111886E-17
 21
1.0
 31
0.0
 73
     1
 44
1.0
  0
POINT
  5
27B
330
274
100
AcDbEntity
  8
Defpoints
 62
     0
100
AcDbPoint
 10
109.532264
 20
281.457959
 30
0.0
  0
POINT
  5
27C
330
274
100
AcDbEntity
  8
Defpoints
 62
     0
100
AcDbPoint
 10
211.336105
 20
118.957955
 30
0.0
  0
POINT
  5
27D
330
274
100
AcDbEntity
  8
Defpoints
 62
     0
100
AcDbPoint
 10
82.910288
 20
118.957955
 30
0.0
  0
ENDBLK
  5
27F
330
274
100
AcDbEntity
  8
0
100
AcDbBlockEnd
  0
BLOCK
  5
28D
330
281
100
AcDbEntity
  8
0
100
AcDbBlockBegin
  2
*D21
 70
     1
 71
     0
 10
0.0
 20
0.0
 30
0.0
  3
*D21
  1

  0
LINE
  5
282
330
281
100
AcDbEntity
  8
LC-001-100-D00-0
 62
     2
370
    -2
100
AcDbLine
 10
210.53226
 20
172.957955
 30
0.0
 11
136.813757
 21
172.957955
 31
0.0
  0
LINE
  5
283
330
281
100
AcDbEntity
  8
LC-001-100-D00-0
 62
     2
370
    -2
100
AcDbLine
 10
211.336105
 20
118.957955
 30
0.0
 11
136.813757
 21
118.957955
 31
0.0
  0
LINE
  5
284
330
281
100
AcDbEntity
  8
LC-001-100-D00-0
 62
     2
370
    -2
100
AcDbLine
 10
140.413757
 20
200.957955
 30
0.0
 11
140.413757
 21
228.957955
 31
0.0
  0
LINE
  5
285
330
281
100
AcDbEntity
  8
LC-001-100-D00-0
 62
     2
370
    -2
100
AcDbLine
 10
140.413757
 20
90.957955
 30
0.0
 11
140.413757
 21
62.957955
 31
0.0
  0
LINE
  5
286
330
281
100
AcDbEntity
  8
LC-001-100-D00-0
 62
     2
370
    -2
100
AcDbLine
 10
140.413757
 20
172.957955
 30
0.0
 11
140.413757
 21
118.957955
 31
0.0
  0
SOLID
  5
287
330
281
100
AcDbEntity
  8
LC-001-100-D00-0
 62
     2
100
AcDbTrace
 10
135.74709
 20
200.957955
 30
0.0
 11
145.080424
 21
200.957955
 31
0.0
 12
140.413757
 22
172.957955
 32
0.0
 13
140.413757
 23
172.957955
 33
0.0
  0
SOLID
  5
288
330
281
100
AcDbEntity
  8
LC-001-100-D00-0
 62
     2
100
AcDbTrace
 10
145.080424
 20
90.957955
 30
0.0
 11
135.74709
 21
90.957955
 31
0.0
 12
140.413757
 22
118.957955
 32
0.0
 13
140.413757
 23
118.957955
 33
0.0
  0
MTEXT
  5
289
330
281
100
AcDbEntity
  8
LC-001-100-D00-0
 62
     2
100
AcDbMText
 10
109.613757
 20
141.273959
 30
0.0
 40
28.0
 41
0.0
 71
     5
 72
     1
  1
\A1;54
  7
LCTX15-400-0-0pDIN-Schrift
 11
6.123031769111886E-17
 21
1.0
 31
0.0
 73
     1
 44
1.0
  0
POINT
  5
28A
330
281
100
AcDbEntity
  8
Defpoints
 62
     0
100
AcDbPoint
 10
210.53226
 20
172.957955
 30
0.0
  0
POINT
  5
28B
330
281
100
AcDbEntity
  8
Defpoints
 62
     0
100
AcDbPoint
 10
211.336105
 20
118.957955
 30
0.0
  0
POINT
  5
28C
330
281
100
AcDbEntity
  8
Defpoints
 62
     0
100
AcDbPoint
 10
140.413757
 20
118.957955
 30
0.0
  0
ENDBLK
  5
28E
330
281
100
AcDbEntity
  8
0
100
AcDbBlockEnd
  0
BLOCK
  5
29A
330
290
100
AcDbEntity
  8
0
100
AcDbBlockBegin
  2
*D22
 70
     1
 71
     0
 10
0.0
 20
0.0
 30
0.0
  3
*D22
  1

  0
LINE
  5
291
330
290
100
AcDbEntity
  8
LC-001-100-D00-0
 62
     2
370
    -2
100
AcDbLine
 10
190.532261
 20
197.100091
 30
0.0
 11
190.532261
 21
23.031959
 31
0.0
  0
LINE
  5
292
330
290
100
AcDbEntity
  8
LC-001-100-D00-0
 62
     2
370
    -2
100
AcDbLine
 10
280.532261
 20
197.100087
 30
0.0
 11
280.532261
 21
23.031959
 31
0.0
  0
LINE
  5
293
330
290
100
AcDbEntity
  8
LC-001-100-D00-0
 62
     2
370
    -2
100
AcDbLine
 10
218.532261
 20
26.631959
 30
0.0
 11
252.532261
 21
26.631959
 31
0.0
  0
SOLID
  5
294
330
290
100
AcDbEntity
  8
LC-001-100-D00-0
 62
     2
100
AcDbTrace
 10
218.532261
 20
31.298626
 30
0.0
 11
218.532261
 21
21.965293
 31
0.0
 12
190.532261
 22
26.631959
 32
0.0
 13
190.532261
 23
26.631959
 33
0.0
  0
SOLID
  5
295
330
290
100
AcDbEntity
  8
LC-001-100-D00-0
 62
     2
100
AcDbTrace
 10
252.532261
 20
21.965293
 30
0.0
 11
252.532261
 21
31.298626
 31
0.0
 12
280.532261
 22
26.631959
 32
0.0
 13
280.532261
 23
26.631959
 33
0.0
  0
MTEXT
  5
296
330
290
100
AcDbEntity
  8
LC-001-100-D00-0
 62
     2
100
AcDbMText
 10
228.798718
 20
57.431959
 30
0.0
 40
28.0
 41
0.0
 71
     5
 72
     1
  1
\A1;%%c90
  7
LCTX15-400-0-0pDIN-Schrift
 73
     1
 44
1.0
  0
POINT
  5
297
330
290
100
AcDbEntity
  8
Defpoints
 62
     0
100
AcDbPoint
 10
190.532261
 20
197.100091
 30
0.0
  0
POINT
  5
298
330
290
100
AcDbEntity
  8
Defpoints
 62
     0
100
AcDbPoint
 10
280.532261
 20
197.100087
 30
0.0
  0
POINT
  5
299
330
290
100
AcDbEntity
  8
Defpoints
 62
     0
100
AcDbPoint
 10
280.532261
 20
26.631959
 30
0.0
  0
ENDBLK
  5
29B
330
290
100
AcDbEntity
  8
0
100
AcDbBlockEnd
  0
ENDSEC
  0
SECTION
  2
ENTITIES
  0
LINE
  5
31
330
1F
100
AcDbEntity
  8
LC-001-100-D00-0
 62
     7
370
    50
100
AcDbLine
 10
196.282264
 20
279.257962
 30
0.0
 11
197.532266
 21
279.257962
 31
0.0
  0
LINE
  5
32
330
1F
100
AcDbEntity
  8
LC-001-100-D00-0
 62
     7
370
    50
100
AcDbLine
 10
273.532264
 20
279.257962
 30
0.0
 11
274.782263
 21
279.257962
 31
0.0
  0
LINE
  5
33
330
1F
100
AcDbEntity
  8
LC-001-100-D00-0
 62
     7
370
    50
100
AcDbLine
 10
129.532266
 20
278.457963
 30
0.0
 11
179.532263
 21
278.457963
 31
0.0
  0
LINE
  5
34
330
1F
100
AcDbEntity
  8
LC-001-100-D00-0
 62
     7
370
    50
100
AcDbLine
 10
291.532263
 20
278.457949
 30
0.0
 11
341.532264
 21
278.457949
 31
0.0
  0
LINE
  5
35
330
1F
100
AcDbEntity
  8
LC-001-100-D00-0
 62
     7
370
    50
100
AcDbLine
 10
275.682263
 20
253.957951
 30
0.0
 11
273.032263
 21
253.957951
 31
0.0
  0
LINE
  5
36
330
1F
100
AcDbEntity
  8
LC-001-100-D00-0
 62
     7
370
    50
100
AcDbLine
 10
195.382263
 20
275.757962
 30
0.0
 11
195.382263
 21
282.957965
 31
0.0
  0
LINE
  5
37
330
1F
100
AcDbEntity
  8
LC-001-100-D00-0
 62
     7
370
    50
100
AcDbLine
 10
275.682263
 20
282.957965
 30
0.0
 11
275.682263
 21
275.757962
 31
0.0
  0
LINE
  5
38
330
1F
100
AcDbEntity
  8
LC-001-100-D00-0
 62
     7
370
    50
100
AcDbLine
 10
275.682263
 20
253.957951
 30
0.0
 11
275.682263
 21
238.957958
 31
0.0
  0
LINE
  5
39
330
1F
100
AcDbEntity
  8
LC-001-100-D00-0
 62
     7
370
    50
100
AcDbLine
 10
195.382263
 20
238.957958
 30
0.0
 11
205.032263
 21
238.957958
 31
0.0
  0
LINE
  5
3A
330
1F
100
AcDbEntity
  8
LC-001-100-D00-0
 62
     7
370
    50
100
AcDbLine
 10
266.032263
 20
238.957958
 30
0.0
 11
275.682263
 21
238.957958
 31
0.0
  0
LINE
  5
3B
330
1F
100
AcDbEntity
  8
LC-001-100-D00-0
 62
     7
370
    50
100
AcDbLine
 10
195.382263
 20
238.957958
 30
0.0
 11
195.382263
 21
253.957966
 31
0.0
  0
LINE
  5
3C
330
1F
100
AcDbEntity
  8
LC-001-100-D00-0
 62
     7
370
    50
100
AcDbLine
 10
198.032263
 20
253.957966
 30
0.0
 11
195.382263
 21
253.957966
 31
0.0
  0
ARC
  5
3D
330
1F
100
AcDbEntity
  8
LC-001-100-D00-0
 62
     7
370
    50
100
AcDbCircle
 10
192.910827
 20
233.957962
 30
0.0
 40
49.99999999999988
100
AcDbArc
 50
89.999998
 51
104.333838
  0
LINE
  5
3E
330
1F
100
AcDbEntity
  8
LC-001-100-D00-0
 62
     7
370
    50
100
AcDbLine
 10
194.382265
 20
283.957967
 30
0.0
 11
192.910827
 21
283.957967
 31
0.0
  0
ARC
  5
3F
330
1F
100
AcDbEntity
  8
LC-001-100-D00-0
 62
     7
370
    50
100
AcDbCircle
 10
194.382265
 20
282.957962
 30
0.0
 40
1.000000000000001
100
AcDbArc
 50
359.999998
 51
89.999998
  0
LINE
  5
40
330
1F
100
AcDbEntity
  8
LC-001-100-D00-0
 62
     7
370
    50
100
AcDbLine
 10
197.782263
 20
275.757962
 30
0.0
 11
195.382263
 21
275.757962
 31
0.0
  0
LINE
  5
41
330
1F
100
AcDbEntity
  8
LC-001-100-D00-0
 62
     7
370
    50
100
AcDbLine
 10
197.782263
 20
269.757965
 30
0.0
 11
197.782263
 21
275.757962
 31
0.0
  0
LINE
  5
42
330
1F
100
AcDbEntity
  8
LC-001-100-D00-0
 62
     7
370
    50
100
AcDbLine
 10
198.032263
 20
268.824944
 30
0.0
 11
197.782263
 21
269.757965
 31
0.0
  0
LINE
  5
43
330
1F
100
AcDbEntity
  8
LC-001-100-D00-0
 62
     7
370
    50
100
AcDbLine
 10
194.032263
 20
238.957958
 30
0.0
 11
195.382263
 21
238.957958
 31
0.0
  0
LINE
  5
44
330
1F
100
AcDbEntity
  8
LC-001-100-D00-0
 62
     7
370
    50
100
AcDbLine
 10
194.032263
 20
238.957958
 30
0.0
 11
192.532263
 21
240.457961
 31
0.0
  0
LINE
  5
45
330
1F
100
AcDbEntity
  8
LC-001-100-D00-0
 62
     7
370
    50
100
AcDbLine
 10
192.532263
 20
281.457955
 30
0.0
 11
192.532263
 21
240.457961
 31
0.0
  0
LINE
  5
46
330
1F
100
AcDbEntity
  8
LC-001-100-D00-0
 62
     7
370
    50
100
AcDbLine
 10
180.532265
 20
281.457955
 30
0.0
 11
192.532263
 21
281.457955
 31
0.0
  0
LINE
  5
47
330
1F
100
AcDbEntity
  8
LC-001-100-D00-0
 62
     7
370
    50
100
AcDbLine
 10
180.532265
 20
282.401451
 30
0.0
 11
180.532265
 21
281.457955
 31
0.0
  0
LINE
  5
48
330
1F
100
AcDbEntity
  8
LC-001-100-D00-0
 62
     7
370
    50
100
AcDbLine
 10
198.032263
 20
268.824944
 30
0.0
 11
198.032263
 21
253.957966
 31
0.0
  0
LINE
  5
49
330
1F
100
AcDbEntity
  8
LC-001-100-D00-0
 62
     7
370
    50
100
AcDbLine
 10
278.532263
 20
240.457961
 30
0.0
 11
278.532263
 21
281.457955
 31
0.0
  0
LINE
  5
4A
330
1F
100
AcDbEntity
  8
LC-001-100-D00-0
 62
     7
370
    50
100
AcDbLine
 10
290.532265
 20
281.457955
 30
0.0
 11
290.532265
 21
282.401437
 31
0.0
  0
ARC
  5
4B
330
1F
100
AcDbEntity
  8
LC-001-100-D00-0
 62
     7
370
    50
100
AcDbCircle
 10
278.153698
 20
233.957958
 30
0.0
 40
49.99999999999995
100
AcDbArc
 50
75.666158
 51
89.999998
  0
LINE
  5
4C
330
1F
100
AcDbEntity
  8
LC-001-100-D00-0
 62
     7
370
    50
100
AcDbLine
 10
278.532263
 20
240.457961
 30
0.0
 11
277.032263
 21
238.957958
 31
0.0
  0
LINE
  5
4D
330
1F
100
AcDbEntity
  8
LC-001-100-D00-0
 62
     7
370
    50
100
AcDbLine
 10
273.032263
 20
253.957951
 30
0.0
 11
273.032263
 21
268.824944
 31
0.0
  0
ARC
  5
4E
330
1F
100
AcDbEntity
  8
LC-001-100-D00-0
 62
     7
370
    50
100
AcDbCircle
 10
276.682265
 20
282.957958
 30
0.0
 40
1.000000000000001
100
AcDbArc
 50
89.999998
 51
179.999998
  0
LINE
  5
4F
330
1F
100
AcDbEntity
  8
LC-001-100-D00-0
 62
     7
370
    50
100
AcDbLine
 10
278.532263
 20
281.457955
 30
0.0
 11
290.532265
 21
281.457955
 31
0.0
  0
LINE
  5
50
330
1F
100
AcDbEntity
  8
LC-001-100-D00-0
 62
     7
370
    50
100
AcDbLine
 10
275.682263
 20
238.957958
 30
0.0
 11
277.032263
 21
238.957958
 31
0.0
  0
LINE
  5
51
330
1F
100
AcDbEntity
  8
LC-001-100-D00-0
 62
     7
370
    50
100
AcDbLine
 10
278.153699
 20
283.957952
 30
0.0
 11
276.682265
 21
283.957952
 31
0.0
  0
LINE
  5
52
330
1F
100
AcDbEntity
  8
LC-001-100-D00-0
 62
     7
370
    50
100
AcDbLine
 10
275.682263
 20
275.757962
 30
0.0
 11
273.282263
 21
275.757962
 31
0.0
  0
LINE
  5
53
330
1F
100
AcDbEntity
  8
LC-001-100-D00-0
 62
     7
370
    50
100
AcDbLine
 10
273.282263
 20
275.757962
 30
0.0
 11
273.282263
 21
269.757965
 31
0.0
  0
LINE
  5
54
330
1F
100
AcDbEntity
  8
LC-001-100-D00-0
 62
     7
370
    50
100
AcDbLine
 10
273.282263
 20
269.757965
 30
0.0
 11
273.032263
 21
268.824944
 31
0.0
  0
INSERT
  5
81
330
1F
100
AcDbEntity
  8
LC-001-100-D00-0
 62
     7
370
    50
100
AcDbBlockReference
  2
KLON1
 10
0.0
 20
0.0
 30
0.0
  0
ARC
  5
82
330
1F
100
AcDbEntity
  8
LC-001-100-D00-0
 62
     7
370
    50
100
AcDbCircle
 10
270.532261
 20
197.100088
 30
0.0
 40
9.99999999999997
100
AcDbArc
 50
314.999998
 51
359.999998
  0
ARC
  5
83
330
1F
100
AcDbEntity
  8
LC-001-100-D00-0
 62
     7
370
    50
100
AcDbCircle
 10
200.532261
 20
197.100091
 30
0.0
 40
10.00000000000007
100
AcDbArc
 50
179.999998
 51
224.999998
  0
LINE
  5
84
330
1F
100
AcDbEntity
  8
LC-001-100-D00-0
 62
     7
370
    50
100
AcDbLine
 10
190.532259
 20
197.100089
 30
0.0
 11
190.532263
 21
256.957957
 31
0.0
  0
LINE
  5
85
330
1F
100
AcDbEntity
  8
LC-001-100-D00-0
 62
     7
370
    50
100
AcDbLine
 10
280.532263
 20
256.957957
 30
0.0
 11
280.532259
 21
197.100089
 31
0.0
  0
LINE
  5
86
330
1F
100
AcDbEntity
  8
LC-001-100-D00-0
 62
     7
370
    50
100
AcDbLine
 10
182.974558
 20
272.564256
 30
0.0
 11
182.974558
 21
272.95796
 31
0.0
  0
LINE
  5
87
330
1F
100
AcDbEntity
  8
LC-001-100-D00-0
 62
     7
370
    50
100
AcDbLine
 10
182.782262
 20
272.564256
 30
0.0
 11
182.782262
 21
272.95796
 31
0.0
  0
LINE
  5
88
330
1F
100
AcDbEntity
  8
LC-001-100-D00-0
 62
     7
370
    50
100
AcDbLine
 10
210.532259
 20
172.957955
 30
0.0
 11
193.461194
 21
190.029027
 31
0.0
  0
LINE
  5
89
330
1F
100
AcDbEntity
  8
LC-001-100-D00-0
 62
     7
370
    50
100
AcDbLine
 10
277.603328
 20
190.029019
 30
0.0
 11
260.53226
 21
172.957955
 31
0.0
  0
LINE
  5
8A
330
1F
100
AcDbEntity
  8
LC-001-100-D00-0
 62
     7
370
    50
100
AcDbLine
 10
213.532258
 20
118.957955
 30
0.0
 11
211.336106
 21
118.957955
 31
0.0
  0
LINE
  5
8B
330
1F
100
AcDbEntity
  8
LC-001-100-D00-0
 62
     7
370
    50
100
AcDbLine
 10
211.336106
 20
118.957955
 30
0.0
 11
210.532257
 21
121.957955
 31
0.0
  0
LINE
  5
8C
330
1F
100
AcDbEntity
  8
LC-001-100-D00-0
 62
     7
370
    50
100
AcDbLine
 10
210.532257
 20
121.957955
 30
0.0
 11
210.532259
 21
172.957955
 31
0.0
  0
LINE
  5
8D
330
1F
100
AcDbEntity
  8
LC-001-100-D00-0
 62
     7
370
    50
100
AcDbLine
 10
190.532263
 20
256.957957
 30
0.0
 11
183.532264
 21
268.957952
 31
0.0
  0
ARC
  5
8E
330
1F
100
AcDbEntity
  8
LC-001-100-D00-0
 62
     7
370
    50
100
AcDbCircle
 10
182.532264
 20
269.457956
 30
0.0
 40
0.5000000000000004
100
AcDbArc
 50
179.999998
 51
269.999998
  0
LINE
  5
8F
330
1F
100
AcDbEntity
  8
LC-001-100-D00-0
 62
     7
370
    50
100
AcDbLine
 10
182.032265
 20
269.45796
 30
0.0
 11
182.032265
 21
272.95796
 31
0.0
  0
LINE
  5
90
330
1F
100
AcDbEntity
  8
LC-001-100-D00-0
 62
     7
370
    50
100
AcDbLine
 10
182.032265
 20
272.95796
 30
0.0
 11
182.782262
 21
272.95796
 31
0.0
  0
LINE
  5
91
330
1F
100
AcDbEntity
  8
LC-001-100-D00-0
 62
     7
370
    50
100
AcDbLine
 10
184.782263
 20
272.564256
 30
0.0
 11
182.782262
 21
272.564256
 31
0.0
  0
LINE
  5
92
330
1F
100
AcDbEntity
  8
LC-001-100-D00-0
 62
     7
370
    50
100
AcDbLine
 10
184.782263
 20
272.95796
 30
0.0
 11
184.782263
 21
272.564256
 31
0.0
  0
LINE
  5
93
330
1F
100
AcDbEntity
  8
LC-001-100-D00-0
 62
     7
370
    50
100
AcDbLine
 10
184.782263
 20
272.95796
 30
0.0
 11
185.532264
 21
272.95796
 31
0.0
  0
LINE
  5
94
330
1F
100
AcDbEntity
  8
LC-001-100-D00-0
 62
     7
370
    50
100
AcDbLine
 10
185.532264
 20
272.95796
 30
0.0
 11
185.532264
 21
271.457949
 31
0.0
  0
LINE
  5
95
330
1F
100
AcDbEntity
  8
LC-001-100-D00-0
 62
     7
370
    50
100
AcDbLine
 10
185.532264
 20
271.457949
 30
0.0
 11
191.632263
 21
271.457949
 31
0.0
  0
LINE
  5
96
330
1F
100
AcDbEntity
  8
LC-001-100-D00-0
 62
     7
370
    50
100
AcDbLine
 10
191.632263
 20
271.457949
 30
0.0
 11
193.632263
 21
269.45796
 31
0.0
  0
LINE
  5
97
330
1F
100
AcDbEntity
  8
LC-001-100-D00-0
 62
     7
370
    50
100
AcDbLine
 10
193.632263
 20
269.45796
 30
0.0
 11
193.63226
 21
197.000088
 31
0.0
  0
ARC
  5
98
330
1F
100
AcDbEntity
  8
LC-001-100-D00-0
 62
     7
370
    50
100
AcDbCircle
 10
200.632261
 20
197.000091
 30
0.0
 40
7.000000000000006
100
AcDbArc
 50
179.999998
 51
224.999998
  0
LINE
  5
99
330
1F
100
AcDbEntity
  8
LC-001-100-D00-0
 62
     7
370
    50
100
AcDbLine
 10
195.682514
 20
192.050347
 30
0.0
 11
212.653581
 21
175.079276
 31
0.0
  0
ARC
  5
9A
330
1F
100
AcDbEntity
  8
LC-001-100-D00-0
 62
     7
370
    50
100
AcDbCircle
 10
210.53226
 20
172.957955
 30
0.0
 40
3.00000000000006
100
AcDbArc
 50
359.999998
 51
44.999998
  0
LINE
  5
9B
330
1F
100
AcDbEntity
  8
LC-001-100-D00-0
 62
     7
370
    50
100
AcDbLine
 10
213.532259
 20
172.957955
 30
0.0
 11
213.532258
 21
118.957955
 31
0.0
  0
LINE
  5
9C
330
1F
100
AcDbEntity
  8
LC-001-100-D00-0
 62
     7
370
    50
100
AcDbLine
 10
183.532264
 20
268.957952
 30
0.0
 11
182.532266
 21
268.957952
 31
0.0
  0
ELLIPSE
  5
9D
330
1F
100
AcDbEntity
  8
LC-001-100-D00-0
 62
     7
370
    50
100
AcDbEllipse
 10
235.532264
 20
272.564255
 30
0.0
 11
52.74999999999994
 21
-2.277844285656880E-6
 31
0.0
210
0.0
220
0.0
230
1.0
 40
0.087489
 41
0.0000000000000056
 42
0.0854118682605123
  0
LINE
  5
9E
330
1F
100
AcDbEntity
  8
LC-001-100-D00-0
 62
     7
370
    50
100
AcDbLine
 10
288.282264
 20
272.564256
 30
0.0
 11
286.282263
 21
272.564256
 31
0.0
  0
ARC
  5
9F
330
1F
100
AcDbEntity
  8
LC-001-100-D00-0
 62
     7
370
    50
100
AcDbCircle
 10
288.532264
 20
269.457952
 30
0.0
 40
0.5000000000001141
100
AcDbArc
 50
269.999998
 51
359.999998
  0
LINE
  5
A0
330
1F
100
AcDbEntity
  8
LC-001-100-D00-0
 62
     7
370
    50
100
AcDbLine
 10
288.282264
 20
272.957945
 30
0.0
 11
288.282264
 21
272.564256
 31
0.0
  0
LINE
  5
A1
330
1F
100
AcDbEntity
  8
LC-001-100-D00-0
 62
     7
370
    50
100
AcDbLine
 10
191.632263
 20
271.457949
 30
0.0
 11
192.532263
 21
271.457949
 31
0.0
  0
LINE
  5
A2
330
1F
100
AcDbEntity
  8
LC-001-100-D00-0
 62
     7
370
    50
100
AcDbLine
 10
278.532263
 20
271.457949
 30
0.0
 11
279.432263
 21
271.457949
 31
0.0
  0
LINE
  5
A3
330
1F
100
AcDbEntity
  8
LC-001-100-D00-0
 62
     7
370
    50
100
AcDbLine
 10
277.432263
 20
269.457945
 30
0.0
 11
279.432263
 21
271.457949
 31
0.0
  0
LINE
  5
A4
330
1F
100
AcDbEntity
  8
LC-001-100-D00-0
 62
     7
370
    50
100
AcDbLine
 10
286.282263
 20
272.564256
 30
0.0
 11
286.282263
 21
272.957945
 31
0.0
  0
LINE
  5
A5
330
1F
100
AcDbEntity
  8
LC-001-100-D00-0
 62
     7
370
    50
100
AcDbLine
 10
277.432263
 20
197.000088
 30
0.0
 11
277.432263
 21
269.457945
 31
0.0
  0
ARC
  5
A6
330
1F
100
AcDbEntity
  8
LC-001-100-D00-0
 62
     7
370
    50
100
AcDbCircle
 10
270.432261
 20
197.000088
 30
0.0
 40
7.000000000000023
100
AcDbArc
 50
314.999998
 51
359.999998
  0
ARC
  5
A7
330
1F
100
AcDbEntity
  8
LC-001-100-D00-0
 62
     7
370
    50
100
AcDbCircle
 10
260.53226
 20
172.957953
 30
0.0
 40
2.999999999999987
100
AcDbArc
 50
134.999998
 51
179.999998
  0
LINE
  5
A8
330
1F
100
AcDbEntity
  8
LC-001-100-D00-0
 62
     7
370
    50
100
AcDbLine
 10
258.41094
 20
175.079273
 30
0.0
 11
275.382008
 21
192.050339
 31
0.0
  0
LINE
  5
A9
330
1F
100
AcDbEntity
  8
LC-001-100-D00-0
 62
     7
370
    50
100
AcDbLine
 10
279.432263
 20
271.457949
 30
0.0
 11
285.532266
 21
271.457949
 31
0.0
  0
LINE
  5
AA
330
1F
100
AcDbEntity
  8
LC-001-100-D00-0
 62
     7
370
    50
100
AcDbLine
 10
285.532266
 20
271.457949
 30
0.0
 11
285.532266
 21
272.957945
 31
0.0
  0
LINE
  5
AB
330
1F
100
AcDbEntity
  8
LC-001-100-D00-0
 62
     7
370
    50
100
AcDbLine
 10
285.532266
 20
272.957945
 30
0.0
 11
286.282263
 21
272.957945
 31
0.0
  0
LINE
  5
AC
330
1F
100
AcDbEntity
  8
LC-001-100-D00-0
 62
     7
370
    50
100
AcDbLine
 10
288.282264
 20
272.957945
 30
0.0
 11
289.032265
 21
272.957945
 31
0.0
  0
LINE
  5
AD
330
1F
100
AcDbEntity
  8
LC-001-100-D00-0
 62
     7
370
    50
100
AcDbLine
 10
289.032265
 20
272.957945
 30
0.0
 11
289.032265
 21
269.457945
 31
0.0
  0
LINE
  5
AE
330
1F
100
AcDbEntity
  8
LC-001-100-D00-0
 62
     7
370
    50
100
AcDbLine
 10
287.532262
 20
268.957952
 30
0.0
 11
280.532263
 21
256.957957
 31
0.0
  0
LINE
  5
AF
330
1F
100
AcDbEntity
  8
LC-001-100-D00-0
 62
     7
370
    50
100
AcDbLine
 10
260.53226
 20
172.957955
 30
0.0
 11
260.532258
 21
121.957953
 31
0.0
  0
LINE
  5
B0
330
1F
100
AcDbEntity
  8
LC-001-100-D00-0
 62
     7
370
    50
100
AcDbLine
 10
260.532258
 20
121.957953
 30
0.0
 11
259.728409
 21
118.957953
 31
0.0
  0
LINE
  5
B1
330
1F
100
AcDbEntity
  8
LC-001-100-D00-0
 62
     7
370
    50
100
AcDbLine
 10
259.728409
 20
118.957953
 30
0.0
 11
257.532257
 21
118.957953
 31
0.0
  0
LINE
  5
B2
330
1F
100
AcDbEntity
  8
LC-001-100-D00-0
 62
     7
370
    50
100
AcDbLine
 10
257.532257
 20
118.957953
 30
0.0
 11
257.532259
 21
172.957955
 31
0.0
  0
LINE
  5
B3
330
1F
100
AcDbEntity
  8
LC-001-100-D00-0
 62
     7
370
    50
100
AcDbLine
 10
288.532264
 20
268.957952
 30
0.0
 11
287.532262
 21
268.957952
 31
0.0
  0
INSERT
  5
D5
330
1F
100
AcDbEntity
  8
LC-001-100-D00-0
 62
     7
370
    50
100
AcDbBlockReference
  2
KLON2
 10
0.0
 20
0.0
 30
0.0
  0
CIRCLE
  5
D6
330
1F
100
AcDbEntity
  8
LC-001-100-D00-0
 62
     7
370
    50
100
AcDbCircle
 10
196.282264
 20
280.507962
 30
0.0
 40
1.25
  0
CIRCLE
  5
D7
330
1F
100
AcDbEntity
  8
LC-001-100-D00-0
 62
     7
370
    50
100
AcDbCircle
 10
274.782264
 20
280.507958
 30
0.0
 40
1.25
  0
LINE
  5
D8
330
1F
100
AcDbEntity
  8
LC-001-100-D00-0
 62
     7
370
    50
100
AcDbLine
 10
198.178652
 20
273.111635
 30
0.0
 11
205.032263
 21
258.757958
 31
0.0
  0
INSERT
  5
E6
330
1F
100
AcDbEntity
  8
LC-001-100-D00-0
 62
     7
370
    50
100
AcDbBlockReference
  2
KLON3
 10
0.0
 20
0.0
 30
0.0
  0
LINE
  5
E7
330
1F
100
AcDbEntity
  8
LC-001-100-D00-0
 62
     7
370
    50
100
AcDbLine
 10
216.532264
 20
259.257966
 30
0.0
 11
206.532264
 21
259.257966
 31
0.0
  0
LINE
  5
E8
330
1F
100
AcDbEntity
  8
LC-001-100-D00-0
 62
     7
370
    50
100
AcDbLine
 10
264.532264
 20
259.257951
 30
0.0
 11
264.532262
 21
208.25796
 31
0.0
  0
LINE
  5
E9
330
1F
100
AcDbEntity
  8
LC-001-100-D00-0
 62
     7
370
    50
100
AcDbLine
 10
206.532262
 20
208.25796
 30
0.0
 11
206.532264
 21
259.257966
 31
0.0
  0
ARC
  5
EA
330
1F
100
AcDbEntity
  8
LC-001-100-D00-0
 62
     7
370
    50
100
AcDbCircle
 10
199.532264
 20
273.757961
 30
0.0
 40
1.500000000000001
100
AcDbArc
 50
179.999998
 51
205.523601
  0
ARC
  5
EB
330
1F
100
AcDbEntity
  8
LC-001-100-D00-0
 62
     7
370
    50
100
AcDbCircle
 10
256.032261
 20
208.257959
 30
0.0
 40
10.00000000000001
100
AcDbArc
 50
269.999998
 51
359.999998
  0
ARC
  5
EC
330
1F
100
AcDbEntity
  8
LC-001-100-D00-0
 62
     7
370
    50
100
AcDbCircle
 10
215.032261
 20
208.257961
 30
0.0
 40
10.00000000000001
100
AcDbArc
 50
179.999998
 51
269.999998
  0
LINE
  5
ED
330
1F
100
AcDbEntity
  8
LC-001-100-D00-0
 62
     7
370
    50
100
AcDbLine
 10
273.032263
 20
273.757958
 30
0.0
 11
273.032263
 21
275.757962
 31
0.0
  0
LINE
  5
EE
330
1F
100
AcDbEntity
  8
LC-001-100-D00-0
 62
     7
370
    50
100
AcDbLine
 10
198.032263
 20
275.757962
 30
0.0
 11
198.032263
 21
273.757958
 31
0.0
  0
LINE
  5
EF
330
1F
100
AcDbEntity
  8
LC-001-100-D00-0
 62
     7
370
    50
100
AcDbLine
 10
199.532263
 20
273.757958
 30
0.0
 11
199.657481
 21
273.757958
 31
0.0
  0
INSERT
  5
FB
330
1F
100
AcDbEntity
  8
LC-001-100-D00-0
 62
     7
370
    50
100
AcDbBlockReference
  2
POLY1
 10
0.0
 20
0.0
 30
0.0
  0
LINE
  5
FC
330
1F
100
AcDbEntity
  8
LC-001-100-D00-0
 62
     7
370
    50
100
AcDbLine
 10
206.089889
 20
260.024169
 30
0.0
 11
206.243129
 21
260.024169
 31
0.0
  0
LINE
  5
FD
330
1F
100
AcDbEntity
  8
LC-001-100-D00-0
 62
     7
370
    50
100
AcDbLine
 10
206.089889
 20
260.024169
 30
0.0
 11
199.532263
 21
273.757958
 31
0.0
  0
LINE
  5
FE
330
1F
100
AcDbEntity
  8
LC-001-100-D00-0
 62
     7
370
    50
100
AcDbLine
 10
206.089889
 20
260.024169
 30
0.0
 11
206.532264
 21
259.257966
 31
0.0
  0
LINE
  5
FF
330
1F
100
AcDbEntity
  8
LC-001-100-D00-0
 62
     7
370
    50
100
AcDbLine
 10
205.527164
 20
261.257955
 30
0.0
 11
216.532264
 21
261.257955
 31
0.0
  0
LINE
  5
100
330
1F
100
AcDbEntity
  8
LC-001-100-D00-0
 62
     7
370
    50
100
AcDbLine
 10
254.532264
 20
261.257955
 30
0.0
 11
265.537362
 21
261.257955
 31
0.0
  0
LINE
  5
101
330
1F
100
AcDbEntity
  8
LC-001-100-D00-0
 62
     7
370
    50
100
AcDbLine
 10
264.821399
 20
260.024169
 30
0.0
 11
264.974639
 21
260.024169
 31
0.0
  0
LINE
  5
102
330
1F
100
AcDbEntity
  8
LC-001-100-D00-0
 62
     7
370
    50
100
AcDbLine
 10
264.532264
 20
259.257951
 30
0.0
 11
264.974639
 21
260.024169
 31
0.0
  0
ARC
  5
103
330
1F
100
AcDbEntity
  8
LC-001-100-D00-0
 62
     7
370
    50
100
AcDbCircle
 10
256.032261
 20
208.257959
 30
0.0
 40
8.500000000000007
100
AcDbArc
 50
269.999998
 51
359.999998
  0
ARC
  5
104
330
1F
100
AcDbEntity
  8
LC-001-100-D00-0
 62
     7
370
    50
100
AcDbCircle
 10
215.032261
 20
208.257961
 30
0.0
 40
8.500000000000007
100
AcDbArc
 50
179.999998
 51
269.999998
  0
LINE
  5
105
330
1F
100
AcDbEntity
  8
LC-001-100-D00-0
 62
     7
370
    50
100
AcDbLine
 10
275.382265
 20
275.757962
 30
0.0
 11
275.382265
 21
277.257958
 31
0.0
  0
LINE
  5
106
330
1F
100
AcDbEntity
  8
LC-001-100-D00-0
 62
     7
370
    50
100
AcDbLine
 10
195.682265
 20
277.257958
 30
0.0
 11
195.682265
 21
275.757962
 31
0.0
  0
LINE
  5
107
330
1F
100
AcDbEntity
  8
LC-001-100-D00-0
 62
     7
370
    50
100
AcDbLine
 10
271.532263
 20
277.257958
 30
0.0
 11
271.532263
 21
273.757958
 31
0.0
  0
LINE
  5
108
330
1F
100
AcDbEntity
  8
LC-001-100-D00-0
 62
     7
370
    50
100
AcDbLine
 10
271.407045
 20
273.757958
 30
0.0
 11
271.532263
 21
273.757958
 31
0.0
  0
LINE
  5
109
330
1F
100
AcDbEntity
  8
LC-001-100-D00-0
 62
     7
370
    50
100
AcDbLine
 10
271.407045
 20
273.757958
 30
0.0
 11
271.032262
 21
273.757958
 31
0.0
  0
LINE
  5
10A
330
1F
100
AcDbEntity
  8
LC-001-100-D00-0
 62
     7
370
    50
100
AcDbLine
 10
200.032264
 20
273.757958
 30
0.0
 11
199.657481
 21
273.757958
 31
0.0
  0
LINE
  5
10B
330
1F
100
AcDbEntity
  8
LC-001-100-D00-0
 62
     7
370
    50
100
AcDbLine
 10
199.532263
 20
273.757958
 30
0.0
 11
199.532263
 21
277.257958
 31
0.0
  0
ARC
  5
10C
330
1F
100
AcDbEntity
  8
LC-001-100-D00-0
 62
     7
370
    50
100
AcDbCircle
 10
271.532264
 20
273.757958
 30
0.0
 40
1.500000000000066
100
AcDbArc
 50
334.476394
 51
359.999998
  0
INSERT
  5
118
330
1F
100
AcDbEntity
  8
LC-001-100-D00-0
 62
     7
370
    50
100
AcDbBlockReference
  2
POLY2
 10
0.0
 20
0.0
 30
0.0
  0
LINE
  5
119
330
1F
100
AcDbEntity
  8
LC-001-100-D00-0
 62
     7
370
    50
100
AcDbLine
 10
271.532263
 20
273.757958
 30
0.0
 11
264.974639
 21
260.024169
 31
0.0
  0
LINE
  5
11A
330
1F
100
AcDbEntity
  8
LC-001-100-D00-0
 62
     7
370
    50
100
AcDbLine
 10
266.032263
 20
258.757958
 30
0.0
 11
272.885877
 21
273.111635
 31
0.0
  0
LINE
  5
11B
330
1F
100
AcDbEntity
  8
LC-001-100-D00-0
 62
     7
370
    50
100
AcDbLine
 10
266.032262
 20
208.25796
 30
0.0
 11
266.032263
 21
258.757958
 31
0.0
  0
LINE
  5
11C
330
1F
100
AcDbEntity
  8
LC-001-100-D00-0
 62
     7
370
    50
100
AcDbLine
 10
205.032263
 20
258.757958
 30
0.0
 11
205.032261
 21
208.25796
 31
0.0
  0
LINE
  5
11D
330
1F
100
AcDbEntity
  8
LC-001-100-D00-0
 62
     7
370
    50
100
AcDbLine
 10
273.032263
 20
275.757962
 30
0.0
 11
275.382265
 21
275.757962
 31
0.0
  0
LINE
  5
11E
330
1F
100
AcDbEntity
  8
LC-001-100-D00-0
 62
     7
370
    50
100
AcDbLine
 10
195.682265
 20
275.757962
 30
0.0
 11
198.032263
 21
275.757962
 31
0.0
  0
LINE
  5
11F
330
1F
100
AcDbEntity
  8
LC-001-100-D00-0
 62
     7
370
    50
100
AcDbLine
 10
215.032261
 20
198.257962
 30
0.0
 11
256.032262
 21
198.257962
 31
0.0
  0
LINE
  5
120
330
1F
100
AcDbEntity
  8
LC-001-100-D00-0
 62
     7
370
    50
100
AcDbLine
 10
199.532263
 20
277.257958
 30
0.0
 11
195.682265
 21
277.257958
 31
0.0
  0
LINE
  5
121
330
1F
100
AcDbEntity
  8
LC-001-100-D00-0
 62
     7
370
    50
100
AcDbLine
 10
275.382265
 20
277.257958
 30
0.0
 11
271.532263
 21
277.257958
 31
0.0
  0
LINE
  5
122
330
1F
100
AcDbEntity
  8
LC-001-100-D00-0
 62
     7
370
    50
100
AcDbLine
 10
256.032262
 20
199.757957
 30
0.0
 11
215.032261
 21
199.757957
 31
0.0
  0
LINE
  5
123
330
1F
100
AcDbEntity
  8
LC-001-100-D00-0
 62
     7
370
    50
100
AcDbLine
 10
273.532264
 20
281.75796
 30
0.0
 11
273.532264
 21
278.957957
 31
0.0
  0
LINE
  5
124
330
1F
100
AcDbEntity
  8
LC-001-100-D00-0
 62
     7
370
    50
100
AcDbLine
 10
273.532264
 20
278.957957
 30
0.0
 11
275.032263
 21
278.957957
 31
0.0
  0
LINE
  5
125
330
1F
100
AcDbEntity
  8
LC-001-100-D00-0
 62
     7
370
    50
100
AcDbLine
 10
275.032263
 20
278.957957
 30
0.0
 11
275.032263
 21
277.257958
 31
0.0
  0
LINE
  5
126
330
1F
100
AcDbEntity
  8
LC-001-100-D00-0
 62
     7
370
    50
100
AcDbLine
 10
275.032263
 20
277.257958
 30
0.0
 11
271.032266
 21
277.257958
 31
0.0
  0
LINE
  5
127
330
1F
100
AcDbEntity
  8
LC-001-100-D00-0
 62
     7
370
    50
100
AcDbLine
 10
271.032266
 20
277.257958
 30
0.0
 11
271.032262
 21
273.757958
 31
0.0
  0
LINE
  5
128
330
1F
100
AcDbEntity
  8
LC-001-100-D00-0
 62
     7
370
    50
100
AcDbLine
 10
271.032262
 20
273.757958
 30
0.0
 11
265.532264
 21
273.757958
 31
0.0
  0
ARC
  5
129
330
1F
100
AcDbEntity
  8
LC-001-100-D00-0
 62
     7
370
    50
100
AcDbCircle
 10
265.532264
 20
262.757959
 30
0.0
 40
11.00000000000001
100
AcDbArc
 50
89.999998
 51
179.999998
  0
LINE
  5
12A
330
1F
100
AcDbEntity
  8
LC-001-100-D00-0
 62
     7
370
    50
100
AcDbLine
 10
254.532264
 20
262.757966
 30
0.0
 11
254.532261
 21
210.257956
 31
0.0
  0
LINE
  5
12B
330
1F
100
AcDbEntity
  8
LC-001-100-D00-0
 62
     7
370
    50
100
AcDbLine
 10
254.532261
 20
210.257956
 30
0.0
 11
253.532262
 21
210.257956
 31
0.0
  0
LINE
  5
12C
330
1F
100
AcDbEntity
  8
LC-001-100-D00-0
 62
     7
370
    50
100
AcDbLine
 10
253.532262
 20
210.257956
 30
0.0
 11
253.532264
 21
262.757966
 31
0.0
  0
ARC
  5
12D
330
1F
100
AcDbEntity
  8
LC-001-100-D00-0
 62
     7
370
    50
100
AcDbCircle
 10
265.532264
 20
262.757959
 30
0.0
 40
12.00000000000001
100
AcDbArc
 50
89.999998
 51
179.999998
  0
LINE
  5
12E
330
1F
100
AcDbEntity
  8
LC-001-100-D00-0
 62
     7
370
    50
100
AcDbLine
 10
265.532264
 20
274.75796
 30
0.0
 11
268.032264
 21
274.75796
 31
0.0
  0
ARC
  5
12F
330
1F
100
AcDbEntity
  8
LC-001-100-D00-0
 62
     7
370
    50
100
AcDbCircle
 10
268.032264
 20
275.757958
 30
0.0
 40
1.000000000000001
100
AcDbArc
 50
269.999998
 51
359.999998
  0
LINE
  5
130
330
1F
100
AcDbEntity
  8
LC-001-100-D00-0
 62
     7
370
    50
100
AcDbLine
 10
269.032266
 20
275.757962
 30
0.0
 11
269.032266
 21
281.75796
 31
0.0
  0
ARC
  5
131
330
1F
100
AcDbEntity
  8
LC-001-100-D00-0
 62
     7
370
    50
100
AcDbCircle
 10
271.032264
 20
281.757958
 30
0.0
 40
2.000000000000002
100
AcDbArc
 50
89.999998
 51
179.999998
  0
LINE
  5
132
330
1F
100
AcDbEntity
  8
LC-001-100-D00-0
 62
     7
370
    50
100
AcDbLine
 10
271.032266
 20
283.757964
 30
0.0
 11
275.282264
 21
283.757964
 31
0.0
  0
LINE
  5
133
330
1F
100
AcDbEntity
  8
LC-001-100-D00-0
 62
     7
370
    50
100
AcDbLine
 10
275.282264
 20
283.757964
 30
0.0
 11
275.282264
 21
281.75796
 31
0.0
  0
LINE
  5
134
330
1F
100
AcDbEntity
  8
LC-001-100-D00-0
 62
     7
370
    50
100
AcDbLine
 10
275.282264
 20
281.75796
 30
0.0
 11
273.532264
 21
281.75796
 31
0.0
  0
LINE
  5
135
330
1F
100
AcDbEntity
  8
LC-001-100-D00-0
 62
     7
370
    50
100
AcDbLine
 10
195.782266
 20
281.75796
 30
0.0
 11
195.782266
 21
283.757964
 31
0.0
  0
LINE
  5
136
330
1F
100
AcDbEntity
  8
LC-001-100-D00-0
 62
     7
370
    50
100
AcDbLine
 10
195.782266
 20
283.757964
 30
0.0
 11
200.032264
 21
283.757964
 31
0.0
  0
ARC
  5
137
330
1F
100
AcDbEntity
  8
LC-001-100-D00-0
 62
     7
370
    50
100
AcDbCircle
 10
200.032264
 20
281.757961
 30
0.0
 40
2.000000000000002
100
AcDbArc
 50
359.999998
 51
89.999998
  0
LINE
  5
138
330
1F
100
AcDbEntity
  8
LC-001-100-D00-0
 62
     7
370
    50
100
AcDbLine
 10
202.032264
 20
281.75796
 30
0.0
 11
202.032264
 21
275.757962
 31
0.0
  0
ARC
  5
139
330
1F
100
AcDbEntity
  8
LC-001-100-D00-0
 62
     7
370
    50
100
AcDbCircle
 10
203.032264
 20
275.757961
 30
0.0
 40
1.000000000000001
100
AcDbArc
 50
179.999998
 51
269.999998
  0
LINE
  5
13A
330
1F
100
AcDbEntity
  8
LC-001-100-D00-0
 62
     7
370
    50
100
AcDbLine
 10
203.032262
 20
274.75796
 30
0.0
 11
205.532264
 21
274.75796
 31
0.0
  0
ARC
  5
13B
330
1F
100
AcDbEntity
  8
LC-001-100-D00-0
 62
     7
370
    50
100
AcDbCircle
 10
205.532264
 20
262.757961
 30
0.0
 40
12.00000000000001
100
AcDbArc
 50
359.999998
 51
89.999998
  0
LINE
  5
13C
330
1F
100
AcDbEntity
  8
LC-001-100-D00-0
 62
     7
370
    50
100
AcDbLine
 10
217.532264
 20
262.757966
 30
0.0
 11
217.532262
 21
210.257964
 31
0.0
  0
LINE
  5
13D
330
1F
100
AcDbEntity
  8
LC-001-100-D00-0
 62
     7
370
    50
100
AcDbLine
 10
217.532262
 20
210.257964
 30
0.0
 11
216.532262
 21
210.257964
 31
0.0
  0
LINE
  5
13E
330
1F
100
AcDbEntity
  8
LC-001-100-D00-0
 62
     7
370
    50
100
AcDbLine
 10
216.532262
 20
210.257964
 30
0.0
 11
216.532264
 21
262.757966
 31
0.0
  0
ARC
  5
13F
330
1F
100
AcDbEntity
  8
LC-001-100-D00-0
 62
     7
370
    50
100
AcDbCircle
 10
205.532264
 20
262.757961
 30
0.0
 40
11.00000000000001
100
AcDbArc
 50
359.999998
 51
89.999998
  0
LINE
  5
140
330
1F
100
AcDbEntity
  8
LC-001-100-D00-0
 62
     7
370
    50
100
AcDbLine
 10
205.532264
 20
273.757958
 30
0.0
 11
200.032264
 21
273.757958
 31
0.0
  0
LINE
  5
141
330
1F
100
AcDbEntity
  8
LC-001-100-D00-0
 62
     7
370
    50
100
AcDbLine
 10
200.032264
 20
273.757958
 30
0.0
 11
200.032264
 21
277.257958
 31
0.0
  0
LINE
  5
142
330
1F
100
AcDbEntity
  8
LC-001-100-D00-0
 62
     7
370
    50
100
AcDbLine
 10
200.032264
 20
277.257958
 30
0.0
 11
196.032263
 21
277.257958
 31
0.0
  0
LINE
  5
143
330
1F
100
AcDbEntity
  8
LC-001-100-D00-0
 62
     7
370
    50
100
AcDbLine
 10
196.032263
 20
277.257958
 30
0.0
 11
196.032263
 21
278.957957
 31
0.0
  0
LINE
  5
144
330
1F
100
AcDbEntity
  8
LC-001-100-D00-0
 62
     7
370
    50
100
AcDbLine
 10
196.032263
 20
278.957957
 30
0.0
 11
197.532266
 21
278.957957
 31
0.0
  0
LINE
  5
145
330
1F
100
AcDbEntity
  8
LC-001-100-D00-0
 62
     7
370
    50
100
AcDbLine
 10
197.532266
 20
278.957957
 30
0.0
 11
197.532266
 21
281.75796
 31
0.0
  0
LINE
  5
146
330
1F
100
AcDbEntity
  8
LC-001-100-D00-0
 62
     7
370
    50
100
AcDbLine
 10
197.532266
 20
281.75796
 30
0.0
 11
195.782266
 21
281.75796
 31
0.0
  0
INSERT
  5
165
330
1F
100
AcDbEntity
  8
LC-001-100-D00-0
 62
     7
370
    50
100
AcDbBlockReference
  2
KLON4
 10
0.0
 20
0.0
 30
0.0
  0
LINE
  5
166
330
1F
100
AcDbEntity
  8
LC-001-100-D00-0
 62
     7
370
    50
100
AcDbLine
 10
265.532264
 20
274.75796
 30
0.0
 11
205.532264
 21
274.75796
 31
0.0
  0
LINE
  5
167
330
1F
100
AcDbEntity
  8
LC-001-100-D00-0
 62
     7
370
    50
100
AcDbLine
 10
271.032266
 20
283.757964
 30
0.0
 11
200.032264
 21
283.757964
 31
0.0
  0
LINE
  5
168
330
1F
100
AcDbEntity
  8
LC-001-100-D00-0
 62
     7
370
    50
100
AcDbLine
 10
180.782266
 20
281.312504
 30
0.0
 11
190.032266
 21
275.972018
 31
0.0
  0
LINE
  5
169
330
1F
100
AcDbEntity
  8
LC-001-100-D00-0
 62
     7
370
    50
100
AcDbLine
 10
190.032266
 20
275.972018
 30
0.0
 11
192.532263
 21
275.972018
 31
0.0
  0
LINE
  5
16A
330
1F
100
AcDbEntity
  8
LC-001-100-D00-0
 62
     7
370
    50
100
AcDbLine
 10
278.532263
 20
275.972018
 30
0.0
 11
281.032264
 21
275.972018
 31
0.0
  0
LINE
  5
16B
330
1F
100
AcDbEntity
  8
LC-001-100-D00-0
 62
     7
370
    50
100
AcDbLine
 10
281.032264
 20
275.972018
 30
0.0
 11
290.282264
 21
281.312504
 31
0.0
  0
LINE
  5
16C
330
1F
100
AcDbEntity
  8
LC-001-100-D00-0
 62
     7
370
    50
100
AcDbLine
 10
290.282264
 20
281.312504
 30
0.0
 11
290.282264
 21
281.457955
 31
0.0
  0
LINE
  5
16D
330
1F
100
AcDbEntity
  8
LC-001-100-D00-0
 62
     7
370
    50
100
AcDbLine
 10
180.782266
 20
281.457955
 30
0.0
 11
180.782266
 21
281.312504
 31
0.0
  0
LINE
  5
16E
330
1F
100
AcDbEntity
  8
LC-001-100-D00-0
 62
     7
370
    50
100
AcDbLine
 10
281.032264
 20
281.457955
 30
0.0
 11
281.032264
 21
275.972018
 31
0.0
  0
LINE
  5
16F
330
1F
100
AcDbEntity
  8
LC-001-100-D00-0
 62
     7
370
    50
100
AcDbLine
 10
190.032266
 20
275.972018
 30
0.0
 11
190.032266
 21
281.457955
 31
0.0
  0
LINE
  5
170
330
1F
100
AcDbEntity
  8
LC-001-100-D00-0
 62
     7
370
    50
100
AcDbLine
 10
290.282264
 20
281.457955
 30
0.0
 11
281.032264
 21
281.457955
 31
0.0
  0
LINE
  5
171
330
1F
100
AcDbEntity
  8
LC-001-100-D00-0
 62
     7
370
    50
100
AcDbLine
 10
190.032266
 20
281.457955
 30
0.0
 11
180.782266
 21
281.457955
 31
0.0
  0
ARC
  5
172
330
1F
100
AcDbEntity
  8
LC-001-100-D00-0
 62
     7
370
    50
100
AcDbCircle
 10
341.532264
 20
281.457949
 30
0.0
 40
3.000000000000103
100
AcDbArc
 50
209.999998
 51
329.999998
  0
ARC
  5
173
330
1F
100
AcDbEntity
  8
LC-001-100-D00-0
 62
     7
370
    50
100
AcDbCircle
 10
129.532264
 20
281.457958
 30
0.0
 40
3.000000000000004
100
AcDbArc
 50
209.999998
 51
329.999998
  0
LINE
  5
174
330
1F
100
AcDbEntity
  8
LC-001-100-D00-0
 62
     7
370
    50
100
AcDbLine
 10
361.53226
 20
281.457955
 30
0.0
 11
361.53226
 21
279.957944
 31
0.0
  0
LINE
  5
175
330
1F
100
AcDbEntity
  8
LC-001-100-D00-0
 62
     7
370
    50
100
AcDbLine
 10
109.53227
 20
279.957959
 30
0.0
 11
109.53227
 21
281.457955
 31
0.0
  0
LINE
  5
176
330
1F
100
AcDbEntity
  8
LC-001-100-D00-0
 62
     7
370
    50
100
AcDbLine
 10
281.782266
 20
274.257952
 30
0.0
 11
281.032264
 21
275.55699
 31
0.0
  0
LINE
  5
177
330
1F
100
AcDbEntity
  8
LC-001-100-D00-0
 62
     7
370
    50
100
AcDbLine
 10
189.282264
 20
274.257952
 30
0.0
 11
192.532263
 21
274.257952
 31
0.0
  0
LINE
  5
178
330
1F
100
AcDbEntity
  8
LC-001-100-D00-0
 62
     7
370
    50
100
AcDbLine
 10
278.532263
 20
274.257952
 30
0.0
 11
281.782266
 21
274.257952
 31
0.0
  0
LINE
  5
179
330
1F
100
AcDbEntity
  8
LC-001-100-D00-0
 62
     7
370
    50
100
AcDbLine
 10
190.032266
 20
275.55699
 30
0.0
 11
189.282264
 21
274.257952
 31
0.0
  0
LINE
  5
17A
330
1F
100
AcDbEntity
  8
LC-001-100-D00-0
 62
     7
370
    50
100
AcDbLine
 10
190.032266
 20
275.55699
 30
0.0
 11
192.532263
 21
275.55699
 31
0.0
  0
LINE
  5
17B
330
1F
100
AcDbEntity
  8
LC-001-100-D00-0
 62
     7
370
    50
100
AcDbLine
 10
278.532263
 20
275.55699
 30
0.0
 11
281.032264
 21
275.55699
 31
0.0
  0
ARC
  5
17C
330
1F
100
AcDbEntity
  8
LC-001-100-D00-0
 62
     7
370
    50
100
AcDbCircle
 10
341.532264
 20
281.457949
 30
0.0
 40
1.500000000000115
100
AcDbArc
 50
179.999998
 51
359.999998
  0
ARC
  5
17D
330
1F
100
AcDbEntity
  8
LC-001-100-D00-0
 62
     7
370
    50
100
AcDbCircle
 10
129.532264
 20
281.457958
 30
0.0
 40
1.500000000000001
100
AcDbArc
 50
179.999998
 51
359.999998
  0
LINE
  5
17E
330
1F
100
AcDbEntity
  8
LC-001-100-D00-0
 62
     7
370
    50
100
AcDbLine
 10
128.032263
 20
281.457955
 30
0.0
 11
131.032262
 21
281.457955
 31
0.0
  0
LINE
  5
17F
330
1F
100
AcDbEntity
  8
LC-001-100-D00-0
 62
     7
370
    50
100
AcDbLine
 10
340.032268
 20
281.457955
 30
0.0
 11
343.032267
 21
281.457955
 31
0.0
  0
ARC
  5
180
330
1F
100
AcDbEntity
  8
LC-001-100-D00-0
 62
     7
370
    50
100
AcDbCircle
 10
292.056878
 20
278.457951
 30
0.0
 40
3.000000000000116
100
AcDbArc
 50
89.999998
 51
119.999998
  0
ARC
  5
181
330
1F
100
AcDbEntity
  8
LC-001-100-D00-0
 62
     7
370
    50
100
AcDbCircle
 10
179.007651
 20
278.457956
 30
0.0
 40
3.000000000000156
100
AcDbArc
 50
59.999998
 51
89.999998
  0
LINE
  5
182
330
1F
100
AcDbEntity
  8
LC-001-100-D00-0
 62
     7
370
    50
100
AcDbLine
 10
179.007653
 20
281.457955
 30
0.0
 11
180.532265
 21
281.457955
 31
0.0
  0
LINE
  5
183
330
1F
100
AcDbEntity
  8
LC-001-100-D00-0
 62
     7
370
    50
100
AcDbLine
 10
290.532265
 20
281.457955
 30
0.0
 11
292.056877
 21
281.457955
 31
0.0
  0
LINE
  5
184
330
1F
100
AcDbEntity
  8
LC-001-100-D00-0
 62
     7
370
    50
100
AcDbLine
 10
180.507652
 20
281.056026
 30
0.0
 11
190.032266
 21
275.55699
 31
0.0
  0
LINE
  5
185
330
1F
100
AcDbEntity
  8
LC-001-100-D00-0
 62
     7
370
    50
100
AcDbLine
 10
281.032264
 20
275.55699
 30
0.0
 11
290.556878
 21
281.056026
 31
0.0
  0
LINE
  5
186
330
1F
100
AcDbEntity
  8
LC-001-100-D00-0
 62
     7
370
    50
100
AcDbLine
 10
189.282264
 20
274.257952
 30
0.0
 11
179.757651
 21
279.756987
 31
0.0
  0
ARC
  5
187
330
1F
100
AcDbEntity
  8
LC-001-100-D00-0
 62
     7
370
    50
100
AcDbCircle
 10
179.007651
 20
278.457956
 30
0.0
 40
1.500000000000078
100
AcDbArc
 50
59.999998
 51
89.999998
  0
LINE
  5
188
330
1F
100
AcDbEntity
  8
LC-001-100-D00-0
 62
     7
370
    50
100
AcDbLine
 10
179.007649
 20
279.957959
 30
0.0
 11
132.130343
 21
279.957959
 31
0.0
  0
LINE
  5
189
330
1F
100
AcDbEntity
  8
LC-001-100-D00-0
 62
     7
370
    50
100
AcDbLine
 10
131.032262
 20
281.457955
 30
0.0
 11
179.007653
 21
281.457955
 31
0.0
  0
LINE
  5
18A
330
1F
100
AcDbEntity
  8
LC-001-100-D00-0
 62
     7
370
    50
100
AcDbLine
 10
109.53227
 20
281.457955
 30
0.0
 11
128.032263
 21
281.457955
 31
0.0
  0
LINE
  5
18B
330
1F
100
AcDbEntity
  8
LC-001-100-D00-0
 62
     7
370
    50
100
AcDbLine
 10
126.934189
 20
279.957959
 30
0.0
 11
109.53227
 21
279.957959
 31
0.0
  0
LINE
  5
18C
330
1F
100
AcDbEntity
  8
LC-001-100-D00-0
 62
     7
370
    50
100
AcDbLine
 10
291.306879
 20
279.756987
 30
0.0
 11
281.782266
 21
274.257952
 31
0.0
  0
ARC
  5
18D
330
1F
100
AcDbEntity
  8
LC-001-100-D00-0
 62
     7
370
    50
100
AcDbCircle
 10
292.056878
 20
278.457951
 30
0.0
 40
1.500000000000001
100
AcDbArc
 50
89.999998
 51
119.999998
  0
LINE
  5
18E
330
1F
100
AcDbEntity
  8
LC-001-100-D00-0
 62
     7
370
    50
100
AcDbLine
 10
338.934187
 20
279.957944
 30
0.0
 11
292.056877
 21
279.957944
 31
0.0
  0
LINE
  5
18F
330
1F
100
AcDbEntity
  8
LC-001-100-D00-0
 62
     7
370
    50
100
AcDbLine
 10
292.056877
 20
281.457955
 30
0.0
 11
340.032268
 21
281.457955
 31
0.0
  0
LINE
  5
190
330
1F
100
AcDbEntity
  8
LC-001-100-D00-0
 62
     7
370
    50
100
AcDbLine
 10
343.032267
 20
281.457955
 30
0.0
 11
361.53226
 21
281.457955
 31
0.0
  0
LINE
  5
191
330
1F
100
AcDbEntity
  8
LC-001-100-D00-0
 62
     7
370
    50
100
AcDbLine
 10
361.53226
 20
279.957944
 30
0.0
 11
344.130341
 21
279.957944
 31
0.0
  0
LINE
  5
192
330
1F
100
AcDbEntity
  8
LC-001-100-D00-0
 62
     7
370
    50
100
AcDbLine
 10
179.532263
 20
268.957952
 30
0.0
 11
179.532263
 21
279.957959
 31
0.0
  0
LINE
  5
193
330
1F
100
AcDbEntity
  8
LC-001-100-D00-0
 62
     7
370
    50
100
AcDbLine
 10
291.532263
 20
279.957944
 30
0.0
 11
291.532263
 21
268.957952
 31
0.0
  0
LINE
  5
194
330
1F
100
AcDbEntity
  8
LC-001-100-D00-0
 62
     7
370
    50
100
AcDbLine
 10
179.532263
 20
279.957959
 30
0.0
 11
184.032265
 21
275.457957
 31
0.0
  0
LINE
  5
195
330
1F
100
AcDbEntity
  8
LC-001-100-D00-0
 62
     7
370
    50
100
AcDbLine
 10
287.032265
 20
275.457957
 30
0.0
 11
291.532263
 21
279.957944
 31
0.0
  0
LINE
  5
196
330
1F
100
AcDbEntity
  8
LC-001-100-D00-0
 62
     7
370
    50
100
AcDbLine
 10
285.419017
 20
276.457944
 30
0.0
 11
285.996366
 21
275.457957
 31
0.0
  0
LINE
  5
197
330
1F
100
AcDbEntity
  8
LC-001-100-D00-0
 62
     7
370
    50
100
AcDbLine
 10
185.068164
 20
275.457957
 30
0.0
 11
185.645513
 21
276.457959
 31
0.0
  0
LINE
  5
198
330
1F
100
AcDbEntity
  8
LC-001-100-D00-0
 62
     7
370
    50
100
AcDbLine
 10
185.645513
 20
276.457959
 30
0.0
 11
186.222862
 21
275.457957
 31
0.0
  0
LINE
  5
199
330
1F
100
AcDbEntity
  8
LC-001-100-D00-0
 62
     7
370
    50
100
AcDbLine
 10
284.841664
 20
275.457957
 30
0.0
 11
285.419017
 21
276.457944
 31
0.0
  0
LINE
  5
19A
330
1F
100
AcDbEntity
  8
LC-001-100-D00-0
 62
     7
370
    50
100
AcDbLine
 10
284.264315
 20
276.457944
 30
0.0
 11
284.841664
 21
275.457957
 31
0.0
  0
LINE
  5
19B
330
1F
100
AcDbEntity
  8
LC-001-100-D00-0
 62
     7
370
    50
100
AcDbLine
 10
186.222862
 20
275.457957
 30
0.0
 11
186.800211
 21
276.457959
 31
0.0
  0
LINE
  5
19C
330
1F
100
AcDbEntity
  8
LC-001-100-D00-0
 62
     7
370
    50
100
AcDbLine
 10
186.800211
 20
276.457959
 30
0.0
 11
187.377564
 21
275.457957
 31
0.0
  0
LINE
  5
19D
330
1F
100
AcDbEntity
  8
LC-001-100-D00-0
 62
     7
370
    50
100
AcDbLine
 10
283.686965
 20
275.457957
 30
0.0
 11
284.264315
 21
276.457944
 31
0.0
  0
LINE
  5
19E
330
1F
100
AcDbEntity
  8
LC-001-100-D00-0
 62
     7
370
    50
100
AcDbLine
 10
282.532263
 20
271.457949
 30
0.0
 11
282.532263
 21
275.457957
 31
0.0
  0
LINE
  5
19F
330
1F
100
AcDbEntity
  8
LC-001-100-D00-0
 62
     7
370
    50
100
AcDbLine
 10
282.532263
 20
275.457957
 30
0.0
 11
283.109613
 21
276.457944
 31
0.0
  0
LINE
  5
1A0
330
1F
100
AcDbEntity
  8
LC-001-100-D00-0
 62
     7
370
    50
100
AcDbLine
 10
283.109613
 20
276.457944
 30
0.0
 11
283.686965
 21
275.457957
 31
0.0
  0
LINE
  5
1A1
330
1F
100
AcDbEntity
  8
LC-001-100-D00-0
 62
     7
370
    50
100
AcDbLine
 10
289.532263
 20
268.957952
 30
0.0
 11
289.532263
 21
272.957945
 31
0.0
  0
LINE
  5
1A2
330
1F
100
AcDbEntity
  8
LC-001-100-D00-0
 62
     7
370
    50
100
AcDbLine
 10
289.532263
 20
272.957945
 30
0.0
 11
285.032265
 21
272.957945
 31
0.0
  0
LINE
  5
1A3
330
1F
100
AcDbEntity
  8
LC-001-100-D00-0
 62
     7
370
    50
100
AcDbLine
 10
285.032265
 20
272.957945
 30
0.0
 11
285.032265
 21
271.457949
 31
0.0
  0
LINE
  5
1A4
330
1F
100
AcDbEntity
  8
LC-001-100-D00-0
 62
     7
370
    50
100
AcDbLine
 10
285.032265
 20
271.457949
 30
0.0
 11
282.532263
 21
271.457949
 31
0.0
  0
LINE
  5
1A5
330
1F
100
AcDbEntity
  8
LC-001-100-D00-0
 62
     7
370
    50
100
AcDbLine
 10
285.996366
 20
275.457957
 30
0.0
 11
287.032265
 21
275.457957
 31
0.0
  0
LINE
  5
1A6
330
1F
100
AcDbEntity
  8
LC-001-100-D00-0
 62
     7
370
    50
100
AcDbLine
 10
291.532263
 20
268.957952
 30
0.0
 11
289.532263
 21
268.957952
 31
0.0
  0
LINE
  5
1A7
330
1F
100
AcDbEntity
  8
LC-001-100-D00-0
 62
     7
370
    50
100
AcDbLine
 10
186.032265
 20
271.457949
 30
0.0
 11
186.032265
 21
272.95796
 31
0.0
  0
LINE
  5
1A8
330
1F
100
AcDbEntity
  8
LC-001-100-D00-0
 62
     7
370
    50
100
AcDbLine
 10
181.532264
 20
272.95796
 30
0.0
 11
181.532264
 21
268.957952
 31
0.0
  0
LINE
  5
1A9
330
1F
100
AcDbEntity
  8
LC-001-100-D00-0
 62
     7
370
    50
100
AcDbLine
 10
289.532263
 20
268.957952
 30
0.0
 11
288.532264
 21
268.957952
 31
0.0
  0
LINE
  5
1AA
330
1F
100
AcDbEntity
  8
LC-001-100-D00-0
 62
     7
370
    50
100
AcDbLine
 10
182.532266
 20
268.957952
 30
0.0
 11
181.532264
 21
268.957952
 31
0.0
  0
LINE
  5
1AB
330
1F
100
AcDbEntity
  8
LC-001-100-D00-0
 62
     7
370
    50
100
AcDbLine
 10
187.377564
 20
275.457957
 30
0.0
 11
187.954914
 21
276.457959
 31
0.0
  0
LINE
  5
1AC
330
1F
100
AcDbEntity
  8
LC-001-100-D00-0
 62
     7
370
    50
100
AcDbLine
 10
187.954914
 20
276.457959
 30
0.0
 11
188.532263
 21
275.457957
 31
0.0
  0
LINE
  5
1AD
330
1F
100
AcDbEntity
  8
LC-001-100-D00-0
 62
     7
370
    50
100
AcDbLine
 10
188.532263
 20
275.457957
 30
0.0
 11
188.532263
 21
271.457949
 31
0.0
  0
LINE
  5
1AE
330
1F
100
AcDbEntity
  8
LC-001-100-D00-0
 62
     7
370
    50
100
AcDbLine
 10
188.532263
 20
271.457949
 30
0.0
 11
186.032265
 21
271.457949
 31
0.0
  0
LINE
  5
1AF
330
1F
100
AcDbEntity
  8
LC-001-100-D00-0
 62
     7
370
    50
100
AcDbLine
 10
186.032265
 20
272.95796
 30
0.0
 11
181.532264
 21
272.95796
 31
0.0
  0
LINE
  5
1B0
330
1F
100
AcDbEntity
  8
LC-001-100-D00-0
 62
     7
370
    50
100
AcDbLine
 10
184.032265
 20
275.457957
 30
0.0
 11
185.068164
 21
275.457957
 31
0.0
  0
LINE
  5
1B1
330
1F
100
AcDbEntity
  8
LC-001-100-D00-0
 62
     7
370
    50
100
AcDbLine
 10
181.532264
 20
268.957952
 30
0.0
 11
179.532263
 21
268.957952
 31
0.0
  0
LINE
  5
1B2
330
1F
100
AcDbEntity
  8
LC-001-100-D00-0
 62
     7
370
    50
100
AcDbLine
 10
287.060241
 20
272.957952
 30
0.0
 11
291.532264
 21
277.429975
 31
0.0
  0
INSERT
  5
1B8
330
1F
100
AcDbEntity
  8
LC-001-100-D00-0
 62
     7
370
    25
100
AcDbBlockReference
  2
KLON5
 10
0.0
 20
0.0
 30
0.0
  0
INSERT
  5
1C4
330
1F
100
AcDbEntity
  8
LC-001-100-D00-0
 62
     7
370
    25
100
AcDbBlockReference
  2
KLON6
 10
0.0
 20
0.0
 30
0.0
  0
INSERT
  5
1D1
330
1F
100
AcDbEntity
  8
LC-001-100-D00-0
 62
     7
370
    25
100
AcDbBlockReference
  2
KLON7
 10
0.0
 20
0.0
 30
0.0
  0
LINE
  5
1D2
330
1F
100
AcDbEntity
  8
LC-001-100-D00-0
 62
     7
370
    25
100
AcDbLine
 10
281.178444
 20
276.056411
 30
0.0
 11
286.579985
 21
281.457952
 31
0.0
  0
LINE
  5
1D3
330
1F
100
AcDbEntity
  8
LC-001-100-D00-0
 62
     7
370
    25
100
AcDbLine
 10
185.137327
 20
278.798111
 30
0.0
 11
187.797172
 21
281.457956
 31
0.0
  0
INSERT
  5
1DD
330
1F
100
AcDbEntity
  8
LC-001-100-D00-0
 62
     7
370
    25
100
AcDbBlockReference
  2
KLON8
 10
0.0
 20
0.0
 30
0.0
  0
INSERT
  5
1E8
330
1F
100
AcDbEntity
  8
LC-001-100-D00-0
 62
     7
370
    25
100
AcDbBlockReference
  2
KLON9
 10
0.0
 20
0.0
 30
0.0
  0
INSERT
  5
204
330
1F
100
AcDbEntity
  8
LC-001-100-D00-0
 62
     7
370
    25
100
AcDbBlockReference
  2
KLON10
 10
0.0
 20
0.0
 30
0.0
  0
LINE
  5
205
330
1F
100
AcDbEntity
  8
LC-001-100-D00-0
 62
     7
370
    50
100
AcDbLine
 10
195.200724
 20
279.881248
 30
0.0
 11
196.908978
 21
281.589502
 31
0.0
  0
INSERT
  5
21D
330
1F
100
AcDbEntity
  8
LC-001-100-D00-0
 62
     7
370
    25
100
AcDbBlockReference
  2
KLON11
 10
0.0
 20
0.0
 30
0.0
  0
INSERT
  5
230
330
1F
100
AcDbEntity
  8
LC-001-100-D00-0
 62
     7
370
    25
100
AcDbBlockReference
  2
KLON12
 10
0.0
 20
0.0
 30
0.0
  0
INSERT
  5
23A
330
1F
100
AcDbEntity
  8
LC-001-100-D00-0
 62
     7
370
    25
100
AcDbBlockReference
  2
KLON13
 10
0.0
 20
0.0
 30
0.0
  0
INSERT
  5
245
330
1F
100
AcDbEntity
  8
LC-001-100-D00-0
 62
     7
370
    25
100
AcDbBlockReference
  2
KLON14
 10
0.0
 20
0.0
 30
0.0
  0
DIMENSION
  5
248
330
1F
100
AcDbEntity
  8
LC-001-100-D00-0
 62
     7
370
    25
100
AcDbDimension
  2
*D17
 10
260.532258
 20
88.407959
 30
0.0
 11
301.210494
 21
119.207959
 31
0.0
 70
   160
  1
DN50
 71
     5
 42
50.0
  3
LC-DIM-L-0140-02-02
100
AcDbAlignedDimension
 13
210.532258
 23
121.957955
 33
0.0
 14
260.532258
 24
121.957953
 34
0.0
100
AcDbRotatedDimension
  0
DIMENSION
  5
257
330
1F
100
AcDbEntity
  8
LC-001-100-D00-0
 62
     7
370
    25
100
AcDbDimension
  2
*D18
 10
361.532264
 20
321.849959
 30
0.0
 11
237.317751
 21
352.649959
 31
0.0
 70
   160
  1
%%c252
 71
     5
 42
252.0
  3
LC-DIM-L-0140-02-02
100
AcDbAlignedDimension
 13
109.532264
 23
279.957959
 33
0.0
 14
361.532264
 24
279.957948
 34
0.0
100
AcDbRotatedDimension
  0
DIMENSION
  5
264
330
1F
100
AcDbEntity
  8
LC-001-100-D00-0
 62
     7
370
    25
100
AcDbDimension
  2
*D19
 10
165.970854
 20
259.257961
 30
0.0
 11
135.170854
 21
217.899959
 31
0.0
 70
   160
  1
50
 71
     5
 42
49.0
 53
90.0
  3
LC-DIM-L-0140-02-02
100
AcDbAlignedDimension
 13
216.532261
 23
210.257961
 33
0.0
 14
206.532264
 24
259.257961
 34
0.0
 50
90.0
100
AcDbRotatedDimension
  0
DIMENSION
  5
273
330
1F
100
AcDbEntity
  8
LC-001-100-D00-0
 62
     7
370
    25
100
AcDbDimension
  2
*D20
 10
82.910288
 20
118.957955
 30
0.0
 11
52.110288
 21
196.515959
 31
0.0
 70
   160
  1
162
 71
     5
 42
162.500004
 53
90.0
  3
LC-DIM-L-0140-02-02
100
AcDbAlignedDimension
 13
109.532264
 23
281.457959
 33
0.0
 14
211.336105
 24
118.957955
 34
0.0
 50
90.0
100
AcDbRotatedDimension
  0
DIMENSION
  5
280
330
1F
100
AcDbEntity
  8
LC-001-100-D00-0
 62
     7
370
    25
100
AcDbDimension
  2
*D21
 10
140.413757
 20
118.957955
 30
0.0
 11
109.613757
 21
141.273959
 31
0.0
 70
   160
  1
54
 71
     5
 42
54.0
 53
90.0
  3
LC-DIM-L-0140-02-02
100
AcDbAlignedDimension
 13
210.53226
 23
172.957955
 33
0.0
 14
211.336105
 24
118.957955
 34
0.0
 50
90.0
100
AcDbRotatedDimension
  0
DIMENSION
  5
28F
330
1F
100
AcDbEntity
  8
LC-001-100-D00-0
 62
     7
370
    25
100
AcDbDimension
  2
*D22
 10
280.532261
 20
26.631959
 30
0.0
 11
228.798718
 21
57.431959
 31
0.0
 70
   160
  1
%%c90
 71
     5
 42
90.0
  3
LC-DIM-L-0140-02-02
100
AcDbAlignedDimension
 13
190.532261
 23
197.100091
 33
0.0
 14
280.532261
 24
197.100087
 34
0.0
100
AcDbRotatedDimension
  0
LINE
  5
29D
330
1F
100
AcDbEntity
  8
LC-001-100-D00-0
  6
DASHDOT
 62
     7
370
    25
100
AcDbLine
 10
235.532257
 20
118.957954
 30
0.0
 11
235.532265
 21
283.757964
 31
0.0
  0
ENDSEC
  0
SECTION
  2
OBJECTS
  0
DICTIONARY
  5
C
330
0
100
AcDbDictionary
281
     1
  3
ACAD_GROUP
350
D
  3
ACAD_LAYOUT
350
1A
  3
ACAD_MLINESTYLE
350
17
  3
ACAD_PLOTSETTINGS
350
19
  3
ACAD_PLOTSTYLENAME
350
E
  0
DICTIONARY
  5
D
102
{ACAD_REACTORS
330
C
102
}
330
C
100
AcDbDictionary
281
     1
  0
DICTIONARY
  5
1A
102
{ACAD_REACTORS
330
C
102
}
330
C
100
AcDbDictionary
281
     1
  3
Layout1
350
1E
  3
Layout2
350
26
  3
Model
350
22
  0
DICTIONARY
  5
17
102
{ACAD_REACTORS
330
C
102
}
330
C
100
AcDbDictionary
281
     1
  3
Standard
350
18
  0
DICTIONARY
  5
19
102
{ACAD_REACTORS
330
C
102
}
330
C
100
AcDbDictionary
281
     1
  0
ACDBDICTIONARYWDFLT
  5
E
102
{ACAD_REACTORS
330
C
102
}
330
C
100
AcDbDictionary
281
     1
  3
Normal
350
F
100
AcDbDictionaryWithDefault
340
F
  0
LAYOUT
  5
1E
102
{ACAD_REACTORS
330
1A
102
}
330
1A
100
AcDbPlotSettings
  1

  2

  4

  6

 40
0.0
 41
0.0
 42
0.0
 43
0.0
 44
0.0
 45
0.0
 46
0.0
 47
0.0
 48
0.0
 49
0.0
140
0.0
141
0.0
142
1.0
143
1.0
 70
   688
 72
     0
 73
     0
 74
     5
  7

 75
    16
147
1.0
148
0.0
149
0.0
100
AcDbLayout
  1
Layout1
 70
     1
 71
     1
 10
-208.239346
 20
-148.598041
 11
631.760654
 21
445.401959
 12
0.0
 22
0.0
 32
0.0
 14
-208.239346
 24
-148.598041
 34
0.0
 15
631.760654
 25
445.401959
 35
0.0
146
0.0
 13
0.0
 23
0.0
 33
0.0
 16
1.0
 26
0.0
 36
0.0
 17
0.0
 27
1.0
 37
0.0
 76
     0
330
1B
  0
LAYOUT
  5
26
102
{ACAD_REACTORS
330
1A
102
}
330
1A
100
AcDbPlotSettings
  1

  2

  4

  6

 40
0.0
 41
0.0
 42
0.0
 43
0.0
 44
0.0
 45
0.0
 46
0.0
 47
0.0
 48
0.0
 49
0.0
140
0.0
141
0.0
142
1.0
143
1.0
 70
   688
 72
     0
 73
     0
 74
     5
  7

 75
    16
147
1.0
148
0.0
149
0.0
100
AcDbLayout
  1
Layout2
 70
     1
 71
     2
 10
0.0
 20
0.0
 11
0.0
 21
0.0
 12
0.0
 22
0.0
 32
0.0
 14
0.0
 24
0.0
 34
0.0
 15
0.0
 25
0.0
 35
0.0
146
0.0
 13
0.0
 23
0.0
 33
0.0
 16
1.0
 26
0.0
 36
0.0
 17
0.0
 27
1.0
 37
0.0
 76
     0
330
23
  0
LAYOUT
  5
22
102
{ACAD_REACTORS
330
1A
102
}
330
1A
100
AcDbPlotSettings
  1

  2

  4

  6

 40
0.0
 41
0.0
 42
0.0
 43
0.0
 44
0.0
 45
0.0
 46
0.0
 47
0.0
 48
0.0
 49
0.0
140
0.0
141
0.0
142
1.0
143
1.0
 70
  1776
 72
     0
 73
     0
 74
     0
  7

 75
     0
147
1.0
148
0.0
149
0.0
100
AcDbLayout
  1
Model
 70
     1
 71
     0
 10
-208.239346
 20
-148.598041
 11
631.760654
 21
445.401959
 12
0.0
 22
0.0
 32
0.0
 14
-208.239346
 24
-148.598041
 34
0.0
 15
631.760654
 25
445.401959
 35
0.0
146
0.0
 13
0.0
 23
0.0
 33
0.0
 16
1.0
 26
0.0
 36
0.0
 17
0.0
 27
1.0
 37
0.0
 76
     0
330
1F
  0
MLINESTYLE
  5
18
102
{ACAD_REACTORS
330
17
102
}
330
17
100
AcDbMlineStyle
  2
Standard
 70
     0
  3

 62
   256
 51
90.0
 52
90.0
 71
     2
 49
0.5
 62
   256
  6
BYLAYER
 49
-0.5
 62
   256
  6
BYLAYER
  0
ACDBPLACEHOLDER
  5
F
102
{ACAD_REACTORS
330
E
102
}
330
E
  0
ENDSEC
  0
EOF
