  0
SECTION
  2
HEADER
  9
$ACADVER
  1
AC1015
  9
$ACADMAINTVER
 70
     6
  9
$DWGCODEPAGE
  3
ANSI_1252
  9
$INSBASE
 10
300.546594
 20
31.942
 30
0.0
  9
$EXTMIN
 10
300.546594
 20
31.942
 30
0.0
  9
$EXTMAX
 10
1140.546594
 20
625.942
 30
0.0
  9
$LIMMIN
 10
300.546594
 20
31.942
  9
$LIMMAX
 10
1140.546594
 20
625.942
  9
$ORTHOMODE
 70
     0
  9
$REGENMODE
 70
     1
  9
$FILLMODE
 70
     1
  9
$QTEXTMODE
 70
     0
  9
$MIRRTEXT
 70
     1
  9
$LTSCALE
 40
2.0
  9
$ATTMODE
 70
     1
  9
$TEXTSIZE
 40
2.5
  9
$TRACEWID
 40
1.0
  9
$TEXTSTYLE
  7
Standard
  9
$CLAYER
  8
0
  9
$CELTYPE
  6
ByLayer
  9
$CECOLOR
 62
     7
  9
$CELTSCALE
 40
1.0
  9
$DISPSILH
 70
     0
  9
$DIMSCALE
 40
2.0
  9
$DIMASZ
 40
3.5
  9
$DIMEXO
 40
0.625
  9
$DIMDLI
 40
3.75
  9
$DIMRND
 40
0.0
  9
$DIMDLE
 40
0.0
  9
$DIMEXE
 40
1.25
  9
$DIMTP
 40
0.0
  9
$DIMTM
 40
0.0
  9
$DIMTXT
 40
3.5
  9
$DIMCEN
 40
2.5
  9
$DIMTSZ
 40
0.0
  9
$DIMTOL
 70
     0
  9
$DIMLIM
 70
     0
  9
$DIMTIH
 70
     0
  9
$DIMTOH
 70
     0
  9
$DIMSE1
 70
     0
  9
$DIMSE2
 70
     0
  9
$DIMTAD
 70
     1
  9
$DIMZIN
 70
     8
  9
$DIMBLK
  1

  9
$DIMASO
 70
     1
  9
$DIMSHO
 70
     1
  9
$DIMPOST
  1

  9
$DIMAPOST
  1

  9
$DIMALT
 70
     0
  9
$DIMALTD
 70
     3
  9
$DIMALTF
 40
0.03937
  9
$DIMLFAC
 40
1.0
  9
$DIMTOFL
 70
     1
  9
$DIMTVP
 40
0.0
  9
$DIMTIX
 70
     0
  9
$DIMSOXD
 70
     0
  9
$DIMSAH
 70
     0
  9
$DIMBLK1
  1

  9
$DIMBLK2
  1

  9
$DIMSTYLE
  2
ISO-25
  9
$DIMCLRD
 70
     0
  9
$DIMCLRE
 70
     0
  9
$DIMCLRT
 70
     0
  9
$DIMTFAC
 40
1.0
  9
$DIMGAP
 40
0.625
  9
$DIMJUST
 70
     0
  9
$DIMSD1
 70
     0
  9
$DIMSD2
 70
     0
  9
$DIMTOLJ
 70
     0
  9
$DIMTZIN
 70
     8
  9
$DIMALTZ
 70
     0
  9
$DIMALTTZ
 70
     0
  9
$DIMUPT
 70
     0
  9
$DIMDEC
 70
     2
  9
$DIMTDEC
 70
     2
  9
$DIMALTU
 70
     2
  9
$DIMALTTD
 70
     3
  9
$DIMTXSTY
  7
Standard
  9
$DIMAUNIT
 70
     0
  9
$DIMADEC
 70
     0
  9
$DIMALTRND
 40
0.0
  9
$DIMAZIN
 70
     0
  9
$DIMDSEP
 70
    44
  9
$DIMATFIT
 70
     3
  9
$DIMFRAC
 70
     0
  9
$DIMLDRBLK
  1

  9
$DIMLUNIT
 70
     2
  9
$DIMLWD
 70
    -2
  9
$DIMLWE
 70
    -2
  9
$DIMTMOVE
 70
     0
  9
$LUNITS
 70
     2
  9
$LUPREC
 70
     4
  9
$SKETCHINC
 40
1.0
  9
$FILLETRAD
 40
10.0
  9
$AUNITS
 70
     0
  9
$AUPREC
 70
     0
  9
$MENU
  1
.
  9
$ELEVATION
 40
0.0
  9
$PELEVATION
 40
0.0
  9
$THICKNESS
 40
0.0
  9
$LIMCHECK
 70
     0
  9
$CHAMFERA
 40
10.0
  9
$CHAMFERB
 40
10.0
  9
$CHAMFERC
 40
20.0
  9
$CHAMFERD
 40
0.0
  9
$SKPOLY
 70
     0
  9
$TDCREATE
 40
2455813.408220324
  9
$TDUCREATE
 40
2455813.324886991
  9
$TDUPDATE
 40
2455813.408220336
  9
$TDUUPDATE
 40
2455813.324887002
  9
$TDINDWG
 40
0.0000000116
  9
$TDUSRTIMER
 40
0.0000000116
  9
$USRTIMER
 70
     1
  9
$ANGBASE
 50
0.0
  9
$ANGDIR
 70
     0
  9
$PDMODE
 70
     0
  9
$PDSIZE
 40
0.0
  9
$PLINEWID
 40
0.0
  9
$SPLFRAME
 70
     0
  9
$SPLINETYPE
 70
     6
  9
$SPLINESEGS
 70
     8
  9
$HANDSEED
  5
56F
  9
$SURFTAB1
 70
     6
  9
$SURFTAB2
 70
     6
  9
$SURFTYPE
 70
     6
  9
$SURFU
 70
     6
  9
$SURFV
 70
     6
  9
$UCSBASE
  2

  9
$UCSNAME
  2

  9
$UCSORG
 10
0.0
 20
0.0
 30
0.0
  9
$UCSXDIR
 10
1.0
 20
0.0
 30
0.0
  9
$UCSYDIR
 10
0.0
 20
1.0
 30
0.0
  9
$UCSORTHOREF
  2

  9
$UCSORTHOVIEW
 70
     0
  9
$UCSORGTOP
 10
0.0
 20
0.0
 30
0.0
  9
$UCSORGBOTTOM
 10
0.0
 20
0.0
 30
0.0
  9
$UCSORGLEFT
 10
0.0
 20
0.0
 30
0.0
  9
$UCSORGRIGHT
 10
0.0
 20
0.0
 30
0.0
  9
$UCSORGFRONT
 10
0.0
 20
0.0
 30
0.0
  9
$UCSORGBACK
 10
0.0
 20
0.0
 30
0.0
  9
$PUCSBASE
  2

  9
$PUCSNAME
  2

  9
$PUCSORG
 10
0.0
 20
0.0
 30
0.0
  9
$PUCSXDIR
 10
1.0
 20
0.0
 30
0.0
  9
$PUCSYDIR
 10
0.0
 20
1.0
 30
0.0
  9
$PUCSORTHOREF
  2

  9
$PUCSORTHOVIEW
 70
     0
  9
$PUCSORGTOP
 10
0.0
 20
0.0
 30
0.0
  9
$PUCSORGBOTTOM
 10
0.0
 20
0.0
 30
0.0
  9
$PUCSORGLEFT
 10
0.0
 20
0.0
 30
0.0
  9
$PUCSORGRIGHT
 10
0.0
 20
0.0
 30
0.0
  9
$PUCSORGFRONT
 10
0.0
 20
0.0
 30
0.0
  9
$PUCSORGBACK
 10
0.0
 20
0.0
 30
0.0
  9
$USERI1
 70
     0
  9
$USERI2
 70
     0
  9
$USERI3
 70
     0
  9
$USERI4
 70
     0
  9
$USERI5
 70
     0
  9
$USERR1
 40
0.0
  9
$USERR2
 40
0.0
  9
$USERR3
 40
0.0
  9
$USERR4
 40
0.0
  9
$USERR5
 40
0.0
  9
$WORLDVIEW
 70
     1
  9
$SHADEDGE
 70
     3
  9
$SHADEDIF
 70
    70
  9
$TILEMODE
 70
     1
  9
$MAXACTVP
 70
    64
  9
$PINSBASE
 10
0.0
 20
0.0
 30
0.0
  9
$PLIMCHECK
 70
     0
  9
$PEXTMIN
 10
300.546594
 20
31.942
 30
0.0
  9
$PEXTMAX
 10
1140.546594
 20
625.942
 30
0.0
  9
$PLIMMIN
 10
300.546594
 20
31.942
  9
$PLIMMAX
 10
1140.546594
 20
625.942
  9
$UNITMODE
 70
     0
  9
$VISRETAIN
 70
     1
  9
$PLINEGEN
 70
     0
  9
$PSLTSCALE
 70
     1
  9
$TREEDEPTH
 70
  3020
  9
$CMLSTYLE
  2
Standard
  9
$CMLJUST
 70
     0
  9
$CMLSCALE
 40
20.0
  9
$PROXYGRAPHICS
 70
     1
  9
$MEASUREMENT
 70
     1
  9
$CELWEIGHT
370
    -1
  9
$ENDCAPS
280
     0
  9
$JOINSTYLE
280
     0
  9
$LWDISPLAY
290
     0
  9
$INSUNITS
 70
     4
  9
$HYPERLINKBASE
  1

  9
$STYLESHEET
  1

  9
$XEDIT
290
     1
  9
$CEPSNTYPE
380
     0
  9
$PSTYLEMODE
290
     1
  9
$FINGERPRINTGUID
  2
{FAEB1C30-E019-11D5-929B-00C0DF256EC4}
  9
$VERSIONGUID
  2
{FAEB1C32-E019-11D5-929B-00C0DF256EC4}
  9
$EXTNAMES
290
     1
  9
$PSVPSCALE
 40
0.0
  9
$OLESTARTUP
290
     0
  0
ENDSEC
  0
SECTION
  2
CLASSES
  0
CLASS
  1
ACDBDICTIONARYWDFLT
  2
AcDbDictionaryWithDefault
  3
ObjectDBX Classes
 90
        0
280
     0
281
     0
  0
CLASS
  1
ACDBPLACEHOLDER
  2
AcDbPlaceHolder
  3
ObjectDBX Classes
 90
        0
280
     0
281
     0
  0
CLASS
  1
LAYOUT
  2
AcDbLayout
  3
ObjectDBX Classes
 90
        0
280
     0
281
     0
  0
ENDSEC
  0
SECTION
  2
TABLES
  0
TABLE
  2
VPORT
  5
8
330
0
100
AcDbSymbolTable
 70
     2
  0
VPORT
  5
29
330
8
100
AcDbSymbolTableRecord
100
AcDbViewportTableRecord
  2
*ACTIVE
 70
     0
 10
0.0
 20
0.0
 11
1.0
 21
1.0
 12
720.546594
 22
328.942
 13
0.0
 23
0.0
 14
1.0
 24
1.0
 15
0.0
 25
0.0
 16
0.0
 26
0.0
 36
1.0
 17
0.0
 27
0.0
 37
0.0
 40
594.0
 41
1.414141
 42
50.0
 43
0.0
 44
0.0
 50
0.0
 51
0.0
 71
    16
 72
   100
 73
     1
 74
     0
 75
     0
 76
     0
 77
     0
 78
     0
281
     0
 65
     0
110
0.0
120
0.0
130
0.0
111
1.0
121
0.0
131
0.0
112
0.0
122
1.0
132
0.0
 79
     0
146
0.0
  0
ENDTAB
  0
TABLE
  2
LTYPE
  5
5
330
0
100
AcDbSymbolTable
 70
     4
  0
LTYPE
  5
14
330
5
100
AcDbSymbolTableRecord
100
AcDbLinetypeTableRecord
  2
ByBlock
 70
     0
  3

 72
    65
 73
     0
 40
0.0
  0
LTYPE
  5
15
330
5
100
AcDbSymbolTableRecord
100
AcDbLinetypeTableRecord
  2
ByLayer
 70
     0
  3

 72
    65
 73
     0
 40
0.0
  0
LTYPE
  5
16
330
5
100
AcDbSymbolTableRecord
100
AcDbLinetypeTableRecord
  2
Continuous
 70
     0
  3
Solid line
 72
    65
 73
     0
 40
0.0
  0
LTYPE
  5
2A
330
5
100
AcDbSymbolTableRecord
100
AcDbLinetypeTableRecord
  2
DASHED
 70
     0
  3
__ __ __ __ __
 72
    65
 73
     2
 40
6.25
 49
5.0
 74
     4
 75
     0
340
0
 46
1.0
 50
0.0
 44
0.0
 45
0.0
 49
-1.25
 74
     4
 75
     0
340
0
 46
1.0
 50
0.0
 44
0.0
 45
0.0
  0
LTYPE
  5
30
330
5
100
AcDbSymbolTableRecord
100
AcDbLinetypeTableRecord
  2
DASHDOT
 70
     0
  3
__ . __ . __ . __ . __
 72
    65
 73
     4
 40
7.5
 49
5.0
 74
     4
 75
     0
340
0
 46
1.0
 50
0.0
 44
0.0
 45
0.0
 49
-1.25
 74
     4
 75
     0
340
0
 46
1.0
 50
0.0
 44
0.0
 45
0.0
 49
0.0
 74
     4
 75
     0
340
0
 46
1.0
 50
0.0
 44
0.0
 45
0.0
 49
-1.25
 74
     4
 75
     0
340
0
 46
1.0
 50
0.0
 44
0.0
 45
0.0
  0
LTYPE
  5
253
330
5
100
AcDbSymbolTableRecord
100
AcDbLinetypeTableRecord
  2
CENTER
 70
     0
  3
__ . __ . __ . __ . __
 72
    65
 73
     4
 40
7.5
 49
5.0
 74
     4
 75
     0
340
0
 46
1.0
 50
0.0
 44
0.0
 45
0.0
 49
-1.25
 74
     4
 75
     0
340
0
 46
1.0
 50
0.0
 44
0.0
 45
0.0
 49
0.0
 74
     4
 75
     0
340
0
 46
1.0
 50
0.0
 44
0.0
 45
0.0
 49
-1.25
 74
     4
 75
     0
340
0
 46
1.0
 50
0.0
 44
0.0
 45
0.0
  0
ENDTAB
  0
TABLE
  2
LAYER
  5
2
330
0
100
AcDbSymbolTable
 70
    20
  0
LAYER
  5
10
330
2
100
AcDbSymbolTableRecord
100
AcDbLayerTableRecord
  2
0
 70
     0
 62
     7
  6
Continuous
370
    -3
390
F
  0
LAYER
  5
2B
330
2
100
AcDbSymbolTableRecord
100
AcDbLayerTableRecord
  2
LC-INFO-1-2-mm-A3-0
 70
     1
 62
     7
  6
ByBlock
370
    -3
390
F
  0
LAYER
  5
2C
330
2
100
AcDbSymbolTableRecord
100
AcDbLayerTableRecord
  2
LC-CUT-HIDDEN
 70
     0
 62
     7
  6
DASHED
370
    -3
390
F
  0
LAYER
  5
2D
330
2
100
AcDbSymbolTableRecord
100
AcDbLayerTableRecord
  2
LC-VIEWPORT
 70
     0
 62
     7
  6
ByBlock
370
    -3
390
F
  0
LAYER
  5
2E
330
2
100
AcDbSymbolTableRecord
100
AcDbLayerTableRecord
  2
LC-3D-HIDDEN
 70
     0
 62
     9
  6
DASHED
370
    -3
390
F
  0
LAYER
  5
31
330
2
100
AcDbSymbolTableRecord
100
AcDbLayerTableRecord
  2
LC-001-002-----0
 70
     0
 62
     2
  6
DASHDOT
370
    -3
390
F
  0
LAYER
  5
35
330
2
100
AcDbSymbolTableRecord
100
AcDbLayerTableRecord
  2
LC-002-205-RND-0
 70
     0
 62
     1
  6
ByBlock
370
    -3
390
F
  0
LAYER
  5
38
330
2
100
AcDbSymbolTableRecord
100
AcDbLayerTableRecord
  2
LC-003-005-----0
 70
     0
 62
     2
  6
ByBlock
370
    -3
390
F
  0
LAYER
  5
3A
330
2
100
AcDbSymbolTableRecord
100
AcDbLayerTableRecord
  2
LC-004-205-----0
 70
     0
 62
     1
  6
ByBlock
370
    -3
390
F
  0
LAYER
  5
42
330
2
100
AcDbSymbolTableRecord
100
AcDbLayerTableRecord
  2
LC-005-002-RND-0
 70
     0
 62
     1
  6
ByBlock
370
    -3
390
F
  0
LAYER
  5
E4
330
2
100
AcDbSymbolTableRecord
100
AcDbLayerTableRecord
  2
LC-006-101-----0
 70
     0
 62
     1
  6
ByBlock
370
    -3
390
F
  0
LAYER
  5
16D
330
2
100
AcDbSymbolTableRecord
100
AcDbLayerTableRecord
  2
LC-007-101-RND-0
 70
     0
 62
     1
  6
ByBlock
370
    -3
390
F
  0
LAYER
  5
17F
330
2
100
AcDbSymbolTableRecord
100
AcDbLayerTableRecord
  2
LC-008-207-----0
 70
     0
 62
     1
  6
ByBlock
370
    -3
390
F
  0
LAYER
  5
191
330
2
100
AcDbSymbolTableRecord
100
AcDbLayerTableRecord
  2
LC-009-207-RND-0
 70
     0
 62
     1
  6
ByBlock
370
    -3
390
F
  0
LAYER
  5
250
330
2
100
AcDbSymbolTableRecord
100
AcDbLayerTableRecord
  2
LC-010-001-----0
 70
     0
 62
     1
  6
ByBlock
370
    -3
390
F
  0
LAYER
  5
254
330
2
100
AcDbSymbolTableRecord
100
AcDbLayerTableRecord
  2
LC-011-006-MLN-0
 70
     0
 62
     2
  6
CENTER
370
    -3
390
F
  0
LAYER
  5
294
330
2
100
AcDbSymbolTableRecord
100
AcDbLayerTableRecord
  2
LC-012-003-----0
 70
     0
 62
     2
  6
ByBlock
370
    -3
390
F
  0
LAYER
  5
296
330
2
100
AcDbSymbolTableRecord
100
AcDbLayerTableRecord
  2
Defpoints
 70
     0
 62
     7
  6
Continuous
290
     0
370
    -3
390
F
  0
LAYER
  5
500
330
2
100
AcDbSymbolTableRecord
100
AcDbLayerTableRecord
  2
LC-013-003-MTG-0
 70
     0
 62
     2
  6
ByBlock
370
    -3
390
F
  0
LAYER
  5
504
330
2
100
AcDbSymbolTableRecord
100
AcDbLayerTableRecord
  2
LC-014-003-MTH-0
 70
     0
 62
     2
  6
ByBlock
370
    -3
390
F
  0
ENDTAB
  0
TABLE
  2
STYLE
  5
3
330
0
100
AcDbSymbolTable
 70
     3
  0
STYLE
  5
11
330
3
100
AcDbSymbolTableRecord
100
AcDbTextStyleTableRecord
  2
Standard
 70
     0
 40
0.0
 41
1.0
 50
0.0
 71
     0
 42
2.5
  3
txt
  4

  0
STYLE
  5
2F
330
3
100
AcDbSymbolTableRecord
100
AcDbTextStyleTableRecord
  2
LCTX15-400-0-0-Arial
 70
     0
 40
0.0
 41
0.9
 50
0.0
 71
     0
 42
3.5
  3
ARIAL.TTF
  4

1001
ACAD
1000
Arial
1071
 16777218
  0
STYLE
  5
292
330
3
100
AcDbSymbolTableRecord
100
AcDbTextStyleTableRecord
  2
LCTX15-400-0-0pDIN-Schrift
 70
     0
 40
2.5
 41
0.8
 50
15.0
 71
     0
 42
3.5
  3
STANDARD
  4

  0
ENDTAB
  0
TABLE
  2
VIEW
  5
6
330
0
100
AcDbSymbolTable
 70
     0
  0
ENDTAB
  0
TABLE
  2
UCS
  5
7
330
0
100
AcDbSymbolTable
 70
     0
  0
ENDTAB
  0
TABLE
  2
APPID
  5
9
330
0
100
AcDbSymbolTable
 70
     1
  0
APPID
  5
12
330
9
100
AcDbSymbolTableRecord
100
AcDbRegAppTableRecord
  2
ACAD
 70
     0
  0
ENDTAB
  0
TABLE
  2
DIMSTYLE
  5
A
330
0
100
AcDbSymbolTable
 70
     3
100
AcDbDimStyleTable
  0
DIMSTYLE
105
27
330
A
100
AcDbSymbolTableRecord
100
AcDbDimStyleTableRecord
  2
ISO-25
 70
     0
 41
2.5
 42
0.625
 43
3.75
 44
1.25
 73
     0
 74
     0
 77
     1
 78
     8
140
2.5
141
2.5
143
0.03937
147
0.625
171
     3
172
     1
271
     2
272
     2
274
     3
278
    44
283
     0
284
     8
340
11
  0
DIMSTYLE
105
293
102
{ACAD_REACTORS
330
295
330
3AB
330
3E4
330
3F8
330
405
330
41C
330
480
330
555
102
}
330
A
100
AcDbSymbolTableRecord
100
AcDbDimStyleTableRecord
  2
LC-DIM-L-0140-02-02
 70
     0
 40
2.0
 41
14.0
 42
0.0
 43
7.5
 44
1.8
 73
     0
 74
     0
 77
     1
 78
     8
 79
     2
140
14.0
141
0.0
146
0.71
147
1.5
176
     2
177
     2
178
     2
179
     2
271
     2
278
    44
289
     1
340
292
  0
DIMSTYLE
105
4E9
330
A
100
AcDbSymbolTableRecord
100
AcDbDimStyleTableRecord
  2
LC-DIM-W-0140-02-02
 70
     0
 40
2.0
 41
14.0
 42
0.0
 43
7.5
 44
1.8
 73
     0
 74
     0
 77
     1
 78
     8
 79
     2
140
14.0
141
0.0
146
0.71
147
1.5
176
     2
177
     2
178
     2
179
     2
271
     2
278
    44
289
     1
340
292
  0
ENDTAB
  0
TABLE
  2
BLOCK_RECORD
  5
1
330
0
100
AcDbSymbolTable
 70
    32
  0
BLOCK_RECORD
  5
1F
330
1
100
AcDbSymbolTableRecord
100
AcDbBlockTableRecord
  2
*Model_Space
340
22
  0
BLOCK_RECORD
  5
1B
330
1
100
AcDbSymbolTableRecord
100
AcDbBlockTableRecord
  2
*Paper_Space
340
1E
  0
BLOCK_RECORD
  5
23
330
1
100
AcDbSymbolTableRecord
100
AcDbBlockTableRecord
  2
*Paper_Space0
340
26
  0
BLOCK_RECORD
  5
4E
330
1
100
AcDbSymbolTableRecord
100
AcDbBlockTableRecord
  2
*X11
340
0
102
{BLKREFS
331
58
102
}
  0
BLOCK_RECORD
  5
5B
330
1
100
AcDbSymbolTableRecord
100
AcDbBlockTableRecord
  2
*X22
340
0
102
{BLKREFS
331
65
102
}
  0
BLOCK_RECORD
  5
6C
330
1
100
AcDbSymbolTableRecord
100
AcDbBlockTableRecord
  2
*X33
340
0
102
{BLKREFS
331
DF
102
}
  0
BLOCK_RECORD
  5
12B
330
1
100
AcDbSymbolTableRecord
100
AcDbBlockTableRecord
  2
*X44
340
0
102
{BLKREFS
331
15A
102
}
  0
BLOCK_RECORD
  5
181
330
1
100
AcDbSymbolTableRecord
100
AcDbBlockTableRecord
  2
*X55
340
0
102
{BLKREFS
331
18D
102
}
  0
BLOCK_RECORD
  5
1A0
330
1
100
AcDbSymbolTableRecord
100
AcDbBlockTableRecord
  2
*X66
340
0
102
{BLKREFS
331
1CF
102
}
  0
BLOCK_RECORD
  5
1D0
330
1
100
AcDbSymbolTableRecord
100
AcDbBlockTableRecord
  2
*X77
340
0
102
{BLKREFS
331
1FA
102
}
  0
BLOCK_RECORD
  5
200
330
1
100
AcDbSymbolTableRecord
100
AcDbBlockTableRecord
  2
*X88
340
0
102
{BLKREFS
331
20B
102
}
  0
BLOCK_RECORD
  5
21A
330
1
100
AcDbSymbolTableRecord
100
AcDbBlockTableRecord
  2
*X99
340
0
102
{BLKREFS
331
247
102
}
  0
BLOCK_RECORD
  5
26B
330
1
100
AcDbSymbolTableRecord
100
AcDbBlockTableRecord
  2
*X1010
340
0
102
{BLKREFS
331
278
102
}
  0
BLOCK_RECORD
  5
297
330
1
100
AcDbSymbolTableRecord
100
AcDbBlockTableRecord
  2
*D11
340
0
  0
BLOCK_RECORD
  5
2A6
330
1
100
AcDbSymbolTableRecord
100
AcDbBlockTableRecord
  2
*X1112
340
0
102
{BLKREFS
331
2AC
102
}
  0
BLOCK_RECORD
  5
2B6
330
1
100
AcDbSymbolTableRecord
100
AcDbBlockTableRecord
  2
*X1213
340
0
102
{BLKREFS
331
2BC
102
}
  0
BLOCK_RECORD
  5
30E
330
1
100
AcDbSymbolTableRecord
100
AcDbBlockTableRecord
  2
*X1314
340
0
102
{BLKREFS
331
313
102
}
  0
BLOCK_RECORD
  5
316
330
1
100
AcDbSymbolTableRecord
100
AcDbBlockTableRecord
  2
*X1415
340
0
102
{BLKREFS
331
31D
102
}
  0
BLOCK_RECORD
  5
33D
330
1
100
AcDbSymbolTableRecord
100
AcDbBlockTableRecord
  2
*X1516
340
0
102
{BLKREFS
331
34A
102
}
  0
BLOCK_RECORD
  5
364
330
1
100
AcDbSymbolTableRecord
100
AcDbBlockTableRecord
  2
*X1617
340
0
102
{BLKREFS
331
36A
102
}
  0
BLOCK_RECORD
  5
36B
330
1
100
AcDbSymbolTableRecord
100
AcDbBlockTableRecord
  2
*X1718
340
0
102
{BLKREFS
331
371
102
}
  0
BLOCK_RECORD
  5
372
330
1
100
AcDbSymbolTableRecord
100
AcDbBlockTableRecord
  2
*X1819
340
0
102
{BLKREFS
331
376
102
}
  0
BLOCK_RECORD
  5
3AC
330
1
100
AcDbSymbolTableRecord
100
AcDbBlockTableRecord
  2
*D20
340
0
  0
BLOCK_RECORD
  5
3E5
330
1
100
AcDbSymbolTableRecord
100
AcDbBlockTableRecord
  2
*D21
340
0
  0
BLOCK_RECORD
  5
3F9
330
1
100
AcDbSymbolTableRecord
100
AcDbBlockTableRecord
  2
*D22
340
0
  0
BLOCK_RECORD
  5
406
330
1
100
AcDbSymbolTableRecord
100
AcDbBlockTableRecord
  2
*D23
340
0
  0
BLOCK_RECORD
  5
41D
330
1
100
AcDbSymbolTableRecord
100
AcDbBlockTableRecord
  2
*D24
340
0
  0
BLOCK_RECORD
  5
43C
330
1
100
AcDbSymbolTableRecord
100
AcDbBlockTableRecord
  2
*X1925
340
0
102
{BLKREFS
331
444
102
}
  0
BLOCK_RECORD
  5
44E
330
1
100
AcDbSymbolTableRecord
100
AcDbBlockTableRecord
  2
*X2026
340
0
102
{BLKREFS
331
47E
102
}
  0
BLOCK_RECORD
  5
481
330
1
100
AcDbSymbolTableRecord
100
AcDbBlockTableRecord
  2
*D27
340
0
  0
BLOCK_RECORD
  5
49C
330
1
100
AcDbSymbolTableRecord
100
AcDbBlockTableRecord
  2
*X2128
340
0
102
{BLKREFS
331
4A9
102
}
  0
BLOCK_RECORD
  5
4B3
330
1
100
AcDbSymbolTableRecord
100
AcDbBlockTableRecord
  2
*X2229
340
0
102
{BLKREFS
331
4BF
102
}
  0
BLOCK_RECORD
  5
4EA
330
1
100
AcDbSymbolTableRecord
100
AcDbBlockTableRecord
  2
LCDIM1
340
0
102
{BLKREFS
331
508
102
}
  0
BLOCK_RECORD
  5
556
330
1
100
AcDbSymbolTableRecord
100
AcDbBlockTableRecord
  2
*D31
340
0
  0
ENDTAB
  0
ENDSEC
  0
SECTION
  2
BLOCKS
  0
BLOCK
  5
20
330
1F
100
AcDbEntity
  8
0
100
AcDbBlockBegin
  2
*Model_Space
 70
     0
 71
     0
 10
0.0
 20
0.0
 30
0.0
  3
*Model_Space
  1

  0
ENDBLK
  5
21
330
1F
100
AcDbEntity
  8
0
100
AcDbBlockEnd
  0
BLOCK
  5
1C
330
1B
100
AcDbEntity
 67
     1
  8
0
100
AcDbBlockBegin
  2
*Paper_Space
 70
     0
 71
     0
 10
0.0
 20
0.0
 30
0.0
  3
*Paper_Space
  1

  0
ENDBLK
  5
1D
330
1B
100
AcDbEntity
 67
     1
  8
0
100
AcDbBlockEnd
  0
BLOCK
  5
24
330
23
100
AcDbEntity
  8
0
100
AcDbBlockBegin
  2
*Paper_Space0
 70
     0
 71
     0
 10
0.0
 20
0.0
 30
0.0
  3
*Paper_Space0
  1

  0
ENDBLK
  5
25
330
23
100
AcDbEntity
  8
0
100
AcDbBlockEnd
  0
BLOCK
  5
4F
330
4E
100
AcDbEntity
  8
0
100
AcDbBlockBegin
  2
*X11
 70
     1
 71
     0
 10
0.0
 20
0.0
 30
0.0
  3
*X11
  1

  4
*X1
  0
LINE
  5
51
330
4E
100
AcDbEntity
  8
LC-003-005-----0
 62
     7
370
    25
100
AcDbLine
 10
643.493902
 20
297.294422
 30
0.0
 11
644.700724
 21
298.501244
 31
0.0
  0
LINE
  5
52
330
4E
100
AcDbEntity
  8
LC-003-005-----0
 62
     7
370
    25
100
AcDbLine
 10
642.932683
 20
297.298889
 30
0.0
 11
644.696257
 21
299.062463
 31
0.0
  0
LINE
  5
53
330
4E
100
AcDbEntity
  8
LC-003-005-----0
 62
     7
370
    25
100
AcDbLine
 10
642.51625
 20
297.448141
 30
0.0
 11
644.547005
 21
299.478896
 31
0.0
  0
LINE
  5
54
330
4E
100
AcDbEntity
  8
LC-003-005-----0
 62
     7
370
    25
100
AcDbLine
 10
642.188391
 20
297.685967
 30
0.0
 11
644.309179
 21
299.806755
 31
0.0
  0
LINE
  5
55
330
4E
100
AcDbEntity
  8
LC-003-005-----0
 62
     7
370
    25
100
AcDbLine
 10
641.93741
 20
298.000672
 30
0.0
 11
643.994474
 21
300.057736
 31
0.0
  0
LINE
  5
56
330
4E
100
AcDbEntity
  8
LC-003-005-----0
 62
     7
370
    25
100
AcDbLine
 10
641.771331
 20
298.400278
 30
0.0
 11
643.594868
 21
300.223815
 31
0.0
  0
LINE
  5
57
330
4E
100
AcDbEntity
  8
LC-003-005-----0
 62
     7
370
    25
100
AcDbLine
 10
641.733349
 20
298.927982
 30
0.0
 11
643.067164
 21
300.261797
 31
0.0
  0
ENDBLK
  5
50
330
4E
100
AcDbEntity
  8
0
100
AcDbBlockEnd
  0
BLOCK
  5
5C
330
5B
100
AcDbEntity
  8
0
100
AcDbBlockBegin
  2
*X22
 70
     1
 71
     0
 10
0.0
 20
0.0
 30
0.0
  3
*X22
  1

  4
*X2
  0
LINE
  5
5E
330
5B
100
AcDbEntity
  8
LC-003-005-----0
 62
     7
370
    25
100
AcDbLine
 10
721.575782
 20
297.311714
 30
0.0
 11
722.683434
 21
298.419365
 31
0.0
  0
LINE
  5
5F
330
5B
100
AcDbEntity
  8
LC-003-005-----0
 62
     7
370
    25
100
AcDbLine
 10
720.987443
 20
297.28906
 30
0.0
 11
722.706087
 21
299.007704
 31
0.0
  0
LINE
  5
60
330
5B
100
AcDbEntity
  8
LC-003-005-----0
 62
     7
370
    25
100
AcDbLine
 10
720.558862
 20
297.426164
 30
0.0
 11
722.568983
 21
299.436285
 31
0.0
  0
LINE
  5
61
330
5B
100
AcDbEntity
  8
LC-003-005-----0
 62
     7
370
    25
100
AcDbLine
 10
720.221902
 20
297.65489
 30
0.0
 11
722.340257
 21
299.773245
 31
0.0
  0
LINE
  5
62
330
5B
100
AcDbEntity
  8
LC-003-005-----0
 62
     7
370
    25
100
AcDbLine
 10
719.962105
 20
297.960778
 30
0.0
 11
722.034369
 21
300.033042
 31
0.0
  0
LINE
  5
63
330
5B
100
AcDbEntity
  8
LC-003-005-----0
 62
     7
370
    25
100
AcDbLine
 10
719.78519
 20
298.349548
 30
0.0
 11
721.645599
 21
300.209957
 31
0.0
  0
LINE
  5
64
330
5B
100
AcDbEntity
  8
LC-003-005-----0
 62
     7
370
    25
100
AcDbLine
 10
719.727575
 20
298.857619
 30
0.0
 11
721.137528
 21
300.267572
 31
0.0
  0
ENDBLK
  5
5D
330
5B
100
AcDbEntity
  8
0
100
AcDbBlockEnd
  0
BLOCK
  5
6D
330
6C
100
AcDbEntity
  8
0
100
AcDbBlockBegin
  2
*X33
 70
     1
 71
     0
 10
0.0
 20
0.0
 30
0.0
  3
*X33
  1

  4
*X3
  0
LINE
  5
6F
330
6C
100
AcDbEntity
  8
LC-003-005-----0
 62
     7
370
    25
100
AcDbLine
 10
714.323013
 20
243.389897
 30
0.0
 11
718.605251
 21
247.672134
 31
0.0
  0
LINE
  5
70
330
6C
100
AcDbEntity
  8
LC-003-005-----0
 62
     7
370
    25
100
AcDbLine
 10
712.067183
 20
242.548281
 30
0.0
 11
719.446867
 21
249.927964
 31
0.0
  0
LINE
  5
71
330
6C
100
AcDbEntity
  8
LC-003-005-----0
 62
     7
370
    25
100
AcDbLine
 10
710.397449
 20
242.29276
 30
0.0
 11
712.262361
 21
244.157672
 31
0.0
  0
LINE
  5
72
330
6C
100
AcDbEntity
  8
LC-003-005-----0
 62
     7
370
    25
100
AcDbLine
 10
717.837475
 20
249.732786
 30
0.0
 11
719.702388
 21
251.597699
 31
0.0
  0
LINE
  5
73
330
6C
100
AcDbEntity
  8
LC-003-005-----0
 62
     7
370
    25
100
AcDbLine
 10
708.960602
 20
242.270126
 30
0.0
 11
710.495603
 21
243.805127
 31
0.0
  0
LINE
  5
74
330
6C
100
AcDbEntity
  8
LC-003-005-----0
 62
     7
370
    25
100
AcDbLine
 10
718.19002
 20
251.499544
 30
0.0
 11
719.725021
 21
253.034546
 31
0.0
  0
LINE
  5
75
330
6C
100
AcDbEntity
  8
LC-003-005-----0
 62
     7
370
    25
100
AcDbLine
 10
707.546388
 20
242.270126
 30
0.0
 11
709.046388
 21
243.770126
 31
0.0
  0
LINE
  5
76
330
6C
100
AcDbEntity
  8
LC-003-005-----0
 62
     7
370
    25
100
AcDbLine
 10
718.225021
 20
252.948759
 30
0.0
 11
719.725021
 21
254.448759
 31
0.0
  0
LINE
  5
77
330
6C
100
AcDbEntity
  8
LC-003-005-----0
 62
     7
370
    25
100
AcDbLine
 10
706.132174
 20
242.270126
 30
0.0
 11
707.632174
 21
243.770126
 31
0.0
  0
LINE
  5
78
330
6C
100
AcDbEntity
  8
LC-003-005-----0
 62
     7
370
    25
100
AcDbLine
 10
718.225021
 20
254.362973
 30
0.0
 11
719.725021
 21
255.862973
 31
0.0
  0
LINE
  5
79
330
6C
100
AcDbEntity
  8
LC-003-005-----0
 62
     7
370
    25
100
AcDbLine
 10
704.717961
 20
242.270126
 30
0.0
 11
706.217961
 21
243.770126
 31
0.0
  0
LINE
  5
7A
330
6C
100
AcDbEntity
  8
LC-003-005-----0
 62
     7
370
    25
100
AcDbLine
 10
718.225021
 20
255.777186
 30
0.0
 11
719.725021
 21
257.277186
 31
0.0
  0
LINE
  5
7B
330
6C
100
AcDbEntity
  8
LC-003-005-----0
 62
     7
370
    25
100
AcDbLine
 10
703.303747
 20
242.270126
 30
0.0
 11
704.803747
 21
243.770126
 31
0.0
  0
LINE
  5
7C
330
6C
100
AcDbEntity
  8
LC-003-005-----0
 62
     7
370
    25
100
AcDbLine
 10
718.225021
 20
257.1914
 30
0.0
 11
719.725021
 21
258.6914
 31
0.0
  0
LINE
  5
7D
330
6C
100
AcDbEntity
  8
LC-003-005-----0
 62
     7
370
    25
100
AcDbLine
 10
701.889534
 20
242.270126
 30
0.0
 11
703.389534
 21
243.770126
 31
0.0
  0
LINE
  5
7E
330
6C
100
AcDbEntity
  8
LC-003-005-----0
 62
     7
370
    25
100
AcDbLine
 10
718.225021
 20
258.605613
 30
0.0
 11
719.725021
 21
260.105613
 31
0.0
  0
LINE
  5
7F
330
6C
100
AcDbEntity
  8
LC-003-005-----0
 62
     7
370
    25
100
AcDbLine
 10
700.47532
 20
242.270126
 30
0.0
 11
701.97532
 21
243.770126
 31
0.0
  0
LINE
  5
80
330
6C
100
AcDbEntity
  8
LC-003-005-----0
 62
     7
370
    25
100
AcDbLine
 10
718.225021
 20
260.019827
 30
0.0
 11
719.725021
 21
261.519827
 31
0.0
  0
LINE
  5
81
330
6C
100
AcDbEntity
  8
LC-003-005-----0
 62
     7
370
    25
100
AcDbLine
 10
699.061107
 20
242.270126
 30
0.0
 11
700.561107
 21
243.770126
 31
0.0
  0
LINE
  5
82
330
6C
100
AcDbEntity
  8
LC-003-005-----0
 62
     7
370
    25
100
AcDbLine
 10
718.225021
 20
261.43404
 30
0.0
 11
719.725021
 21
262.93404
 31
0.0
  0
LINE
  5
83
330
6C
100
AcDbEntity
  8
LC-003-005-----0
 62
     7
370
    25
100
AcDbLine
 10
697.646893
 20
242.270126
 30
0.0
 11
699.146893
 21
243.770126
 31
0.0
  0
LINE
  5
84
330
6C
100
AcDbEntity
  8
LC-003-005-----0
 62
     7
370
    25
100
AcDbLine
 10
718.225021
 20
262.848254
 30
0.0
 11
719.725021
 21
264.348254
 31
0.0
  0
LINE
  5
85
330
6C
100
AcDbEntity
  8
LC-003-005-----0
 62
     7
370
    25
100
AcDbLine
 10
696.232679
 20
242.270126
 30
0.0
 11
697.732679
 21
243.770126
 31
0.0
  0
LINE
  5
86
330
6C
100
AcDbEntity
  8
LC-003-005-----0
 62
     7
370
    25
100
AcDbLine
 10
718.225021
 20
264.262468
 30
0.0
 11
719.725021
 21
265.762467
 31
0.0
  0
LINE
  5
87
330
6C
100
AcDbEntity
  8
LC-003-005-----0
 62
     7
370
    25
100
AcDbLine
 10
694.824411
 20
242.276071
 30
0.0
 11
696.318466
 21
243.770126
 31
0.0
  0
LINE
  5
88
330
6C
100
AcDbEntity
  8
LC-003-005-----0
 62
     7
370
    25
100
AcDbLine
 10
718.225021
 20
265.676681
 30
0.0
 11
719.725021
 21
267.176681
 31
0.0
  0
LINE
  5
89
330
6C
100
AcDbEntity
  8
LC-003-005-----0
 62
     7
370
    25
100
AcDbLine
 10
693.51322
 20
242.379093
 30
0.0
 11
694.908429
 21
243.774303
 31
0.0
  0
LINE
  5
8A
330
6C
100
AcDbEntity
  8
LC-003-005-----0
 62
     7
370
    25
100
AcDbLine
 10
718.225021
 20
267.090895
 30
0.0
 11
719.725021
 21
268.590895
 31
0.0
  0
LINE
  5
8B
330
6C
100
AcDbEntity
  8
LC-003-005-----0
 62
     7
370
    25
100
AcDbLine
 10
692.30878
 20
242.588868
 30
0.0
 11
693.600507
 21
243.880594
 31
0.0
  0
LINE
  5
8C
330
6C
100
AcDbEntity
  8
LC-003-005-----0
 62
     7
370
    25
100
AcDbLine
 10
718.225021
 20
268.505108
 30
0.0
 11
719.725021
 21
270.005108
 31
0.0
  0
LINE
  5
8D
330
6C
100
AcDbEntity
  8
LC-003-005-----0
 62
     7
370
    25
100
AcDbLine
 10
691.192241
 20
242.886542
 30
0.0
 11
692.410545
 21
244.104846
 31
0.0
  0
LINE
  5
8E
330
6C
100
AcDbEntity
  8
LC-003-005-----0
 62
     7
370
    25
100
AcDbLine
 10
718.225021
 20
269.919322
 30
0.0
 11
719.725021
 21
271.419322
 31
0.0
  0
LINE
  5
8F
330
6C
100
AcDbEntity
  8
LC-003-005-----0
 62
     7
370
    25
100
AcDbLine
 10
690.151314
 20
243.259828
 30
0.0
 11
691.316108
 21
244.424623
 31
0.0
  0
LINE
  5
90
330
6C
100
AcDbEntity
  8
LC-003-005-----0
 62
     7
370
    25
100
AcDbLine
 10
718.225021
 20
271.333535
 30
0.0
 11
719.725021
 21
272.833535
 31
0.0
  0
LINE
  5
91
330
6C
100
AcDbEntity
  8
LC-003-005-----0
 62
     7
370
    25
100
AcDbLine
 10
689.177635
 20
243.700363
 30
0.0
 11
690.303192
 21
244.82592
 31
0.0
  0
LINE
  5
92
330
6C
100
AcDbEntity
  8
LC-003-005-----0
 62
     7
370
    25
100
AcDbLine
 10
718.225021
 20
272.747749
 30
0.0
 11
719.725021
 21
274.247749
 31
0.0
  0
LINE
  5
93
330
6C
100
AcDbEntity
  8
LC-003-005-----0
 62
     7
370
    25
100
AcDbLine
 10
688.265397
 20
244.202338
 30
0.0
 11
689.362632
 21
245.299574
 31
0.0
  0
LINE
  5
94
330
6C
100
AcDbEntity
  8
LC-003-005-----0
 62
     7
370
    25
100
AcDbLine
 10
718.225021
 20
274.161962
 30
0.0
 11
719.725021
 21
275.661962
 31
0.0
  0
LINE
  5
95
330
6C
100
AcDbEntity
  8
LC-003-005-----0
 62
     7
370
    25
100
AcDbLine
 10
687.410582
 20
244.761737
 30
0.0
 11
688.488347
 21
245.839502
 31
0.0
  0
LINE
  5
96
330
6C
100
AcDbEntity
  8
LC-003-005-----0
 62
     7
370
    25
100
AcDbLine
 10
718.225021
 20
275.576176
 30
0.0
 11
719.725021
 21
277.076176
 31
0.0
  0
LINE
  5
97
330
6C
100
AcDbEntity
  8
LC-003-005-----0
 62
     7
370
    25
100
AcDbLine
 10
686.610512
 20
245.375881
 30
0.0
 11
687.676396
 21
246.441764
 31
0.0
  0
LINE
  5
98
330
6C
100
AcDbEntity
  8
LC-003-005-----0
 62
     7
370
    25
100
AcDbLine
 10
718.225021
 20
276.990389
 30
0.0
 11
719.725021
 21
278.490389
 31
0.0
  0
LINE
  5
99
330
6C
100
AcDbEntity
  8
LC-003-005-----0
 62
     7
370
    25
100
AcDbLine
 10
685.863588
 20
246.04317
 30
0.0
 11
686.924467
 21
247.104049
 31
0.0
  0
LINE
  5
9A
330
6C
100
AcDbEntity
  8
LC-003-005-----0
 62
     7
370
    25
100
AcDbLine
 10
718.225021
 20
278.404603
 30
0.0
 11
719.725021
 21
279.904603
 31
0.0
  0
LINE
  5
9B
330
6C
100
AcDbEntity
  8
LC-003-005-----0
 62
     7
370
    25
100
AcDbLine
 10
685.169143
 20
246.762939
 30
0.0
 11
686.231608
 21
247.825403
 31
0.0
  0
LINE
  5
9C
330
6C
100
AcDbEntity
  8
LC-003-005-----0
 62
     7
370
    25
100
AcDbLine
 10
718.225021
 20
279.818816
 30
0.0
 11
719.725021
 21
281.318816
 31
0.0
  0
LINE
  5
9D
330
6C
100
AcDbEntity
  8
LC-003-005-----0
 62
     7
370
    25
100
AcDbLine
 10
684.527388
 20
247.535397
 30
0.0
 11
685.598119
 21
248.606128
 31
0.0
  0
LINE
  5
9E
330
6C
100
AcDbEntity
  8
LC-003-005-----0
 62
     7
370
    25
100
AcDbLine
 10
718.225021
 20
281.23303
 30
0.0
 11
719.725021
 21
282.73303
 31
0.0
  0
LINE
  5
9F
330
6C
100
AcDbEntity
  8
LC-003-005-----0
 62
     7
370
    25
100
AcDbLine
 10
683.939428
 20
248.361651
 30
0.0
 11
685.025588
 21
249.447811
 31
0.0
  0
LINE
  5
A0
330
6C
100
AcDbEntity
  8
LC-003-005-----0
 62
     7
370
    25
100
AcDbLine
 10
718.225021
 20
282.647243
 30
0.0
 11
719.725021
 21
284.147243
 31
0.0
  0
LINE
  5
A1
330
6C
100
AcDbEntity
  8
LC-003-005-----0
 62
     7
370
    25
100
AcDbLine
 10
683.392352
 20
249.228788
 30
0.0
 11
684.456019
 21
250.292456
 31
0.0
  0
LINE
  5
A2
330
6C
100
AcDbEntity
  8
LC-003-005-----0
 62
     7
370
    25
100
AcDbLine
 10
718.225021
 20
284.061457
 30
0.0
 11
719.725021
 21
285.561457
 31
0.0
  0
LINE
  5
A3
330
6C
100
AcDbEntity
  8
LC-003-005-----0
 62
     7
370
    25
100
AcDbLine
 10
682.509021
 20
249.759671
 30
0.0
 11
683.666918
 21
250.917568
 31
0.0
  0
LINE
  5
A4
330
6C
100
AcDbEntity
  8
LC-003-005-----0
 62
     7
370
    25
100
AcDbLine
 10
674.81861
 20
243.483473
 30
0.0
 11
682.598588
 21
251.263452
 31
0.0
  0
LINE
  5
A5
330
6C
100
AcDbEntity
  8
LC-003-005-----0
 62
     7
370
    25
100
AcDbLine
 10
672.626627
 20
242.705704
 30
0.0
 11
675.404375
 21
245.483452
 31
0.0
  0
LINE
  5
A6
330
6C
100
AcDbEntity
  8
LC-003-005-----0
 62
     7
370
    25
100
AcDbLine
 10
679.5117
 20
249.590777
 30
0.0
 11
680.898525
 21
250.977602
 31
0.0
  0
LINE
  5
A7
330
6C
100
AcDbEntity
  8
LC-003-005-----0
 62
     7
370
    25
100
AcDbLine
 10
670.878473
 20
242.371763
 30
0.0
 11
672.83165
 21
244.32494
 31
0.0
  0
LINE
  5
A8
330
6C
100
AcDbEntity
  8
LC-003-005-----0
 62
     7
370
    25
100
AcDbLine
 10
669.36333
 20
242.270834
 30
0.0
 11
670.993675
 21
243.90118
 31
0.0
  0
LINE
  5
A9
330
6C
100
AcDbEntity
  8
LC-003-005-----0
 62
     7
370
    25
100
AcDbLine
 10
667.948408
 20
242.270126
 30
0.0
 11
669.450527
 21
243.772245
 31
0.0
  0
LINE
  5
AA
330
6C
100
AcDbEntity
  8
LC-003-005-----0
 62
     7
370
    25
100
AcDbLine
 10
721.948408
 20
296.270126
 30
0.0
 11
722.225005
 21
296.546723
 31
0.0
  0
LINE
  5
AB
330
6C
100
AcDbEntity
  8
LC-003-005-----0
 62
     7
370
    25
100
AcDbLine
 10
666.534195
 20
242.270126
 30
0.0
 11
668.034195
 21
243.770126
 31
0.0
  0
LINE
  5
AC
330
6C
100
AcDbEntity
  8
LC-003-005-----0
 62
     7
370
    25
100
AcDbLine
 10
720.534195
 20
296.270126
 30
0.0
 11
721.534195
 21
297.270126
 31
0.0
  0
LINE
  5
AD
330
6C
100
AcDbEntity
  8
LC-003-005-----0
 62
     7
370
    25
100
AcDbLine
 10
665.119981
 20
242.270126
 30
0.0
 11
666.619981
 21
243.770126
 31
0.0
  0
LINE
  5
AE
330
6C
100
AcDbEntity
  8
LC-003-005-----0
 62
     7
370
    25
100
AcDbLine
 10
719.72501
 20
296.875155
 30
0.0
 11
720.119981
 21
297.270126
 31
0.0
  0
LINE
  5
AF
330
6C
100
AcDbEntity
  8
LC-003-005-----0
 62
     7
370
    25
100
AcDbLine
 10
663.705768
 20
242.270126
 30
0.0
 11
665.205768
 21
243.770126
 31
0.0
  0
LINE
  5
B0
330
6C
100
AcDbEntity
  8
LC-003-005-----0
 62
     7
370
    25
100
AcDbLine
 10
662.291554
 20
242.270126
 30
0.0
 11
663.791554
 21
243.770126
 31
0.0
  0
LINE
  5
B1
330
6C
100
AcDbEntity
  8
LC-003-005-----0
 62
     7
370
    25
100
AcDbLine
 10
660.87734
 20
242.270126
 30
0.0
 11
662.37734
 21
243.770126
 31
0.0
  0
LINE
  5
B2
330
6C
100
AcDbEntity
  8
LC-003-005-----0
 62
     7
370
    25
100
AcDbLine
 10
659.463127
 20
242.270126
 30
0.0
 11
660.963127
 21
243.770126
 31
0.0
  0
LINE
  5
B3
330
6C
100
AcDbEntity
  8
LC-003-005-----0
 62
     7
370
    25
100
AcDbLine
 10
658.048913
 20
242.270126
 30
0.0
 11
659.548913
 21
243.770126
 31
0.0
  0
LINE
  5
B4
330
6C
100
AcDbEntity
  8
LC-003-005-----0
 62
     7
370
    25
100
AcDbLine
 10
656.6347
 20
242.270126
 30
0.0
 11
658.1347
 21
243.770126
 31
0.0
  0
LINE
  5
B5
330
6C
100
AcDbEntity
  8
LC-003-005-----0
 62
     7
370
    25
100
AcDbLine
 10
655.220486
 20
242.270126
 30
0.0
 11
656.720486
 21
243.770126
 31
0.0
  0
LINE
  5
B6
330
6C
100
AcDbEntity
  8
LC-003-005-----0
 62
     7
370
    25
100
AcDbLine
 10
653.845064
 20
242.308917
 30
0.0
 11
655.306273
 21
243.770126
 31
0.0
  0
LINE
  5
B7
330
6C
100
AcDbEntity
  8
LC-003-005-----0
 62
     7
370
    25
100
AcDbLine
 10
652.616812
 20
242.494879
 30
0.0
 11
653.929379
 21
243.807446
 31
0.0
  0
LINE
  5
B8
330
6C
100
AcDbEntity
  8
LC-003-005-----0
 62
     7
370
    25
100
AcDbLine
 10
651.509072
 20
242.801353
 30
0.0
 11
652.718155
 21
244.010435
 31
0.0
  0
LINE
  5
B9
330
6C
100
AcDbEntity
  8
LC-003-005-----0
 62
     7
370
    25
100
AcDbLine
 10
650.500009
 20
243.206503
 30
0.0
 11
651.64233
 21
244.348824
 31
0.0
  0
LINE
  5
BA
330
6C
100
AcDbEntity
  8
LC-003-005-----0
 62
     7
370
    25
100
AcDbLine
 10
649.57658
 20
243.697288
 30
0.0
 11
650.675851
 21
244.796558
 31
0.0
  0
LINE
  5
BB
330
6C
100
AcDbEntity
  8
LC-003-005-----0
 62
     7
370
    25
100
AcDbLine
 10
648.730842
 20
244.265763
 30
0.0
 11
649.80434
 21
245.339261
 31
0.0
  0
LINE
  5
BC
330
6C
100
AcDbEntity
  8
LC-003-005-----0
 62
     7
370
    25
100
AcDbLine
 10
647.95822
 20
244.907355
 30
0.0
 11
649.01999
 21
245.969125
 31
0.0
  0
LINE
  5
BD
330
6C
100
AcDbEntity
  8
LC-003-005-----0
 62
     7
370
    25
100
AcDbLine
 10
647.256677
 20
245.620025
 30
0.0
 11
648.319432
 21
246.682781
 31
0.0
  0
LINE
  5
BE
330
6C
100
AcDbEntity
  8
LC-003-005-----0
 62
     7
370
    25
100
AcDbLine
 10
646.626384
 20
246.403946
 30
0.0
 11
647.702945
 21
247.480507
 31
0.0
  0
LINE
  5
BF
330
6C
100
AcDbEntity
  8
LC-003-005-----0
 62
     7
370
    25
100
AcDbLine
 10
646.069743
 20
247.261518
 30
0.0
 11
647.174518
 21
248.366294
 31
0.0
  0
LINE
  5
C0
330
6C
100
AcDbEntity
  8
LC-003-005-----0
 62
     7
370
    25
100
AcDbLine
 10
645.591787
 20
248.197776
 30
0.0
 11
646.742803
 21
249.348792
 31
0.0
  0
LINE
  5
C1
330
6C
100
AcDbEntity
  8
LC-003-005-----0
 62
     7
370
    25
100
AcDbLine
 10
645.201116
 20
249.221318
 30
0.0
 11
646.423553
 21
250.443756
 31
0.0
  0
LINE
  5
C2
330
6C
100
AcDbEntity
  8
LC-003-005-----0
 62
     7
370
    25
100
AcDbLine
 10
644.911832
 20
250.346248
 30
0.0
 11
646.245535
 21
251.679951
 31
0.0
  0
LINE
  5
C3
330
6C
100
AcDbEntity
  8
LC-003-005-----0
 62
     7
370
    25
100
AcDbLine
 10
644.747744
 20
251.596374
 30
0.0
 11
646.225021
 21
253.073651
 31
0.0
  0
LINE
  5
C4
330
6C
100
AcDbEntity
  8
LC-003-005-----0
 62
     7
370
    25
100
AcDbLine
 10
644.725021
 20
252.987864
 30
0.0
 11
646.225021
 21
254.487864
 31
0.0
  0
LINE
  5
C5
330
6C
100
AcDbEntity
  8
LC-003-005-----0
 62
     7
370
    25
100
AcDbLine
 10
644.725021
 20
254.402078
 30
0.0
 11
646.225021
 21
255.902078
 31
0.0
  0
LINE
  5
C6
330
6C
100
AcDbEntity
  8
LC-003-005-----0
 62
     7
370
    25
100
AcDbLine
 10
644.725021
 20
255.816292
 30
0.0
 11
646.225021
 21
257.316292
 31
0.0
  0
LINE
  5
C7
330
6C
100
AcDbEntity
  8
LC-003-005-----0
 62
     7
370
    25
100
AcDbLine
 10
644.725021
 20
257.230505
 30
0.0
 11
646.225021
 21
258.730505
 31
0.0
  0
LINE
  5
C8
330
6C
100
AcDbEntity
  8
LC-003-005-----0
 62
     7
370
    25
100
AcDbLine
 10
644.725021
 20
258.644719
 30
0.0
 11
646.225021
 21
260.144719
 31
0.0
  0
LINE
  5
C9
330
6C
100
AcDbEntity
  8
LC-003-005-----0
 62
     7
370
    25
100
AcDbLine
 10
644.725021
 20
260.058932
 30
0.0
 11
646.225021
 21
261.558932
 31
0.0
  0
LINE
  5
CA
330
6C
100
AcDbEntity
  8
LC-003-005-----0
 62
     7
370
    25
100
AcDbLine
 10
644.725021
 20
261.473146
 30
0.0
 11
646.225021
 21
262.973146
 31
0.0
  0
LINE
  5
CB
330
6C
100
AcDbEntity
  8
LC-003-005-----0
 62
     7
370
    25
100
AcDbLine
 10
644.725021
 20
262.887359
 30
0.0
 11
646.225021
 21
264.387359
 31
0.0
  0
LINE
  5
CC
330
6C
100
AcDbEntity
  8
LC-003-005-----0
 62
     7
370
    25
100
AcDbLine
 10
644.725021
 20
264.301573
 30
0.0
 11
646.225021
 21
265.801573
 31
0.0
  0
LINE
  5
CD
330
6C
100
AcDbEntity
  8
LC-003-005-----0
 62
     7
370
    25
100
AcDbLine
 10
644.725021
 20
265.715786
 30
0.0
 11
646.225021
 21
267.215786
 31
0.0
  0
LINE
  5
CE
330
6C
100
AcDbEntity
  8
LC-003-005-----0
 62
     7
370
    25
100
AcDbLine
 10
644.725021
 20
267.13
 30
0.0
 11
646.225021
 21
268.63
 31
0.0
  0
LINE
  5
CF
330
6C
100
AcDbEntity
  8
LC-003-005-----0
 62
     7
370
    25
100
AcDbLine
 10
644.725021
 20
268.544213
 30
0.0
 11
646.225021
 21
270.044213
 31
0.0
  0
LINE
  5
D0
330
6C
100
AcDbEntity
  8
LC-003-005-----0
 62
     7
370
    25
100
AcDbLine
 10
644.725021
 20
269.958427
 30
0.0
 11
646.225021
 21
271.458427
 31
0.0
  0
LINE
  5
D1
330
6C
100
AcDbEntity
  8
LC-003-005-----0
 62
     7
370
    25
100
AcDbLine
 10
644.725021
 20
271.37264
 30
0.0
 11
646.225021
 21
272.87264
 31
0.0
  0
LINE
  5
D2
330
6C
100
AcDbEntity
  8
LC-003-005-----0
 62
     7
370
    25
100
AcDbLine
 10
644.725021
 20
272.786854
 30
0.0
 11
646.225021
 21
274.286854
 31
0.0
  0
LINE
  5
D3
330
6C
100
AcDbEntity
  8
LC-003-005-----0
 62
     7
370
    25
100
AcDbLine
 10
644.725021
 20
274.201068
 30
0.0
 11
646.225021
 21
275.701067
 31
0.0
  0
LINE
  5
D4
330
6C
100
AcDbEntity
  8
LC-003-005-----0
 62
     7
370
    25
100
AcDbLine
 10
644.725021
 20
275.615281
 30
0.0
 11
646.225021
 21
277.115281
 31
0.0
  0
LINE
  5
D5
330
6C
100
AcDbEntity
  8
LC-003-005-----0
 62
     7
370
    25
100
AcDbLine
 10
644.725021
 20
277.029495
 30
0.0
 11
646.225021
 21
278.529495
 31
0.0
  0
LINE
  5
D6
330
6C
100
AcDbEntity
  8
LC-003-005-----0
 62
     7
370
    25
100
AcDbLine
 10
644.725021
 20
278.443708
 30
0.0
 11
646.225021
 21
279.943708
 31
0.0
  0
LINE
  5
D7
330
6C
100
AcDbEntity
  8
LC-003-005-----0
 62
     7
370
    25
100
AcDbLine
 10
644.725021
 20
279.857922
 30
0.0
 11
646.225021
 21
281.357922
 31
0.0
  0
LINE
  5
D8
330
6C
100
AcDbEntity
  8
LC-003-005-----0
 62
     7
370
    25
100
AcDbLine
 10
644.725021
 20
281.272135
 30
0.0
 11
646.225021
 21
282.772135
 31
0.0
  0
LINE
  5
D9
330
6C
100
AcDbEntity
  8
LC-003-005-----0
 62
     7
370
    25
100
AcDbLine
 10
644.725021
 20
282.686349
 30
0.0
 11
646.225021
 21
284.186349
 31
0.0
  0
LINE
  5
DA
330
6C
100
AcDbEntity
  8
LC-003-005-----0
 62
     7
370
    25
100
AcDbLine
 10
644.725021
 20
284.100562
 30
0.0
 11
645.559803
 21
284.935344
 31
0.0
  0
LINE
  5
DB
330
6C
100
AcDbEntity
  8
LC-003-005-----0
 62
     7
370
    25
100
AcDbLine
 10
644.725021
 20
285.514776
 30
0.0
 11
644.852696
 21
285.642451
 31
0.0
  0
LINE
  5
DC
330
6C
100
AcDbEntity
  8
LC-003-005-----0
 62
     7
370
    25
100
AcDbLine
 10
644.166662
 20
296.270126
 30
0.0
 11
644.725021
 21
296.828485
 31
0.0
  0
LINE
  5
DD
330
6C
100
AcDbEntity
  8
LC-003-005-----0
 62
     7
370
    25
100
AcDbLine
 10
642.752449
 20
296.270126
 30
0.0
 11
643.752449
 21
297.270126
 31
0.0
  0
LINE
  5
DE
330
6C
100
AcDbEntity
  8
LC-003-005-----0
 62
     7
370
    25
100
AcDbLine
 10
642.225026
 20
297.156917
 30
0.0
 11
642.338235
 21
297.270126
 31
0.0
  0
ENDBLK
  5
6E
330
6C
100
AcDbEntity
  8
0
100
AcDbBlockEnd
  0
BLOCK
  5
12C
330
12B
100
AcDbEntity
  8
0
100
AcDbBlockBegin
  2
*X44
 70
     1
 71
     0
 10
0.0
 20
0.0
 30
0.0
  3
*X44
  1

  4
*X4
  0
LINE
  5
12E
330
12B
100
AcDbEntity
  8
LC-003-005-----0
 62
     7
370
    25
100
AcDbLine
 10
722.636316
 20
301.254303
 30
0.0
 11
721.251267
 21
302.639352
 31
0.0
  0
LINE
  5
12F
330
12B
100
AcDbEntity
  8
LC-003-005-----0
 62
     7
370
    25
100
AcDbLine
 10
720.051001
 20
301.011191
 30
0.0
 11
719.134837
 21
301.927355
 31
0.0
  0
LINE
  5
130
330
12B
100
AcDbEntity
  8
LC-003-005-----0
 62
     7
370
    25
100
AcDbLine
 10
722.225021
 20
296.008744
 30
0.0
 11
721.963638
 21
296.270126
 31
0.0
  0
LINE
  5
131
330
12B
100
AcDbEntity
  8
LC-003-005-----0
 62
     7
370
    25
100
AcDbLine
 10
719.725021
 20
298.508744
 30
0.0
 11
717.471259
 21
300.762506
 31
0.0
  0
LINE
  5
132
330
12B
100
AcDbEntity
  8
LC-003-005-----0
 62
     7
370
    25
100
AcDbLine
 10
720.135211
 20
295.270126
 30
0.0
 11
717.725021
 21
297.680317
 31
0.0
  0
LINE
  5
133
330
12B
100
AcDbEntity
  8
LC-003-005-----0
 62
     7
370
    25
100
AcDbLine
 10
716.884704
 20
298.520634
 30
0.0
 11
715.807682
 21
299.597656
 31
0.0
  0
LINE
  5
134
330
12B
100
AcDbEntity
  8
LC-003-005-----0
 62
     7
370
    25
100
AcDbLine
 10
715.221127
 20
297.355784
 30
0.0
 11
714.144104
 21
298.432807
 31
0.0
  0
LINE
  5
135
330
12B
100
AcDbEntity
  8
LC-003-005-----0
 62
     7
370
    25
100
AcDbLine
 10
713.557549
 20
296.190934
 30
0.0
 11
712.480527
 21
297.267957
 31
0.0
  0
LINE
  5
136
330
12B
100
AcDbEntity
  8
LC-003-005-----0
 62
     7
370
    25
100
AcDbLine
 10
711.893972
 20
295.026085
 30
0.0
 11
710.816949
 21
296.103107
 31
0.0
  0
LINE
  5
137
330
12B
100
AcDbEntity
  8
LC-003-005-----0
 62
     7
370
    25
100
AcDbLine
 10
710.230394
 20
293.861235
 30
0.0
 11
709.153371
 21
294.938258
 31
0.0
  0
LINE
  5
138
330
12B
100
AcDbEntity
  8
LC-003-005-----0
 62
     7
370
    25
100
AcDbLine
 10
708.566816
 20
292.696386
 30
0.0
 11
707.489794
 21
293.773408
 31
0.0
  0
LINE
  5
139
330
12B
100
AcDbEntity
  8
LC-003-005-----0
 62
     7
370
    25
100
AcDbLine
 10
706.921407
 20
291.513368
 30
0.0
 11
705.926544
 21
292.508231
 31
0.0
  0
LINE
  5
13A
330
12B
100
AcDbEntity
  8
LC-003-005-----0
 62
     7
370
    25
100
AcDbLine
 10
705.502651
 20
290.103697
 30
0.0
 11
704.599855
 21
291.006493
 31
0.0
  0
LINE
  5
13B
330
12B
100
AcDbEntity
  8
LC-003-005-----0
 62
     7
370
    25
100
AcDbLine
 10
704.373862
 20
288.404058
 30
0.0
 11
703.518434
 21
289.259487
 31
0.0
  0
LINE
  5
13C
330
12B
100
AcDbEntity
  8
LC-003-005-----0
 62
     7
370
    25
100
AcDbLine
 10
703.575367
 20
286.374126
 30
0.0
 11
702.715067
 21
287.234427
 31
0.0
  0
LINE
  5
13D
330
12B
100
AcDbEntity
  8
LC-003-005-----0
 62
     7
370
    25
100
AcDbLine
 10
703.226066
 20
283.895
 30
0.0
 11
702.267857
 21
284.85321
 31
0.0
  0
LINE
  5
13E
330
12B
100
AcDbEntity
  8
LC-003-005-----0
 62
     7
370
    25
100
AcDbLine
 10
703.22502
 20
281.067619
 30
0.0
 11
702.22502
 21
282.067619
 31
0.0
  0
LINE
  5
13F
330
12B
100
AcDbEntity
  8
LC-003-005-----0
 62
     7
370
    25
100
AcDbLine
 10
703.22502
 20
278.239192
 30
0.0
 11
702.22502
 21
279.239192
 31
0.0
  0
LINE
  5
140
330
12B
100
AcDbEntity
  8
LC-003-005-----0
 62
     7
370
    25
100
AcDbLine
 10
703.22502
 20
275.410765
 30
0.0
 11
702.22502
 21
276.410765
 31
0.0
  0
LINE
  5
141
330
12B
100
AcDbEntity
  8
LC-003-005-----0
 62
     7
370
    25
100
AcDbLine
 10
703.22502
 20
272.582338
 30
0.0
 11
702.22502
 21
273.582338
 31
0.0
  0
LINE
  5
142
330
12B
100
AcDbEntity
  8
LC-003-005-----0
 62
     7
370
    25
100
AcDbLine
 10
703.22502
 20
269.753911
 30
0.0
 11
702.22502
 21
270.753911
 31
0.0
  0
LINE
  5
143
330
12B
100
AcDbEntity
  8
LC-003-005-----0
 62
     7
370
    25
100
AcDbLine
 10
703.22502
 20
266.925483
 30
0.0
 11
702.22502
 21
267.925483
 31
0.0
  0
LINE
  5
144
330
12B
100
AcDbEntity
  8
LC-003-005-----0
 62
     7
370
    25
100
AcDbLine
 10
703.22502
 20
264.097056
 30
0.0
 11
702.22502
 21
265.097056
 31
0.0
  0
LINE
  5
145
330
12B
100
AcDbEntity
  8
LC-003-005-----0
 62
     7
370
    25
100
AcDbLine
 10
703.22502
 20
261.268629
 30
0.0
 11
702.22502
 21
262.268629
 31
0.0
  0
LINE
  5
146
330
12B
100
AcDbEntity
  8
LC-003-005-----0
 62
     7
370
    25
100
AcDbLine
 10
703.225021
 20
258.440202
 30
0.0
 11
702.225021
 21
259.440202
 31
0.0
  0
LINE
  5
147
330
12B
100
AcDbEntity
  8
LC-003-005-----0
 62
     7
370
    25
100
AcDbLine
 10
703.225021
 20
255.611775
 30
0.0
 11
702.225021
 21
256.611775
 31
0.0
  0
LINE
  5
148
330
12B
100
AcDbEntity
  8
LC-003-005-----0
 62
     7
370
    25
100
AcDbLine
 10
660.753327
 20
289.598187
 30
0.0
 11
655.685559
 21
294.665955
 31
0.0
  0
LINE
  5
149
330
12B
100
AcDbEntity
  8
LC-003-005-----0
 62
     7
370
    25
100
AcDbLine
 10
662.123229
 20
285.399857
 30
0.0
 11
660.760581
 21
286.762506
 31
0.0
  0
LINE
  5
14A
330
12B
100
AcDbEntity
  8
LC-003-005-----0
 62
     7
370
    25
100
AcDbLine
 10
652.359041
 20
295.164046
 30
0.0
 11
646.250942
 21
301.272145
 31
0.0
  0
LINE
  5
14B
330
12B
100
AcDbEntity
  8
LC-003-005-----0
 62
     7
370
    25
100
AcDbLine
 10
662.22502
 20
282.469639
 30
0.0
 11
661.22502
 21
283.469639
 31
0.0
  0
LINE
  5
14C
330
12B
100
AcDbEntity
  8
LC-003-005-----0
 62
     7
370
    25
100
AcDbLine
 10
646.72502
 20
297.96964
 30
0.0
 11
644.72502
 21
299.96964
 31
0.0
  0
LINE
  5
14D
330
12B
100
AcDbEntity
  8
LC-003-005-----0
 62
     7
370
    25
100
AcDbLine
 10
643.624367
 20
301.070293
 30
0.0
 11
641.943628
 21
302.751032
 31
0.0
  0
LINE
  5
14E
330
12B
100
AcDbEntity
  8
LC-003-005-----0
 62
     7
370
    25
100
AcDbLine
 10
662.22502
 20
279.641212
 30
0.0
 11
661.22502
 21
280.641212
 31
0.0
  0
LINE
  5
14F
330
12B
100
AcDbEntity
  8
LC-003-005-----0
 62
     7
370
    25
100
AcDbLine
 10
646.073307
 20
295.792926
 30
0.0
 11
644.72502
 21
297.141212
 31
0.0
  0
LINE
  5
150
330
12B
100
AcDbEntity
  8
LC-003-005-----0
 62
     7
370
    25
100
AcDbLine
 10
662.22502
 20
276.812785
 30
0.0
 11
661.22502
 21
277.812785
 31
0.0
  0
LINE
  5
151
330
12B
100
AcDbEntity
  8
LC-003-005-----0
 62
     7
370
    25
100
AcDbLine
 10
643.767679
 20
295.270126
 30
0.0
 11
642.767679
 21
296.270126
 31
0.0
  0
LINE
  5
152
330
12B
100
AcDbEntity
  8
LC-003-005-----0
 62
     7
370
    25
100
AcDbLine
 10
662.22502
 20
273.984358
 30
0.0
 11
661.22502
 21
274.984358
 31
0.0
  0
LINE
  5
153
330
12B
100
AcDbEntity
  8
LC-003-005-----0
 62
     7
370
    25
100
AcDbLine
 10
662.225021
 20
271.155931
 30
0.0
 11
661.225021
 21
272.155931
 31
0.0
  0
LINE
  5
154
330
12B
100
AcDbEntity
  8
LC-003-005-----0
 62
     7
370
    25
100
AcDbLine
 10
662.225021
 20
268.327504
 30
0.0
 11
661.225021
 21
269.327504
 31
0.0
  0
LINE
  5
155
330
12B
100
AcDbEntity
  8
LC-003-005-----0
 62
     7
370
    25
100
AcDbLine
 10
662.225021
 20
265.499076
 30
0.0
 11
661.225021
 21
266.499076
 31
0.0
  0
LINE
  5
156
330
12B
100
AcDbEntity
  8
LC-003-005-----0
 62
     7
370
    25
100
AcDbLine
 10
662.225021
 20
262.670649
 30
0.0
 11
661.225021
 21
263.670649
 31
0.0
  0
LINE
  5
157
330
12B
100
AcDbEntity
  8
LC-003-005-----0
 62
     7
370
    25
100
AcDbLine
 10
662.225021
 20
259.842222
 30
0.0
 11
661.225021
 21
260.842222
 31
0.0
  0
LINE
  5
158
330
12B
100
AcDbEntity
  8
LC-003-005-----0
 62
     7
370
    25
100
AcDbLine
 10
662.225021
 20
257.013795
 30
0.0
 11
661.225021
 21
258.013795
 31
0.0
  0
LINE
  5
159
330
12B
100
AcDbEntity
  8
LC-003-005-----0
 62
     7
370
    25
100
AcDbLine
 10
662.141472
 20
254.268916
 30
0.0
 11
661.225021
 21
255.185368
 31
0.0
  0
ENDBLK
  5
12D
330
12B
100
AcDbEntity
  8
0
100
AcDbBlockEnd
  0
BLOCK
  5
182
330
181
100
AcDbEntity
  8
0
100
AcDbBlockBegin
  2
*X55
 70
     1
 71
     0
 10
0.0
 20
0.0
 30
0.0
  3
*X55
  1

  4
*X5
  0
LINE
  5
184
330
181
100
AcDbEntity
  8
LC-003-005-----0
 62
     7
370
    25
100
AcDbLine
 10
775.477701
 20
293.513719
 30
0.0
 11
776.777205
 21
294.813223
 31
0.0
  0
LINE
  5
185
330
181
100
AcDbEntity
  8
LC-003-005-----0
 62
     7
370
    25
100
AcDbLine
 10
774.87615
 20
293.477853
 30
0.0
 11
776.813071
 21
295.414774
 31
0.0
  0
LINE
  5
186
330
181
100
AcDbEntity
  8
LC-003-005-----0
 62
     7
370
    25
100
AcDbLine
 10
774.424379
 20
293.591768
 30
0.0
 11
776.699156
 21
295.866545
 31
0.0
  0
LINE
  5
187
330
181
100
AcDbEntity
  8
LC-003-005-----0
 62
     7
370
    25
100
AcDbLine
 10
774.058519
 20
293.791593
 30
0.0
 11
776.499331
 21
296.232405
 31
0.0
  0
LINE
  5
188
330
181
100
AcDbEntity
  8
LC-003-005-----0
 62
     7
370
    25
100
AcDbLine
 10
773.761122
 20
294.059881
 30
0.0
 11
776.231043
 21
296.529802
 31
0.0
  0
LINE
  5
189
330
181
100
AcDbEntity
  8
LC-003-005-----0
 62
     7
370
    25
100
AcDbLine
 10
773.529658
 20
294.394103
 30
0.0
 11
775.896821
 21
296.761266
 31
0.0
  0
LINE
  5
18A
330
181
100
AcDbEntity
  8
LC-003-005-----0
 62
     7
370
    25
100
AcDbLine
 10
773.373703
 20
294.803833
 30
0.0
 11
775.487091
 21
296.917221
 31
0.0
  0
LINE
  5
18B
330
181
100
AcDbEntity
  8
LC-003-005-----0
 62
     7
370
    25
100
AcDbLine
 10
773.327591
 20
295.323407
 30
0.0
 11
774.967517
 21
296.963333
 31
0.0
  0
LINE
  5
18C
330
181
100
AcDbEntity
  8
LC-003-005-----0
 62
     7
370
    25
100
AcDbLine
 10
773.603796
 20
296.165297
 30
0.0
 11
774.125627
 21
296.687128
 31
0.0
  0
ENDBLK
  5
183
330
181
100
AcDbEntity
  8
0
100
AcDbBlockEnd
  0
BLOCK
  5
1A1
330
1A0
100
AcDbEntity
  8
0
100
AcDbBlockBegin
  2
*X66
 70
     1
 71
     0
 10
0.0
 20
0.0
 30
0.0
  3
*X66
  1

  4
*X6
  0
LINE
  5
1A3
330
1A0
100
AcDbEntity
  8
LC-003-005-----0
 62
     7
370
    25
100
AcDbLine
 10
872.908979
 20
244.319735
 30
0.0
 11
871.512119
 21
245.716596
 31
0.0
  0
LINE
  5
1A4
330
1A0
100
AcDbEntity
  8
LC-003-005-----0
 62
     7
370
    25
100
AcDbLine
 10
870.678269
 20
243.722018
 30
0.0
 11
868.683691
 21
245.716596
 31
0.0
  0
LINE
  5
1A5
330
1A0
100
AcDbEntity
  8
LC-003-005-----0
 62
     7
370
    25
100
AcDbLine
 10
868.105264
 20
243.466596
 30
0.0
 11
865.855264
 21
245.716596
 31
0.0
  0
LINE
  5
1A6
330
1A0
100
AcDbEntity
  8
LC-003-005-----0
 62
     7
370
    25
100
AcDbLine
 10
865.276837
 20
243.466596
 30
0.0
 11
863.026837
 21
245.716596
 31
0.0
  0
LINE
  5
1A7
330
1A0
100
AcDbEntity
  8
LC-003-005-----0
 62
     7
370
    25
100
AcDbLine
 10
862.44841
 20
243.466596
 30
0.0
 11
860.19841
 21
245.716596
 31
0.0
  0
LINE
  5
1A8
330
1A0
100
AcDbEntity
  8
LC-003-005-----0
 62
     7
370
    25
100
AcDbLine
 10
859.619983
 20
243.466596
 30
0.0
 11
857.369983
 21
245.716596
 31
0.0
  0
LINE
  5
1A9
330
1A0
100
AcDbEntity
  8
LC-003-005-----0
 62
     7
370
    25
100
AcDbLine
 10
856.791556
 20
243.466596
 30
0.0
 11
854.541556
 21
245.716596
 31
0.0
  0
LINE
  5
1AA
330
1A0
100
AcDbEntity
  8
LC-003-005-----0
 62
     7
370
    25
100
AcDbLine
 10
853.963129
 20
243.466596
 30
0.0
 11
851.713129
 21
245.716596
 31
0.0
  0
LINE
  5
1AB
330
1A0
100
AcDbEntity
  8
LC-003-005-----0
 62
     7
370
    25
100
AcDbLine
 10
851.134702
 20
243.466596
 30
0.0
 11
848.884702
 21
245.716596
 31
0.0
  0
LINE
  5
1AC
330
1A0
100
AcDbEntity
  8
LC-003-005-----0
 62
     7
370
    25
100
AcDbLine
 10
848.306274
 20
243.466596
 30
0.0
 11
846.056274
 21
245.716596
 31
0.0
  0
LINE
  5
1AD
330
1A0
100
AcDbEntity
  8
LC-003-005-----0
 62
     7
370
    25
100
AcDbLine
 10
845.477847
 20
243.466596
 30
0.0
 11
843.227847
 21
245.716596
 31
0.0
  0
LINE
  5
1AE
330
1A0
100
AcDbEntity
  8
LC-003-005-----0
 62
     7
370
    25
100
AcDbLine
 10
842.64942
 20
243.466596
 30
0.0
 11
840.39942
 21
245.716596
 31
0.0
  0
LINE
  5
1AF
330
1A0
100
AcDbEntity
  8
LC-003-005-----0
 62
     7
370
    25
100
AcDbLine
 10
839.820993
 20
243.466596
 30
0.0
 11
837.570993
 21
245.716596
 31
0.0
  0
LINE
  5
1B0
330
1A0
100
AcDbEntity
  8
LC-003-005-----0
 62
     7
370
    25
100
AcDbLine
 10
836.992566
 20
243.466596
 30
0.0
 11
834.742566
 21
245.716596
 31
0.0
  0
LINE
  5
1B1
330
1A0
100
AcDbEntity
  8
LC-003-005-----0
 62
     7
370
    25
100
AcDbLine
 10
834.164139
 20
243.466596
 30
0.0
 11
831.914139
 21
245.716596
 31
0.0
  0
LINE
  5
1B2
330
1A0
100
AcDbEntity
  8
LC-003-005-----0
 62
     7
370
    25
100
AcDbLine
 10
831.335712
 20
243.466596
 30
0.0
 11
829.085712
 21
245.716596
 31
0.0
  0
LINE
  5
1B3
330
1A0
100
AcDbEntity
  8
LC-003-005-----0
 62
     7
370
    25
100
AcDbLine
 10
828.507285
 20
243.466596
 30
0.0
 11
826.257285
 21
245.716596
 31
0.0
  0
LINE
  5
1B4
330
1A0
100
AcDbEntity
  8
LC-003-005-----0
 62
     7
370
    25
100
AcDbLine
 10
825.678857
 20
243.466596
 30
0.0
 11
823.428857
 21
245.716596
 31
0.0
  0
LINE
  5
1B5
330
1A0
100
AcDbEntity
  8
LC-003-005-----0
 62
     7
370
    25
100
AcDbLine
 10
822.85043
 20
243.466596
 30
0.0
 11
820.60043
 21
245.716596
 31
0.0
  0
LINE
  5
1B6
330
1A0
100
AcDbEntity
  8
LC-003-005-----0
 62
     7
370
    25
100
AcDbLine
 10
820.022003
 20
243.466596
 30
0.0
 11
817.772003
 21
245.716596
 31
0.0
  0
LINE
  5
1B7
330
1A0
100
AcDbEntity
  8
LC-003-005-----0
 62
     7
370
    25
100
AcDbLine
 10
817.193576
 20
243.466596
 30
0.0
 11
814.943576
 21
245.716596
 31
0.0
  0
LINE
  5
1B8
330
1A0
100
AcDbEntity
  8
LC-003-005-----0
 62
     7
370
    25
100
AcDbLine
 10
814.365149
 20
243.466596
 30
0.0
 11
812.115149
 21
245.716596
 31
0.0
  0
LINE
  5
1B9
330
1A0
100
AcDbEntity
  8
LC-003-005-----0
 62
     7
370
    25
100
AcDbLine
 10
811.536722
 20
243.466596
 30
0.0
 11
809.286722
 21
245.716596
 31
0.0
  0
LINE
  5
1BA
330
1A0
100
AcDbEntity
  8
LC-003-005-----0
 62
     7
370
    25
100
AcDbLine
 10
808.708295
 20
243.466596
 30
0.0
 11
806.458295
 21
245.716596
 31
0.0
  0
LINE
  5
1BB
330
1A0
100
AcDbEntity
  8
LC-003-005-----0
 62
     7
370
    25
100
AcDbLine
 10
805.879868
 20
243.466596
 30
0.0
 11
803.629868
 21
245.716596
 31
0.0
  0
LINE
  5
1BC
330
1A0
100
AcDbEntity
  8
LC-003-005-----0
 62
     7
370
    25
100
AcDbLine
 10
803.05144
 20
243.466596
 30
0.0
 11
800.80144
 21
245.716596
 31
0.0
  0
LINE
  5
1BD
330
1A0
100
AcDbEntity
  8
LC-003-005-----0
 62
     7
370
    25
100
AcDbLine
 10
800.223013
 20
243.466596
 30
0.0
 11
797.973013
 21
245.716596
 31
0.0
  0
LINE
  5
1BE
330
1A0
100
AcDbEntity
  8
LC-003-005-----0
 62
     7
370
    25
100
AcDbLine
 10
797.394586
 20
243.466596
 30
0.0
 11
795.144586
 21
245.716596
 31
0.0
  0
LINE
  5
1BF
330
1A0
100
AcDbEntity
  8
LC-003-005-----0
 62
     7
370
    25
100
AcDbLine
 10
794.566159
 20
243.466596
 30
0.0
 11
792.316159
 21
245.716596
 31
0.0
  0
LINE
  5
1C0
330
1A0
100
AcDbEntity
  8
LC-003-005-----0
 62
     7
370
    25
100
AcDbLine
 10
791.737732
 20
243.466596
 30
0.0
 11
789.487732
 21
245.716596
 31
0.0
  0
LINE
  5
1C1
330
1A0
100
AcDbEntity
  8
LC-003-005-----0
 62
     7
370
    25
100
AcDbLine
 10
788.909305
 20
243.466596
 30
0.0
 11
786.659305
 21
245.716596
 31
0.0
  0
LINE
  5
1C2
330
1A0
100
AcDbEntity
  8
LC-003-005-----0
 62
     7
370
    25
100
AcDbLine
 10
786.397352
 20
243.150122
 30
0.0
 11
784.713737
 21
244.833736
 31
0.0
  0
LINE
  5
1C3
330
1A0
100
AcDbEntity
  8
LC-003-005-----0
 62
     7
370
    25
100
AcDbLine
 10
784.756471
 20
241.962575
 30
0.0
 11
783.05828
 21
243.660767
 31
0.0
  0
LINE
  5
1C4
330
1A0
100
AcDbEntity
  8
LC-003-005-----0
 62
     7
370
    25
100
AcDbLine
 10
783.022109
 20
240.86851
 30
0.0
 11
781.30132
 21
242.5893
 31
0.0
  0
LINE
  5
1C5
330
1A0
100
AcDbEntity
  8
LC-003-005-----0
 62
     7
370
    25
100
AcDbLine
 10
781.190087
 20
239.872105
 30
0.0
 11
779.43758
 21
241.624612
 31
0.0
  0
LINE
  5
1C6
330
1A0
100
AcDbEntity
  8
LC-003-005-----0
 62
     7
370
    25
100
AcDbLine
 10
779.254564
 20
238.979201
 30
0.0
 11
777.459569
 21
240.774196
 31
0.0
  0
LINE
  5
1C7
330
1A0
100
AcDbEntity
  8
LC-003-005-----0
 62
     7
370
    25
100
AcDbLine
 10
777.207579
 20
238.197759
 30
0.0
 11
775.356854
 21
240.048483
 31
0.0
  0
LINE
  5
1C8
330
1A0
100
AcDbEntity
  8
LC-003-005-----0
 62
     7
370
    25
100
AcDbLine
 10
775.038323
 20
237.538588
 30
0.0
 11
773.114888
 21
239.462023
 31
0.0
  0
LINE
  5
1C9
330
1A0
100
AcDbEntity
  8
LC-003-005-----0
 62
     7
370
    25
100
AcDbLine
 10
772.731974
 20
237.01651
 30
0.0
 11
770.712988
 21
239.035496
 31
0.0
  0
LINE
  5
1CA
330
1A0
100
AcDbEntity
  8
LC-003-005-----0
 62
     7
370
    25
100
AcDbLine
 10
770.26773
 20
236.652326
 30
0.0
 11
768.120671
 21
238.799385
 31
0.0
  0
LINE
  5
1CB
330
1A0
100
AcDbEntity
  8
LC-003-005-----0
 62
     7
370
    25
100
AcDbLine
 10
767.615274
 20
236.476355
 30
0.0
 11
765.29034
 21
238.801289
 31
0.0
  0
LINE
  5
1CC
330
1A0
100
AcDbEntity
  8
LC-003-005-----0
 62
     7
370
    25
100
AcDbLine
 10
764.796606
 20
236.466596
 30
0.0
 11
762.140581
 21
239.122621
 31
0.0
  0
LINE
  5
1CD
330
1A0
100
AcDbEntity
  8
LC-003-005-----0
 62
     7
370
    25
100
AcDbLine
 10
761.968179
 20
236.466596
 30
0.0
 11
758.822458
 21
239.612317
 31
0.0
  0
LINE
  5
1CE
330
1A0
100
AcDbEntity
  8
LC-003-005-----0
 62
     7
370
    25
100
AcDbLine
 10
759.139752
 20
236.466596
 30
0.0
 11
758.225021
 21
237.381327
 31
0.0
  0
ENDBLK
  5
1A2
330
1A0
100
AcDbEntity
  8
0
100
AcDbBlockEnd
  0
BLOCK
  5
1D1
330
1D0
100
AcDbEntity
  8
0
100
AcDbBlockBegin
  2
*X77
 70
     1
 71
     0
 10
0.0
 20
0.0
 30
0.0
  3
*X77
  1

  4
*X7
  0
LINE
  5
1D3
330
1D0
100
AcDbEntity
  8
LC-003-005-----0
 62
     7
370
    25
100
AcDbLine
 10
873.225021
 20
292.086955
 30
0.0
 11
872.621485
 21
292.69049
 31
0.0
  0
LINE
  5
1D4
330
1D0
100
AcDbEntity
  8
LC-003-005-----0
 62
     7
370
    25
100
AcDbLine
 10
871.266953
 20
291.216596
 30
0.0
 11
869.016953
 21
293.466596
 31
0.0
  0
LINE
  5
1D5
330
1D0
100
AcDbEntity
  8
LC-003-005-----0
 62
     7
370
    25
100
AcDbLine
 10
868.438525
 20
291.216596
 30
0.0
 11
866.188525
 21
293.466596
 31
0.0
  0
LINE
  5
1D6
330
1D0
100
AcDbEntity
  8
LC-003-005-----0
 62
     7
370
    25
100
AcDbLine
 10
865.610098
 20
291.216596
 30
0.0
 11
863.360098
 21
293.466596
 31
0.0
  0
LINE
  5
1D7
330
1D0
100
AcDbEntity
  8
LC-003-005-----0
 62
     7
370
    25
100
AcDbLine
 10
862.781671
 20
291.216596
 30
0.0
 11
860.531671
 21
293.466596
 31
0.0
  0
LINE
  5
1D8
330
1D0
100
AcDbEntity
  8
LC-003-005-----0
 62
     7
370
    25
100
AcDbLine
 10
859.953244
 20
291.216596
 30
0.0
 11
857.703244
 21
293.466596
 31
0.0
  0
LINE
  5
1D9
330
1D0
100
AcDbEntity
  8
LC-003-005-----0
 62
     7
370
    25
100
AcDbLine
 10
857.124817
 20
291.216596
 30
0.0
 11
854.874817
 21
293.466596
 31
0.0
  0
LINE
  5
1DA
330
1D0
100
AcDbEntity
  8
LC-003-005-----0
 62
     7
370
    25
100
AcDbLine
 10
854.29639
 20
291.216596
 30
0.0
 11
852.04639
 21
293.466596
 31
0.0
  0
LINE
  5
1DB
330
1D0
100
AcDbEntity
  8
LC-003-005-----0
 62
     7
370
    25
100
AcDbLine
 10
851.467963
 20
291.216596
 30
0.0
 11
849.217963
 21
293.466596
 31
0.0
  0
LINE
  5
1DC
330
1D0
100
AcDbEntity
  8
LC-003-005-----0
 62
     7
370
    25
100
AcDbLine
 10
848.639536
 20
291.216596
 30
0.0
 11
846.389536
 21
293.466596
 31
0.0
  0
LINE
  5
1DD
330
1D0
100
AcDbEntity
  8
LC-003-005-----0
 62
     7
370
    25
100
AcDbLine
 10
845.811108
 20
291.216596
 30
0.0
 11
843.561108
 21
293.466596
 31
0.0
  0
LINE
  5
1DE
330
1D0
100
AcDbEntity
  8
LC-003-005-----0
 62
     7
370
    25
100
AcDbLine
 10
842.982681
 20
291.216596
 30
0.0
 11
840.732681
 21
293.466596
 31
0.0
  0
LINE
  5
1DF
330
1D0
100
AcDbEntity
  8
LC-003-005-----0
 62
     7
370
    25
100
AcDbLine
 10
840.154254
 20
291.216596
 30
0.0
 11
837.904254
 21
293.466596
 31
0.0
  0
LINE
  5
1E0
330
1D0
100
AcDbEntity
  8
LC-003-005-----0
 62
     7
370
    25
100
AcDbLine
 10
837.325827
 20
291.216596
 30
0.0
 11
835.075827
 21
293.466596
 31
0.0
  0
LINE
  5
1E1
330
1D0
100
AcDbEntity
  8
LC-003-005-----0
 62
     7
370
    25
100
AcDbLine
 10
834.4974
 20
291.216596
 30
0.0
 11
832.2474
 21
293.466596
 31
0.0
  0
LINE
  5
1E2
330
1D0
100
AcDbEntity
  8
LC-003-005-----0
 62
     7
370
    25
100
AcDbLine
 10
831.668973
 20
291.216596
 30
0.0
 11
829.418973
 21
293.466596
 31
0.0
  0
LINE
  5
1E3
330
1D0
100
AcDbEntity
  8
LC-003-005-----0
 62
     7
370
    25
100
AcDbLine
 10
828.840546
 20
291.216596
 30
0.0
 11
826.590546
 21
293.466596
 31
0.0
  0
LINE
  5
1E4
330
1D0
100
AcDbEntity
  8
LC-003-005-----0
 62
     7
370
    25
100
AcDbLine
 10
826.012119
 20
291.216596
 30
0.0
 11
823.762119
 21
293.466596
 31
0.0
  0
LINE
  5
1E5
330
1D0
100
AcDbEntity
  8
LC-003-005-----0
 62
     7
370
    25
100
AcDbLine
 10
823.183691
 20
291.216596
 30
0.0
 11
820.933691
 21
293.466596
 31
0.0
  0
LINE
  5
1E6
330
1D0
100
AcDbEntity
  8
LC-003-005-----0
 62
     7
370
    25
100
AcDbLine
 10
820.355264
 20
291.216596
 30
0.0
 11
818.105264
 21
293.466596
 31
0.0
  0
LINE
  5
1E7
330
1D0
100
AcDbEntity
  8
LC-003-005-----0
 62
     7
370
    25
100
AcDbLine
 10
817.526837
 20
291.216596
 30
0.0
 11
815.276837
 21
293.466596
 31
0.0
  0
LINE
  5
1E8
330
1D0
100
AcDbEntity
  8
LC-003-005-----0
 62
     7
370
    25
100
AcDbLine
 10
814.69841
 20
291.216596
 30
0.0
 11
812.44841
 21
293.466596
 31
0.0
  0
LINE
  5
1E9
330
1D0
100
AcDbEntity
  8
LC-003-005-----0
 62
     7
370
    25
100
AcDbLine
 10
811.869983
 20
291.216596
 30
0.0
 11
809.619983
 21
293.466596
 31
0.0
  0
LINE
  5
1EA
330
1D0
100
AcDbEntity
  8
LC-003-005-----0
 62
     7
370
    25
100
AcDbLine
 10
809.041556
 20
291.216596
 30
0.0
 11
806.791556
 21
293.466596
 31
0.0
  0
LINE
  5
1EB
330
1D0
100
AcDbEntity
  8
LC-003-005-----0
 62
     7
370
    25
100
AcDbLine
 10
806.213129
 20
291.216596
 30
0.0
 11
803.963129
 21
293.466596
 31
0.0
  0
LINE
  5
1EC
330
1D0
100
AcDbEntity
  8
LC-003-005-----0
 62
     7
370
    25
100
AcDbLine
 10
803.384702
 20
291.216596
 30
0.0
 11
801.134702
 21
293.466596
 31
0.0
  0
LINE
  5
1ED
330
1D0
100
AcDbEntity
  8
LC-003-005-----0
 62
     7
370
    25
100
AcDbLine
 10
800.556274
 20
291.216596
 30
0.0
 11
798.306274
 21
293.466596
 31
0.0
  0
LINE
  5
1EE
330
1D0
100
AcDbEntity
  8
LC-003-005-----0
 62
     7
370
    25
100
AcDbLine
 10
797.727847
 20
291.216596
 30
0.0
 11
795.477847
 21
293.466596
 31
0.0
  0
LINE
  5
1EF
330
1D0
100
AcDbEntity
  8
LC-003-005-----0
 62
     7
370
    25
100
AcDbLine
 10
794.89942
 20
291.216596
 30
0.0
 11
792.64942
 21
293.466596
 31
0.0
  0
LINE
  5
1F0
330
1D0
100
AcDbEntity
  8
LC-003-005-----0
 62
     7
370
    25
100
AcDbLine
 10
792.070993
 20
291.216596
 30
0.0
 11
789.820993
 21
293.466596
 31
0.0
  0
LINE
  5
1F1
330
1D0
100
AcDbEntity
  8
LC-003-005-----0
 62
     7
370
    25
100
AcDbLine
 10
789.242566
 20
291.216596
 30
0.0
 11
786.992566
 21
293.466596
 31
0.0
  0
LINE
  5
1F2
330
1D0
100
AcDbEntity
  8
LC-003-005-----0
 62
     7
370
    25
100
AcDbLine
 10
786.414139
 20
291.216596
 30
0.0
 11
780.003975
 21
297.62676
 31
0.0
  0
LINE
  5
1F3
330
1D0
100
AcDbEntity
  8
LC-003-005-----0
 62
     7
370
    25
100
AcDbLine
 10
779.544739
 20
295.257568
 30
0.0
 11
775.547401
 21
299.254907
 31
0.0
  0
LINE
  5
1F4
330
1D0
100
AcDbEntity
  8
LC-003-005-----0
 62
     7
370
    25
100
AcDbLine
 10
774.976383
 20
296.997497
 30
0.0
 11
771.914629
 21
300.059251
 31
0.0
  0
LINE
  5
1F5
330
1D0
100
AcDbEntity
  8
LC-003-005-----0
 62
     7
370
    25
100
AcDbLine
 10
771.339444
 20
297.806009
 30
0.0
 11
768.735966
 21
300.409487
 31
0.0
  0
LINE
  5
1F6
330
1D0
100
AcDbEntity
  8
LC-003-005-----0
 62
     7
370
    25
100
AcDbLine
 10
768.186383
 20
298.130643
 30
0.0
 11
765.85043
 21
300.466596
 31
0.0
  0
LINE
  5
1F7
330
1D0
100
AcDbEntity
  8
LC-003-005-----0
 62
     7
370
    25
100
AcDbLine
 10
765.353699
 20
298.1349
 30
0.0
 11
763.022003
 21
300.466596
 31
0.0
  0
LINE
  5
1F8
330
1D0
100
AcDbEntity
  8
LC-003-005-----0
 62
     7
370
    25
100
AcDbLine
 10
762.759556
 20
297.900616
 30
0.0
 11
760.193576
 21
300.466596
 31
0.0
  0
LINE
  5
1F9
330
1D0
100
AcDbEntity
  8
LC-003-005-----0
 62
     7
370
    25
100
AcDbLine
 10
760.356153
 20
297.475592
 30
0.0
 11
758.225021
 21
299.606724
 31
0.0
  0
ENDBLK
  5
1D2
330
1D0
100
AcDbEntity
  8
0
100
AcDbBlockEnd
  0
BLOCK
  5
201
330
200
100
AcDbEntity
  8
0
100
AcDbBlockBegin
  2
*X88
 70
     1
 71
     0
 10
0.0
 20
0.0
 30
0.0
  3
*X88
  1

  4
*X8
  0
LINE
  5
203
330
200
100
AcDbEntity
  8
LC-003-005-----0
 62
     7
370
    25
100
AcDbLine
 10
775.309358
 20
240.170946
 30
0.0
 11
776.808474
 21
241.670062
 31
0.0
  0
LINE
  5
204
330
200
100
AcDbEntity
  8
LC-003-005-----0
 62
     7
370
    25
100
AcDbLine
 10
774.756856
 20
240.184129
 30
0.0
 11
776.795291
 21
242.222564
 31
0.0
  0
LINE
  5
205
330
200
100
AcDbEntity
  8
LC-003-005-----0
 62
     7
370
    25
100
AcDbLine
 10
774.328855
 20
240.321813
 30
0.0
 11
776.657606
 21
242.650565
 31
0.0
  0
LINE
  5
206
330
200
100
AcDbEntity
  8
LC-003-005-----0
 62
     7
370
    25
100
AcDbLine
 10
773.980454
 20
240.539098
 30
0.0
 11
776.440322
 21
242.998966
 31
0.0
  0
LINE
  5
207
330
200
100
AcDbEntity
  8
LC-003-005-----0
 62
     7
370
    25
100
AcDbLine
 10
773.698845
 20
240.823174
 30
0.0
 11
776.156245
 21
243.280575
 31
0.0
  0
LINE
  5
208
330
200
100
AcDbEntity
  8
LC-003-005-----0
 62
     7
370
    25
100
AcDbLine
 10
773.48424
 20
241.174256
 30
0.0
 11
775.805164
 21
243.495179
 31
0.0
  0
LINE
  5
209
330
200
100
AcDbEntity
  8
LC-003-005-----0
 62
     7
370
    25
100
AcDbLine
 10
773.350109
 20
241.60581
 30
0.0
 11
775.37361
 21
243.62931
 31
0.0
  0
LINE
  5
20A
330
200
100
AcDbEntity
  8
LC-003-005-----0
 62
     7
370
    25
100
AcDbLine
 10
773.343758
 20
242.165144
 30
0.0
 11
774.814275
 21
243.635661
 31
0.0
  0
ENDBLK
  5
202
330
200
100
AcDbEntity
  8
0
100
AcDbBlockEnd
  0
BLOCK
  5
21B
330
21A
100
AcDbEntity
  8
0
100
AcDbBlockBegin
  2
*X99
 70
     1
 71
     0
 10
0.0
 20
0.0
 30
0.0
  3
*X99
  1

  4
*X9
  0
LINE
  5
21D
330
21A
100
AcDbEntity
  8
LC-003-005-----0
 62
     7
370
    25
100
AcDbLine
 10
737.225021
 20
408.287965
 30
0.0
 11
730.06518
 21
415.447806
 31
0.0
  0
LINE
  5
21E
330
21A
100
AcDbEntity
  8
LC-003-005-----0
 62
     7
370
    25
100
AcDbLine
 10
737.225021
 20
405.459538
 30
0.0
 11
727.236753
 21
415.447806
 31
0.0
  0
LINE
  5
21F
330
21A
100
AcDbEntity
  8
LC-003-005-----0
 62
     7
370
    25
100
AcDbLine
 10
737.225021
 20
402.631111
 30
0.0
 11
734.225021
 21
405.631111
 31
0.0
  0
LINE
  5
220
330
21A
100
AcDbEntity
  8
LC-003-005-----0
 62
     7
370
    25
100
AcDbLine
 10
728.442524
 20
411.413607
 30
0.0
 11
725.590646
 21
414.265485
 31
0.0
  0
LINE
  5
221
330
21A
100
AcDbEntity
  8
LC-003-005-----0
 62
     7
370
    25
100
AcDbLine
 10
737.225021
 20
399.802684
 30
0.0
 11
734.225021
 21
402.802684
 31
0.0
  0
LINE
  5
222
330
21A
100
AcDbEntity
  8
LC-003-005-----0
 62
     7
370
    25
100
AcDbLine
 10
728.225021
 20
408.802684
 30
0.0
 11
725.225021
 21
411.802684
 31
0.0
  0
LINE
  5
223
330
21A
100
AcDbEntity
  8
LC-003-005-----0
 62
     7
370
    25
100
AcDbLine
 10
737.225021
 20
396.974256
 30
0.0
 11
734.225021
 21
399.974256
 31
0.0
  0
LINE
  5
224
330
21A
100
AcDbEntity
  8
LC-003-005-----0
 62
     7
370
    25
100
AcDbLine
 10
728.225021
 20
405.974256
 30
0.0
 11
726.225021
 21
407.974256
 31
0.0
  0
LINE
  5
225
330
21A
100
AcDbEntity
  8
LC-003-005-----0
 62
     7
370
    25
100
AcDbLine
 10
737.225021
 20
394.145829
 30
0.0
 11
734.225021
 21
397.145829
 31
0.0
  0
LINE
  5
226
330
21A
100
AcDbEntity
  8
LC-003-005-----0
 62
     7
370
    25
100
AcDbLine
 10
726.923044
 20
404.447806
 30
0.0
 11
726.225021
 21
405.145829
 31
0.0
  0
LINE
  5
227
330
21A
100
AcDbEntity
  8
LC-003-005-----0
 62
     7
370
    25
100
AcDbLine
 10
737.225021
 20
391.317402
 30
0.0
 11
734.225021
 21
394.317402
 31
0.0
  0
LINE
  5
228
330
21A
100
AcDbEntity
  8
LC-003-005-----0
 62
     7
370
    25
100
AcDbLine
 10
737.225021
 20
388.488975
 30
0.0
 11
734.225021
 21
391.488975
 31
0.0
  0
LINE
  5
229
330
21A
100
AcDbEntity
  8
LC-003-005-----0
 62
     7
370
    25
100
AcDbLine
 10
737.225021
 20
385.660548
 30
0.0
 11
734.225021
 21
388.660548
 31
0.0
  0
LINE
  5
22A
330
21A
100
AcDbEntity
  8
LC-003-005-----0
 62
     7
370
    25
100
AcDbLine
 10
737.225021
 20
382.832121
 30
0.0
 11
734.225021
 21
385.832121
 31
0.0
  0
LINE
  5
22B
330
21A
100
AcDbEntity
  8
LC-003-005-----0
 62
     7
370
    25
100
AcDbLine
 10
737.225021
 20
380.003694
 30
0.0
 11
734.225021
 21
383.003694
 31
0.0
  0
LINE
  5
22C
330
21A
100
AcDbEntity
  8
LC-003-005-----0
 62
     7
370
    25
100
AcDbLine
 10
737.225021
 20
377.175267
 30
0.0
 11
734.225021
 21
380.175267
 31
0.0
  0
LINE
  5
22D
330
21A
100
AcDbEntity
  8
LC-003-005-----0
 62
     7
370
    25
100
AcDbLine
 10
737.225021
 20
374.346839
 30
0.0
 11
734.225021
 21
377.346839
 31
0.0
  0
LINE
  5
22E
330
21A
100
AcDbEntity
  8
LC-003-005-----0
 62
     7
370
    25
100
AcDbLine
 10
737.225021
 20
371.518412
 30
0.0
 11
734.225021
 21
374.518412
 31
0.0
  0
LINE
  5
22F
330
21A
100
AcDbEntity
  8
LC-003-005-----0
 62
     7
370
    25
100
AcDbLine
 10
737.225021
 20
368.689985
 30
0.0
 11
734.225021
 21
371.689985
 31
0.0
  0
LINE
  5
230
330
21A
100
AcDbEntity
  8
LC-003-005-----0
 62
     7
370
    25
100
AcDbLine
 10
737.225021
 20
365.861558
 30
0.0
 11
734.225021
 21
368.861558
 31
0.0
  0
LINE
  5
231
330
21A
100
AcDbEntity
  8
LC-003-005-----0
 62
     7
370
    25
100
AcDbLine
 10
737.225021
 20
363.033131
 30
0.0
 11
734.225021
 21
366.033131
 31
0.0
  0
LINE
  5
232
330
21A
100
AcDbEntity
  8
LC-003-005-----0
 62
     7
370
    25
100
AcDbLine
 10
737.225021
 20
360.204704
 30
0.0
 11
734.225021
 21
363.204704
 31
0.0
  0
LINE
  5
233
330
21A
100
AcDbEntity
  8
LC-003-005-----0
 62
     7
370
    25
100
AcDbLine
 10
737.225021
 20
357.376277
 30
0.0
 11
734.225021
 21
360.376277
 31
0.0
  0
LINE
  5
234
330
21A
100
AcDbEntity
  8
LC-003-005-----0
 62
     7
370
    25
100
AcDbLine
 10
737.225021
 20
354.54785
 30
0.0
 11
734.225021
 21
357.54785
 31
0.0
  0
LINE
  5
235
330
21A
100
AcDbEntity
  8
LC-003-005-----0
 62
     7
370
    25
100
AcDbLine
 10
737.225021
 20
351.719422
 30
0.0
 11
734.225021
 21
354.719422
 31
0.0
  0
LINE
  5
236
330
21A
100
AcDbEntity
  8
LC-003-005-----0
 62
     7
370
    25
100
AcDbLine
 10
737.225021
 20
348.890995
 30
0.0
 11
734.225021
 21
351.890995
 31
0.0
  0
LINE
  5
237
330
21A
100
AcDbEntity
  8
LC-003-005-----0
 62
     7
370
    25
100
AcDbLine
 10
737.225021
 20
346.062568
 30
0.0
 11
734.225021
 21
349.062568
 31
0.0
  0
LINE
  5
238
330
21A
100
AcDbEntity
  8
LC-003-005-----0
 62
     7
370
    25
100
AcDbLine
 10
737.225021
 20
343.234141
 30
0.0
 11
734.225021
 21
346.234141
 31
0.0
  0
LINE
  5
239
330
21A
100
AcDbEntity
  8
LC-003-005-----0
 62
     7
370
    25
100
AcDbLine
 10
737.225021
 20
340.405714
 30
0.0
 11
734.225021
 21
343.405714
 31
0.0
  0
LINE
  5
23A
330
21A
100
AcDbEntity
  8
LC-003-005-----0
 62
     7
370
    25
100
AcDbLine
 10
737.225021
 20
337.577287
 30
0.0
 11
734.225021
 21
340.577287
 31
0.0
  0
LINE
  5
23B
330
21A
100
AcDbEntity
  8
LC-003-005-----0
 62
     7
370
    25
100
AcDbLine
 10
737.225021
 20
334.74886
 30
0.0
 11
734.225021
 21
337.74886
 31
0.0
  0
LINE
  5
23C
330
21A
100
AcDbEntity
  8
LC-003-005-----0
 62
     7
370
    25
100
AcDbLine
 10
737.225021
 20
331.920433
 30
0.0
 11
734.225021
 21
334.920433
 31
0.0
  0
LINE
  5
23D
330
21A
100
AcDbEntity
  8
LC-003-005-----0
 62
     7
370
    25
100
AcDbLine
 10
737.225021
 20
329.092005
 30
0.0
 11
734.225021
 21
332.092005
 31
0.0
  0
LINE
  5
23E
330
21A
100
AcDbEntity
  8
LC-003-005-----0
 62
     7
370
    25
100
AcDbLine
 10
737.225021
 20
326.263578
 30
0.0
 11
734.225021
 21
329.263578
 31
0.0
  0
LINE
  5
23F
330
21A
100
AcDbEntity
  8
LC-003-005-----0
 62
     7
370
    25
100
AcDbLine
 10
737.225021
 20
323.435151
 30
0.0
 11
734.225021
 21
326.435151
 31
0.0
  0
LINE
  5
240
330
21A
100
AcDbEntity
  8
LC-003-005-----0
 62
     7
370
    25
100
AcDbLine
 10
737.225021
 20
320.606724
 30
0.0
 11
734.225021
 21
323.606724
 31
0.0
  0
LINE
  5
241
330
21A
100
AcDbEntity
  8
LC-003-005-----0
 62
     7
370
    25
100
AcDbLine
 10
737.225021
 20
317.778297
 30
0.0
 11
734.225021
 21
320.778297
 31
0.0
  0
LINE
  5
242
330
21A
100
AcDbEntity
  8
LC-003-005-----0
 62
     7
370
    25
100
AcDbLine
 10
737.225021
 20
314.94987
 30
0.0
 11
734.225021
 21
317.94987
 31
0.0
  0
LINE
  5
243
330
21A
100
AcDbEntity
  8
LC-003-005-----0
 62
     7
370
    25
100
AcDbLine
 10
737.225021
 20
312.121443
 30
0.0
 11
734.225021
 21
315.121443
 31
0.0
  0
LINE
  5
244
330
21A
100
AcDbEntity
  8
LC-003-005-----0
 62
     7
370
    25
100
AcDbLine
 10
737.225021
 20
309.293016
 30
0.0
 11
734.225021
 21
312.293016
 31
0.0
  0
LINE
  5
245
330
21A
100
AcDbEntity
  8
LC-003-005-----0
 62
     7
370
    25
100
AcDbLine
 10
736.983412
 20
306.706197
 30
0.0
 11
734.225021
 21
309.464588
 31
0.0
  0
LINE
  5
246
330
21A
100
AcDbEntity
  8
LC-003-005-----0
 62
     7
370
    25
100
AcDbLine
 10
734.913376
 20
305.947806
 30
0.0
 11
734.225021
 21
306.636161
 31
0.0
  0
ENDBLK
  5
21C
330
21A
100
AcDbEntity
  8
0
100
AcDbBlockEnd
  0
BLOCK
  5
26C
330
26B
100
AcDbEntity
  8
0
100
AcDbBlockBegin
  2
*X1010
 70
     1
 71
     0
 10
0.0
 20
0.0
 30
0.0
  3
*X1010
  1

  4
*X10
  0
LINE
  5
26E
330
26B
100
AcDbEntity
  8
LC-003-005-----0
 62
     7
370
    25
100
AcDbLine
 10
635.725021
 20
424.935151
 30
0.0
 11
633.712366
 21
426.947806
 31
0.0
  0
LINE
  5
26F
330
26B
100
AcDbEntity
  8
LC-003-005-----0
 62
     7
370
    25
100
AcDbLine
 10
640.225021
 20
417.606724
 30
0.0
 11
638.383939
 21
419.447806
 31
0.0
  0
LINE
  5
270
330
26B
100
AcDbEntity
  8
LC-003-005-----0
 62
     7
370
    25
100
AcDbLine
 10
635.725021
 20
422.106724
 30
0.0
 11
632.725021
 21
425.106724
 31
0.0
  0
LINE
  5
271
330
26B
100
AcDbEntity
  8
LC-003-005-----0
 62
     7
370
    25
100
AcDbLine
 10
640.225021
 20
414.778297
 30
0.0
 11
639.025021
 21
415.978297
 31
0.0
  0
LINE
  5
272
330
26B
100
AcDbEntity
  8
LC-003-005-----0
 62
     7
370
    25
100
AcDbLine
 10
637.555512
 20
417.447806
 30
0.0
 11
632.725021
 21
422.278297
 31
0.0
  0
LINE
  5
273
330
26B
100
AcDbEntity
  8
LC-003-005-----0
 62
     7
370
    25
100
AcDbLine
 10
640.225021
 20
411.94987
 30
0.0
 11
639.025021
 21
413.14987
 31
0.0
  0
LINE
  5
274
330
26B
100
AcDbEntity
  8
LC-003-005-----0
 62
     7
370
    25
100
AcDbLine
 10
634.727085
 20
417.447806
 30
0.0
 11
634.225021
 21
417.94987
 31
0.0
  0
LINE
  5
275
330
26B
100
AcDbEntity
  8
LC-003-005-----0
 62
     7
370
    25
100
AcDbLine
 10
632.727085
 20
419.447806
 30
0.0
 11
631.727085
 21
420.447806
 31
0.0
  0
LINE
  5
276
330
26B
100
AcDbEntity
  8
LC-003-005-----0
 62
     7
370
    25
100
AcDbLine
 10
640.225021
 20
409.121443
 30
0.0
 11
638.910855
 21
410.435608
 31
0.0
  0
LINE
  5
277
330
26B
100
AcDbEntity
  8
LC-003-005-----0
 62
     7
370
    25
100
AcDbLine
 10
640.225021
 20
406.293016
 30
0.0
 11
638.958887
 21
407.559149
 31
0.0
  0
ENDBLK
  5
26D
330
26B
100
AcDbEntity
  8
0
100
AcDbBlockEnd
  0
BLOCK
  5
2A2
330
297
100
AcDbEntity
  8
0
100
AcDbBlockBegin
  2
*D11
 70
     1
 71
     0
 10
0.0
 20
0.0
 30
0.0
  3
*D11
  1

  0
LINE
  5
298
330
297
100
AcDbEntity
  8
LC-012-003-----0
 62
     2
370
    -2
100
AcDbLine
 10
646.225021
 20
284.270126
 30
0.0
 11
608.460614
 21
284.270126
 31
0.0
  0
LINE
  5
299
330
297
100
AcDbEntity
  8
LC-012-003-----0
 62
     2
370
    -2
100
AcDbLine
 10
661.225021
 20
254.268916
 30
0.0
 11
608.460614
 21
254.268916
 31
0.0
  0
LINE
  5
29A
330
297
100
AcDbEntity
  8
LC-012-003-----0
 62
     2
370
    -2
100
AcDbLine
 10
612.060614
 20
312.270126
 30
0.0
 11
612.060614
 21
340.270126
 31
0.0
  0
LINE
  5
29B
330
297
100
AcDbEntity
  8
LC-012-003-----0
 62
     2
370
    -2
100
AcDbLine
 10
612.060614
 20
226.268916
 30
0.0
 11
612.060614
 21
174.745774
 31
0.0
  0
SOLID
  5
29C
330
297
100
AcDbEntity
  8
LC-012-003-----0
 62
     2
100
AcDbTrace
 10
607.393948
 20
312.270126
 30
0.0
 11
616.727281
 21
312.270126
 31
0.0
 12
612.060614
 22
284.270126
 32
0.0
 13
612.060614
 23
284.270126
 33
0.0
  0
SOLID
  5
29D
330
297
100
AcDbEntity
  8
LC-012-003-----0
 62
     2
100
AcDbTrace
 10
616.727281
 20
226.268916
 30
0.0
 11
607.393948
 21
226.268916
 31
0.0
 12
612.060614
 22
254.268916
 32
0.0
 13
612.060614
 23
254.268916
 33
0.0
  0
MTEXT
  5
29E
330
297
100
AcDbEntity
  8
LC-012-003-----0
 62
     2
100
AcDbMText
 10
581.260614
 20
197.668
 30
0.0
 40
28.0
 41
0.0
 71
     5
 72
     1
  1
\A1;30
  7
LCTX15-400-0-0pDIN-Schrift
 11
6.123031769111886E-17
 21
1.0
 31
0.0
 73
     1
 44
1.0
  0
POINT
  5
29F
330
297
100
AcDbEntity
  8
Defpoints
 62
     0
100
AcDbPoint
 10
646.225021
 20
284.270126
 30
0.0
  0
POINT
  5
2A0
330
297
100
AcDbEntity
  8
Defpoints
 62
     0
100
AcDbPoint
 10
661.225021
 20
254.268916
 30
0.0
  0
POINT
  5
2A1
330
297
100
AcDbEntity
  8
Defpoints
 62
     0
100
AcDbPoint
 10
612.060614
 20
254.268916
 30
0.0
  0
ENDBLK
  5
2A3
330
297
100
AcDbEntity
  8
0
100
AcDbBlockEnd
  0
BLOCK
  5
2A7
330
2A6
100
AcDbEntity
  8
0
100
AcDbBlockBegin
  2
*X1112
 70
     1
 71
     0
 10
0.0
 20
0.0
 30
0.0
  3
*X1112
  1

  4
*X11
  0
LINE
  5
2A9
330
2A6
100
AcDbEntity
  8
LC-003-005-----0
 62
     7
370
    25
100
AcDbLine
 10
643.065121
 20
422.447806
 30
0.0
 11
643.225021
 21
422.607705
 31
0.0
  0
LINE
  5
2AA
330
2A6
100
AcDbEntity
  8
LC-003-005-----0
 62
     7
370
    25
100
AcDbLine
 10
636.725021
 20
421.764559
 30
0.0
 11
638.225021
 21
423.264559
 31
0.0
  0
LINE
  5
2AB
330
2A6
100
AcDbEntity
  8
LC-003-005-----0
 62
     7
370
    25
100
AcDbLine
 10
639.908267
 20
424.947806
 30
0.0
 11
641.33317
 21
426.372709
 31
0.0
  0
ENDBLK
  5
2A8
330
2A6
100
AcDbEntity
  8
0
100
AcDbBlockEnd
  0
BLOCK
  5
2B7
330
2B6
100
AcDbEntity
  8
0
100
AcDbBlockBegin
  2
*X1213
 70
     1
 71
     0
 10
0.0
 20
0.0
 30
0.0
  3
*X1213
  1

  4
*X12
  0
LINE
  5
2B9
330
2B6
100
AcDbEntity
  8
LC-003-005-----0
 62
     7
370
    25
100
AcDbLine
 10
654.37883
 20
422.447806
 30
0.0
 11
655.225021
 21
423.293996
 31
0.0
  0
LINE
  5
2BA
330
2B6
100
AcDbEntity
  8
LC-003-005-----0
 62
     7
370
    25
100
AcDbLine
 10
653.575848
 20
424.473251
 30
0.0
 11
654.647976
 21
425.545379
 31
0.0
  0
LINE
  5
2BB
330
2B6
100
AcDbEntity
  8
LC-003-005-----0
 62
     7
370
    25
100
AcDbLine
 10
649.225021
 20
422.950851
 30
0.0
 11
652.721976
 21
426.447806
 31
0.0
  0
ENDBLK
  5
2B8
330
2B6
100
AcDbEntity
  8
0
100
AcDbBlockEnd
  0
BLOCK
  5
30F
330
30E
100
AcDbEntity
  8
0
100
AcDbBlockBegin
  2
*X1314
 70
     1
 71
     0
 10
0.0
 20
0.0
 30
0.0
  3
*X1314
  1

  4
*X13
  0
LINE
  5
311
330
30E
100
AcDbEntity
  8
LC-003-005-----0
 62
     7
370
    25
100
AcDbLine
 10
665.725021
 20
422.480288
 30
0.0
 11
667.224812
 21
423.98008
 31
0.0
  0
LINE
  5
312
330
30E
100
AcDbEntity
  8
LC-003-005-----0
 62
     7
370
    25
100
AcDbLine
 10
661.225021
 20
423.637142
 30
0.0
 11
664.035684
 21
426.447806
 31
0.0
  0
ENDBLK
  5
310
330
30E
100
AcDbEntity
  8
0
100
AcDbBlockEnd
  0
BLOCK
  5
317
330
316
100
AcDbEntity
  8
0
100
AcDbBlockBegin
  2
*X1415
 70
     1
 71
     0
 10
0.0
 20
0.0
 30
0.0
  3
*X1415
  1

  4
*X14
  0
LINE
  5
319
330
316
100
AcDbEntity
  8
LC-003-005-----0
 62
     7
370
    25
100
AcDbLine
 10
679.506247
 20
424.947806
 30
0.0
 11
681.006247
 21
426.447806
 31
0.0
  0
LINE
  5
31A
330
316
100
AcDbEntity
  8
LC-003-005-----0
 62
     7
370
    25
100
AcDbLine
 10
674.17782
 20
422.447806
 30
0.0
 11
674.725021
 21
422.995007
 31
0.0
  0
LINE
  5
31B
330
316
100
AcDbEntity
  8
LC-003-005-----0
 62
     7
370
    25
100
AcDbLine
 10
676.67782
 20
424.947806
 30
0.0
 11
678.17782
 21
426.447806
 31
0.0
  0
LINE
  5
31C
330
316
100
AcDbEntity
  8
LC-003-005-----0
 62
     7
370
    25
100
AcDbLine
 10
673.258766
 20
424.357179
 30
0.0
 11
675.315648
 21
426.414061
 31
0.0
  0
ENDBLK
  5
318
330
316
100
AcDbEntity
  8
0
100
AcDbBlockEnd
  0
BLOCK
  5
33E
330
33D
100
AcDbEntity
  8
0
100
AcDbBlockBegin
  2
*X1516
 70
     1
 71
     0
 10
0.0
 20
0.0
 30
0.0
  3
*X1516
  1

  4
*X15
  0
LINE
  5
340
330
33D
100
AcDbEntity
  8
LC-003-005-----0
 62
     7
370
    25
100
AcDbLine
 10
731.725021
 20
425.101673
 30
0.0
 11
729.878888
 21
426.947806
 31
0.0
  0
LINE
  5
341
330
33D
100
AcDbEntity
  8
LC-003-005-----0
 62
     7
370
    25
100
AcDbLine
 10
731.725021
 20
422.273246
 30
0.0
 11
728.725021
 21
425.273246
 31
0.0
  0
LINE
  5
342
330
33D
100
AcDbEntity
  8
LC-003-005-----0
 62
     7
370
    25
100
AcDbLine
 10
731.722034
 20
419.447806
 30
0.0
 11
728.725021
 21
422.444819
 31
0.0
  0
LINE
  5
343
330
33D
100
AcDbEntity
  8
LC-003-005-----0
 62
     7
370
    25
100
AcDbLine
 10
730.225021
 20
418.116392
 30
0.0
 11
728.725021
 21
419.616392
 31
0.0
  0
LINE
  5
344
330
33D
100
AcDbEntity
  8
LC-003-005-----0
 62
     7
370
    25
100
AcDbLine
 10
728.06518
 20
417.447806
 30
0.0
 11
726.06518
 21
419.447806
 31
0.0
  0
LINE
  5
345
330
33D
100
AcDbEntity
  8
LC-003-005-----0
 62
     7
370
    25
100
AcDbLine
 10
725.425021
 20
417.259538
 30
0.0
 11
723.725155
 21
418.959403
 31
0.0
  0
LINE
  5
346
330
33D
100
AcDbEntity
  8
LC-003-005-----0
 62
     7
370
    25
100
AcDbLine
 10
725.425021
 20
414.431111
 30
0.0
 11
724.225021
 21
415.631111
 31
0.0
  0
LINE
  5
347
330
33D
100
AcDbEntity
  8
LC-003-005-----0
 62
     7
370
    25
100
AcDbLine
 10
725.425021
 20
411.602684
 30
0.0
 11
724.225021
 21
412.802684
 31
0.0
  0
LINE
  5
348
330
33D
100
AcDbEntity
  8
LC-003-005-----0
 62
     7
370
    25
100
AcDbLine
 10
725.797753
 20
408.401524
 30
0.0
 11
724.225021
 21
409.974256
 31
0.0
  0
LINE
  5
349
330
33D
100
AcDbEntity
  8
LC-003-005-----0
 62
     7
370
    25
100
AcDbLine
 10
725.042998
 20
406.327852
 30
0.0
 11
724.225021
 21
407.145829
 31
0.0
  0
ENDBLK
  5
33F
330
33D
100
AcDbEntity
  8
0
100
AcDbBlockEnd
  0
BLOCK
  5
365
330
364
100
AcDbEntity
  8
0
100
AcDbBlockBegin
  2
*X1617
 70
     1
 71
     0
 10
0.0
 20
0.0
 30
0.0
  3
*X1617
  1

  4
*X16
  0
LINE
  5
367
330
364
100
AcDbEntity
  8
LC-003-005-----0
 62
     7
370
    25
100
AcDbLine
 10
726.225021
 20
420.754891
 30
0.0
 11
727.725021
 21
422.254891
 31
0.0
  0
LINE
  5
368
330
364
100
AcDbEntity
  8
LC-003-005-----0
 62
     7
370
    25
100
AcDbLine
 10
722.261081
 20
422.447806
 30
0.0
 11
722.725021
 21
422.911745
 31
0.0
  0
LINE
  5
369
330
364
100
AcDbEntity
  8
LC-003-005-----0
 62
     7
370
    25
100
AcDbLine
 10
724.761081
 20
424.947806
 30
0.0
 11
726.102156
 21
426.288881
 31
0.0
  0
ENDBLK
  5
366
330
364
100
AcDbEntity
  8
0
100
AcDbBlockEnd
  0
BLOCK
  5
36C
330
36B
100
AcDbEntity
  8
0
100
AcDbBlockBegin
  2
*X1718
 70
     1
 71
     0
 10
0.0
 20
0.0
 30
0.0
  3
*X1718
  1

  4
*X17
  0
LINE
  5
36E
330
36B
100
AcDbEntity
  8
LC-003-005-----0
 62
     7
370
    25
100
AcDbLine
 10
713.775799
 20
422.447806
 30
0.0
 11
715.225021
 21
423.897027
 31
0.0
  0
LINE
  5
36F
330
36B
100
AcDbEntity
  8
LC-003-005-----0
 62
     7
370
    25
100
AcDbLine
 10
713.279542
 20
424.779975
 30
0.0
 11
714.348504
 21
425.848937
 31
0.0
  0
LINE
  5
370
330
36B
100
AcDbEntity
  8
LC-003-005-----0
 62
     7
370
    25
100
AcDbLine
 10
709.225021
 20
423.553881
 30
0.0
 11
712.118945
 21
426.447806
 31
0.0
  0
ENDBLK
  5
36D
330
36B
100
AcDbEntity
  8
0
100
AcDbBlockEnd
  0
BLOCK
  5
373
330
372
100
AcDbEntity
  8
0
100
AcDbBlockBegin
  2
*X1819
 70
     1
 71
     0
 10
0.0
 20
0.0
 30
0.0
  3
*X1819
  1

  4
*X18
  0
LINE
  5
375
330
372
100
AcDbEntity
  8
LC-003-005-----0
 62
     7
370
    25
100
AcDbLine
 10
701.606286
 20
424.420428
 30
0.0
 11
702.685262
 21
425.499403
 31
0.0
  0
ENDBLK
  5
374
330
372
100
AcDbEntity
  8
0
100
AcDbBlockEnd
  0
BLOCK
  5
3B6
330
3AC
100
AcDbEntity
  8
0
100
AcDbBlockBegin
  2
*D20
 70
     1
 71
     0
 10
0.0
 20
0.0
 30
0.0
  3
*D20
  1

  0
LINE
  5
3AD
330
3AC
100
AcDbEntity
  8
LC-012-003-----0
 62
     2
370
    -2
100
AcDbLine
 10
567.225021
 20
319.433776
 30
0.0
 11
567.225021
 21
483.6
 31
0.0
  0
LINE
  5
3AE
330
3AC
100
AcDbEntity
  8
LC-012-003-----0
 62
     2
370
    -2
100
AcDbLine
 10
797.226358
 20
319.434184
 30
0.0
 11
797.226358
 21
483.6
 31
0.0
  0
LINE
  5
3AF
330
3AC
100
AcDbEntity
  8
LC-012-003-----0
 62
     2
370
    -2
100
AcDbLine
 10
595.225021
 20
480.0
 30
0.0
 11
769.226358
 21
480.0
 31
0.0
  0
SOLID
  5
3B0
330
3AC
100
AcDbEntity
  8
LC-012-003-----0
 62
     2
100
AcDbTrace
 10
595.225021
 20
484.666667
 30
0.0
 11
595.225021
 21
475.333333
 31
0.0
 12
567.225021
 22
480.0
 32
0.0
 13
567.225021
 23
480.0
 33
0.0
  0
SOLID
  5
3B1
330
3AC
100
AcDbEntity
  8
LC-012-003-----0
 62
     2
100
AcDbTrace
 10
769.226358
 20
475.333333
 30
0.0
 11
769.226358
 21
484.666667
 31
0.0
 12
797.226358
 22
480.0
 32
0.0
 13
797.226358
 23
480.0
 33
0.0
  0
MTEXT
  5
3B2
330
3AC
100
AcDbEntity
  8
LC-012-003-----0
 62
     2
100
AcDbMText
 10
679.159713
 20
510.8
 30
0.0
 40
28.0
 41
0.0
 71
     5
 72
     1
  1
%%c\A1;230
  7
LCTX15-400-0-0pDIN-Schrift
 73
     1
 44
1.0
  0
POINT
  5
3B3
330
3AC
100
AcDbEntity
  8
Defpoints
 62
     0
100
AcDbPoint
 10
567.225021
 20
319.433776
 30
0.0
  0
POINT
  5
3B4
330
3AC
100
AcDbEntity
  8
Defpoints
 62
     0
100
AcDbPoint
 10
797.226358
 20
319.434184
 30
0.0
  0
POINT
  5
3B5
330
3AC
100
AcDbEntity
  8
Defpoints
 62
     0
100
AcDbPoint
 10
797.226358
 20
480.0
 30
0.0
  0
ENDBLK
  5
3B7
330
3AC
100
AcDbEntity
  8
0
100
AcDbBlockEnd
  0
BLOCK
  5
3EF
330
3E5
100
AcDbEntity
  8
0
100
AcDbBlockBegin
  2
*D21
 70
     1
 71
     0
 10
0.0
 20
0.0
 30
0.0
  3
*D21
  1

  0
LINE
  5
3E6
330
3E5
100
AcDbEntity
  8
LC-012-003-----0
 62
     2
370
    -2
100
AcDbLine
 10
796.770315
 20
320.276802
 30
0.0
 11
857.6
 21
320.276802
 31
0.0
  0
LINE
  5
3E7
330
3E5
100
AcDbEntity
  8
LC-012-003-----0
 62
     2
370
    -2
100
AcDbLine
 10
731.225021
 20
426.947806
 30
0.0
 11
857.6
 21
426.947806
 31
0.0
  0
LINE
  5
3E8
330
3E5
100
AcDbEntity
  8
LC-012-003-----0
 62
     2
370
    -2
100
AcDbLine
 10
854.0
 20
348.276802
 30
0.0
 11
854.0
 21
398.947806
 31
0.0
  0
SOLID
  5
3E9
330
3E5
100
AcDbEntity
  8
LC-012-003-----0
 62
     2
100
AcDbTrace
 10
849.333333
 20
348.276802
 30
0.0
 11
858.666667
 21
348.276802
 31
0.0
 12
854.0
 22
320.276802
 32
0.0
 13
854.0
 23
320.276802
 33
0.0
  0
SOLID
  5
3EA
330
3E5
100
AcDbEntity
  8
LC-012-003-----0
 62
     2
100
AcDbTrace
 10
858.666667
 20
398.947806
 30
0.0
 11
849.333333
 21
398.947806
 31
0.0
 12
854.0
 22
426.947806
 32
0.0
 13
854.0
 23
426.947806
 33
0.0
  0
MTEXT
  5
3EB
330
3E5
100
AcDbEntity
  8
LC-012-003-----0
 62
     2
100
AcDbMText
 10
823.2
 20
373.612304
 30
0.0
 40
28.0
 41
0.0
 71
     5
 72
     1
  1
\A1;15-107
  7
LCTX15-400-0-0pDIN-Schrift
 11
6.123031769111886E-17
 21
1.0
 31
0.0
 73
     1
 44
1.0
  0
POINT
  5
3EC
330
3E5
100
AcDbEntity
  8
Defpoints
 62
     0
100
AcDbPoint
 10
796.770315
 20
320.276802
 30
0.0
  0
POINT
  5
3ED
330
3E5
100
AcDbEntity
  8
Defpoints
 62
     0
100
AcDbPoint
 10
731.225021
 20
426.947806
 30
0.0
  0
POINT
  5
3EE
330
3E5
100
AcDbEntity
  8
Defpoints
 62
     0
100
AcDbPoint
 10
854.0
 20
426.947806
 30
0.0
  0
ENDBLK
  5
3F0
330
3E5
100
AcDbEntity
  8
0
100
AcDbBlockEnd
  0
BLOCK
  5
403
330
3F9
100
AcDbEntity
  8
0
100
AcDbBlockBegin
  2
*D22
 70
     1
 71
     0
 10
0.0
 20
0.0
 30
0.0
  3
*D22
  1

  0
LINE
  5
3FA
330
3F9
100
AcDbEntity
  8
LC-012-003-----0
 62
     2
370
    -2
100
AcDbLine
 10
576.59937
 20
316.567107
 30
0.0
 11
542.163626
 21
316.567107
 31
0.0
  0
LINE
  5
3FB
330
3F9
100
AcDbEntity
  8
LC-012-003-----0
 62
     2
370
    -2
100
AcDbLine
 10
630.725021
 20
238.4781
 30
0.0
 11
542.163626
 21
238.4781
 31
0.0
  0
LINE
  5
3FC
330
3F9
100
AcDbEntity
  8
LC-012-003-----0
 62
     2
370
    -2
100
AcDbLine
 10
545.763626
 20
288.567107
 30
0.0
 11
545.763626
 21
266.4781
 31
0.0
  0
SOLID
  5
3FD
330
3F9
100
AcDbEntity
  8
LC-012-003-----0
 62
     2
100
AcDbTrace
 10
550.430293
 20
288.567107
 30
0.0
 11
541.09696
 21
288.567107
 31
0.0
 12
545.763626
 22
316.567107
 32
0.0
 13
545.763626
 23
316.567107
 33
0.0
  0
SOLID
  5
3FE
330
3F9
100
AcDbEntity
  8
LC-012-003-----0
 62
     2
100
AcDbTrace
 10
541.09696
 20
266.4781
 30
0.0
 11
550.430293
 21
266.4781
 31
0.0
 12
545.763626
 22
238.4781
 32
0.0
 13
545.763626
 23
238.4781
 33
0.0
  0
MTEXT
  5
3FF
330
3F9
100
AcDbEntity
  8
LC-012-003-----0
 62
     2
100
AcDbMText
 10
514.963626
 20
274.294
 30
0.0
 40
28.0
 41
0.0
 71
     5
 72
     1
  1
\A1;78
  7
LCTX15-400-0-0pDIN-Schrift
 11
6.123031769111886E-17
 21
1.0
 31
0.0
 73
     1
 44
1.0
  0
POINT
  5
400
330
3F9
100
AcDbEntity
  8
Defpoints
 62
     0
100
AcDbPoint
 10
576.59937
 20
316.567107
 30
0.0
  0
POINT
  5
401
330
3F9
100
AcDbEntity
  8
Defpoints
 62
     0
100
AcDbPoint
 10
630.725021
 20
238.4781
 30
0.0
  0
POINT
  5
402
330
3F9
100
AcDbEntity
  8
Defpoints
 62
     0
100
AcDbPoint
 10
545.763626
 20
238.4781
 30
0.0
  0
ENDBLK
  5
404
330
3F9
100
AcDbEntity
  8
0
100
AcDbBlockEnd
  0
BLOCK
  5
412
330
406
100
AcDbEntity
  8
0
100
AcDbBlockBegin
  2
*D23
 70
     1
 71
     0
 10
0.0
 20
0.0
 30
0.0
  3
*D23
  1

  0
LINE
  5
407
330
406
100
AcDbEntity
  8
LC-012-003-----0
 62
     2
370
    -2
100
AcDbLine
 10
869.725021
 20
293.466596
 30
0.0
 11
914.053207
 21
293.466596
 31
0.0
  0
LINE
  5
408
330
406
100
AcDbEntity
  8
LC-012-003-----0
 62
     2
370
    -2
100
AcDbLine
 10
869.725021
 20
243.466596
 30
0.0
 11
914.053207
 21
243.466596
 31
0.0
  0
LINE
  5
409
330
406
100
AcDbEntity
  8
LC-012-003-----0
 62
     2
370
    -2
100
AcDbLine
 10
910.453207
 20
321.466596
 30
0.0
 11
910.453207
 21
349.466596
 31
0.0
  0
LINE
  5
40A
330
406
100
AcDbEntity
  8
LC-012-003-----0
 62
     2
370
    -2
100
AcDbLine
 10
910.453207
 20
215.466596
 30
0.0
 11
910.453207
 21
187.466596
 31
0.0
  0
LINE
  5
40B
330
406
100
AcDbEntity
  8
LC-012-003-----0
 62
     2
370
    -2
100
AcDbLine
 10
910.453207
 20
293.466596
 30
0.0
 11
910.453207
 21
243.466596
 31
0.0
  0
SOLID
  5
40C
330
406
100
AcDbEntity
  8
LC-012-003-----0
 62
     2
100
AcDbTrace
 10
905.786541
 20
321.466596
 30
0.0
 11
915.119874
 21
321.466596
 31
0.0
 12
910.453207
 22
293.466596
 32
0.0
 13
910.453207
 23
293.466596
 33
0.0
  0
SOLID
  5
40D
330
406
100
AcDbEntity
  8
LC-012-003-----0
 62
     2
100
AcDbTrace
 10
915.119874
 20
215.466596
 30
0.0
 11
905.786541
 21
215.466596
 31
0.0
 12
910.453207
 22
243.466596
 32
0.0
 13
910.453207
 23
243.466596
 33
0.0
  0
MTEXT
  5
40E
330
406
100
AcDbEntity
  8
LC-012-003-----0
 62
     2
100
AcDbMText
 10
879.653207
 20
268.466596
 30
0.0
 40
28.0
 41
0.0
 71
     5
 72
     1
  1
\A1;DN50
  7
LCTX15-400-0-0pDIN-Schrift
 11
6.123031769111886E-17
 21
1.0
 31
0.0
 73
     1
 44
1.0
  0
POINT
  5
40F
330
406
100
AcDbEntity
  8
Defpoints
 62
     0
100
AcDbPoint
 10
869.725021
 20
293.466596
 30
0.0
  0
POINT
  5
410
330
406
100
AcDbEntity
  8
Defpoints
 62
     0
100
AcDbPoint
 10
869.725021
 20
243.466596
 30
0.0
  0
POINT
  5
411
330
406
100
AcDbEntity
  8
Defpoints
 62
     0
100
AcDbPoint
 10
910.453207
 20
243.466596
 30
0.0
  0
ENDBLK
  5
413
330
406
100
AcDbEntity
  8
0
100
AcDbBlockEnd
  0
BLOCK
  5
427
330
41D
100
AcDbEntity
  8
0
100
AcDbBlockBegin
  2
*D24
 70
     1
 71
     0
 10
0.0
 20
0.0
 30
0.0
  3
*D24
  1

  0
LINE
  5
41E
330
41D
100
AcDbEntity
  8
LC-012-003-----0
 62
     2
370
    -2
100
AcDbLine
 10
737.225021
 20
241.9781
 30
0.0
 11
737.225021
 21
184.564
 31
0.0
  0
LINE
  5
41F
330
41D
100
AcDbEntity
  8
LC-012-003-----0
 62
     2
370
    -2
100
AcDbLine
 10
873.225021
 20
245.716596
 30
0.0
 11
873.225021
 21
184.564
 31
0.0
  0
LINE
  5
420
330
41D
100
AcDbEntity
  8
LC-012-003-----0
 62
     2
370
    -2
100
AcDbLine
 10
765.225021
 20
188.164
 30
0.0
 11
845.225021
 21
188.164
 31
0.0
  0
SOLID
  5
421
330
41D
100
AcDbEntity
  8
LC-012-003-----0
 62
     2
100
AcDbTrace
 10
765.225021
 20
192.830667
 30
0.0
 11
765.225021
 21
183.497333
 31
0.0
 12
737.225021
 22
188.164
 32
0.0
 13
737.225021
 23
188.164
 33
0.0
  0
SOLID
  5
422
330
41D
100
AcDbEntity
  8
LC-012-003-----0
 62
     2
100
AcDbTrace
 10
845.225021
 20
183.497333
 30
0.0
 11
845.225021
 21
192.830667
 31
0.0
 12
873.225021
 22
188.164
 32
0.0
 13
873.225021
 23
188.164
 33
0.0
  0
MTEXT
  5
423
330
41D
100
AcDbEntity
  8
LC-012-003-----0
 62
     2
100
AcDbMText
 10
805.225021
 20
218.964
 30
0.0
 40
28.0
 41
0.0
 71
     5
 72
     1
  1
\A1;136
  7
LCTX15-400-0-0pDIN-Schrift
 73
     1
 44
1.0
  0
POINT
  5
424
330
41D
100
AcDbEntity
  8
Defpoints
 62
     0
100
AcDbPoint
 10
737.225021
 20
241.9781
 30
0.0
  0
POINT
  5
425
330
41D
100
AcDbEntity
  8
Defpoints
 62
     0
100
AcDbPoint
 10
873.225021
 20
245.716596
 30
0.0
  0
POINT
  5
426
330
41D
100
AcDbEntity
  8
Defpoints
 62
     0
100
AcDbPoint
 10
873.225021
 20
188.164
 30
0.0
  0
ENDBLK
  5
428
330
41D
100
AcDbEntity
  8
0
100
AcDbBlockEnd
  0
BLOCK
  5
43D
330
43C
100
AcDbEntity
  8
0
100
AcDbBlockBegin
  2
*X1925
 70
     1
 71
     0
 10
0.0
 20
0.0
 30
0.0
  3
*X1925
  1

  4
*X19
  0
LINE
  5
43F
330
43C
100
AcDbEntity
  8
LC-003-005-----0
 62
     7
370
    25
100
AcDbLine
 10
691.148382
 20
422.447806
 30
0.0
 11
691.225021
 21
422.524444
 31
0.0
  0
LINE
  5
440
330
43C
100
AcDbEntity
  8
LC-003-005-----0
 62
     7
370
    25
100
AcDbLine
 10
689.725021
 20
423.852871
 30
0.0
 11
690.953345
 21
425.081195
 31
0.0
  0
LINE
  5
441
330
43C
100
AcDbEntity
  8
LC-003-005-----0
 62
     7
370
    25
100
AcDbLine
 10
687.991528
 20
424.947806
 30
0.0
 11
689.398973
 21
426.35525
 31
0.0
  0
LINE
  5
442
330
43C
100
AcDbEntity
  8
LC-003-005-----0
 62
     7
370
    25
100
AcDbLine
 10
685.163101
 20
424.947806
 30
0.0
 11
686.663101
 21
426.447806
 31
0.0
  0
LINE
  5
443
330
43C
100
AcDbEntity
  8
LC-003-005-----0
 62
     7
370
    25
100
AcDbLine
 10
682.334674
 20
424.947806
 30
0.0
 11
683.834674
 21
426.447806
 31
0.0
  0
ENDBLK
  5
43E
330
43C
100
AcDbEntity
  8
0
100
AcDbBlockEnd
  0
BLOCK
  5
44F
330
44E
100
AcDbEntity
  8
0
100
AcDbBlockBegin
  2
*X2026
 70
     1
 71
     0
 10
0.0
 20
0.0
 30
0.0
  3
*X2026
  1

  4
*X20
  0
LINE
  5
451
330
44E
100
AcDbEntity
  8
LC-003-005-----0
 62
     7
370
    25
100
AcDbLine
 10
639.225021
 20
412.94987
 30
0.0
 11
636.727085
 21
415.447806
 31
0.0
  0
LINE
  5
452
330
44E
100
AcDbEntity
  8
LC-003-005-----0
 62
     7
370
    25
100
AcDbLine
 10
638.561839
 20
410.784624
 30
0.0
 11
634.061839
 21
415.284624
 31
0.0
  0
LINE
  5
453
330
44E
100
AcDbEntity
  8
LC-003-005-----0
 62
     7
370
    25
100
AcDbLine
 10
638.225021
 20
408.293016
 30
0.0
 11
636.225021
 21
410.293016
 31
0.0
  0
LINE
  5
454
330
44E
100
AcDbEntity
  8
LC-003-005-----0
 62
     7
370
    25
100
AcDbLine
 10
634.815006
 20
411.70303
 30
0.0
 11
632.647626
 21
413.870411
 31
0.0
  0
LINE
  5
455
330
44E
100
AcDbEntity
  8
LC-003-005-----0
 62
     7
370
    25
100
AcDbLine
 10
638.225021
 20
405.464588
 30
0.0
 11
636.225021
 21
407.464588
 31
0.0
  0
LINE
  5
456
330
44E
100
AcDbEntity
  8
LC-003-005-----0
 62
     7
370
    25
100
AcDbLine
 10
633.354732
 20
410.334877
 30
0.0
 11
631.233412
 21
412.456197
 31
0.0
  0
LINE
  5
457
330
44E
100
AcDbEntity
  8
LC-003-005-----0
 62
     7
370
    25
100
AcDbLine
 10
636.413376
 20
404.447806
 30
0.0
 11
636.225021
 21
404.636161
 31
0.0
  0
LINE
  5
458
330
44E
100
AcDbEntity
  8
LC-003-005-----0
 62
     7
370
    25
100
AcDbLine
 10
631.940519
 20
408.920663
 30
0.0
 11
629.819198
 21
411.041983
 31
0.0
  0
LINE
  5
459
330
44E
100
AcDbEntity
  8
LC-003-005-----0
 62
     7
370
    25
100
AcDbLine
 10
630.526305
 20
407.50645
 30
0.0
 11
628.404985
 21
409.62777
 31
0.0
  0
LINE
  5
45A
330
44E
100
AcDbEntity
  8
LC-003-005-----0
 62
     7
370
    25
100
AcDbLine
 10
630.225021
 20
404.979307
 30
0.0
 11
627.225021
 21
407.979307
 31
0.0
  0
LINE
  5
45B
330
44E
100
AcDbEntity
  8
LC-003-005-----0
 62
     7
370
    25
100
AcDbLine
 10
630.225021
 20
402.15088
 30
0.0
 11
627.225021
 21
405.15088
 31
0.0
  0
LINE
  5
45C
330
44E
100
AcDbEntity
  8
LC-003-005-----0
 62
     7
370
    25
100
AcDbLine
 10
630.225021
 20
399.322453
 30
0.0
 11
627.225021
 21
402.322453
 31
0.0
  0
LINE
  5
45D
330
44E
100
AcDbEntity
  8
LC-003-005-----0
 62
     7
370
    25
100
AcDbLine
 10
630.225021
 20
396.494026
 30
0.0
 11
627.225021
 21
399.494026
 31
0.0
  0
LINE
  5
45E
330
44E
100
AcDbEntity
  8
LC-003-005-----0
 62
     7
370
    25
100
AcDbLine
 10
630.225021
 20
393.665599
 30
0.0
 11
627.225021
 21
396.665599
 31
0.0
  0
LINE
  5
45F
330
44E
100
AcDbEntity
  8
LC-003-005-----0
 62
     7
370
    25
100
AcDbLine
 10
630.225021
 20
390.837171
 30
0.0
 11
627.225021
 21
393.837171
 31
0.0
  0
LINE
  5
460
330
44E
100
AcDbEntity
  8
LC-003-005-----0
 62
     7
370
    25
100
AcDbLine
 10
630.225021
 20
388.008744
 30
0.0
 11
627.225021
 21
391.008744
 31
0.0
  0
LINE
  5
461
330
44E
100
AcDbEntity
  8
LC-003-005-----0
 62
     7
370
    25
100
AcDbLine
 10
630.225021
 20
385.180317
 30
0.0
 11
627.225021
 21
388.180317
 31
0.0
  0
LINE
  5
462
330
44E
100
AcDbEntity
  8
LC-003-005-----0
 62
     7
370
    25
100
AcDbLine
 10
630.225021
 20
382.35189
 30
0.0
 11
627.225021
 21
385.35189
 31
0.0
  0
LINE
  5
463
330
44E
100
AcDbEntity
  8
LC-003-005-----0
 62
     7
370
    25
100
AcDbLine
 10
630.225021
 20
379.523463
 30
0.0
 11
627.225021
 21
382.523463
 31
0.0
  0
LINE
  5
464
330
44E
100
AcDbEntity
  8
LC-003-005-----0
 62
     7
370
    25
100
AcDbLine
 10
630.225021
 20
376.695036
 30
0.0
 11
627.225021
 21
379.695036
 31
0.0
  0
LINE
  5
465
330
44E
100
AcDbEntity
  8
LC-003-005-----0
 62
     7
370
    25
100
AcDbLine
 10
630.225021
 20
373.866609
 30
0.0
 11
627.225021
 21
376.866609
 31
0.0
  0
LINE
  5
466
330
44E
100
AcDbEntity
  8
LC-003-005-----0
 62
     7
370
    25
100
AcDbLine
 10
630.225021
 20
371.038182
 30
0.0
 11
627.225021
 21
374.038182
 31
0.0
  0
LINE
  5
467
330
44E
100
AcDbEntity
  8
LC-003-005-----0
 62
     7
370
    25
100
AcDbLine
 10
630.225021
 20
368.209754
 30
0.0
 11
627.225021
 21
371.209754
 31
0.0
  0
LINE
  5
468
330
44E
100
AcDbEntity
  8
LC-003-005-----0
 62
     7
370
    25
100
AcDbLine
 10
630.225021
 20
365.381327
 30
0.0
 11
627.225021
 21
368.381327
 31
0.0
  0
LINE
  5
469
330
44E
100
AcDbEntity
  8
LC-003-005-----0
 62
     7
370
    25
100
AcDbLine
 10
630.225021
 20
362.5529
 30
0.0
 11
627.225021
 21
365.5529
 31
0.0
  0
LINE
  5
46A
330
44E
100
AcDbEntity
  8
LC-003-005-----0
 62
     7
370
    25
100
AcDbLine
 10
630.225021
 20
359.724473
 30
0.0
 11
627.225021
 21
362.724473
 31
0.0
  0
LINE
  5
46B
330
44E
100
AcDbEntity
  8
LC-003-005-----0
 62
     7
370
    25
100
AcDbLine
 10
630.225021
 20
356.896046
 30
0.0
 11
627.225021
 21
359.896046
 31
0.0
  0
LINE
  5
46C
330
44E
100
AcDbEntity
  8
LC-003-005-----0
 62
     7
370
    25
100
AcDbLine
 10
630.225021
 20
354.067619
 30
0.0
 11
627.225021
 21
357.067619
 31
0.0
  0
LINE
  5
46D
330
44E
100
AcDbEntity
  8
LC-003-005-----0
 62
     7
370
    25
100
AcDbLine
 10
630.225021
 20
351.239192
 30
0.0
 11
627.225021
 21
354.239192
 31
0.0
  0
LINE
  5
46E
330
44E
100
AcDbEntity
  8
LC-003-005-----0
 62
     7
370
    25
100
AcDbLine
 10
630.225021
 20
348.410765
 30
0.0
 11
627.225021
 21
351.410765
 31
0.0
  0
LINE
  5
46F
330
44E
100
AcDbEntity
  8
LC-003-005-----0
 62
     7
370
    25
100
AcDbLine
 10
630.225021
 20
345.582337
 30
0.0
 11
627.225021
 21
348.582337
 31
0.0
  0
LINE
  5
470
330
44E
100
AcDbEntity
  8
LC-003-005-----0
 62
     7
370
    25
100
AcDbLine
 10
630.225021
 20
342.75391
 30
0.0
 11
627.225021
 21
345.75391
 31
0.0
  0
LINE
  5
471
330
44E
100
AcDbEntity
  8
LC-003-005-----0
 62
     7
370
    25
100
AcDbLine
 10
630.225021
 20
339.925483
 30
0.0
 11
627.225021
 21
342.925483
 31
0.0
  0
LINE
  5
472
330
44E
100
AcDbEntity
  8
LC-003-005-----0
 62
     7
370
    25
100
AcDbLine
 10
630.225021
 20
337.097056
 30
0.0
 11
627.225021
 21
340.097056
 31
0.0
  0
LINE
  5
473
330
44E
100
AcDbEntity
  8
LC-003-005-----0
 62
     7
370
    25
100
AcDbLine
 10
630.225021
 20
334.268629
 30
0.0
 11
627.225021
 21
337.268629
 31
0.0
  0
LINE
  5
474
330
44E
100
AcDbEntity
  8
LC-003-005-----0
 62
     7
370
    25
100
AcDbLine
 10
630.225021
 20
331.440202
 30
0.0
 11
627.225021
 21
334.440202
 31
0.0
  0
LINE
  5
475
330
44E
100
AcDbEntity
  8
LC-003-005-----0
 62
     7
370
    25
100
AcDbLine
 10
630.225021
 20
328.611775
 30
0.0
 11
627.225021
 21
331.611775
 31
0.0
  0
LINE
  5
476
330
44E
100
AcDbEntity
  8
LC-003-005-----0
 62
     7
370
    25
100
AcDbLine
 10
630.225021
 20
325.783348
 30
0.0
 11
627.225021
 21
328.783348
 31
0.0
  0
LINE
  5
477
330
44E
100
AcDbEntity
  8
LC-003-005-----0
 62
     7
370
    25
100
AcDbLine
 10
630.225021
 20
322.95492
 30
0.0
 11
627.225021
 21
325.95492
 31
0.0
  0
LINE
  5
478
330
44E
100
AcDbEntity
  8
LC-003-005-----0
 62
     7
370
    25
100
AcDbLine
 10
630.225021
 20
320.126493
 30
0.0
 11
627.225021
 21
323.126493
 31
0.0
  0
LINE
  5
479
330
44E
100
AcDbEntity
  8
LC-003-005-----0
 62
     7
370
    25
100
AcDbLine
 10
630.225021
 20
317.298066
 30
0.0
 11
627.225021
 21
320.298066
 31
0.0
  0
LINE
  5
47A
330
44E
100
AcDbEntity
  8
LC-003-005-----0
 62
     7
370
    25
100
AcDbLine
 10
630.225021
 20
314.469639
 30
0.0
 11
627.225021
 21
317.469639
 31
0.0
  0
LINE
  5
47B
330
44E
100
AcDbEntity
  8
LC-003-005-----0
 62
     7
370
    25
100
AcDbLine
 10
630.225021
 20
311.641212
 30
0.0
 11
627.225021
 21
314.641212
 31
0.0
  0
LINE
  5
47C
330
44E
100
AcDbEntity
  8
LC-003-005-----0
 62
     7
370
    25
100
AcDbLine
 10
630.225021
 20
308.812785
 30
0.0
 11
627.225021
 21
311.812785
 31
0.0
  0
LINE
  5
47D
330
44E
100
AcDbEntity
  8
LC-003-005-----0
 62
     7
370
    25
100
AcDbLine
 10
630.225021
 20
305.984358
 30
0.0
 11
627.225021
 21
308.984358
 31
0.0
  0
ENDBLK
  5
450
330
44E
100
AcDbEntity
  8
0
100
AcDbBlockEnd
  0
BLOCK
  5
48B
330
481
100
AcDbEntity
  8
0
100
AcDbBlockBegin
  2
*D27
 70
     1
 71
     0
 10
0.0
 20
0.0
 30
0.0
  3
*D27
  1

  0
LINE
  5
482
330
481
100
AcDbEntity
  8
LC-012-003-----0
 62
     2
370
    -2
100
AcDbLine
 10
632.725021
 20
426.447806
 30
0.0
 11
632.725021
 21
443.6
 31
0.0
  0
LINE
  5
483
330
481
100
AcDbEntity
  8
LC-012-003-----0
 62
     2
370
    -2
100
AcDbLine
 10
731.725021
 20
426.447806
 30
0.0
 11
731.725021
 21
443.6
 31
0.0
  0
LINE
  5
484
330
481
100
AcDbEntity
  8
LC-012-003-----0
 62
     2
370
    -2
100
AcDbLine
 10
660.725021
 20
440.0
 30
0.0
 11
703.725021
 21
440.0
 31
0.0
  0
SOLID
  5
485
330
481
100
AcDbEntity
  8
LC-012-003-----0
 62
     2
100
AcDbTrace
 10
660.725021
 20
444.666667
 30
0.0
 11
660.725021
 21
435.333333
 31
0.0
 12
632.725021
 22
440.0
 32
0.0
 13
632.725021
 23
440.0
 33
0.0
  0
SOLID
  5
486
330
481
100
AcDbEntity
  8
LC-012-003-----0
 62
     2
100
AcDbTrace
 10
703.725021
 20
435.333333
 30
0.0
 11
703.725021
 21
444.666667
 31
0.0
 12
731.725021
 22
440.0
 32
0.0
 13
731.725021
 23
440.0
 33
0.0
  0
MTEXT
  5
487
330
481
100
AcDbEntity
  8
LC-012-003-----0
 62
     2
100
AcDbMText
 10
682.343319
 20
470.8
 30
0.0
 40
28.0
 41
0.0
 71
     5
 72
     1
  1
\A1;100
  7
LCTX15-400-0-0pDIN-Schrift
 73
     1
 44
1.0
  0
POINT
  5
488
330
481
100
AcDbEntity
  8
Defpoints
 62
     0
100
AcDbPoint
 10
632.725021
 20
426.447806
 30
0.0
  0
POINT
  5
489
330
481
100
AcDbEntity
  8
Defpoints
 62
     0
100
AcDbPoint
 10
731.725021
 20
426.447806
 30
0.0
  0
POINT
  5
48A
330
481
100
AcDbEntity
  8
Defpoints
 62
     0
100
AcDbPoint
 10
731.725021
 20
440.0
 30
0.0
  0
ENDBLK
  5
48C
330
481
100
AcDbEntity
  8
0
100
AcDbBlockEnd
  0
BLOCK
  5
49D
330
49C
100
AcDbEntity
  8
0
100
AcDbBlockBegin
  2
*X2128
 70
     1
 71
     0
 10
0.0
 20
0.0
 30
0.0
  3
*X2128
  1

  4
*X21
  0
LINE
  5
49F
330
49C
100
AcDbEntity
  8
LC-003-005-----0
 62
     7
370
    25
100
AcDbLine
 10
628.21695
 20
302.947831
 30
0.0
 11
630.225458
 21
304.956339
 31
0.0
  0
LINE
  5
4A0
330
49C
100
AcDbEntity
  8
LC-003-005-----0
 62
     7
370
    25
100
AcDbLine
 10
625.388523
 20
302.947831
 30
0.0
 11
628.388498
 21
305.947806
 31
0.0
  0
LINE
  5
4A1
330
49C
100
AcDbEntity
  8
LC-003-005-----0
 62
     7
370
    25
100
AcDbLine
 10
622.560096
 20
302.947831
 30
0.0
 11
627.225489
 21
307.613224
 31
0.0
  0
LINE
  5
4A2
330
49C
100
AcDbEntity
  8
LC-003-005-----0
 62
     7
370
    25
100
AcDbLine
 10
622.225414
 20
305.441576
 30
0.0
 11
627.225497
 21
310.441659
 31
0.0
  0
LINE
  5
4A3
330
49C
100
AcDbEntity
  8
LC-003-005-----0
 62
     7
370
    25
100
AcDbLine
 10
622.225414
 20
308.270003
 30
0.0
 11
627.225506
 21
313.270095
 31
0.0
  0
LINE
  5
4A4
330
49C
100
AcDbEntity
  8
LC-003-005-----0
 62
     7
370
    25
100
AcDbLine
 10
622.225414
 20
311.09843
 30
0.0
 11
624.07473
 21
312.947747
 31
0.0
  0
LINE
  5
4A5
330
49C
100
AcDbEntity
  8
LC-003-005-----0
 62
     7
370
    25
100
AcDbLine
 10
625.225507
 20
314.098524
 30
0.0
 11
627.225515
 21
316.098531
 31
0.0
  0
LINE
  5
4A6
330
49C
100
AcDbEntity
  8
LC-003-005-----0
 62
     7
370
    25
100
AcDbLine
 10
625.225507
 20
316.926951
 30
0.0
 11
627.225523
 21
318.926967
 31
0.0
  0
LINE
  5
4A7
330
49C
100
AcDbEntity
  8
LC-003-005-----0
 62
     7
370
    25
100
AcDbLine
 10
625.225507
 20
319.755378
 30
0.0
 11
626.82165
 21
321.35152
 31
0.0
  0
LINE
  5
4A8
330
49C
100
AcDbEntity
  8
LC-003-005-----0
 62
     7
370
    25
100
AcDbLine
 10
625.225507
 20
322.583805
 30
0.0
 11
625.407436
 21
322.765734
 31
0.0
  0
ENDBLK
  5
49E
330
49C
100
AcDbEntity
  8
0
100
AcDbBlockEnd
  0
BLOCK
  5
4B4
330
4B3
100
AcDbEntity
  8
0
100
AcDbBlockBegin
  2
*X2229
 70
     1
 71
     0
 10
0.0
 20
0.0
 30
0.0
  3
*X2229
  1

  4
*X22
  0
LINE
  5
4B6
330
4B3
100
AcDbEntity
  8
LC-003-005-----0
 62
     7
370
    25
100
AcDbLine
 10
741.354035
 20
302.947831
 30
0.0
 11
742.224628
 21
303.818423
 31
0.0
  0
LINE
  5
4B7
330
4B3
100
AcDbEntity
  8
LC-003-005-----0
 62
     7
370
    25
100
AcDbLine
 10
738.525608
 20
302.947831
 30
0.0
 11
742.224628
 21
306.64685
 31
0.0
  0
LINE
  5
4B8
330
4B3
100
AcDbEntity
  8
LC-003-005-----0
 62
     7
370
    25
100
AcDbLine
 10
735.697181
 20
302.947831
 30
0.0
 11
742.224628
 21
309.475277
 31
0.0
  0
LINE
  5
4B9
330
4B3
100
AcDbEntity
  8
LC-003-005-----0
 62
     7
370
    25
100
AcDbLine
 10
734.224583
 20
304.30366
 30
0.0
 11
735.868729
 21
305.947806
 31
0.0
  0
LINE
  5
4BA
330
4B3
100
AcDbEntity
  8
LC-003-005-----0
 62
     7
370
    25
100
AcDbLine
 10
737.224553
 20
307.30363
 30
0.0
 11
742.224628
 21
312.303705
 31
0.0
  0
LINE
  5
4BB
330
4B3
100
AcDbEntity
  8
LC-003-005-----0
 62
     7
370
    25
100
AcDbLine
 10
737.224545
 20
310.132049
 30
0.0
 11
740.040243
 21
312.947747
 31
0.0
  0
LINE
  5
4BC
330
4B3
100
AcDbEntity
  8
LC-003-005-----0
 62
     7
370
    25
100
AcDbLine
 10
737.224536
 20
312.960467
 30
0.0
 11
739.224534
 21
314.960465
 31
0.0
  0
LINE
  5
4BD
330
4B3
100
AcDbEntity
  8
LC-003-005-----0
 62
     7
370
    25
100
AcDbLine
 10
737.224527
 20
315.788886
 30
0.0
 11
739.224534
 21
317.788892
 31
0.0
  0
LINE
  5
4BE
330
4B3
100
AcDbEntity
  8
LC-003-005-----0
 62
     7
370
    25
100
AcDbLine
 10
737.224519
 20
318.617304
 30
0.0
 11
739.224534
 21
320.617319
 31
0.0
  0
ENDBLK
  5
4B5
330
4B3
100
AcDbEntity
  8
0
100
AcDbBlockEnd
  0
BLOCK
  5
4EB
330
4EA
100
AcDbEntity
  8
0
100
AcDbBlockBegin
  2
LCDIM1
 70
     0
 71
     0
 10
0.0
 20
0.0
 30
0.0
  3
LCDIM1
  1

  4
LCDIM1
  0
TEXT
  5
4ED
330
4EA
100
AcDbEntity
  8
LC-012-003-----0
 62
     7
370
   140
100
AcDbText
 10
928.162683
 20
137.076579
 30
0.0
 40
28.0
  1
 15%%d
 50
58.398071
 41
0.9
 51
15.0
  7
LCTX15-400-0-0-Arial
 72
     1
 11
944.695552
 21
163.948348
 31
0.0
100
AcDbText
  0
LINE
  5
4EE
330
4EA
100
AcDbEntity
  8
LC-012-003-----0
 62
     7
370
    25
100
AcDbLine
 10
976.247417
 20
183.242859
 30
0.0
 11
978.081076
 21
192.587258
 31
0.0
  0
LINE
  5
4EF
330
4EA
100
AcDbEntity
  8
LC-012-003-----0
 62
     7
370
    25
100
AcDbLine
 10
978.998695
 20
197.263482
 30
0.0
 11
981.639053
 21
210.718854
 31
0.0
  0
LINE
  5
4F0
330
4EA
100
AcDbEntity
  8
LC-012-003-----0
 62
     7
370
    25
100
AcDbLine
 10
981.639053
 20
210.718854
 30
0.0
 11
975.962065
 21
199.13177
 31
0.0
  0
LINE
  5
4F1
330
4EA
100
AcDbEntity
  8
LC-012-003-----0
 62
     7
370
    25
100
AcDbLine
 10
973.00365
 20
184.334642
 30
0.0
 11
976.247417
 21
183.242859
 31
0.0
  0
LINE
  5
4F2
330
4EA
100
AcDbEntity
  8
LC-012-003-----0
 62
     7
370
    25
100
AcDbLine
 10
975.326962
 20
183.48695
 30
0.0
 11
976.659234
 21
190.276262
 31
0.0
  0
LINE
  5
4F3
330
4EA
100
AcDbEntity
  8
LC-012-003-----0
 62
     7
370
    25
100
AcDbLine
 10
978.134658
 20
197.795082
 30
0.0
 11
979.316773
 21
203.819186
 31
0.0
  0
LINE
  5
4F4
330
4EA
100
AcDbEntity
  8
LC-012-003-----0
 62
     7
370
    25
100
AcDbLine
 10
979.316773
 20
203.819186
 30
0.0
 11
976.775129
 21
198.631533
 31
0.0
  0
LINE
  5
4F5
330
4EA
100
AcDbEntity
  8
LC-012-003-----0
 62
     7
370
    25
100
AcDbLine
 10
974.406508
 20
183.731041
 30
0.0
 11
975.237393
 21
187.965266
 31
0.0
  0
LINE
  5
4F6
330
4EA
100
AcDbEntity
  8
LC-012-003-----0
 62
     7
370
    25
100
AcDbLine
 10
973.486053
 20
183.975132
 30
0.0
 11
973.815551
 21
185.65427
 31
0.0
  0
LINE
  5
4F7
330
4EA
100
AcDbEntity
  8
LC-012-003-----0
 62
     7
370
    25
100
AcDbLine
 10
983.825236
 20
295.754094
 30
0.0
 11
989.216871
 21
268.2781
 31
0.0
  0
LINE
  5
4F8
330
4EA
100
AcDbEntity
  8
LC-012-003-----0
 62
     7
370
    25
100
AcDbLine
 10
989.216871
 20
268.2781
 30
0.0
 11
991.120262
 21
296.213331
 31
0.0
  0
LINE
  5
4F9
330
4EA
100
AcDbEntity
  8
LC-012-003-----0
 62
     7
370
    25
100
AcDbLine
 10
991.120262
 20
296.213331
 30
0.0
 11
983.825236
 21
295.754094
 31
0.0
  0
LINE
  5
4FA
330
4EA
100
AcDbEntity
  8
LC-012-003-----0
 62
     7
370
    25
100
AcDbLine
 10
984.769676
 20
295.875954
 30
0.0
 11
988.759486
 21
275.543718
 31
0.0
  0
LINE
  5
4FB
330
4EA
100
AcDbEntity
  8
LC-012-003-----0
 62
     7
370
    25
100
AcDbLine
 10
988.759486
 20
275.543718
 30
0.0
 11
990.167996
 21
296.215788
 31
0.0
  0
LINE
  5
4FC
330
4EA
100
AcDbEntity
  8
LC-012-003-----0
 62
     7
370
    25
100
AcDbLine
 10
985.714117
 20
295.997813
 30
0.0
 11
988.302102
 21
282.809335
 31
0.0
  0
LINE
  5
4FD
330
4EA
100
AcDbEntity
  8
LC-012-003-----0
 62
     7
370
    25
100
AcDbLine
 10
988.302102
 20
282.809335
 30
0.0
 11
989.215729
 21
296.218246
 31
0.0
  0
LINE
  5
4FE
330
4EA
100
AcDbEntity
  8
LC-012-003-----0
 62
     7
370
    25
100
AcDbLine
 10
986.658557
 20
296.119672
 30
0.0
 11
987.844717
 21
290.074953
 31
0.0
  0
LINE
  5
4FF
330
4EA
100
AcDbEntity
  8
LC-012-003-----0
 62
     7
370
    25
100
AcDbLine
 10
987.844717
 20
290.074953
 30
0.0
 11
988.263463
 21
296.220704
 31
0.0
  0
ARC
  5
501
330
4EA
100
AcDbEntity
  8
LC-013-003-MTG-0
 62
     7
370
    25
100
AcDbCircle
 10
766.825021
 20
268.2781
 30
0.0
 40
222.391850449758
100
AcDbArc
 50
318.244661
 51
319.028854
  0
ARC
  5
502
330
4EA
100
AcDbEntity
  8
LC-013-003-MTG-0
 62
     7
370
    25
100
AcDbCircle
 10
766.825021
 20
268.2781
 30
0.0
 40
222.3918504497581
100
AcDbArc
 50
319.296551
 51
337.499591
  0
ARC
  5
503
330
4EA
100
AcDbEntity
  8
LC-013-003-MTG-0
 62
     7
370
    25
100
AcDbCircle
 10
766.825021
 20
268.2781
 30
0.0
 40
222.3918504497581
100
AcDbArc
 50
341.575557
 51
9.996581
  0
LINE
  5
505
330
4EA
100
AcDbEntity
  8
LC-014-003-MTH-0
 62
     7
370
    25
100
AcDbLine
 10
869.599529
 20
240.739754
 30
0.0
 11
937.360937
 21
222.583139
 31
0.0
  0
LINE
  5
506
330
4EA
100
AcDbEntity
  8
LC-014-003-MTH-0
 62
     7
370
    25
100
AcDbLine
 10
938.218967
 20
222.35323
 30
0.0
 11
985.502756
 21
209.683578
 31
0.0
  0
LINE
  5
507
330
4EA
100
AcDbEntity
  8
LC-014-003-MTH-0
 62
     7
370
    25
100
AcDbLine
 10
873.225021
 20
268.2781
 30
0.0
 11
993.216871
 21
268.2781
 31
0.0
  0
ENDBLK
  5
4EC
330
4EA
100
AcDbEntity
  8
0
100
AcDbBlockEnd
  0
BLOCK
  5
560
330
556
100
AcDbEntity
  8
0
100
AcDbBlockBegin
  2
*D31
 70
     1
 71
     0
 10
0.0
 20
0.0
 30
0.0
  3
*D31
  1

  0
LINE
  5
557
330
556
100
AcDbEntity
  8
LC-012-003-----0
 62
     2
370
    -2
100
AcDbLine
 10
567.225021
 20
316.92372
 30
0.0
 11
567.225021
 21
137.638
 31
0.0
  0
LINE
  5
558
330
556
100
AcDbEntity
  8
LC-012-003-----0
 62
     2
370
    -2
100
AcDbLine
 10
873.225021
 20
268.466596
 30
0.0
 11
873.225021
 21
137.638
 31
0.0
  0
LINE
  5
559
330
556
100
AcDbEntity
  8
LC-012-003-----0
 62
     2
370
    -2
100
AcDbLine
 10
595.225021
 20
141.238
 30
0.0
 11
845.225021
 21
141.238
 31
0.0
  0
SOLID
  5
55A
330
556
100
AcDbEntity
  8
LC-012-003-----0
 62
     2
100
AcDbTrace
 10
595.225021
 20
145.904667
 30
0.0
 11
595.225021
 21
136.571333
 31
0.0
 12
567.225021
 22
141.238
 32
0.0
 13
567.225021
 23
141.238
 33
0.0
  0
SOLID
  5
55B
330
556
100
AcDbEntity
  8
LC-012-003-----0
 62
     2
100
AcDbTrace
 10
845.225021
 20
136.571333
 30
0.0
 11
845.225021
 21
145.904667
 31
0.0
 12
873.225021
 22
141.238
 32
0.0
 13
873.225021
 23
141.238
 33
0.0
  0
MTEXT
  5
55C
330
556
100
AcDbEntity
  8
LC-012-003-----0
 62
     2
100
AcDbMText
 10
712.797596
 20
172.038
 30
0.0
 40
28.0
 41
0.0
 71
     5
 72
     1
  1
\A1;305
  7
LCTX15-400-0-0pDIN-Schrift
 73
     1
 44
1.0
  0
POINT
  5
55D
330
556
100
AcDbEntity
  8
Defpoints
 62
     0
100
AcDbPoint
 10
567.225021
 20
316.92372
 30
0.0
  0
POINT
  5
55E
330
556
100
AcDbEntity
  8
Defpoints
 62
     0
100
AcDbPoint
 10
873.225021
 20
268.466596
 30
0.0
  0
POINT
  5
55F
330
556
100
AcDbEntity
  8
Defpoints
 62
     0
100
AcDbPoint
 10
873.225021
 20
141.238
 30
0.0
  0
ENDBLK
  5
561
330
556
100
AcDbEntity
  8
0
100
AcDbBlockEnd
  0
ENDSEC
  0
SECTION
  2
ENTITIES
  0
LINE
  5
32
330
1F
100
AcDbEntity
  8
LC-001-002-----0
 62
     7
370
    25
100
AcDbLine
 10
612.394337
 20
313.948521
 30
0.0
 11
612.394337
 21
300.447831
 31
0.0
  0
LINE
  5
33
330
1F
100
AcDbEntity
  8
LC-001-002-----0
  6
ByBlock
 62
     7
370
    50
100
AcDbLine
 10
615.224935
 20
314.448521
 30
0.0
 11
608.224531
 21
314.448521
 31
0.0
  0
LINE
  5
34
330
1F
100
AcDbEntity
  8
LC-001-002-----0
  6
ByBlock
 62
     7
370
    50
100
AcDbLine
 10
734.225021
 20
246.466596
 30
0.0
 11
734.225021
 21
241.9781
 31
0.0
  0
ARC
  5
36
102
{ACAD_REACTORS
330
56D
102
}
330
1F
100
AcDbEntity
  8
LC-002-205-RND-0
 62
     7
370
    50
100
AcDbCircle
 10
772.524328
 20
297.190489
 30
0.0
 40
0.2999999999999545
100
AcDbArc
 50
0.0
 51
78.586371
  0
LINE
  5
37
330
1F
100
AcDbEntity
  8
LC-001-002-----0
  6
ByBlock
 62
     7
370
    50
100
AcDbLine
 10
611.236951
 20
313.948521
 30
0.0
 11
609.519662
 21
313.948521
 31
0.0
  0
LINE
  5
39
102
{ACAD_REACTORS
330
56C
102
}
330
1F
100
AcDbEntity
  8
LC-003-005-----0
 62
     7
370
    25
100
AcDbLine
 10
614.724531
 20
307.936646
 30
0.0
 11
622.224995
 21
315.437109
 31
0.0
  0
LINE
  5
3B
330
1F
100
AcDbEntity
  8
LC-004-205-----0
 62
     7
370
    50
100
AcDbLine
 10
736.906338
 20
293.466596
 30
0.0
 11
748.824328
 21
293.466596
 31
0.0
  0
LINE
  5
3C
330
1F
100
AcDbEntity
  8
LC-001-002-----0
  6
ByBlock
 62
     7
370
    50
100
AcDbLine
 10
748.824328
 20
293.466596
 30
0.0
 11
748.824328
 21
295.7781
 31
0.0
  0
LINE
  5
3D
330
1F
100
AcDbEntity
  8
LC-001-002-----0
  6
ByBlock
 62
     7
370
    50
100
AcDbLine
 10
748.824328
 20
295.7781
 30
0.0
 11
751.324328
 21
295.7781
 31
0.0
  0
LINE
  5
3E
330
1F
100
AcDbEntity
  8
LC-001-002-----0
  6
ByBlock
 62
     7
370
    50
100
AcDbLine
 10
751.324328
 20
293.748326
 30
0.0
 11
751.324328
 21
295.7781
 31
0.0
  0
LINE
  5
3F
330
1F
100
AcDbEntity
  8
LC-001-002-----0
  6
ByBlock
 62
     7
370
    50
100
AcDbLine
 10
736.906338
 20
298.447831
 30
0.0
 11
736.906338
 21
293.466596
 31
0.0
  0
LINE
  5
40
330
1F
100
AcDbEntity
  8
LC-001-002-----0
  6
ByBlock
 62
     7
370
    50
100
AcDbLine
 10
784.324328
 20
246.466596
 30
0.0
 11
784.324328
 21
290.466596
 31
0.0
  0
LINE
  5
41
330
1F
100
AcDbEntity
  8
LC-001-002-----0
  6
ByBlock
 62
     7
370
    50
100
AcDbLine
 10
737.225021
 20
243.466596
 30
0.0
 11
737.225021
 21
241.9781
 31
0.0
  0
ARC
  5
43
330
1F
100
AcDbEntity
  8
LC-005-002-RND-0
 62
     7
370
    50
100
AcDbCircle
 10
733.725021
 20
241.9781
 30
0.0
 40
3.5
100
AcDbArc
 50
270.0
 51
360.0
  0
ARC
  5
44
102
{ACAD_REACTORS
330
56D
102
}
330
1F
100
AcDbEntity
  8
LC-005-002-RND-0
 62
     7
370
    50
100
AcDbCircle
 10
733.725021
 20
241.9781
 30
0.0
 40
0.5
100
AcDbArc
 50
270.0
 51
360.0
  0
ARC
  5
45
330
1F
100
AcDbEntity
  8
LC-005-002-RND-0
 62
     7
370
    50
100
AcDbCircle
 10
630.725021
 20
241.9781
 30
0.0
 40
3.5
100
AcDbArc
 50
180.0
 51
270.0
  0
ARC
  5
46
330
1F
100
AcDbEntity
  8
LC-005-002-RND-0
 62
     7
370
    50
100
AcDbCircle
 10
630.725021
 20
241.9781
 30
0.0
 40
0.5
100
AcDbArc
 50
180.0
 51
270.0
  0
LINE
  5
47
330
1F
100
AcDbEntity
  8
LC-001-002-----0
  6
ByBlock
 62
     7
370
    50
100
AcDbLine
 10
627.225021
 20
241.9781
 30
0.0
 11
627.225021
 21
246.516596
 31
0.0
  0
LINE
  5
48
330
1F
100
AcDbEntity
  8
LC-001-002-----0
  6
ByBlock
 62
     7
370
    50
100
AcDbLine
 10
630.225021
 20
241.9781
 30
0.0
 11
630.225021
 21
248.066596
 31
0.0
  0
LINE
  5
49
330
1F
100
AcDbEntity
  8
LC-001-002-----0
  6
ByBlock
 62
     7
370
    50
100
AcDbLine
 10
722.725021
 20
302.768916
 30
0.0
 11
722.725021
 21
293.947831
 31
0.0
  0
LINE
  5
4A
330
1F
100
AcDbEntity
  8
LC-001-002-----0
  6
ByBlock
 62
     7
370
    50
100
AcDbLine
 10
631.475021
 20
302.947831
 30
0.0
 11
641.725021
 21
302.768916
 31
0.0
  0
LINE
  5
4B
330
1F
100
AcDbEntity
  8
LC-001-002-----0
  6
ByBlock
 62
     7
370
    50
100
AcDbLine
 10
609.230985
 20
313.948521
 30
0.0
 11
607.513696
 21
313.948521
 31
0.0
  0
LINE
  5
4C
330
1F
100
AcDbEntity
  8
LC-001-002-----0
  6
ByBlock
 62
     7
370
    50
100
AcDbLine
 10
609.519662
 20
313.948521
 30
0.0
 11
609.230986
 21
314.448521
 31
0.0
  0
LINE
  5
4D
330
1F
100
AcDbEntity
  8
LC-001-002-----0
  6
ByBlock
 62
     7
370
    50
100
AcDbLine
 10
622.224995
 20
302.947831
 30
0.0
 11
631.475021
 21
302.947831
 31
0.0
  0
INSERT
  5
58
330
1F
100
AcDbEntity
  8
LC-003-005-----0
 62
     7
370
    25
100
AcDbBlockReference
  2
*X11
 10
0.0
 20
0.0
 30
0.0
  0
CIRCLE
  5
59
330
1F
100
AcDbEntity
  8
LC-001-002-----0
  6
ByBlock
 62
     7
370
    50
100
AcDbCircle
 10
721.225021
 20
298.770126
 30
0.0
 40
1.5
  0
CIRCLE
  5
5A
330
1F
100
AcDbEntity
  8
LC-001-002-----0
  6
ByBlock
 62
     7
370
    50
100
AcDbCircle
 10
643.22502
 20
298.770126
 30
0.0
 40
1.5
  0
INSERT
  5
65
330
1F
100
AcDbEntity
  8
LC-003-005-----0
 62
     7
370
    25
100
AcDbBlockReference
  2
*X22
 10
0.0
 20
0.0
 30
0.0
  0
LINE
  5
66
330
1F
100
AcDbEntity
  8
LC-001-002-----0
  6
ByBlock
 62
     7
370
    50
100
AcDbLine
 10
641.725021
 20
302.768916
 30
0.0
 11
641.725021
 21
293.947831
 31
0.0
  0
LINE
  5
67
330
1F
100
AcDbEntity
  8
LC-001-002-----0
  6
ByBlock
 62
     7
370
    50
100
AcDbLine
 10
639.725021
 20
293.947831
 30
0.0
 11
641.725021
 21
293.947831
 31
0.0
  0
LINE
  5
68
330
1F
100
AcDbEntity
  8
LC-001-002-----0
  6
ByBlock
 62
     7
370
    50
100
AcDbLine
 10
639.725021
 20
300.947831
 30
0.0
 11
639.725021
 21
293.947831
 31
0.0
  0
LINE
  5
69
330
1F
100
AcDbEntity
  8
LC-001-002-----0
  6
ByBlock
 62
     7
370
    50
100
AcDbLine
 10
630.225021
 20
300.947831
 30
0.0
 11
639.725021
 21
300.947831
 31
0.0
  0
LINE
  5
6A
330
1F
100
AcDbEntity
  8
LC-001-002-----0
  6
ByBlock
 62
     7
370
    50
100
AcDbLine
 10
644.725021
 20
277.794777
 30
0.0
 11
642.225026
 21
280.294771
 31
0.0
  0
LINE
  5
6B
330
1F
100
AcDbEntity
  8
LC-001-002-----0
  6
ByBlock
 62
     7
370
    50
100
AcDbLine
 10
719.725021
 20
277.794794
 30
0.0
 11
722.225005
 21
280.294778
 31
0.0
  0
INSERT
  5
DF
330
1F
100
AcDbEntity
  8
LC-003-005-----0
 62
     7
370
    25
100
AcDbBlockReference
  2
*X33
 10
0.0
 20
0.0
 30
0.0
  0
ARC
  5
E0
330
1F
100
AcDbEntity
  8
LC-001-002-----0
  6
ByBlock
 62
     7
370
    50
100
AcDbCircle
 10
695.225016
 20
255.770126
 30
0.0
 40
12.00000000000004
100
AcDbArc
 50
209.926478
 51
270.0
  0
ARC
  5
E1
330
1F
100
AcDbEntity
  8
LC-001-002-----0
  6
ByBlock
 62
     7
370
    50
100
AcDbCircle
 10
669.225027
 20
255.770126
 30
0.0
 40
12.0
100
AcDbArc
 50
269.989261
 51
330.073523
  0
ARC
  5
E2
330
1F
100
AcDbEntity
  8
LC-005-002-RND-0
 62
     7
370
    50
100
AcDbCircle
 10
682.225021
 20
248.286801
 30
0.0
 40
2.999999999999629
100
AcDbArc
 50
29.926478
 51
150.073523
  0
ARC
  5
E3
330
1F
100
AcDbEntity
  8
LC-001-002-----0
  6
ByBlock
 62
     7
370
    50
100
AcDbCircle
 10
669.225027
 20
255.770126
 30
0.0
 40
13.50000000000011
100
AcDbArc
 50
270.010125
 51
330.073523
  0
LINE
  5
E5
330
1F
100
AcDbEntity
  8
LC-006-101-----0
 62
     7
370
    50
100
AcDbLine
 10
695.225016
 20
243.770126
 30
0.0
 11
709.725021
 21
243.770126
 31
0.0
  0
ARC
  5
E6
330
1F
100
AcDbEntity
  8
LC-001-002-----0
  6
ByBlock
 62
     7
370
    50
100
AcDbCircle
 10
695.225016
 20
255.770126
 30
0.0
 40
13.49999999999995
100
AcDbArc
 50
209.926478
 51
270.0
  0
ARC
  5
E7
330
1F
100
AcDbEntity
  8
LC-001-002-----0
  6
ByBlock
 62
     7
370
    50
100
AcDbCircle
 10
682.225021
 20
248.286801
 30
0.0
 40
1.499999999999504
100
AcDbArc
 50
29.926478
 51
150.073523
  0
LINE
  5
E8
330
1F
100
AcDbEntity
  8
LC-001-002-----0
  6
ByBlock
 62
     7
370
    50
100
AcDbLine
 10
642.225026
 20
296.270126
 30
0.0
 11
644.725021
 21
296.270126
 31
0.0
  0
LINE
  5
E9
330
1F
100
AcDbEntity
  8
LC-001-002-----0
  6
ByBlock
 62
     7
370
    50
100
AcDbLine
 10
642.225026
 20
296.270126
 30
0.0
 11
642.225026
 21
297.270126
 31
0.0
  0
LINE
  5
EA
330
1F
100
AcDbEntity
  8
LC-001-002-----0
  6
ByBlock
 62
     7
370
    50
100
AcDbLine
 10
642.225026
 20
297.270126
 30
0.0
 11
644.725021
 21
297.270126
 31
0.0
  0
LINE
  5
EB
330
1F
100
AcDbEntity
  8
LC-001-002-----0
  6
ByBlock
 62
     7
370
    50
100
AcDbLine
 10
644.725021
 20
297.270126
 30
0.0
 11
644.725021
 21
296.270126
 31
0.0
  0
LINE
  5
EC
330
1F
100
AcDbEntity
  8
LC-001-002-----0
  6
ByBlock
 62
     7
370
    50
100
AcDbLine
 10
722.225005
 20
296.270126
 30
0.0
 11
722.225005
 21
297.270126
 31
0.0
  0
LINE
  5
ED
330
1F
100
AcDbEntity
  8
LC-001-002-----0
  6
ByBlock
 62
     7
370
    50
100
AcDbLine
 10
719.72501
 20
297.270126
 30
0.0
 11
719.72501
 21
296.270126
 31
0.0
  0
LINE
  5
EE
330
1F
100
AcDbEntity
  8
LC-001-002-----0
  6
ByBlock
 62
     7
370
    50
100
AcDbLine
 10
722.225005
 20
296.270126
 30
0.0
 11
719.72501
 21
296.270126
 31
0.0
  0
LINE
  5
EF
330
1F
100
AcDbEntity
  8
LC-001-002-----0
  6
ByBlock
 62
     7
370
    50
100
AcDbLine
 10
722.225005
 20
297.270126
 30
0.0
 11
719.72501
 21
297.270126
 31
0.0
  0
LINE
  5
F0
330
1F
100
AcDbEntity
  8
LC-001-002-----0
  6
ByBlock
 62
     7
370
    50
100
AcDbLine
 10
797.225021
 20
318.404863
 30
0.0
 11
797.225021
 21
316.926723
 31
0.0
  0
LINE
  5
F1
330
1F
100
AcDbEntity
  8
LC-006-101-----0
 62
     7
370
    50
100
AcDbLine
 10
695.225016
 20
242.270126
 30
0.0
 11
709.725021
 21
242.270126
 31
0.0
  0
LINE
  5
F2
330
1F
100
AcDbEntity
  8
LC-001-002-----0
  6
ByBlock
 62
     7
370
    50
100
AcDbLine
 10
722.225005
 20
296.270126
 30
0.0
 11
722.225005
 21
280.294778
 31
0.0
  0
LINE
  5
F3
330
1F
100
AcDbEntity
  8
LC-001-002-----0
  6
ByBlock
 62
     7
370
    50
100
AcDbLine
 10
724.725021
 20
293.947831
 30
0.0
 11
722.725021
 21
293.947831
 31
0.0
  0
LINE
  5
F4
330
1F
100
AcDbEntity
  8
LC-001-002-----0
  6
ByBlock
 62
     7
370
    50
100
AcDbLine
 10
718.225021
 20
284.270126
 30
0.0
 11
719.725021
 21
285.770126
 31
0.0
  0
LINE
  5
F5
330
1F
100
AcDbEntity
  8
LC-006-101-----0
 62
     7
370
    50
100
AcDbLine
 10
646.225021
 20
284.270126
 30
0.0
 11
646.225021
 21
252.270126
 31
0.0
  0
LINE
  5
F6
330
1F
100
AcDbEntity
  8
LC-001-002-----0
  6
ByBlock
 62
     7
370
    50
100
AcDbLine
 10
724.725021
 20
300.947831
 30
0.0
 11
724.725021
 21
293.947831
 31
0.0
  0
LINE
  5
F7
330
1F
100
AcDbEntity
  8
LC-006-101-----0
 62
     7
370
    50
100
AcDbLine
 10
719.725021
 20
285.770126
 30
0.0
 11
719.725021
 21
252.270126
 31
0.0
  0
LINE
  5
F8
330
1F
100
AcDbEntity
  8
LC-001-002-----0
  6
ByBlock
 62
     7
370
    50
100
AcDbLine
 10
734.225021
 20
300.947831
 30
0.0
 11
724.725021
 21
300.947831
 31
0.0
  0
LINE
  5
F9
330
1F
100
AcDbEntity
  8
LC-006-101-----0
 62
     7
370
    50
100
AcDbLine
 10
644.725021
 20
285.770126
 30
0.0
 11
646.225021
 21
284.270126
 31
0.0
  0
ARC
  5
FA
330
1F
100
AcDbEntity
  8
LC-006-101-----0
 62
     7
370
    50
100
AcDbCircle
 10
709.725021
 20
252.270126
 30
0.0
 40
8.5
100
AcDbArc
 50
270.0
 51
0.0
  0
ARC
  5
FB
330
1F
100
AcDbEntity
  8
LC-006-101-----0
 62
     7
370
    50
100
AcDbCircle
 10
709.725021
 20
252.270126
 30
0.0
 40
10.0
100
AcDbArc
 50
270.0
 51
0.0
  0
ARC
  5
FC
330
1F
100
AcDbEntity
  8
LC-006-101-----0
 62
     7
370
    50
100
AcDbCircle
 10
654.725021
 20
252.270126
 30
0.0
 40
8.5
100
AcDbArc
 50
180.0
 51
270.0
  0
LINE
  5
FD
330
1F
100
AcDbEntity
  8
LC-006-101-----0
 62
     7
370
    50
100
AcDbLine
 10
644.725021
 20
285.770126
 30
0.0
 11
644.725021
 21
252.270126
 31
0.0
  0
LINE
  5
FE
330
1F
100
AcDbEntity
  8
LC-006-101-----0
 62
     7
370
    50
100
AcDbLine
 10
718.225021
 20
284.270126
 30
0.0
 11
718.225021
 21
252.270126
 31
0.0
  0
ARC
  5
FF
330
1F
100
AcDbEntity
  8
LC-006-101-----0
 62
     7
370
    50
100
AcDbCircle
 10
654.725021
 20
252.270126
 30
0.0
 40
10.0
100
AcDbArc
 50
180.0
 51
270.0
  0
LINE
  5
100
330
1F
100
AcDbEntity
  8
LC-006-101-----0
 62
     7
370
    50
100
AcDbLine
 10
654.725021
 20
242.270126
 30
0.0
 11
669.227412
 21
242.270126
 31
0.0
  0
LINE
  5
101
330
1F
100
AcDbEntity
  8
LC-001-002-----0
  6
ByBlock
 62
     7
370
    50
100
AcDbLine
 10
719.72501
 20
295.270126
 30
0.0
 11
719.72501
 21
285.770126
 31
0.0
  0
LINE
  5
102
330
1F
100
AcDbEntity
  8
LC-006-101-----0
 62
     7
370
    50
100
AcDbLine
 10
654.725021
 20
243.770126
 30
0.0
 11
669.222777
 21
243.770126
 31
0.0
  0
LINE
  5
103
330
1F
100
AcDbEntity
  8
LC-001-002-----0
  6
ByBlock
 62
     7
370
    50
100
AcDbLine
 10
642.225026
 20
280.294771
 30
0.0
 11
642.225026
 21
296.270126
 31
0.0
  0
LINE
  5
104
330
1F
100
AcDbEntity
  8
LC-001-002-----0
  6
ByBlock
 62
     7
370
    50
100
AcDbLine
 10
644.725021
 20
295.270126
 30
0.0
 11
644.725021
 21
285.770126
 31
0.0
  0
LINE
  5
105
330
1F
100
AcDbEntity
  8
LC-001-002-----0
  6
ByBlock
 62
     7
370
    50
100
AcDbLine
 10
732.975021
 20
302.947831
 30
0.0
 11
722.725021
 21
302.768916
 31
0.0
  0
LINE
  5
106
330
1F
100
AcDbEntity
  8
LC-001-002-----0
  6
ByBlock
 62
     7
370
    50
100
AcDbLine
 10
742.225047
 20
302.947831
 30
0.0
 11
732.975021
 21
302.947831
 31
0.0
  0
ARC
  5
107
330
1F
100
AcDbEntity
  8
LC-005-002-RND-0
 62
     7
370
    50
100
AcDbCircle
 10
758.725542
 20
306.948521
 30
0.0
 40
1.0
100
AcDbArc
 50
90.0
 51
180.0
  0
LINE
  5
108
330
1F
100
AcDbEntity
  8
LC-001-002-----0
  6
ByBlock
 62
     7
370
    50
100
AcDbLine
 10
749.725596
 20
313.948521
 30
0.0
 11
749.725596
 21
300.447831
 31
0.0
  0
LINE
  5
109
330
1F
100
AcDbEntity
  8
LC-001-002-----0
  6
ByBlock
 62
     7
370
    50
100
AcDbLine
 10
757.725542
 20
306.948521
 30
0.0
 11
757.725542
 21
299.447831
 31
0.0
  0
LINE
  5
10A
330
1F
100
AcDbEntity
  8
LC-001-002-----0
 62
     7
370
    25
100
AcDbLine
 10
739.108138
 20
268.466596
 30
0.0
 11
734.225021
 21
268.466596
 31
0.0
  0
LINE
  5
10B
102
{ACAD_REACTORS
330
56D
102
}
330
1F
100
AcDbEntity
  8
LC-001-002-----0
  6
ByBlock
 62
     7
370
    50
100
AcDbLine
 10
630.225021
 20
300.947831
 30
0.0
 11
630.225021
 21
248.066596
 31
0.0
  0
LINE
  5
10C
330
1F
100
AcDbEntity
  8
LC-001-002-----0
 62
     7
370
    25
100
AcDbLine
 10
752.22551
 20
300.447831
 30
0.0
 11
752.225511
 21
314.448521
 31
0.0
  0
LINE
  5
10D
102
{ACAD_REACTORS
330
56D
102
}
330
1F
100
AcDbEntity
  8
LC-001-002-----0
  6
ByBlock
 62
     7
370
    50
100
AcDbLine
 10
734.225021
 20
300.947831
 30
0.0
 11
734.225021
 21
290.466596
 31
0.0
  0
LINE
  5
10E
330
1F
100
AcDbEntity
  8
LC-001-002-----0
  6
ByBlock
 62
     7
370
    50
100
AcDbLine
 10
611.525627
 20
313.948521
 30
0.0
 11
611.236952
 21
314.448521
 31
0.0
  0
LINE
  5
10F
330
1F
100
AcDbEntity
  8
LC-001-002-----0
  6
ByBlock
 62
     7
370
    50
100
AcDbLine
 10
611.2309
 20
314.448521
 30
0.0
 11
610.942225
 21
313.948521
 31
0.0
  0
LINE
  5
110
330
1F
100
AcDbEntity
  8
LC-001-002-----0
  6
ByBlock
 62
     7
370
    50
100
AcDbLine
 10
613.531593
 20
313.948521
 30
0.0
 11
613.242918
 21
314.448521
 31
0.0
  0
LINE
  5
111
330
1F
100
AcDbEntity
  8
LC-001-002-----0
  6
ByBlock
 62
     7
370
    50
100
AcDbLine
 10
613.236866
 20
314.448521
 30
0.0
 11
612.948191
 21
313.948521
 31
0.0
  0
LINE
  5
112
330
1F
100
AcDbEntity
  8
LC-001-002-----0
  6
ByBlock
 62
     7
370
    50
100
AcDbLine
 10
615.242832
 20
314.448521
 30
0.0
 11
614.954157
 21
313.948521
 31
0.0
  0
LINE
  5
113
330
1F
100
AcDbEntity
  8
LC-001-002-----0
  6
ByBlock
 62
     7
370
    50
100
AcDbLine
 10
749.225107
 20
314.448521
 30
0.0
 11
749.513782
 21
313.948521
 31
0.0
  0
LINE
  5
114
330
1F
100
AcDbEntity
  8
LC-001-002-----0
  6
ByBlock
 62
     7
370
    50
100
AcDbLine
 10
644.72502
 20
295.270126
 30
0.0
 11
642.22502
 21
295.270126
 31
0.0
  0
LINE
  5
115
330
1F
100
AcDbEntity
  8
LC-001-002-----0
  6
ByBlock
 62
     7
370
    50
100
AcDbLine
 10
615.51361
 20
313.948521
 30
0.0
 11
615.224935
 21
314.448521
 31
0.0
  0
LINE
  5
116
330
1F
100
AcDbEntity
  8
LC-001-002-----0
  6
ByBlock
 62
     7
370
    50
100
AcDbLine
 10
751.225107
 20
314.448521
 30
0.0
 11
751.513782
 21
313.948521
 31
0.0
  0
LINE
  5
117
330
1F
100
AcDbEntity
  8
LC-001-002-----0
  6
ByBlock
 62
     7
370
    50
100
AcDbLine
 10
717.725021
 20
298.148539
 30
0.0
 11
717.725021
 21
297.270126
 31
0.0
  0
LINE
  5
118
330
1F
100
AcDbEntity
  8
LC-001-002-----0
  6
ByBlock
 62
     7
370
    50
100
AcDbLine
 10
749.225107
 20
314.448521
 30
0.0
 11
749.233187
 21
314.434526
 31
0.0
  0
LINE
  5
119
330
1F
100
AcDbEntity
  8
LC-001-002-----0
  6
ByBlock
 62
     7
370
    50
100
AcDbLine
 10
719.725021
 20
300.542452
 30
0.0
 11
719.725021
 21
296.270126
 31
0.0
  0
LINE
  5
11A
330
1F
100
AcDbEntity
  8
LC-001-002-----0
  6
ByBlock
 62
     7
370
    50
100
AcDbLine
 10
748.936432
 20
313.948521
 30
0.0
 11
749.225107
 21
314.448521
 31
0.0
  0
LINE
  5
11B
330
1F
100
AcDbEntity
  8
LC-001-002-----0
  6
ByBlock
 62
     7
370
    50
100
AcDbLine
 10
722.725021
 20
301.262028
 30
0.0
 11
720.174642
 21
301.039907
 31
0.0
  0
LINE
  5
11C
330
1F
100
AcDbEntity
  8
LC-001-002-----0
  6
ByBlock
 62
     7
370
    50
100
AcDbLine
 10
722.725021
 20
293.947831
 30
0.0
 11
722.725021
 21
302.767706
 31
0.0
  0
LINE
  5
11D
330
1F
100
AcDbEntity
  8
LC-001-002-----0
  6
ByBlock
 62
     7
370
    50
100
AcDbLine
 10
722.725021
 20
302.767706
 30
0.0
 11
720.919105
 21
302.610423
 31
0.0
  0
LINE
  5
11E
330
1F
100
AcDbEntity
  8
LC-001-002-----0
  6
ByBlock
 62
     7
370
    50
100
AcDbLine
 10
707.342103
 20
293.669994
 30
0.0
 11
719.22993
 21
301.99394
 31
0.0
  0
LINE
  5
11F
330
1F
100
AcDbEntity
  8
LC-001-002-----0
  6
ByBlock
 62
     7
370
    50
100
AcDbLine
 10
641.725021
 20
302.770126
 30
0.0
 11
722.725021
 21
302.767706
 31
0.0
  0
LINE
  5
120
330
1F
100
AcDbEntity
  8
LC-001-002-----0
  6
ByBlock
 62
     7
370
    50
100
AcDbLine
 10
657.107938
 20
293.669995
 30
0.0
 11
645.220111
 21
301.99394
 31
0.0
  0
LINE
  5
121
330
1F
100
AcDbEntity
  8
LC-001-002-----0
  6
ByBlock
 62
     7
370
    50
100
AcDbLine
 10
642.22502
 20
295.270126
 30
0.0
 11
642.22502
 21
296.270126
 31
0.0
  0
LINE
  5
122
330
1F
100
AcDbEntity
  8
LC-001-002-----0
  6
ByBlock
 62
     7
370
    50
100
AcDbLine
 10
755.225107
 20
314.448521
 30
0.0
 11
756.225596
 21
314.448521
 31
0.0
  0
LINE
  5
123
330
1F
100
AcDbEntity
  8
LC-001-002-----0
  6
ByBlock
 62
     7
370
    50
100
AcDbLine
 10
642.22502
 20
296.270126
 30
0.0
 11
644.72502
 21
296.270126
 31
0.0
  0
LINE
  5
124
102
{ACAD_REACTORS
330
56D
102
}
330
1F
100
AcDbEntity
  8
LC-001-002-----0
  6
ByBlock
 62
     7
370
    50
100
AcDbLine
 10
607.724499
 20
298.447831
 30
0.0
 11
624.225021
 21
298.447831
 31
0.0
  0
ARC
  5
125
330
1F
100
AcDbEntity
  8
LC-005-002-RND-0
 62
     7
370
    50
100
AcDbCircle
 10
719.725021
 20
297.270126
 30
0.0
 40
2.0
100
AcDbArc
 50
180.0
 51
270.0
  0
LINE
  5
126
330
1F
100
AcDbEntity
  8
LC-001-002-----0
  6
ByBlock
 62
     7
370
    50
100
AcDbLine
 10
719.725021
 20
295.270126
 30
0.0
 11
722.225021
 21
295.270126
 31
0.0
  0
LINE
  5
127
330
1F
100
AcDbEntity
  8
LC-001-002-----0
  6
ByBlock
 62
     7
370
    50
100
AcDbLine
 10
722.225021
 20
295.270126
 30
0.0
 11
722.225021
 21
296.270126
 31
0.0
  0
LINE
  5
128
330
1F
100
AcDbEntity
  8
LC-001-002-----0
  6
ByBlock
 62
     7
370
    50
100
AcDbLine
 10
722.225021
 20
296.270126
 30
0.0
 11
719.725021
 21
296.270126
 31
0.0
  0
LINE
  5
129
330
1F
100
AcDbEntity
  8
LC-006-101-----0
 62
     7
370
    50
100
AcDbLine
 10
702.225021
 20
254.268916
 30
0.0
 11
703.225021
 21
254.268916
 31
0.0
  0
LINE
  5
12A
330
1F
100
AcDbEntity
  8
LC-001-002-----0
  6
ByBlock
 62
     7
370
    50
100
AcDbLine
 10
707.489256
 20
291.94187
 30
0.0
 11
716.938233
 21
298.558115
 31
0.0
  0
INSERT
  5
15A
330
1F
100
AcDbEntity
  8
LC-003-005-----0
 62
     7
370
    25
100
AcDbBlockReference
  2
*X44
 10
0.0
 20
0.0
 30
0.0
  0
ARC
  5
15B
330
1F
100
AcDbEntity
  8
LC-005-002-RND-0
 62
     7
370
    50
100
AcDbCircle
 10
650.22502
 20
283.84017
 30
0.0
 40
12.0
100
AcDbArc
 50
0.0
 51
55.0
  0
LINE
  5
15C
330
1F
100
AcDbEntity
  8
LC-001-002-----0
  6
ByBlock
 62
     7
370
    50
100
AcDbLine
 10
656.960785
 20
291.94187
 30
0.0
 11
647.511808
 21
298.558115
 31
0.0
  0
LINE
  5
15D
330
1F
100
AcDbEntity
  8
LC-006-101-----0
 62
     7
370
    50
100
AcDbLine
 10
661.225021
 20
254.268916
 30
0.0
 11
661.22502
 21
283.75035
 31
0.0
  0
LINE
  5
15E
330
1F
100
AcDbEntity
  8
LC-006-101-----0
 62
     7
370
    50
100
AcDbLine
 10
662.225021
 20
254.268916
 30
0.0
 11
662.22502
 21
283.84017
 31
0.0
  0
LINE
  5
15F
330
1F
100
AcDbEntity
  8
LC-001-002-----0
  6
ByBlock
 62
     7
370
    50
100
AcDbLine
 10
641.725021
 20
301.264415
 30
0.0
 11
641.725021
 21
302.770126
 31
0.0
  0
LINE
  5
160
330
1F
100
AcDbEntity
  8
LC-001-002-----0
  6
ByBlock
 62
     7
370
    50
100
AcDbLine
 10
641.725021
 20
301.264415
 30
0.0
 11
644.275858
 21
301.003707
 31
0.0
  0
LINE
  5
161
330
1F
100
AcDbEntity
  8
LC-006-101-----0
 62
     7
370
    50
100
AcDbLine
 10
682.225021
 20
254.268916
 30
0.0
 11
661.225021
 21
254.268916
 31
0.0
  0
LINE
  5
162
330
1F
100
AcDbEntity
  8
LC-001-002-----0
  6
ByBlock
 62
     7
370
    50
100
AcDbLine
 10
644.72502
 20
300.506298
 30
0.0
 11
644.72502
 21
296.270126
 31
0.0
  0
LINE
  5
163
330
1F
100
AcDbEntity
  8
LC-001-002-----0
  6
ByBlock
 62
     7
370
    50
100
AcDbLine
 10
646.72502
 20
298.148539
 30
0.0
 11
646.72502
 21
297.270126
 31
0.0
  0
ARC
  5
164
330
1F
100
AcDbEntity
  8
LC-005-002-RND-0
 62
     7
370
    50
100
AcDbCircle
 10
651.22502
 20
283.75035
 30
0.0
 40
10.0
100
AcDbArc
 50
0.0
 51
55.0
  0
ARC
  5
165
330
1F
100
AcDbEntity
  8
LC-005-002-RND-0
 62
     7
370
    50
100
AcDbCircle
 10
713.22502
 20
283.750349
 30
0.0
 40
10.0000000000001
100
AcDbArc
 50
125.0
 51
180.0
  0
LINE
  5
166
330
1F
100
AcDbEntity
  8
LC-006-101-----0
 62
     7
370
    50
100
AcDbLine
 10
703.225021
 20
254.268916
 30
0.0
 11
703.22502
 21
283.750349
 31
0.0
  0
LINE
  5
167
330
1F
100
AcDbEntity
  8
LC-006-101-----0
 62
     7
370
    50
100
AcDbLine
 10
702.225021
 20
254.268916
 30
0.0
 11
702.22502
 21
283.840169
 31
0.0
  0
LINE
  5
168
330
1F
100
AcDbEntity
  8
LC-006-101-----0
 62
     7
370
    50
100
AcDbLine
 10
682.225021
 20
254.268916
 30
0.0
 11
702.225021
 21
254.268916
 31
0.0
  0
ARC
  5
169
330
1F
100
AcDbEntity
  8
LC-005-002-RND-0
 62
     7
370
    50
100
AcDbCircle
 10
647.22502
 20
298.148539
 30
0.0
 40
0.5000000000001548
100
AcDbArc
 50
55.0
 51
180.0
  0
LINE
  5
16A
330
1F
100
AcDbEntity
  8
LC-001-002-----0
  6
ByBlock
 62
     7
370
    50
100
AcDbLine
 10
641.725021
 20
302.770126
 30
0.0
 11
643.531107
 21
302.612371
 31
0.0
  0
ARC
  5
16B
330
1F
100
AcDbEntity
  8
LC-005-002-RND-0
 62
     7
370
    50
100
AcDbCircle
 10
644.72502
 20
297.270126
 30
0.0
 40
2.0
100
AcDbArc
 50
270.0
 51
0.0
  0
ARC
  5
16C
330
1F
100
AcDbEntity
  8
LC-005-002-RND-0
 62
     7
370
    50
100
AcDbCircle
 10
644.22502
 20
300.506298
 30
0.0
 40
0.5
100
AcDbArc
 50
0.0
 51
84.164355
  0
ARC
  5
16E
330
1F
100
AcDbEntity
  8
LC-007-101-RND-0
 62
     7
370
    50
100
AcDbCircle
 10
714.22502
 20
283.840169
 30
0.0
 40
12.00000000000006
100
AcDbArc
 50
125.0
 51
180.0
  0
ARC
  5
16F
330
1F
100
AcDbEntity
  8
LC-005-002-RND-0
 62
     7
370
    50
100
AcDbCircle
 10
720.225021
 20
300.542452
 30
0.0
 40
0.4999999999999391
100
AcDbArc
 50
95.782875
 51
180.0
  0
ARC
  5
170
330
1F
100
AcDbEntity
  8
LC-005-002-RND-0
 62
     7
370
    50
100
AcDbCircle
 10
717.225021
 20
298.148539
 30
0.0
 40
0.5
100
AcDbArc
 50
0.0
 51
125.0
  0
LINE
  5
171
102
{ACAD_REACTORS
330
56C
102
}
330
1F
100
AcDbEntity
  8
LC-003-005-----0
 62
     7
370
    25
100
AcDbLine
 10
640.333696
 20
293.947831
 30
0.0
 11
641.725021
 21
295.339156
 31
0.0
  0
LINE
  5
172
330
1F
100
AcDbEntity
  8
LC-001-002-----0
  6
ByBlock
 62
     7
370
    50
100
AcDbLine
 10
755.225107
 20
314.448521
 30
0.0
 11
755.513782
 21
313.948521
 31
0.0
  0
LINE
  5
173
102
{ACAD_REACTORS
330
56C
102
}
330
1F
100
AcDbEntity
  8
LC-003-005-----0
 62
     7
370
    25
100
AcDbLine
 10
639.725021
 20
296.167583
 30
0.0
 11
641.725021
 21
298.167583
 31
0.0
  0
LINE
  5
174
330
1F
100
AcDbEntity
  8
LC-001-002-----0
  6
ByBlock
 62
     7
370
    50
100
AcDbLine
 10
750.936432
 20
313.948521
 30
0.0
 11
751.225107
 21
314.448521
 31
0.0
  0
LINE
  5
175
330
1F
100
AcDbEntity
  8
LC-001-002-----0
  6
ByBlock
 62
     7
370
    50
100
AcDbLine
 10
753.225107
 20
314.448521
 30
0.0
 11
753.513782
 21
313.948521
 31
0.0
  0
ARC
  5
176
330
1F
100
AcDbEntity
  8
LC-001-002-----0
  6
ByBlock
 62
     7
370
    50
100
AcDbCircle
 10
643.225021
 20
299.144656
 30
0.0
 40
3.478334111086722
100
AcDbArc
 50
55.0
 51
84.955683
  0
ARC
  5
177
330
1F
100
AcDbEntity
  8
LC-001-002-----0
  6
ByBlock
 62
     7
370
    50
100
AcDbCircle
 10
721.225021
 20
299.144656
 30
0.0
 40
3.47833411108661
100
AcDbArc
 50
95.044317
 51
125.0
  0
LINE
  5
178
102
{ACAD_REACTORS
330
56C
102
}
330
1F
100
AcDbEntity
  8
LC-003-005-----0
 62
     7
370
    25
100
AcDbLine
 10
639.725021
 20
298.99601
 30
0.0
 11
641.725021
 21
300.99601
 31
0.0
  0
LINE
  5
179
330
1F
100
AcDbEntity
  8
LC-001-002-----0
  6
ByBlock
 62
     7
370
    50
100
AcDbLine
 10
787.50995
 20
320.150247
 30
0.0
 11
795.224984
 21
320.40596
 31
0.0
  0
LINE
  5
17A
102
{ACAD_REACTORS
330
56C
102
}
330
1F
100
AcDbEntity
  8
LC-003-005-----0
 62
     7
370
    25
100
AcDbLine
 10
627.225021
 20
289.324437
 30
0.0
 11
630.225021
 21
292.324437
 31
0.0
  0
LINE
  5
17B
330
1F
100
AcDbEntity
  8
LC-001-002-----0
  6
ByBlock
 62
     7
370
    50
100
AcDbLine
 10
609.230986
 20
314.438039
 30
0.0
 11
609.224935
 21
314.448521
 31
0.0
  0
LINE
  5
17C
330
1F
100
AcDbEntity
  8
LC-001-002-----0
  6
ByBlock
 62
     7
370
    50
100
AcDbLine
 10
609.224935
 20
314.448521
 30
0.0
 11
608.936259
 21
313.948521
 31
0.0
  0
LINE
  5
17D
330
1F
100
AcDbEntity
  8
LC-001-002-----0
  6
ByBlock
 62
     7
370
    50
100
AcDbLine
 10
756.725542
 20
298.447831
 30
0.0
 11
736.906338
 21
298.447831
 31
0.0
  0
LINE
  5
17E
102
{ACAD_REACTORS
330
56E
102
}
330
1F
100
AcDbEntity
  8
LC-001-002-----0
  6
ByBlock
 62
     7
370
    50
100
AcDbLine
 10
869.725021
 20
243.466596
 30
0.0
 11
873.225021
 21
244.404418
 31
0.0
  0
ARC
  5
180
102
{ACAD_REACTORS
330
56E
102
}
330
1F
100
AcDbEntity
  8
LC-008-207-----0
 62
     7
370
    50
100
AcDbCircle
 10
766.725465
 20
268.466596
 30
0.0
 40
29.7000000000001
100
AcDbArc
 50
69.721682
 51
104.141305
  0
INSERT
  5
18D
330
1F
100
AcDbEntity
  8
LC-003-005-----0
 62
     7
370
    25
100
AcDbBlockReference
  2
*X55
 10
0.0
 20
0.0
 30
0.0
  0
LINE
  5
18E
330
1F
100
AcDbEntity
  8
LC-001-002-----0
  6
ByBlock
 62
     7
370
    50
100
AcDbLine
 10
752.936432
 20
313.948521
 30
0.0
 11
753.225107
 21
314.448521
 31
0.0
  0
LINE
  5
18F
330
1F
100
AcDbEntity
  8
LC-001-002-----0
  6
ByBlock
 62
     7
370
    50
100
AcDbLine
 10
754.936432
 20
313.948521
 30
0.0
 11
755.225107
 21
314.448521
 31
0.0
  0
ARC
  5
190
330
1F
100
AcDbEntity
  8
LC-005-002-RND-0
 62
     7
370
    50
100
AcDbCircle
 10
569.225021
 20
318.404863
 30
0.0
 40
1.999999999999994
100
AcDbArc
 50
88.101636
 51
180.0
  0
ARC
  5
192
102
{ACAD_REACTORS
330
56E
102
}
330
1F
100
AcDbEntity
  8
LC-009-207-RND-0
 62
     7
370
    50
100
AcDbCircle
 10
759.225021
 20
238.696924
 30
0.0
 40
0.9999999999999977
100
AcDbArc
 50
75.858695
 51
180.0
  0
LINE
  5
193
102
{ACAD_REACTORS
330
56E
102
}
330
1F
100
AcDbEntity
  8
LC-001-002-----0
  6
ByBlock
 62
     7
370
    50
100
AcDbLine
 10
758.225021
 20
238.696924
 30
0.0
 11
758.225021
 21
236.466596
 31
0.0
  0
LINE
  5
194
102
{ACAD_REACTORS
330
56E
102
}
330
1F
100
AcDbEntity
  8
LC-001-002-----0
  6
ByBlock
 62
     7
370
    50
100
AcDbLine
 10
873.225021
 20
244.404418
 30
0.0
 11
873.225021
 21
245.716596
 31
0.0
  0
LINE
  5
195
102
{ACAD_REACTORS
330
56E
102
}
330
1F
100
AcDbEntity
  8
LC-001-002-----0
  6
ByBlock
 62
     7
370
    50
100
AcDbLine
 10
873.225021
 20
245.716596
 30
0.0
 11
873.225021
 21
291.216596
 31
0.0
  0
LINE
  5
196
102
{ACAD_REACTORS
330
56E
102
}
330
1F
100
AcDbEntity
  8
LC-001-002-----0
  6
ByBlock
 62
     7
370
    50
100
AcDbLine
 10
873.225021
 20
291.216596
 30
0.0
 11
873.225021
 21
292.528774
 31
0.0
  0
LINE
  5
197
102
{ACAD_REACTORS
330
56E
102
}
330
1F
100
AcDbEntity
  8
LC-001-002-----0
 62
     7
370
    25
100
AcDbLine
 10
873.225021
 20
268.466596
 30
0.0
 11
739.108138
 21
268.466596
 31
0.0
  0
LINE
  5
198
102
{ACAD_REACTORS
330
56E
102
}
330
1F
100
AcDbEntity
  8
LC-001-002-----0
  6
ByBlock
 62
     7
370
    50
100
AcDbLine
 10
869.725021
 20
293.466596
 30
0.0
 11
873.225021
 21
292.528774
 31
0.0
  0
CIRCLE
  5
199
330
1F
100
AcDbEntity
  8
LC-001-002-----0
  6
ByBlock
 62
     7
370
    50
100
AcDbCircle
 10
775.074328
 20
295.216596
 30
0.0
 40
1.75
  0
ARC
  5
19A
102
{ACAD_REACTORS
330
56E
102
}
330
1F
100
AcDbEntity
  8
LC-009-207-RND-0
 62
     7
370
    50
100
AcDbCircle
 10
759.225021
 20
298.236267
 30
0.0
 40
1.0
100
AcDbArc
 50
180.0
 51
284.141305
  0
LINE
  5
19B
102
{ACAD_REACTORS
330
56E
102
}
330
1F
100
AcDbEntity
  8
LC-008-207-----0
 62
     7
370
    50
100
AcDbLine
 10
786.800005
 20
293.466596
 30
0.0
 11
869.725021
 21
293.466596
 31
0.0
  0
CIRCLE
  5
19C
330
1F
100
AcDbEntity
  8
LC-001-002-----0
  6
ByBlock
 62
     7
370
    50
100
AcDbCircle
 10
775.074328
 20
241.905091
 30
0.0
 40
1.75
  0
LINE
  5
19D
102
{ACAD_REACTORS
330
56E
102
}
330
1F
100
AcDbEntity
  8
LC-008-207-----0
 62
     7
370
    50
100
AcDbLine
 10
786.800005
 20
243.466596
 30
0.0
 11
869.725021
 21
243.466596
 31
0.0
  0
LINE
  5
19E
102
{ACAD_REACTORS
330
56E
102
}
330
1F
100
AcDbEntity
  8
LC-008-207-----0
 62
     7
370
    50
100
AcDbLine
 10
785.818068
 20
291.216596
 30
0.0
 11
873.225021
 21
291.216596
 31
0.0
  0
LINE
  5
19F
102
{ACAD_REACTORS
330
56E
102
}
330
1F
100
AcDbEntity
  8
LC-008-207-----0
 62
     7
370
    50
100
AcDbLine
 10
785.818068
 20
245.716596
 30
0.0
 11
873.225021
 21
245.716596
 31
0.0
  0
INSERT
  5
1CF
102
{ACAD_REACTORS
330
56E
102
}
330
1F
100
AcDbEntity
  8
LC-003-005-----0
 62
     7
370
    25
100
AcDbBlockReference
  2
*X66
 10
0.0
 20
0.0
 30
0.0
  0
INSERT
  5
1FA
102
{ACAD_REACTORS
330
56E
102
}
330
1F
100
AcDbEntity
  8
LC-003-005-----0
 62
     7
370
    25
100
AcDbBlockReference
  2
*X77
 10
0.0
 20
0.0
 30
0.0
  0
LINE
  5
1FB
102
{ACAD_REACTORS
330
56E
102
}
330
1F
100
AcDbEntity
  8
LC-001-002-----0
  6
ByBlock
 62
     7
370
    50
100
AcDbLine
 10
758.225021
 20
298.236267
 30
0.0
 11
758.225021
 21
300.466596
 31
0.0
  0
LINE
  5
1FC
102
{ACAD_REACTORS
330
56E
102
}
330
1F
100
AcDbEntity
  8
LC-001-002-----0
  6
ByBlock
 62
     7
370
    50
100
AcDbLine
 10
758.225021
 20
300.466596
 30
0.0
 11
766.725021
 21
300.466596
 31
0.0
  0
LINE
  5
1FD
102
{ACAD_REACTORS
330
56E
102
}
330
1F
100
AcDbEntity
  8
LC-001-002-----0
  6
ByBlock
 62
     7
370
    50
100
AcDbLine
 10
758.225021
 20
236.466596
 30
0.0
 11
766.825021
 21
236.466596
 31
0.0
  0
ARC
  5
1FE
102
{ACAD_REACTORS
330
56E
102
}
330
1F
100
AcDbEntity
  8
LC-001-002-----0
  6
ByBlock
 62
     7
370
    50
100
AcDbCircle
 10
766.825021
 20
268.466596
 30
0.0
 40
32.00000000000082
100
AcDbArc
 50
51.375167
 51
90.17905
  0
ARC
  5
1FF
102
{ACAD_REACTORS
330
56E
102
}
330
1F
100
AcDbEntity
  8
LC-001-002-----0
  6
ByBlock
 62
     7
370
    50
100
AcDbCircle
 10
766.825021
 20
268.466596
 30
0.0
 40
32.00000000000128
100
AcDbArc
 50
270.0
 51
308.624833
  0
INSERT
  5
20B
330
1F
100
AcDbEntity
  8
LC-003-005-----0
 62
     7
370
    25
100
AcDbBlockReference
  2
*X88
 10
0.0
 20
0.0
 30
0.0
  0
ARC
  5
20C
102
{ACAD_REACTORS
330
56E
102
}
330
1F
100
AcDbEntity
  8
LC-008-207-----0
 62
     7
370
    50
100
AcDbCircle
 10
766.725465
 20
268.466596
 30
0.0
 40
29.70000000000012
100
AcDbArc
 50
49.995438
 51
69.721682
  0
ARC
  5
20D
102
{ACAD_REACTORS
330
56E
102
}
330
1F
100
AcDbEntity
  8
LC-008-207-----0
 62
     7
370
    50
100
AcDbCircle
 10
766.725465
 20
268.466596
 30
0.0
 40
29.70000000000012
100
AcDbArc
 50
255.858695
 51
310.004562
  0
ARC
  5
20E
330
1F
100
AcDbEntity
  8
LC-005-002-RND-0
 62
     7
370
    50
100
AcDbCircle
 10
756.725542
 20
299.447831
 30
0.0
 40
1.0
100
AcDbArc
 50
270.0
 51
0.0
  0
ARC
  5
20F
102
{ACAD_REACTORS
330
56D
102
}
330
1F
100
AcDbEntity
  8
LC-005-002-RND-0
 62
     7
370
    50
100
AcDbCircle
 10
607.724499
 20
299.447831
 30
0.0
 40
1.0
100
AcDbArc
 50
180.0
 51
270.0
  0
LINE
  5
210
102
{ACAD_REACTORS
330
56C
102
}
330
1F
100
AcDbEntity
  8
LC-003-005-----0
 62
     7
370
    25
100
AcDbLine
 10
638.848415
 20
300.947831
 30
0.0
 11
640.687608
 21
302.787025
 31
0.0
  0
LINE
  5
211
102
{ACAD_REACTORS
330
56C
102
}
330
1F
100
AcDbEntity
  8
LC-003-005-----0
 62
     7
370
    25
100
AcDbLine
 10
627.225021
 20
292.152864
 30
0.0
 11
630.225021
 21
295.152864
 31
0.0
  0
LINE
  5
212
102
{ACAD_REACTORS
330
56C
102
}
330
1F
100
AcDbEntity
  8
LC-003-005-----0
 62
     7
370
    25
100
AcDbLine
 10
636.019987
 20
300.947831
 30
0.0
 11
637.907705
 21
302.835548
 31
0.0
  0
LINE
  5
213
102
{ACAD_REACTORS
330
56C
102
}
330
1F
100
AcDbEntity
  8
LC-003-005-----0
 62
     7
370
    25
100
AcDbLine
 10
627.225021
 20
294.981291
 30
0.0
 11
630.225021
 21
297.981291
 31
0.0
  0
LINE
  5
214
102
{ACAD_REACTORS
330
56C
102
}
330
1F
100
AcDbEntity
  8
LC-003-005-----0
 62
     7
370
    25
100
AcDbLine
 10
633.19156
 20
300.947831
 30
0.0
 11
635.127801
 21
302.884071
 31
0.0
  0
LINE
  5
215
102
{ACAD_REACTORS
330
56C
102
}
330
1F
100
AcDbEntity
  8
LC-003-005-----0
 62
     7
370
    25
100
AcDbLine
 10
626.641266
 20
297.225964
 30
0.0
 11
630.225021
 21
300.809718
 31
0.0
  0
LINE
  5
216
102
{ACAD_REACTORS
330
56C
102
}
330
1F
100
AcDbEntity
  8
LC-003-005-----0
 62
     7
370
    25
100
AcDbLine
 10
630.363133
 20
300.947831
 30
0.0
 11
632.347897
 21
302.932595
 31
0.0
  0
LINE
  5
217
102
{ACAD_REACTORS
330
569
102
}
330
1F
100
AcDbEntity
  8
LC-001-002-----0
  6
ByBlock
 62
     7
370
    50
100
AcDbLine
 10
728.225021
 20
410.790951
 30
0.0
 11
728.225021
 21
404.447806
 31
0.0
  0
LINE
  5
218
102
{ACAD_REACTORS
330
569
102
}
330
1F
100
AcDbEntity
  8
LC-001-002-----0
  6
ByBlock
 62
     7
370
    50
100
AcDbLine
 10
725.225021
 20
413.260936
 30
0.0
 11
726.020976
 21
415.447806
 31
0.0
  0
LINE
  5
219
330
1F
100
AcDbEntity
  8
LC-001-002-----0
  6
ByBlock
 62
     7
370
    50
100
AcDbLine
 10
726.020976
 20
415.447806
 30
0.0
 11
730.225021
 21
415.447806
 31
0.0
  0
INSERT
  5
247
330
1F
100
AcDbEntity
  8
LC-003-005-----0
 62
     7
370
    25
100
AcDbBlockReference
  2
*X99
 10
0.0
 20
0.0
 30
0.0
  0
LINE
  5
248
102
{ACAD_REACTORS
330
568
102
}
330
1F
100
AcDbEntity
  8
LC-001-002-----0
  6
ByBlock
 62
     7
370
    50
100
AcDbLine
 10
635.725021
 20
419.447806
 30
0.0
 11
640.225021
 21
419.447806
 31
0.0
  0
LINE
  5
249
102
{ACAD_REACTORS
330
568
102
}
330
1F
100
AcDbEntity
  8
LC-001-002-----0
  6
ByBlock
 62
     7
370
    50
100
AcDbLine
 10
634.225021
 20
426.947806
 30
0.0
 11
634.225021
 21
426.947806
 31
0.0
  0
LINE
  5
24A
102
{ACAD_REACTORS
330
568
102
}
330
1F
100
AcDbEntity
  8
LC-001-002-----0
  6
ByBlock
 62
     7
370
    50
100
AcDbLine
 10
632.725021
 20
426.447806
 30
0.0
 11
632.725021
 21
420.447806
 31
0.0
  0
LINE
  5
24B
102
{ACAD_REACTORS
330
568
102
}
330
1F
100
AcDbEntity
  8
LC-001-002-----0
  6
ByBlock
 62
     7
370
    50
100
AcDbLine
 10
634.225021
 20
417.447806
 30
0.0
 11
639.025021
 21
417.447806
 31
0.0
  0
LINE
  5
24C
102
{ACAD_REACTORS
330
568
102
}
330
1F
100
AcDbEntity
  8
LC-001-002-----0
  6
ByBlock
 62
     7
370
    50
100
AcDbLine
 10
639.025021
 20
417.447806
 30
0.0
 11
639.025021
 21
410.447806
 31
0.0
  0
ARC
  5
24D
102
{ACAD_REACTORS
330
568
102
}
330
1F
100
AcDbEntity
  8
LC-001-002-----0
  6
ByBlock
 62
     7
370
    50
100
AcDbCircle
 10
639.050021
 20
409.647806
 30
0.0
 40
0.8000000000010277
100
AcDbArc
 50
91.790785
 51
200.0
  0
LINE
  5
24E
102
{ACAD_REACTORS
330
568
102
}
330
1F
100
AcDbEntity
  8
LC-001-002-----0
  6
ByBlock
 62
     7
370
    50
100
AcDbLine
 10
639.545368
 20
405.947806
 30
0.0
 11
682.225021
 21
405.947806
 31
0.0
  0
LINE
  5
24F
102
{ACAD_REACTORS
330
567
102
}
330
1F
100
AcDbEntity
  8
LC-001-002-----0
  6
ByBlock
 62
     7
370
    50
100
AcDbLine
 10
728.725021
 20
419.447806
 30
0.0
 11
724.225021
 21
419.447806
 31
0.0
  0
ARC
  5
251
102
{ACAD_REACTORS
330
568
102
}
330
1F
100
AcDbEntity
  8
LC-010-001-----0
 62
     7
370
    50
100
AcDbCircle
 10
638.525021
 20
414.947806
 30
0.0
 40
0.5
100
AcDbArc
 50
0.0
 51
90.0
  0
LINE
  5
252
102
{ACAD_REACTORS
330
56C
102
}
330
1F
100
AcDbEntity
  8
LC-003-005-----0
 62
     7
370
    25
100
AcDbLine
 10
624.946627
 20
298.359752
 30
0.0
 11
629.534706
 21
302.947831
 31
0.0
  0
LINE
  5
255
102
{ACAD_REACTORS
330
569
102
}
330
1F
100
AcDbEntity
  8
LC-011-006-MLN-0
 62
     7
370
    25
100
AcDbLine
 10
682.225021
 20
425.447806
 30
0.0
 11
682.225021
 21
246.474
 31
0.0
  0
LINE
  5
256
102
{ACAD_REACTORS
330
569
102
}
330
1F
100
AcDbEntity
  8
LC-001-002-----0
  6
ByBlock
 62
     7
370
    50
100
AcDbLine
 10
726.225021
 20
404.447806
 30
0.0
 11
682.225021
 21
404.447806
 31
0.0
  0
LINE
  5
257
102
{ACAD_REACTORS
330
569
102
}
330
1F
100
AcDbEntity
  8
LC-001-002-----0
  6
ByBlock
 62
     7
370
    50
100
AcDbLine
 10
725.225021
 20
411.447806
 30
0.0
 11
725.225021
 21
413.260936
 31
0.0
  0
LINE
  5
258
102
{ACAD_REACTORS
330
568
102
}
330
1F
100
AcDbEntity
  8
LC-001-002-----0
  6
ByBlock
 62
     7
370
    50
100
AcDbLine
 10
635.725021
 20
426.447806
 30
0.0
 11
635.725021
 21
419.447806
 31
0.0
  0
LINE
  5
259
102
{ACAD_REACTORS
330
568
102
}
330
1F
100
AcDbEntity
  8
LC-001-002-----0
  6
ByBlock
 62
     7
370
    50
100
AcDbLine
 10
634.225021
 20
419.447806
 30
0.0
 11
631.725021
 21
419.447806
 31
0.0
  0
LINE
  5
25A
102
{ACAD_REACTORS
330
569
102
}
330
1F
100
AcDbEntity
  8
LC-001-002-----0
  6
ByBlock
 62
     7
370
    50
100
AcDbLine
 10
725.225021
 20
411.447806
 30
0.0
 11
726.225021
 21
410.447806
 31
0.0
  0
LINE
  5
25B
102
{ACAD_REACTORS
330
569
102
}
330
1F
100
AcDbEntity
  8
LC-001-002-----0
  6
ByBlock
 62
     7
370
    50
100
AcDbLine
 10
726.225021
 20
410.447806
 30
0.0
 11
726.225021
 21
404.447806
 31
0.0
  0
LINE
  5
25C
102
{ACAD_REACTORS
330
568
102
}
330
1F
100
AcDbEntity
  8
LC-001-002-----0
  6
ByBlock
 62
     7
370
    50
100
AcDbLine
 10
638.298267
 20
409.374189
 30
0.0
 11
639.545368
 21
405.947806
 31
0.0
  0
LINE
  5
25D
102
{ACAD_REACTORS
330
569
102
}
330
1F
100
AcDbEntity
  8
LC-001-002-----0
  6
ByBlock
 62
     7
370
    50
100
AcDbLine
 10
736.225021
 20
305.947806
 30
0.0
 11
737.225021
 21
306.947806
 31
0.0
  0
LINE
  5
25E
330
1F
100
AcDbEntity
  8
LC-001-002-----0
  6
ByBlock
 62
     7
370
    50
100
AcDbLine
 10
755.231939
 20
313.948521
 30
0.0
 11
756.936432
 21
313.948521
 31
0.0
  0
ELLIPSE
  5
25F
330
1F
100
AcDbEntity
  8
LC-001-002-----0
  6
ByBlock
 62
     7
370
    50
100
AcDbEllipse
 10
734.225021
 20
268.466596
 30
0.0
 11
0.0
 21
-21.99999999934435
 31
0.0
210
0.0
220
0.0
230
1.0
 40
0.22196
 41
6.283092605574749
 42
9.424777960769379
  0
LINE
  5
260
102
{ACAD_REACTORS
330
569
102
}
330
1F
100
AcDbEntity
  8
LC-001-002-----0
  6
ByBlock
 62
     7
370
    50
100
AcDbLine
 10
728.225021
 20
404.447806
 30
0.0
 11
726.225021
 21
404.447806
 31
0.0
  0
LINE
  5
261
102
{ACAD_REACTORS
330
56C
102
}
330
1F
100
AcDbEntity
  8
LC-003-005-----0
 62
     7
370
    25
100
AcDbLine
 10
622.206279
 20
298.447831
 30
0.0
 11
626.706279
 21
302.947831
 31
0.0
  0
LINE
  5
262
102
{ACAD_REACTORS
330
568
102
}
330
1F
100
AcDbEntity
  8
LC-010-001-----0
 62
     7
370
    50
100
AcDbLine
 10
637.125021
 20
415.447806
 30
0.0
 11
638.525021
 21
415.447806
 31
0.0
  0
LINE
  5
263
102
{ACAD_REACTORS
330
568
102
}
330
1F
100
AcDbEntity
  8
LC-001-002-----0
  6
ByBlock
 62
     7
370
    50
100
AcDbLine
 10
640.225021
 20
419.447806
 30
0.0
 11
682.225021
 21
419.447806
 31
0.0
  0
LINE
  5
264
102
{ACAD_REACTORS
330
568
102
}
330
1F
100
AcDbEntity
  8
LC-001-002-----0
  6
ByBlock
 62
     7
370
    50
100
AcDbLine
 10
632.725021
 20
415.447806
 30
0.0
 11
632.725021
 21
419.447806
 31
0.0
  0
LINE
  5
265
102
{ACAD_REACTORS
330
569
102
}
330
1F
100
AcDbEntity
  8
LC-001-002-----0
  6
ByBlock
 62
     7
370
    50
100
AcDbLine
 10
734.225021
 20
407.205165
 30
0.0
 11
734.225021
 21
305.947806
 31
0.0
  0
LINE
  5
266
102
{ACAD_REACTORS
330
568
102
}
330
1F
100
AcDbEntity
  8
LC-001-002-----0
  6
ByBlock
 62
     7
370
    50
100
AcDbLine
 10
634.225021
 20
417.447806
 30
0.0
 11
634.225021
 21
419.447806
 31
0.0
  0
LINE
  5
267
102
{ACAD_REACTORS
330
568
102
}
330
1F
100
AcDbEntity
  8
LC-001-002-----0
  6
ByBlock
 62
     7
370
    50
100
AcDbLine
 10
633.225021
 20
426.947806
 30
0.0
 11
682.225021
 21
426.947806
 31
0.0
  0
LINE
  5
268
102
{ACAD_REACTORS
330
568
102
}
330
1F
100
AcDbEntity
  8
LC-001-002-----0
  6
ByBlock
 62
     7
370
    50
100
AcDbLine
 10
631.725021
 20
419.447806
 30
0.0
 11
631.725021
 21
420.447806
 31
0.0
  0
ARC
  5
269
102
{ACAD_REACTORS
330
568
102
}
330
1F
100
AcDbEntity
  8
LC-001-002-----0
  6
ByBlock
 62
     7
370
    50
100
AcDbCircle
 10
640.225021
 20
418.947806
 30
0.0
 40
0.5
100
AcDbArc
 50
270.0
 51
90.0
  0
LINE
  5
26A
102
{ACAD_REACTORS
330
568
102
}
330
1F
100
AcDbEntity
  8
LC-001-002-----0
  6
ByBlock
 62
     7
370
    50
100
AcDbLine
 10
640.225021
 20
418.447806
 30
0.0
 11
682.225021
 21
418.447806
 31
0.0
  0
INSERT
  5
278
102
{ACAD_REACTORS
330
568
102
}
330
1F
100
AcDbEntity
  8
LC-003-005-----0
 62
     7
370
    25
100
AcDbBlockReference
  2
*X1010
 10
0.0
 20
0.0
 30
0.0
  0
LINE
  5
279
102
{ACAD_REACTORS
330
568
102
}
330
1F
100
AcDbEntity
  8
LC-001-002-----0
  6
ByBlock
 62
     7
370
    50
100
AcDbLine
 10
640.225021
 20
418.447806
 30
0.0
 11
640.225021
 21
405.947806
 31
0.0
  0
ARC
  5
27A
102
{ACAD_REACTORS
330
568
102
}
330
1F
100
AcDbEntity
  8
LC-005-002-RND-0
 62
     7
370
    50
100
AcDbCircle
 10
635.225021
 20
426.447806
 30
0.0
 40
0.5
100
AcDbArc
 50
360.0
 51
90.0
  0
ARC
  5
27B
102
{ACAD_REACTORS
330
568
102
}
330
1F
100
AcDbEntity
  8
LC-005-002-RND-0
 62
     7
370
    50
100
AcDbCircle
 10
633.225021
 20
426.447806
 30
0.0
 40
0.5
100
AcDbArc
 50
90.0
 51
180.0
  0
LINE
  5
27C
330
1F
100
AcDbEntity
  8
LC-001-002-----0
  6
ByBlock
 62
     7
370
    25
100
AcDbLine
 10
796.20693
 20
316.88499
 30
0.0
 11
797.225021
 21
317.903081
 31
0.0
  0
LINE
  5
27D
102
{ACAD_REACTORS
330
569
102
}
330
1F
100
AcDbEntity
  8
LC-001-002-----0
  6
ByBlock
 62
     7
370
    50
100
AcDbLine
 10
737.225021
 20
306.947806
 30
0.0
 11
737.225021
 21
408.447806
 31
0.0
  0
LINE
  5
27E
102
{ACAD_REACTORS
330
568
102
}
330
1F
100
AcDbEntity
  8
LC-001-002-----0
  6
ByBlock
 62
     7
370
    50
100
AcDbLine
 10
638.525021
 20
415.447806
 30
0.0
 11
632.725021
 21
415.447806
 31
0.0
  0
LINE
  5
27F
102
{ACAD_REACTORS
330
568
102
}
330
1F
100
AcDbEntity
  8
LC-001-002-----0
  6
ByBlock
 62
     7
370
    50
100
AcDbLine
 10
631.725021
 20
420.447806
 30
0.0
 11
632.725021
 21
420.447806
 31
0.0
  0
LINE
  5
280
102
{ACAD_REACTORS
330
568
102
}
330
1F
100
AcDbEntity
  8
LC-001-002-----0
  6
ByBlock
 62
     7
370
    50
100
AcDbLine
 10
635.725021
 20
421.447806
 30
0.0
 11
682.225021
 21
421.447806
 31
0.0
  0
LINE
  5
281
102
{ACAD_REACTORS
330
569
102
}
330
1F
100
AcDbEntity
  8
LC-001-002-----0
  6
ByBlock
 62
     7
370
    50
100
AcDbLine
 10
737.225021
 20
408.447806
 30
0.0
 11
730.225021
 21
415.447806
 31
0.0
  0
LINE
  5
282
102
{ACAD_REACTORS
330
569
102
}
330
1F
100
AcDbEntity
  8
LC-001-002-----0
  6
ByBlock
 62
     7
370
    50
100
AcDbLine
 10
729.932127
 20
411.498058
 30
0.0
 11
734.225021
 21
407.205165
 31
0.0
  0
ARC
  5
283
102
{ACAD_REACTORS
330
569
102
}
330
1F
100
AcDbEntity
  8
LC-005-002-RND-0
 62
     7
370
    50
100
AcDbCircle
 10
729.225021
 20
410.790951
 30
0.0
 40
1.000000000000008
100
AcDbArc
 50
45.0
 51
180.0
  0
LINE
  5
284
102
{ACAD_REACTORS
330
569
102
}
330
1F
100
AcDbEntity
  8
LC-001-002-----0
  6
ByBlock
 62
     7
370
    50
100
AcDbLine
 10
736.225021
 20
305.947806
 30
0.0
 11
734.225021
 21
305.947806
 31
0.0
  0
ARC
  5
285
102
{ACAD_REACTORS
330
566
102
}
330
1F
100
AcDbEntity
  8
LC-005-002-RND-0
 62
     7
370
    50
100
AcDbCircle
 10
639.225021
 20
423.947806
 30
0.0
 40
2.5
100
AcDbArc
 50
90.0
 51
180.0
  0
ARC
  5
286
102
{ACAD_REACTORS
330
566
102
}
330
1F
100
AcDbEntity
  8
LC-005-002-RND-0
 62
     7
370
    50
100
AcDbCircle
 10
639.225021
 20
423.947806
 30
0.0
 40
1.0
100
AcDbArc
 50
90.0
 51
180.0
  0
ARC
  5
287
102
{ACAD_REACTORS
330
566
102
}
330
1F
100
AcDbEntity
  8
LC-005-002-RND-0
 62
     7
370
    50
100
AcDbCircle
 10
651.725021
 20
423.947806
 30
0.0
 40
1.0
100
AcDbArc
 50
90.0
 51
180.0
  0
ARC
  5
288
102
{ACAD_REACTORS
330
566
102
}
330
1F
100
AcDbEntity
  8
LC-005-002-RND-0
 62
     7
370
    50
100
AcDbCircle
 10
652.725021
 20
423.947806
 30
0.0
 40
1.0
100
AcDbArc
 50
0.0
 51
90.0
  0
ARC
  5
289
102
{ACAD_REACTORS
330
566
102
}
330
1F
100
AcDbEntity
  8
LC-005-002-RND-0
 62
     7
370
    50
100
AcDbCircle
 10
663.725021
 20
423.947806
 30
0.0
 40
1.0
100
AcDbArc
 50
90.0
 51
180.0
  0
ARC
  5
28A
102
{ACAD_REACTORS
330
566
102
}
330
1F
100
AcDbEntity
  8
LC-005-002-RND-0
 62
     7
370
    50
100
AcDbCircle
 10
664.725021
 20
423.947806
 30
0.0
 40
1.0
100
AcDbArc
 50
0.0
 51
90.0
  0
ARC
  5
28B
102
{ACAD_REACTORS
330
566
102
}
330
1F
100
AcDbEntity
  8
LC-005-002-RND-0
 62
     7
370
    50
100
AcDbCircle
 10
675.725021
 20
423.947806
 30
0.0
 40
1.0
100
AcDbArc
 50
90.0
 51
180.0
  0
LINE
  5
28C
102
{ACAD_REACTORS
330
567
102
}
330
1F
100
AcDbEntity
  8
LC-001-002-----0
  6
ByBlock
 62
     7
370
    50
100
AcDbLine
 10
730.225021
 20
426.947806
 30
0.0
 11
730.225021
 21
426.947806
 31
0.0
  0
LINE
  5
28D
102
{ACAD_REACTORS
330
567
102
}
330
1F
100
AcDbEntity
  8
LC-001-002-----0
  6
ByBlock
 62
     7
370
    50
100
AcDbLine
 10
731.725021
 20
426.447806
 30
0.0
 11
731.725021
 21
420.447806
 31
0.0
  0
LINE
  5
28E
102
{ACAD_REACTORS
330
567
102
}
330
1F
100
AcDbEntity
  8
LC-001-002-----0
  6
ByBlock
 62
     7
370
    50
100
AcDbLine
 10
730.225021
 20
417.447806
 30
0.0
 11
725.425021
 21
417.447806
 31
0.0
  0
LINE
  5
28F
102
{ACAD_REACTORS
330
567
102
}
330
1F
100
AcDbEntity
  8
LC-001-002-----0
  6
ByBlock
 62
     7
370
    50
100
AcDbLine
 10
725.425021
 20
417.447806
 30
0.0
 11
725.425021
 21
410.447806
 31
0.0
  0
ARC
  5
290
102
{ACAD_REACTORS
330
567
102
}
330
1F
100
AcDbEntity
  8
LC-001-002-----0
  6
ByBlock
 62
     7
370
    50
100
AcDbCircle
 10
725.400021
 20
409.647806
 30
0.0
 40
0.8000000000009401
100
AcDbArc
 50
340.0
 51
88.209215
  0
LINE
  5
291
102
{ACAD_REACTORS
330
567
102
}
330
1F
100
AcDbEntity
  8
LC-001-002-----0
  6
ByBlock
 62
     7
370
    50
100
AcDbLine
 10
724.904673
 20
405.947806
 30
0.0
 11
682.225021
 21
405.947806
 31
0.0
  0
DIMENSION
  5
295
330
1F
100
AcDbEntity
  8
LC-012-003-----0
 62
     7
370
    25
100
AcDbDimension
  2
*D11
 10
612.060614
 20
254.268916
 30
0.0
 11
581.260614
 21
197.668
 31
0.0
 70
   160
 71
     5
 42
30.00121
 53
90.0
  3
LC-DIM-L-0140-02-02
100
AcDbAlignedDimension
 13
646.225021
 23
284.270126
 33
0.0
 14
661.225021
 24
254.268916
 34
0.0
 50
90.0
100
AcDbRotatedDimension
  0
ARC
  5
2A4
102
{ACAD_REACTORS
330
567
102
}
330
1F
100
AcDbEntity
  8
LC-010-001-----0
 62
     7
370
    50
100
AcDbCircle
 10
725.925021
 20
414.947806
 30
0.0
 40
0.5
100
AcDbArc
 50
90.0
 51
180.0
  0
LINE
  5
2A5
102
{ACAD_REACTORS
330
567
102
}
330
1F
100
AcDbEntity
  8
LC-001-002-----0
  6
ByBlock
 62
     7
370
    50
100
AcDbLine
 10
728.725021
 20
426.447806
 30
0.0
 11
728.725021
 21
419.447806
 31
0.0
  0
INSERT
  5
2AC
102
{ACAD_REACTORS
330
566
102
}
330
1F
100
AcDbEntity
  8
LC-003-005-----0
 62
     7
370
    25
100
AcDbBlockReference
  2
*X1112
 10
0.0
 20
0.0
 30
0.0
  0
LINE
  5
2AD
102
{ACAD_REACTORS
330
567
102
}
330
1F
100
AcDbEntity
  8
LC-001-002-----0
  6
ByBlock
 62
     7
370
    50
100
AcDbLine
 10
726.151775
 20
409.374189
 30
0.0
 11
724.904673
 21
405.947806
 31
0.0
  0
LINE
  5
2AE
102
{ACAD_REACTORS
330
567
102
}
330
1F
100
AcDbEntity
  8
LC-010-001-----0
 62
     7
370
    50
100
AcDbLine
 10
727.325021
 20
415.447806
 30
0.0
 11
725.925021
 21
415.447806
 31
0.0
  0
LINE
  5
2AF
102
{ACAD_REACTORS
330
567
102
}
330
1F
100
AcDbEntity
  8
LC-001-002-----0
  6
ByBlock
 62
     7
370
    50
100
AcDbLine
 10
724.225021
 20
419.447806
 30
0.0
 11
682.225021
 21
419.447806
 31
0.0
  0
LINE
  5
2B0
102
{ACAD_REACTORS
330
56C
102
}
330
1F
100
AcDbEntity
  8
LC-003-005-----0
 62
     7
370
    25
100
AcDbLine
 10
619.377852
 20
298.447831
 30
0.0
 11
623.877852
 21
302.947831
 31
0.0
  0
ARC
  5
2B1
102
{ACAD_REACTORS
330
56D
102
}
330
1F
100
AcDbEntity
  8
LC-005-002-RND-0
 62
     7
370
    50
100
AcDbCircle
 10
624.225021
 20
295.447831
 30
0.0
 40
3.0
100
AcDbArc
 50
360.0
 51
90.0
  0
LINE
  5
2B2
102
{ACAD_REACTORS
330
56D
102
}
330
1F
100
AcDbEntity
  8
LC-001-002-----0
  6
ByBlock
 62
     7
370
    50
100
AcDbLine
 10
630.225021
 20
299.616596
 30
0.0
 11
630.225021
 21
298.008871
 31
0.0
  0
LINE
  5
2B3
102
{ACAD_REACTORS
330
56D
102
}
330
1F
100
AcDbEntity
  8
LC-001-002-----0
  6
ByBlock
 62
     7
370
    50
100
AcDbLine
 10
627.225021
 20
295.447831
 30
0.0
 11
627.225021
 21
246.516596
 31
0.0
  0
LINE
  5
2B4
102
{ACAD_REACTORS
330
567
102
}
330
1F
100
AcDbEntity
  8
LC-001-002-----0
  6
ByBlock
 62
     7
370
    50
100
AcDbLine
 10
731.725021
 20
415.447806
 30
0.0
 11
731.725021
 21
419.447806
 31
0.0
  0
ARC
  5
2B5
102
{ACAD_REACTORS
330
56D
102
}
330
1F
100
AcDbEntity
  8
LC-004-205-----0
 62
     7
370
    50
100
AcDbCircle
 10
777.574328
 20
295.741287
 30
0.0
 40
0.2500000000000429
100
AcDbArc
 50
68.305797
 51
180.0
  0
INSERT
  5
2BC
102
{ACAD_REACTORS
330
566
102
}
330
1F
100
AcDbEntity
  8
LC-003-005-----0
 62
     7
370
    25
100
AcDbBlockReference
  2
*X1213
 10
0.0
 20
0.0
 30
0.0
  0
LINE
  5
2BD
102
{ACAD_REACTORS
330
56D
102
}
330
1F
100
AcDbEntity
  8
LC-001-002-----0
  6
ByBlock
 62
     7
370
    50
100
AcDbLine
 10
630.725021
 20
238.4781
 30
0.0
 11
733.725021
 21
238.4781
 31
0.0
  0
LINE
  5
2BE
102
{ACAD_REACTORS
330
567
102
}
330
1F
100
AcDbEntity
  8
LC-001-002-----0
  6
ByBlock
 62
     7
370
    50
100
AcDbLine
 10
731.225021
 20
426.947806
 30
0.0
 11
682.225021
 21
426.947806
 31
0.0
  0
LINE
  5
2BF
102
{ACAD_REACTORS
330
567
102
}
330
1F
100
AcDbEntity
  8
LC-001-002-----0
  6
ByBlock
 62
     7
370
    50
100
AcDbLine
 10
732.725021
 20
419.447806
 30
0.0
 11
732.725021
 21
420.447806
 31
0.0
  0
ARC
  5
2C0
102
{ACAD_REACTORS
330
56D
102
}
330
1F
100
AcDbEntity
  8
LC-001-002-----0
  6
ByBlock
 62
     7
370
    50
100
AcDbCircle
 10
766.725465
 20
268.466596
 30
0.0
 40
29.60339290378799
100
AcDbArc
 50
78.506497
 51
121.348957
  0
LINE
  5
2C1
102
{ACAD_REACTORS
330
56D
102
}
330
1F
100
AcDbEntity
  8
LC-001-002-----0
  6
ByBlock
 62
     7
370
    50
100
AcDbLine
 10
748.824328
 20
241.155091
 30
0.0
 11
751.324328
 21
241.155091
 31
0.0
  0
LINE
  5
2C2
102
{ACAD_REACTORS
330
56D
102
}
330
1F
100
AcDbEntity
  8
LC-001-002-----0
  6
ByBlock
 62
     7
370
    50
100
AcDbLine
 10
748.824328
 20
243.466596
 30
0.0
 11
748.824328
 21
241.155091
 31
0.0
  0
LINE
  5
2C3
330
1F
100
AcDbEntity
  8
LC-001-002-----0
  6
ByBlock
 62
     7
370
    25
100
AcDbLine
 10
646.119278
 20
468.088
 30
0.0
 11
661.119278
 21
468.088
 31
0.0
  0
LINE
  5
2C4
330
1F
100
AcDbEntity
  8
LC-001-002-----0
  6
ByBlock
 62
     7
370
    50
100
AcDbLine
 10
757.225107
 20
314.448521
 30
0.0
 11
756.225596
 21
314.448521
 31
0.0
  0
LINE
  5
2C5
330
1F
100
AcDbEntity
  8
LC-001-002-----0
  6
ByBlock
 62
     7
370
    50
100
AcDbLine
 10
747.225107
 20
314.448521
 30
0.0
 11
755.225107
 21
314.448521
 31
0.0
  0
LINE
  5
2C6
330
1F
100
AcDbEntity
  8
LC-001-002-----0
  6
ByBlock
 62
     7
370
    50
100
AcDbLine
 10
747.225107
 20
314.448521
 30
0.0
 11
746.225107
 21
314.448521
 31
0.0
  0
LINE
  5
2C7
330
1F
100
AcDbEntity
  8
LC-001-002-----0
  6
ByBlock
 62
     7
370
    50
100
AcDbLine
 10
765.225628
 20
313.948521
 30
0.0
 11
758.225107
 21
313.948521
 31
0.0
  0
LINE
  5
2C8
330
1F
100
AcDbEntity
  8
LC-001-002-----0
  6
ByBlock
 62
     7
370
    50
100
AcDbLine
 10
746.225107
 20
315.448521
 30
0.0
 11
746.225107
 21
313.948521
 31
0.0
  0
LINE
  5
2C9
330
1F
100
AcDbEntity
  8
LC-001-002-----0
  6
ByBlock
 62
     7
370
    50
100
AcDbLine
 10
758.225107
 20
313.948521
 30
0.0
 11
758.225107
 21
310.448521
 31
0.0
  0
LINE
  5
2CA
330
1F
100
AcDbEntity
  8
LC-001-002-----0
  6
ByBlock
 62
     7
370
    50
100
AcDbLine
 10
746.225107
 20
313.948521
 30
0.0
 11
746.936432
 21
313.948521
 31
0.0
  0
LINE
  5
2CB
330
1F
100
AcDbEntity
  8
LC-001-002-----0
  6
ByBlock
 62
     7
370
    50
100
AcDbLine
 10
758.225628
 20
310.448521
 30
0.0
 11
765.225628
 21
310.448521
 31
0.0
  0
LINE
  5
2CC
330
1F
100
AcDbEntity
  8
LC-001-002-----0
  6
ByBlock
 62
     7
370
    50
100
AcDbLine
 10
765.225628
 20
310.448521
 30
0.0
 11
765.225628
 21
313.948521
 31
0.0
  0
LINE
  5
2CD
330
1F
100
AcDbEntity
  8
LC-001-002-----0
  6
ByBlock
 62
     7
370
    50
100
AcDbLine
 10
758.725542
 20
307.948521
 30
0.0
 11
765.225628
 21
307.948521
 31
0.0
  0
LINE
  5
2CE
330
1F
100
AcDbEntity
  8
LC-001-002-----0
  6
ByBlock
 62
     7
370
    50
100
AcDbLine
 10
765.225628
 20
307.948521
 30
0.0
 11
767.674293
 21
310.397186
 31
0.0
  0
LINE
  5
2CF
330
1F
100
AcDbEntity
  8
LC-001-002-----0
  6
ByBlock
 62
     7
370
    50
100
AcDbLine
 10
746.936432
 20
313.948521
 30
0.0
 11
747.225107
 21
314.448521
 31
0.0
  0
LINE
  5
2D0
330
1F
100
AcDbEntity
  8
LC-001-002-----0
  6
ByBlock
 62
     7
370
    50
100
AcDbLine
 10
747.225107
 20
314.448521
 30
0.0
 11
747.513782
 21
313.948521
 31
0.0
  0
LINE
  5
2D1
330
1F
100
AcDbEntity
  8
LC-001-002-----0
  6
ByBlock
 62
     7
370
    50
100
AcDbLine
 10
747.513782
 20
313.948521
 30
0.0
 11
755.231939
 21
313.948521
 31
0.0
  0
LINE
  5
2D2
330
1F
100
AcDbEntity
  8
LC-001-002-----0
  6
ByBlock
 62
     7
370
    50
100
AcDbLine
 10
757.225107
 20
314.448521
 30
0.0
 11
757.513782
 21
313.948521
 31
0.0
  0
LINE
  5
2D3
330
1F
100
AcDbEntity
  8
LC-001-002-----0
  6
ByBlock
 62
     7
370
    50
100
AcDbLine
 10
756.936432
 20
313.948521
 30
0.0
 11
757.225107
 21
314.448521
 31
0.0
  0
LINE
  5
2D4
330
1F
100
AcDbEntity
  8
LC-001-002-----0
  6
ByBlock
 62
     7
370
    50
100
AcDbLine
 10
757.513782
 20
313.948521
 30
0.0
 11
758.225107
 21
313.948521
 31
0.0
  0
LINE
  5
2D5
330
1F
100
AcDbEntity
  8
LC-001-002-----0
  6
ByBlock
 62
     7
370
    50
100
AcDbLine
 10
754.725596
 20
300.447831
 30
0.0
 11
749.725596
 21
300.447831
 31
0.0
  0
LINE
  5
2D6
102
{ACAD_REACTORS
330
56C
102
}
330
1F
100
AcDbEntity
  8
LC-003-005-----0
 62
     7
370
    25
100
AcDbLine
 10
616.549425
 20
298.447831
 30
0.0
 11
622.224995
 21
304.123401
 31
0.0
  0
LINE
  5
2D7
330
1F
100
AcDbEntity
  8
LC-001-002-----0
  6
ByBlock
 62
     7
370
    50
100
AcDbLine
 10
754.725596
 20
313.948521
 30
0.0
 11
754.725596
 21
300.447831
 31
0.0
  0
LINE
  5
2D8
330
1F
100
AcDbEntity
  8
LC-001-002-----0
  6
ByBlock
 62
     7
370
    50
100
AcDbLine
 10
746.225107
 20
315.448521
 30
0.0
 11
742.225219
 21
315.448521
 31
0.0
  0
LINE
  5
2D9
330
1F
100
AcDbEntity
  8
LC-001-002-----0
  6
ByBlock
 62
     7
370
    50
100
AcDbLine
 10
765.225628
 20
313.948521
 30
0.0
 11
767.225107
 21
313.948521
 31
0.0
  0
LINE
  5
2DA
330
1F
100
AcDbEntity
  8
LC-001-002-----0
  6
ByBlock
 62
     7
370
    50
100
AcDbLine
 10
607.225021
 20
314.448521
 30
0.0
 11
608.224531
 21
314.448521
 31
0.0
  0
LINE
  5
2DB
330
1F
100
AcDbEntity
  8
LC-001-002-----0
  6
ByBlock
 62
     7
370
    50
100
AcDbLine
 10
617.225021
 20
314.448521
 30
0.0
 11
615.224935
 21
314.448521
 31
0.0
  0
LINE
  5
2DC
330
1F
100
AcDbEntity
  8
LC-001-002-----0
  6
ByBlock
 62
     7
370
    50
100
AcDbLine
 10
617.225021
 20
314.448521
 30
0.0
 11
618.225021
 21
314.448521
 31
0.0
  0
LINE
  5
2DD
330
1F
100
AcDbEntity
  8
LC-001-002-----0
  6
ByBlock
 62
     7
370
    50
100
AcDbLine
 10
621.224995
 20
318.447831
 30
0.0
 11
619.224995
 21
318.447831
 31
0.0
  0
LINE
  5
2DE
330
1F
100
AcDbEntity
  8
LC-001-002-----0
  6
ByBlock
 62
     7
370
    50
100
AcDbLine
 10
599.224499
 20
313.948521
 30
0.0
 11
606.300637
 21
313.948521
 31
0.0
  0
LINE
  5
2DF
330
1F
100
AcDbEntity
  8
LC-001-002-----0
  6
ByBlock
 62
     7
370
    50
100
AcDbLine
 10
618.225021
 20
315.447831
 30
0.0
 11
618.225021
 21
313.948521
 31
0.0
  0
LINE
  5
2E0
330
1F
100
AcDbEntity
  8
LC-001-002-----0
  6
ByBlock
 62
     7
370
    50
100
AcDbLine
 10
619.224995
 20
315.447371
 30
0.0
 11
619.224995
 21
318.447831
 31
0.0
  0
LINE
  5
2E1
330
1F
100
AcDbEntity
  8
LC-001-002-----0
  6
ByBlock
 62
     7
370
    50
100
AcDbLine
 10
618.225021
 20
315.447831
 30
0.0
 11
619.224995
 21
315.447371
 31
0.0
  0
LINE
  5
2E2
330
1F
100
AcDbEntity
  8
LC-001-002-----0
  6
ByBlock
 62
     7
370
    50
100
AcDbLine
 10
606.225021
 20
313.948521
 30
0.0
 11
606.225021
 21
310.448521
 31
0.0
  0
LINE
  5
2E3
330
1F
100
AcDbEntity
  8
LC-001-002-----0
  6
ByBlock
 62
     7
370
    50
100
AcDbLine
 10
618.225021
 20
313.948521
 30
0.0
 11
617.513696
 21
313.948521
 31
0.0
  0
LINE
  5
2E4
330
1F
100
AcDbEntity
  8
LC-001-002-----0
  6
ByBlock
 62
     7
370
    50
100
AcDbLine
 10
606.224499
 20
310.448521
 30
0.0
 11
599.224499
 21
310.448521
 31
0.0
  0
LINE
  5
2E5
330
1F
100
AcDbEntity
  8
LC-001-002-----0
  6
ByBlock
 62
     7
370
    50
100
AcDbLine
 10
599.224499
 20
310.448521
 30
0.0
 11
599.224499
 21
313.948521
 31
0.0
  0
LINE
  5
2E6
330
1F
100
AcDbEntity
  8
LC-001-002-----0
  6
ByBlock
 62
     7
370
    50
100
AcDbLine
 10
605.724499
 20
307.948521
 30
0.0
 11
599.224499
 21
307.948521
 31
0.0
  0
LINE
  5
2E7
330
1F
100
AcDbEntity
  8
LC-001-002-----0
  6
ByBlock
 62
     7
370
    50
100
AcDbLine
 10
599.224499
 20
307.948521
 30
0.0
 11
596.775872
 21
310.397148
 31
0.0
  0
LINE
  5
2E8
330
1F
100
AcDbEntity
  8
LC-001-002-----0
  6
ByBlock
 62
     7
370
    50
100
AcDbLine
 10
617.513696
 20
313.948521
 30
0.0
 11
617.225021
 21
314.448521
 31
0.0
  0
LINE
  5
2E9
330
1F
100
AcDbEntity
  8
LC-001-002-----0
  6
ByBlock
 62
     7
370
    50
100
AcDbLine
 10
617.225021
 20
314.448521
 30
0.0
 11
616.936346
 21
313.948521
 31
0.0
  0
LINE
  5
2EA
330
1F
100
AcDbEntity
  8
LC-001-002-----0
  6
ByBlock
 62
     7
370
    50
100
AcDbLine
 10
616.936346
 20
313.948521
 30
0.0
 11
616.224531
 21
313.948521
 31
0.0
  0
LINE
  5
2EB
330
1F
100
AcDbEntity
  8
LC-001-002-----0
  6
ByBlock
 62
     7
370
    50
100
AcDbLine
 10
607.225021
 20
314.448521
 30
0.0
 11
606.936346
 21
313.948521
 31
0.0
  0
LINE
  5
2EC
330
1F
100
AcDbEntity
  8
LC-001-002-----0
  6
ByBlock
 62
     7
370
    50
100
AcDbLine
 10
607.513696
 20
313.948521
 30
0.0
 11
607.225021
 21
314.448521
 31
0.0
  0
LINE
  5
2ED
330
1F
100
AcDbEntity
  8
LC-001-002-----0
  6
ByBlock
 62
     7
370
    50
100
AcDbLine
 10
616.220995
 20
313.948521
 30
0.0
 11
608.936259
 21
313.948521
 31
0.0
  0
LINE
  5
2EE
330
1F
100
AcDbEntity
  8
LC-001-002-----0
  6
ByBlock
 62
     7
370
    50
100
AcDbLine
 10
606.936346
 20
313.948521
 30
0.0
 11
606.225021
 21
313.948521
 31
0.0
  0
LINE
  5
2EF
330
1F
100
AcDbEntity
  8
LC-001-002-----0
  6
ByBlock
 62
     7
370
    50
100
AcDbLine
 10
599.224499
 20
313.948521
 30
0.0
 11
597.225021
 21
313.948521
 31
0.0
  0
LINE
  5
2F0
330
1F
100
AcDbEntity
  8
LC-001-002-----0
  6
ByBlock
 62
     7
370
    50
100
AcDbLine
 10
621.224995
 20
315.447831
 30
0.0
 11
621.224995
 21
318.447831
 31
0.0
  0
LINE
  5
2F1
330
1F
100
AcDbEntity
  8
LC-001-002-----0
  6
ByBlock
 62
     7
370
    50
100
AcDbLine
 10
614.724531
 20
313.948521
 30
0.0
 11
614.724531
 21
300.447831
 31
0.0
  0
LINE
  5
2F2
330
1F
100
AcDbEntity
  8
LC-001-002-----0
  6
ByBlock
 62
     7
370
    50
100
AcDbLine
 10
609.724531
 20
313.948521
 30
0.0
 11
609.724531
 21
300.447831
 31
0.0
  0
LINE
  5
2F3
330
1F
100
AcDbEntity
  8
LC-001-002-----0
  6
ByBlock
 62
     7
370
    50
100
AcDbLine
 10
609.724531
 20
300.447831
 30
0.0
 11
614.724531
 21
300.447831
 31
0.0
  0
LINE
  5
2F4
330
1F
100
AcDbEntity
  8
LC-001-002-----0
  6
ByBlock
 62
     7
370
    50
100
AcDbLine
 10
622.224995
 20
315.447831
 30
0.0
 11
621.224995
 21
315.447831
 31
0.0
  0
LINE
  5
2F5
330
1F
100
AcDbEntity
  8
LC-001-002-----0
  6
ByBlock
 62
     7
370
    25
100
AcDbLine
 10
646.119278
 20
453.088
 30
0.0
 11
646.119278
 21
468.088
 31
0.0
  0
LINE
  5
2F6
102
{ACAD_REACTORS
330
56D
102
}
330
1F
100
AcDbEntity
  8
LC-001-002-----0
  6
ByBlock
 62
     7
370
    50
100
AcDbLine
 10
751.324328
 20
243.377334
 30
0.0
 11
751.324328
 21
241.155091
 31
0.0
  0
ARC
  5
2F7
102
{ACAD_REACTORS
330
56D
102
}
330
1F
100
AcDbEntity
  8
LC-004-205-----0
 62
     7
370
    50
100
AcDbCircle
 10
776.824328
 20
293.966596
 30
0.0
 40
0.5000000000002274
100
AcDbArc
 50
270.0
 51
0.0
  0
ARC
  5
2F8
102
{ACAD_REACTORS
330
56D
102
}
330
1F
100
AcDbEntity
  8
LC-001-002-----0
  6
ByBlock
 62
     7
370
    50
100
AcDbCircle
 10
766.725465
 20
268.466596
 30
0.0
 40
29.6025923914001
100
AcDbArc
 50
53.522709
 51
68.309138
  0
LINE
  5
2F9
102
{ACAD_REACTORS
330
56D
102
}
330
1F
100
AcDbEntity
  8
LC-004-205-----0
 62
     7
370
    50
100
AcDbLine
 10
784.324328
 20
292.26982
 30
0.0
 11
784.324328
 21
290.466596
 31
0.0
  0
LINE
  5
2FA
102
{ACAD_REACTORS
330
56D
102
}
330
1F
100
AcDbEntity
  8
LC-001-002-----0
  6
ByBlock
 62
     7
370
    50
100
AcDbLine
 10
733.725021
 20
241.4781
 30
0.0
 11
630.725021
 21
241.4781
 31
0.0
  0
LINE
  5
2FB
102
{ACAD_REACTORS
330
56D
102
}
330
1F
100
AcDbEntity
  8
LC-004-205-----0
 62
     7
370
    50
100
AcDbLine
 10
784.324328
 20
246.466596
 30
0.0
 11
784.324328
 21
244.855091
 31
0.0
  0
LINE
  5
2FC
102
{ACAD_REACTORS
330
56D
102
}
330
1F
100
AcDbEntity
  8
LC-004-205-----0
 62
     7
370
    50
100
AcDbLine
 10
773.324328
 20
243.655091
 30
0.0
 11
776.824328
 21
243.655091
 31
0.0
  0
ARC
  5
2FD
102
{ACAD_REACTORS
330
56D
102
}
330
1F
100
AcDbEntity
  8
LC-004-205-----0
 62
     7
370
    50
100
AcDbCircle
 10
776.824328
 20
243.155091
 30
0.0
 40
0.5
100
AcDbArc
 50
0.0
 51
90.0
  0
LINE
  5
2FE
102
{ACAD_REACTORS
330
56D
102
}
330
1F
100
AcDbEntity
  8
LC-004-205-----0
 62
     7
370
    50
100
AcDbLine
 10
777.324328
 20
243.155091
 30
0.0
 11
777.324328
 21
241.457577
 31
0.0
  0
ARC
  5
2FF
102
{ACAD_REACTORS
330
56D
102
}
330
1F
100
AcDbEntity
  8
LC-004-205-----0
 62
     7
370
    50
100
AcDbCircle
 10
777.624328
 20
241.457577
 30
0.0
 40
0.2999999999997272
100
AcDbArc
 50
180.0
 51
291.837464
  0
ARC
  5
300
102
{ACAD_REACTORS
330
56D
102
}
330
1F
100
AcDbEntity
  8
LC-004-205-----0
 62
     7
370
    50
100
AcDbCircle
 10
766.725465
 20
268.655091
 30
0.0
 40
29.59999999999999
100
AcDbArc
 50
291.837464
 51
306.481001
  0
LINE
  5
301
102
{ACAD_REACTORS
330
56D
102
}
330
1F
100
AcDbEntity
  8
LC-001-002-----0
  6
ByBlock
 62
     7
370
    50
100
AcDbLine
 10
734.225021
 20
246.466596
 30
0.0
 11
784.324328
 21
246.466596
 31
0.0
  0
ARC
  5
302
102
{ACAD_REACTORS
330
56D
102
}
330
1F
100
AcDbEntity
  8
LC-004-205-----0
 62
     7
370
    50
100
AcDbCircle
 10
772.574328
 20
297.231374
 30
0.0
 40
0.25
100
AcDbArc
 50
0.0
 51
78.504265
  0
LINE
  5
303
102
{ACAD_REACTORS
330
56D
102
}
330
1F
100
AcDbEntity
  8
LC-004-205-----0
 62
     7
370
    50
100
AcDbLine
 10
772.824328
 20
297.231374
 30
0.0
 11
772.824328
 21
293.966596
 31
0.0
  0
LINE
  5
304
102
{ACAD_REACTORS
330
56D
102
}
330
1F
100
AcDbEntity
  8
LC-004-205-----0
 62
     7
370
    50
100
AcDbLine
 10
777.324328
 20
295.741287
 30
0.0
 11
777.324328
 21
293.966596
 31
0.0
  0
LINE
  5
305
102
{ACAD_REACTORS
330
56D
102
}
330
1F
100
AcDbEntity
  8
LC-004-205-----0
 62
     7
370
    50
100
AcDbLine
 10
773.324328
 20
293.466596
 30
0.0
 11
776.824328
 21
293.466596
 31
0.0
  0
ARC
  5
306
102
{ACAD_REACTORS
330
56D
102
}
330
1F
100
AcDbEntity
  8
LC-004-205-----0
 62
     7
370
    50
100
AcDbCircle
 10
773.324328
 20
293.966596
 30
0.0
 40
0.5
100
AcDbArc
 50
180.0
 51
270.0
  0
LINE
  5
307
102
{ACAD_REACTORS
330
56D
102
}
330
1F
100
AcDbEntity
  8
LC-004-205-----0
 62
     7
370
    50
100
AcDbLine
 10
772.824328
 20
243.155091
 30
0.0
 11
772.824328
 21
239.893775
 31
0.0
  0
ARC
  5
308
102
{ACAD_REACTORS
330
56D
102
}
330
1F
100
AcDbEntity
  8
LC-004-205-----0
 62
     7
370
    50
100
AcDbCircle
 10
773.324328
 20
243.155091
 30
0.0
 40
0.5
100
AcDbArc
 50
90.0
 51
180.0
  0
ARC
  5
309
102
{ACAD_REACTORS
330
56D
102
}
330
1F
100
AcDbEntity
  8
LC-004-205-----0
 62
     7
370
    50
100
AcDbCircle
 10
766.725465
 20
268.655091
 30
0.0
 40
29.60000000000003
100
AcDbArc
 50
238.647042
 51
281.49485
  0
ARC
  5
30A
102
{ACAD_REACTORS
330
56D
102
}
330
1F
100
AcDbEntity
  8
LC-004-205-----0
 62
     7
370
    50
100
AcDbCircle
 10
777.574328
 20
295.741287
 30
0.0
 40
0.2500000000000429
100
AcDbArc
 50
68.305797
 51
180.0
  0
ARC
  5
30B
102
{ACAD_REACTORS
330
56D
102
}
330
1F
100
AcDbEntity
  8
LC-004-205-----0
 62
     7
370
    50
100
AcDbCircle
 10
772.574328
 20
239.893775
 30
0.0
 40
0.2500000000000769
100
AcDbArc
 50
281.49485
 51
0.0
  0
LINE
  5
30C
102
{ACAD_REACTORS
330
56D
102
}
330
1F
100
AcDbEntity
  8
LC-004-205-----0
 62
     7
370
    50
100
AcDbLine
 10
737.225021
 20
243.466596
 30
0.0
 11
748.824328
 21
243.466596
 31
0.0
  0
LINE
  5
30D
102
{ACAD_REACTORS
330
56D
102
}
330
1F
100
AcDbEntity
  8
LC-001-002-----0
  6
ByBlock
 62
     7
370
    50
100
AcDbLine
 10
784.324328
 20
290.466596
 30
0.0
 11
734.225021
 21
290.466596
 31
0.0
  0
INSERT
  5
313
102
{ACAD_REACTORS
330
566
102
}
330
1F
100
AcDbEntity
  8
LC-003-005-----0
 62
     7
370
    25
100
AcDbBlockReference
  2
*X1314
 10
0.0
 20
0.0
 30
0.0
  0
LINE
  5
314
102
{ACAD_REACTORS
330
566
102
}
330
1F
100
AcDbEntity
  8
LC-001-002-----0
  6
ByBlock
 62
     7
370
    50
100
AcDbLine
 10
674.725021
 20
422.447806
 30
0.0
 11
673.225021
 21
422.447806
 31
0.0
  0
LINE
  5
315
102
{ACAD_REACTORS
330
566
102
}
330
1F
100
AcDbEntity
  8
LC-001-002-----0
  6
ByBlock
 62
     7
370
    50
100
AcDbLine
 10
673.225021
 20
422.447806
 30
0.0
 11
667.225021
 21
422.447806
 31
0.0
  0
INSERT
  5
31D
102
{ACAD_REACTORS
330
566
102
}
330
1F
100
AcDbEntity
  8
LC-003-005-----0
 62
     7
370
    25
100
AcDbBlockReference
  2
*X1415
 10
0.0
 20
0.0
 30
0.0
  0
LINE
  5
31E
102
{ACAD_REACTORS
330
566
102
}
330
1F
100
AcDbEntity
  8
LC-001-002-----0
  6
ByBlock
 62
     7
370
    50
100
AcDbLine
 10
674.725021
 20
423.947806
 30
0.0
 11
674.725021
 21
422.447806
 31
0.0
  0
LINE
  5
31F
102
{ACAD_REACTORS
330
566
102
}
330
1F
100
AcDbEntity
  8
LC-001-002-----0
  6
ByBlock
 62
     7
370
    50
100
AcDbLine
 10
665.725021
 20
423.947806
 30
0.0
 11
665.725021
 21
422.447806
 31
0.0
  0
LINE
  5
320
102
{ACAD_REACTORS
330
566
102
}
330
1F
100
AcDbEntity
  8
LC-001-002-----0
  6
ByBlock
 62
     7
370
    50
100
AcDbLine
 10
675.725021
 20
424.947806
 30
0.0
 11
682.225021
 21
424.947806
 31
0.0
  0
LINE
  5
321
102
{ACAD_REACTORS
330
566
102
}
330
1F
100
AcDbEntity
  8
LC-001-002-----0
  6
ByBlock
 62
     7
370
    50
100
AcDbLine
 10
663.725021
 20
424.947806
 30
0.0
 11
664.725021
 21
424.947806
 31
0.0
  0
LINE
  5
322
102
{ACAD_REACTORS
330
566
102
}
330
1F
100
AcDbEntity
  8
LC-001-002-----0
  6
ByBlock
 62
     7
370
    50
100
AcDbLine
 10
651.725021
 20
424.947806
 30
0.0
 11
652.725021
 21
424.947806
 31
0.0
  0
ARC
  5
323
102
{ACAD_REACTORS
330
566
102
}
330
1F
100
AcDbEntity
  8
LC-001-002-----0
  6
ByBlock
 62
     7
370
    50
100
AcDbCircle
 10
675.725021
 20
423.947806
 30
0.0
 40
2.499999999997272
100
AcDbArc
 50
90.0
 51
180.0
  0
LINE
  5
324
102
{ACAD_REACTORS
330
566
102
}
330
1F
100
AcDbEntity
  8
LC-001-002-----0
  6
ByBlock
 62
     7
370
    50
100
AcDbLine
 10
667.225021
 20
422.447806
 30
0.0
 11
665.725021
 21
422.447806
 31
0.0
  0
LINE
  5
325
102
{ACAD_REACTORS
330
567
102
}
330
1F
100
AcDbEntity
  8
LC-001-002-----0
  6
ByBlock
 62
     7
370
    50
100
AcDbLine
 10
725.925021
 20
415.447806
 30
0.0
 11
731.725021
 21
415.447806
 31
0.0
  0
LINE
  5
326
102
{ACAD_REACTORS
330
56C
102
}
330
1F
100
AcDbEntity
  8
LC-003-005-----0
 62
     7
370
    25
100
AcDbLine
 10
613.720998
 20
298.447831
 30
0.0
 11
622.224995
 21
306.951828
 31
0.0
  0
LINE
  5
327
102
{ACAD_REACTORS
330
566
102
}
330
1F
100
AcDbEntity
  8
LC-001-002-----0
  6
ByBlock
 62
     7
370
    50
100
AcDbLine
 10
662.725021
 20
422.447806
 30
0.0
 11
661.225021
 21
422.447806
 31
0.0
  0
LINE
  5
328
102
{ACAD_REACTORS
330
56C
102
}
330
1F
100
AcDbEntity
  8
LC-003-005-----0
 62
     7
370
    25
100
AcDbLine
 10
610.89257
 20
298.447831
 30
0.0
 11
612.89257
 21
300.447831
 31
0.0
  0
LINE
  5
329
102
{ACAD_REACTORS
330
566
102
}
330
1F
100
AcDbEntity
  8
LC-001-002-----0
  6
ByBlock
 62
     7
370
    50
100
AcDbLine
 10
661.225021
 20
422.447806
 30
0.0
 11
655.225021
 21
422.447806
 31
0.0
  0
LINE
  5
32A
330
1F
100
AcDbEntity
  8
LC-001-002-----0
  6
ByBlock
 62
     7
370
    50
100
AcDbLine
 10
725.225021
 20
404.447806
 30
0.0
 11
682.225021
 21
404.447806
 31
0.0
  0
LINE
  5
32B
102
{ACAD_REACTORS
330
566
102
}
330
1F
100
AcDbEntity
  8
LC-001-002-----0
  6
ByBlock
 62
     7
370
    50
100
AcDbLine
 10
655.225021
 20
422.447806
 30
0.0
 11
653.725021
 21
422.447806
 31
0.0
  0
LINE
  5
32C
102
{ACAD_REACTORS
330
567
102
}
330
1F
100
AcDbEntity
  8
LC-001-002-----0
  6
ByBlock
 62
     7
370
    50
100
AcDbLine
 10
728.725021
 20
421.447806
 30
0.0
 11
682.225021
 21
421.447806
 31
0.0
  0
LINE
  5
32D
102
{ACAD_REACTORS
330
566
102
}
330
1F
100
AcDbEntity
  8
LC-001-002-----0
  6
ByBlock
 62
     7
370
    50
100
AcDbLine
 10
650.725021
 20
422.447806
 30
0.0
 11
649.225021
 21
422.447806
 31
0.0
  0
LINE
  5
32E
102
{ACAD_REACTORS
330
566
102
}
330
1F
100
AcDbEntity
  8
LC-001-002-----0
  6
ByBlock
 62
     7
370
    50
100
AcDbLine
 10
649.225021
 20
422.447806
 30
0.0
 11
643.225021
 21
422.447806
 31
0.0
  0
LINE
  5
32F
102
{ACAD_REACTORS
330
566
102
}
330
1F
100
AcDbEntity
  8
LC-001-002-----0
  6
ByBlock
 62
     7
370
    50
100
AcDbLine
 10
643.225021
 20
422.447806
 30
0.0
 11
641.725021
 21
422.447806
 31
0.0
  0
ARC
  5
330
102
{ACAD_REACTORS
330
566
102
}
330
1F
100
AcDbEntity
  8
LC-005-002-RND-0
 62
     7
370
    50
100
AcDbCircle
 10
640.725021
 20
423.947806
 30
0.0
 40
1.0
100
AcDbArc
 50
360.0
 51
90.0
  0
ARC
  5
331
102
{ACAD_REACTORS
330
566
102
}
330
1F
100
AcDbEntity
  8
LC-005-002-RND-0
 62
     7
370
    50
100
AcDbCircle
 10
640.725021
 20
423.947806
 30
0.0
 40
2.5
100
AcDbArc
 50
0.0
 51
90.0
  0
ARC
  5
332
102
{ACAD_REACTORS
330
566
102
}
330
1F
100
AcDbEntity
  8
LC-005-002-RND-0
 62
     7
370
    50
100
AcDbCircle
 10
651.725021
 20
423.947806
 30
0.0
 40
2.5
100
AcDbArc
 50
90.0
 51
180.0
  0
ARC
  5
333
102
{ACAD_REACTORS
330
566
102
}
330
1F
100
AcDbEntity
  8
LC-005-002-RND-0
 62
     7
370
    50
100
AcDbCircle
 10
652.725021
 20
423.947806
 30
0.0
 40
2.5
100
AcDbArc
 50
0.0
 51
90.0
  0
LINE
  5
334
102
{ACAD_REACTORS
330
56C
102
}
330
1F
100
AcDbEntity
  8
LC-003-005-----0
 62
     7
370
    25
100
AcDbLine
 10
614.724531
 20
302.279792
 30
0.0
 11
622.224995
 21
309.780255
 31
0.0
  0
ARC
  5
335
102
{ACAD_REACTORS
330
566
102
}
330
1F
100
AcDbEntity
  8
LC-005-002-RND-0
 62
     7
370
    50
100
AcDbCircle
 10
663.725021
 20
423.947806
 30
0.0
 40
2.5
100
AcDbArc
 50
90.0
 51
180.0
  0
ARC
  5
336
102
{ACAD_REACTORS
330
566
102
}
330
1F
100
AcDbEntity
  8
LC-005-002-RND-0
 62
     7
370
    50
100
AcDbCircle
 10
664.725021
 20
423.947806
 30
0.0
 40
2.5
100
AcDbArc
 50
0.0
 51
90.0
  0
LINE
  5
337
102
{ACAD_REACTORS
330
566
102
}
330
1F
100
AcDbEntity
  8
LC-001-002-----0
  6
ByBlock
 62
     7
370
    50
100
AcDbLine
 10
636.725021
 20
423.947806
 30
0.0
 11
636.725021
 21
421.447806
 31
0.0
  0
LINE
  5
338
102
{ACAD_REACTORS
330
566
102
}
330
1F
100
AcDbEntity
  8
LC-001-002-----0
  6
ByBlock
 62
     7
370
    50
100
AcDbLine
 10
636.725021
 20
421.447806
 30
0.0
 11
638.225021
 21
421.447806
 31
0.0
  0
LINE
  5
339
102
{ACAD_REACTORS
330
566
102
}
330
1F
100
AcDbEntity
  8
LC-001-002-----0
  6
ByBlock
 62
     7
370
    50
100
AcDbLine
 10
638.225021
 20
421.447806
 30
0.0
 11
682.225021
 21
421.447806
 31
0.0
  0
ARC
  5
33A
102
{ACAD_REACTORS
330
567
102
}
330
1F
100
AcDbEntity
  8
LC-005-002-RND-0
 62
     7
370
    50
100
AcDbCircle
 10
731.225021
 20
426.447806
 30
0.0
 40
0.5
100
AcDbArc
 50
0.0
 51
90.0
  0
ARC
  5
33B
102
{ACAD_REACTORS
330
567
102
}
330
1F
100
AcDbEntity
  8
LC-005-002-RND-0
 62
     7
370
    50
100
AcDbCircle
 10
729.225021
 20
426.447806
 30
0.0
 40
0.5
100
AcDbArc
 50
90.0
 51
180.0
  0
LINE
  5
33C
102
{ACAD_REACTORS
330
567
102
}
330
1F
100
AcDbEntity
  8
LC-001-002-----0
  6
ByBlock
 62
     7
370
    50
100
AcDbLine
 10
724.225021
 20
418.447806
 30
0.0
 11
724.225021
 21
405.947806
 31
0.0
  0
INSERT
  5
34A
102
{ACAD_REACTORS
330
567
102
}
330
1F
100
AcDbEntity
  8
LC-003-005-----0
 62
     7
370
    25
100
AcDbBlockReference
  2
*X1516
 10
0.0
 20
0.0
 30
0.0
  0
LINE
  5
34B
102
{ACAD_REACTORS
330
567
102
}
330
1F
100
AcDbEntity
  8
LC-001-002-----0
  6
ByBlock
 62
     7
370
    50
100
AcDbLine
 10
724.225021
 20
418.447806
 30
0.0
 11
682.225021
 21
418.447806
 31
0.0
  0
ARC
  5
34C
102
{ACAD_REACTORS
330
567
102
}
330
1F
100
AcDbEntity
  8
LC-001-002-----0
  6
ByBlock
 62
     7
370
    50
100
AcDbCircle
 10
724.225021
 20
418.947806
 30
0.0
 40
0.5
100
AcDbArc
 50
90.0
 51
270.0
  0
LINE
  5
34D
102
{ACAD_REACTORS
330
567
102
}
330
1F
100
AcDbEntity
  8
LC-001-002-----0
  6
ByBlock
 62
     7
370
    50
100
AcDbLine
 10
730.225021
 20
417.447806
 30
0.0
 11
730.225021
 21
419.447806
 31
0.0
  0
LINE
  5
34E
102
{ACAD_REACTORS
330
567
102
}
330
1F
100
AcDbEntity
  8
LC-001-002-----0
  6
ByBlock
 62
     7
370
    50
100
AcDbLine
 10
730.225021
 20
419.447806
 30
0.0
 11
732.725021
 21
419.447806
 31
0.0
  0
LINE
  5
34F
102
{ACAD_REACTORS
330
566
102
}
330
1F
100
AcDbEntity
  8
LC-001-002-----0
  6
ByBlock
 62
     7
370
    50
100
AcDbLine
 10
682.225021
 20
426.447806
 30
0.0
 11
639.225021
 21
426.447806
 31
0.0
  0
LINE
  5
350
102
{ACAD_REACTORS
330
567
102
}
330
1F
100
AcDbEntity
  8
LC-001-002-----0
  6
ByBlock
 62
     7
370
    50
100
AcDbLine
 10
732.725021
 20
420.447806
 30
0.0
 11
731.725021
 21
420.447806
 31
0.0
  0
LINE
  5
351
102
{ACAD_REACTORS
330
566
102
}
330
1F
100
AcDbEntity
  8
LC-001-002-----0
  6
ByBlock
 62
     7
370
    50
100
AcDbLine
 10
638.225021
 20
421.447806
 30
0.0
 11
638.225021
 21
423.947806
 31
0.0
  0
LINE
  5
352
102
{ACAD_REACTORS
330
566
102
}
330
1F
100
AcDbEntity
  8
LC-001-002-----0
  6
ByBlock
 62
     7
370
    50
100
AcDbLine
 10
639.225021
 20
424.947806
 30
0.0
 11
640.725021
 21
424.947806
 31
0.0
  0
LINE
  5
353
102
{ACAD_REACTORS
330
566
102
}
330
1F
100
AcDbEntity
  8
LC-001-002-----0
  6
ByBlock
 62
     7
370
    50
100
AcDbLine
 10
641.725021
 20
423.947806
 30
0.0
 11
641.725021
 21
422.447806
 31
0.0
  0
LINE
  5
354
102
{ACAD_REACTORS
330
566
102
}
330
1F
100
AcDbEntity
  8
LC-001-002-----0
  6
ByBlock
 62
     7
370
    50
100
AcDbLine
 10
643.225021
 20
423.947806
 30
0.0
 11
643.225021
 21
422.447806
 31
0.0
  0
LINE
  5
355
102
{ACAD_REACTORS
330
566
102
}
330
1F
100
AcDbEntity
  8
LC-001-002-----0
  6
ByBlock
 62
     7
370
    50
100
AcDbLine
 10
649.225021
 20
423.947806
 30
0.0
 11
649.225021
 21
422.447806
 31
0.0
  0
LINE
  5
356
102
{ACAD_REACTORS
330
566
102
}
330
1F
100
AcDbEntity
  8
LC-001-002-----0
  6
ByBlock
 62
     7
370
    50
100
AcDbLine
 10
655.225021
 20
423.947806
 30
0.0
 11
655.225021
 21
422.447806
 31
0.0
  0
LINE
  5
357
102
{ACAD_REACTORS
330
566
102
}
330
1F
100
AcDbEntity
  8
LC-001-002-----0
  6
ByBlock
 62
     7
370
    50
100
AcDbLine
 10
661.225021
 20
423.947806
 30
0.0
 11
661.225021
 21
422.447806
 31
0.0
  0
LINE
  5
358
102
{ACAD_REACTORS
330
566
102
}
330
1F
100
AcDbEntity
  8
LC-001-002-----0
  6
ByBlock
 62
     7
370
    50
100
AcDbLine
 10
667.225021
 20
423.947806
 30
0.0
 11
667.225021
 21
422.447806
 31
0.0
  0
LINE
  5
359
102
{ACAD_REACTORS
330
566
102
}
330
1F
100
AcDbEntity
  8
LC-001-002-----0
  6
ByBlock
 62
     7
370
    50
100
AcDbLine
 10
673.225021
 20
423.947806
 30
0.0
 11
673.225021
 21
422.447806
 31
0.0
  0
LINE
  5
35A
102
{ACAD_REACTORS
330
566
102
}
330
1F
100
AcDbEntity
  8
LC-001-002-----0
  6
ByBlock
 62
     7
370
    50
100
AcDbLine
 10
650.725021
 20
423.947806
 30
0.0
 11
650.725021
 21
422.447806
 31
0.0
  0
LINE
  5
35B
102
{ACAD_REACTORS
330
566
102
}
330
1F
100
AcDbEntity
  8
LC-001-002-----0
  6
ByBlock
 62
     7
370
    50
100
AcDbLine
 10
653.725021
 20
423.947806
 30
0.0
 11
653.725021
 21
422.447806
 31
0.0
  0
ARC
  5
35C
102
{ACAD_REACTORS
330
565
102
}
330
1F
100
AcDbEntity
  8
LC-005-002-RND-0
 62
     7
370
    50
100
AcDbCircle
 10
725.225021
 20
423.947806
 30
0.0
 40
2.5
100
AcDbArc
 50
0.0
 51
90.0
  0
ARC
  5
35D
102
{ACAD_REACTORS
330
565
102
}
330
1F
100
AcDbEntity
  8
LC-005-002-RND-0
 62
     7
370
    50
100
AcDbCircle
 10
725.225021
 20
423.947806
 30
0.0
 40
1.0
100
AcDbArc
 50
0.0
 51
90.0
  0
LINE
  5
35E
102
{ACAD_REACTORS
330
56C
102
}
330
1F
100
AcDbEntity
  8
LC-003-005-----0
 62
     7
370
    25
100
AcDbLine
 10
608.064143
 20
298.447831
 30
0.0
 11
610.064143
 21
300.447831
 31
0.0
  0
ARC
  5
35F
102
{ACAD_REACTORS
330
565
102
}
330
1F
100
AcDbEntity
  8
LC-005-002-RND-0
 62
     7
370
    50
100
AcDbCircle
 10
712.725021
 20
423.947806
 30
0.0
 40
1.0
100
AcDbArc
 50
0.0
 51
90.0
  0
ARC
  5
360
102
{ACAD_REACTORS
330
565
102
}
330
1F
100
AcDbEntity
  8
LC-005-002-RND-0
 62
     7
370
    50
100
AcDbCircle
 10
711.725021
 20
423.947806
 30
0.0
 40
1.0
100
AcDbArc
 50
90.0
 51
180.0
  0
ARC
  5
361
102
{ACAD_REACTORS
330
565
102
}
330
1F
100
AcDbEntity
  8
LC-005-002-RND-0
 62
     7
370
    50
100
AcDbCircle
 10
700.725021
 20
423.947806
 30
0.0
 40
1.0
100
AcDbArc
 50
0.0
 51
90.0
  0
ARC
  5
362
102
{ACAD_REACTORS
330
565
102
}
330
1F
100
AcDbEntity
  8
LC-005-002-RND-0
 62
     7
370
    50
100
AcDbCircle
 10
699.725021
 20
423.947806
 30
0.0
 40
1.0
100
AcDbArc
 50
90.0
 51
180.0
  0
ARC
  5
363
102
{ACAD_REACTORS
330
565
102
}
330
1F
100
AcDbEntity
  8
LC-005-002-RND-0
 62
     7
370
    50
100
AcDbCircle
 10
688.725021
 20
423.947806
 30
0.0
 40
1.0
100
AcDbArc
 50
0.0
 51
90.0
  0
INSERT
  5
36A
102
{ACAD_REACTORS
330
565
102
}
330
1F
100
AcDbEntity
  8
LC-003-005-----0
 62
     7
370
    25
100
AcDbBlockReference
  2
*X1617
 10
0.0
 20
0.0
 30
0.0
  0
INSERT
  5
371
102
{ACAD_REACTORS
330
565
102
}
330
1F
100
AcDbEntity
  8
LC-003-005-----0
 62
     7
370
    25
100
AcDbBlockReference
  2
*X1718
 10
0.0
 20
0.0
 30
0.0
  0
INSERT
  5
376
102
{ACAD_REACTORS
330
565
102
}
330
1F
100
AcDbEntity
  8
LC-003-005-----0
 62
     7
370
    25
100
AcDbBlockReference
  2
*X1819
 10
0.0
 20
0.0
 30
0.0
  0
LINE
  5
377
102
{ACAD_REACTORS
330
565
102
}
330
1F
100
AcDbEntity
  8
LC-001-002-----0
  6
ByBlock
 62
     7
370
    50
100
AcDbLine
 10
689.725021
 20
422.447806
 30
0.0
 11
691.225021
 21
422.447806
 31
0.0
  0
LINE
  5
378
102
{ACAD_REACTORS
330
565
102
}
330
1F
100
AcDbEntity
  8
LC-001-002-----0
  6
ByBlock
 62
     7
370
    50
100
AcDbLine
 10
691.225021
 20
422.447806
 30
0.0
 11
697.225021
 21
422.447806
 31
0.0
  0
LINE
  5
379
102
{ACAD_REACTORS
330
566
102
}
330
1F
100
AcDbEntity
  8
LC-001-002-----0
  6
ByBlock
 62
     7
370
    50
100
AcDbLine
 10
662.725021
 20
423.947806
 30
0.0
 11
662.725021
 21
422.447806
 31
0.0
  0
LINE
  5
37A
102
{ACAD_REACTORS
330
564
102
}
330
1F
100
AcDbEntity
  8
LC-001-002-----0
  6
ByBlock
 62
     7
370
    50
100
AcDbLine
 10
636.225021
 20
410.790951
 30
0.0
 11
636.225021
 21
404.447806
 31
0.0
  0
LINE
  5
37B
102
{ACAD_REACTORS
330
564
102
}
330
1F
100
AcDbEntity
  8
LC-001-002-----0
  6
ByBlock
 62
     7
370
    50
100
AcDbLine
 10
639.225021
 20
413.260936
 30
0.0
 11
638.429065
 21
415.447806
 31
0.0
  0
LINE
  5
37C
102
{ACAD_REACTORS
330
564
102
}
330
1F
100
AcDbEntity
  8
LC-001-002-----0
  6
ByBlock
 62
     7
370
    50
100
AcDbLine
 10
630.225021
 20
407.205165
 30
0.0
 11
630.225021
 21
305.947806
 31
0.0
  0
LINE
  5
37D
102
{ACAD_REACTORS
330
564
102
}
330
1F
100
AcDbEntity
  8
LC-001-002-----0
  6
ByBlock
 62
     7
370
    50
100
AcDbLine
 10
627.225021
 20
306.947806
 30
0.0
 11
627.225021
 21
408.447806
 31
0.0
  0
LINE
  5
37E
102
{ACAD_REACTORS
330
56C
102
}
330
1F
100
AcDbEntity
  8
LC-003-005-----0
 62
     7
370
    25
100
AcDbLine
 10
614.724531
 20
305.108219
 30
0.0
 11
622.224995
 21
312.608682
 31
0.0
  0
LINE
  5
37F
102
{ACAD_REACTORS
330
56C
102
}
330
1F
100
AcDbEntity
  8
LC-003-005-----0
 62
     7
370
    25
100
AcDbLine
 10
606.724499
 20
299.936614
 30
0.0
 11
609.724531
 21
302.936646
 31
0.0
  0
ARC
  5
380
102
{ACAD_REACTORS
330
565
102
}
330
1F
100
AcDbEntity
  8
LC-001-002-----0
  6
ByBlock
 62
     7
370
    50
100
AcDbCircle
 10
688.725021
 20
423.947806
 30
0.0
 40
2.499999999997272
100
AcDbArc
 50
360.0
 51
90.0
  0
LINE
  5
381
102
{ACAD_REACTORS
330
56C
102
}
330
1F
100
AcDbEntity
  8
LC-003-005-----0
 62
     7
370
    25
100
AcDbLine
 10
606.724499
 20
302.765041
 30
0.0
 11
609.724531
 21
305.765073
 31
0.0
  0
LINE
  5
382
102
{ACAD_REACTORS
330
56C
102
}
330
1F
100
AcDbEntity
  8
LC-003-005-----0
 62
     7
370
    25
100
AcDbLine
 10
614.724531
 20
310.765073
 30
0.0
 11
617.90798
 21
313.948521
 31
0.0
  0
LINE
  5
383
102
{ACAD_REACTORS
330
56C
102
}
330
1F
100
AcDbEntity
  8
LC-003-005-----0
 62
     7
370
    25
100
AcDbLine
 10
618.225021
 20
314.265562
 30
0.0
 11
621.224995
 21
317.265536
 31
0.0
  0
LINE
  5
384
102
{ACAD_REACTORS
330
56C
102
}
330
1F
100
AcDbEntity
  8
LC-003-005-----0
 62
     7
370
    25
100
AcDbLine
 10
606.724499
 20
305.593468
 30
0.0
 11
609.724531
 21
308.5935
 31
0.0
  0
LINE
  5
385
102
{ACAD_REACTORS
330
565
102
}
330
1F
100
AcDbEntity
  8
LC-001-002-----0
  6
ByBlock
 62
     7
370
    50
100
AcDbLine
 10
697.225021
 20
422.447806
 30
0.0
 11
698.725021
 21
422.447806
 31
0.0
  0
LINE
  5
386
102
{ACAD_REACTORS
330
56C
102
}
330
1F
100
AcDbEntity
  8
LC-003-005-----0
 62
     7
370
    25
100
AcDbLine
 10
606.15413
 20
307.851526
 30
0.0
 11
609.724531
 21
311.421927
 31
0.0
  0
LINE
  5
387
102
{ACAD_REACTORS
330
56C
102
}
330
1F
100
AcDbEntity
  8
LC-003-005-----0
 62
     7
370
    25
100
AcDbLine
 10
603.422698
 20
307.948521
 30
0.0
 11
605.922698
 21
310.448521
 31
0.0
  0
LINE
  5
388
102
{ACAD_REACTORS
330
56C
102
}
330
1F
100
AcDbEntity
  8
LC-003-005-----0
 62
     7
370
    25
100
AcDbLine
 10
606.225021
 20
310.750844
 30
0.0
 11
609.422698
 21
313.948521
 31
0.0
  0
LINE
  5
389
102
{ACAD_REACTORS
330
56C
102
}
330
1F
100
AcDbEntity
  8
LC-003-005-----0
 62
     7
370
    25
100
AcDbLine
 10
600.594271
 20
307.948521
 30
0.0
 11
603.094271
 21
310.448521
 31
0.0
  0
LINE
  5
38A
102
{ACAD_REACTORS
330
56C
102
}
330
1F
100
AcDbEntity
  8
LC-003-005-----0
 62
     7
370
    25
100
AcDbLine
 10
606.225021
 20
313.579271
 30
0.0
 11
606.594271
 21
313.948521
 31
0.0
  0
LINE
  5
38B
102
{ACAD_REACTORS
330
56C
102
}
330
1F
100
AcDbEntity
  8
LC-003-005-----0
 62
     7
370
    25
100
AcDbLine
 10
598.495171
 20
308.677849
 30
0.0
 11
600.265844
 21
310.448521
 31
0.0
  0
LINE
  5
38C
102
{ACAD_REACTORS
330
56C
102
}
330
1F
100
AcDbEntity
  8
LC-003-005-----0
 62
     7
370
    25
100
AcDbLine
 10
597.080958
 20
310.092062
 30
0.0
 11
599.224499
 21
312.235603
 31
0.0
  0
LINE
  5
38D
102
{ACAD_REACTORS
330
56C
102
}
330
1F
100
AcDbEntity
  8
LC-003-005-----0
 62
     7
370
    25
100
AcDbLine
 10
595.0771
 20
310.916631
 30
0.0
 11
598.10899
 21
313.948521
 31
0.0
  0
LINE
  5
38E
102
{ACAD_REACTORS
330
56C
102
}
330
1F
100
AcDbEntity
  8
LC-003-005-----0
 62
     7
370
    25
100
AcDbLine
 10
592.911049
 20
311.579008
 30
0.0
 11
595.735848
 21
314.403807
 31
0.0
  0
LINE
  5
38F
102
{ACAD_REACTORS
330
56C
102
}
330
1F
100
AcDbEntity
  8
LC-003-005-----0
 62
     7
370
    25
100
AcDbLine
 10
590.744999
 20
312.241385
 30
0.0
 11
593.569684
 21
315.06607
 31
0.0
  0
LINE
  5
390
102
{ACAD_REACTORS
330
56C
102
}
330
1F
100
AcDbEntity
  8
LC-003-005-----0
 62
     7
370
    25
100
AcDbLine
 10
588.578948
 20
312.903761
 30
0.0
 11
591.40352
 21
315.728333
 31
0.0
  0
LINE
  5
391
102
{ACAD_REACTORS
330
56C
102
}
330
1F
100
AcDbEntity
  8
LC-003-005-----0
 62
     7
370
    25
100
AcDbLine
 10
586.412898
 20
313.566138
 30
0.0
 11
589.237355
 21
316.390596
 31
0.0
  0
LINE
  5
392
102
{ACAD_REACTORS
330
56C
102
}
330
1F
100
AcDbEntity
  8
LC-003-005-----0
 62
     7
370
    25
100
AcDbLine
 10
584.246847
 20
314.228514
 30
0.0
 11
587.071191
 21
317.052858
 31
0.0
  0
LINE
  5
393
102
{ACAD_REACTORS
330
56C
102
}
330
1F
100
AcDbEntity
  8
LC-003-005-----0
 62
     7
370
    25
100
AcDbLine
 10
582.080797
 20
314.890891
 30
0.0
 11
584.905027
 21
317.715121
 31
0.0
  0
LINE
  5
394
102
{ACAD_REACTORS
330
56C
102
}
330
1F
100
AcDbEntity
  8
LC-003-005-----0
 62
     7
370
    25
100
AcDbLine
 10
579.914746
 20
315.553267
 30
0.0
 11
582.738863
 21
318.377384
 31
0.0
  0
LINE
  5
395
102
{ACAD_REACTORS
330
56C
102
}
330
1F
100
AcDbEntity
  8
LC-003-005-----0
 62
     7
370
    25
100
AcDbLine
 10
577.748695
 20
316.215644
 30
0.0
 11
580.572698
 21
319.039647
 31
0.0
  0
LINE
  5
396
102
{ACAD_REACTORS
330
56C
102
}
330
1F
100
AcDbEntity
  8
LC-003-005-----0
 62
     7
370
    25
100
AcDbLine
 10
575.582645
 20
316.878021
 30
0.0
 11
578.406534
 21
319.70191
 31
0.0
  0
LINE
  5
397
102
{ACAD_REACTORS
330
56C
102
}
330
1F
100
AcDbEntity
  8
LC-003-005-----0
 62
     7
370
    25
100
AcDbLine
 10
572.595612
 20
316.719415
 30
0.0
 11
576.055755
 21
320.179558
 31
0.0
  0
LINE
  5
398
102
{ACAD_REACTORS
330
56C
102
}
330
1F
100
AcDbEntity
  8
LC-003-005-----0
 62
     7
370
    25
100
AcDbLine
 10
569.870839
 20
316.823069
 30
0.0
 11
573.318068
 21
320.270298
 31
0.0
  0
LINE
  5
399
102
{ACAD_REACTORS
330
56C
102
}
330
1F
100
AcDbEntity
  8
LC-003-005-----0
 62
     7
370
    25
100
AcDbLine
 10
569.084493
 20
318.86515
 30
0.0
 11
570.580381
 21
320.361038
 31
0.0
  0
ARC
  5
39A
330
1F
100
AcDbEntity
  8
LC-005-002-RND-0
 62
     7
370
    50
100
AcDbCircle
 10
795.225021
 20
318.404863
 30
0.0
 40
2.0
100
AcDbArc
 50
360.0
 51
91.898364
  0
LINE
  5
39B
102
{ACAD_REACTORS
330
56B
102
}
330
1F
100
AcDbEntity
  8
LC-003-005-----0
 62
     7
370
    25
100
AcDbLine
 10
783.930671
 20
290.466596
 30
0.0
 11
784.324328
 21
290.860253
 31
0.0
  0
LINE
  5
39C
102
{ACAD_REACTORS
330
56B
102
}
330
1F
100
AcDbEntity
  8
LC-003-005-----0
 62
     7
370
    25
100
AcDbLine
 10
781.102244
 20
290.466596
 30
0.0
 11
783.496089
 21
292.86044
 31
0.0
  0
LINE
  5
39D
102
{ACAD_REACTORS
330
56B
102
}
330
1F
100
AcDbEntity
  8
LC-003-005-----0
 62
     7
370
    25
100
AcDbLine
 10
778.273817
 20
290.466596
 30
0.0
 11
781.769014
 21
293.961793
 31
0.0
  0
LINE
  5
39E
102
{ACAD_REACTORS
330
56B
102
}
330
1F
100
AcDbEntity
  8
LC-003-005-----0
 62
     7
370
    25
100
AcDbLine
 10
775.44539
 20
290.466596
 30
0.0
 11
779.936539
 21
294.957745
 31
0.0
  0
LINE
  5
39F
102
{ACAD_REACTORS
330
56B
102
}
330
1F
100
AcDbEntity
  8
LC-003-005-----0
 62
     7
370
    25
100
AcDbLine
 10
772.616963
 20
290.466596
 30
0.0
 11
775.616963
 21
293.466596
 31
0.0
  0
LINE
  5
3A0
102
{ACAD_REACTORS
330
56B
102
}
330
1F
100
AcDbEntity
  8
LC-003-005-----0
 62
     7
370
    25
100
AcDbLine
 10
777.324328
 20
295.173961
 30
0.0
 11
777.991819
 21
295.841452
 31
0.0
  0
LINE
  5
3A1
102
{ACAD_REACTORS
330
56B
102
}
330
1F
100
AcDbEntity
  8
LC-003-005-----0
 62
     7
370
    25
100
AcDbLine
 10
769.788536
 20
290.466596
 30
0.0
 11
772.953332
 21
293.631392
 31
0.0
  0
LINE
  5
3A2
102
{ACAD_REACTORS
330
56B
102
}
330
1F
100
AcDbEntity
  8
LC-003-005-----0
 62
     7
370
    25
100
AcDbLine
 10
766.960109
 20
290.466596
 30
0.0
 11
772.824328
 21
296.330815
 31
0.0
  0
LINE
  5
3A3
102
{ACAD_REACTORS
330
56B
102
}
330
1F
100
AcDbEntity
  8
LC-003-005-----0
 62
     7
370
    25
100
AcDbLine
 10
793.266651
 20
316.773138
 30
0.0
 11
796.466449
 21
319.972937
 31
0.0
  0
LINE
  5
3A4
102
{ACAD_REACTORS
330
56B
102
}
330
1F
100
AcDbEntity
  8
LC-003-005-----0
 62
     7
370
    25
100
AcDbLine
 10
764.131681
 20
290.466596
 30
0.0
 11
771.36867
 21
297.703585
 31
0.0
  0
LINE
  5
3A5
102
{ACAD_REACTORS
330
56B
102
}
330
1F
100
AcDbEntity
  8
LC-003-005-----0
 62
     7
370
    25
100
AcDbLine
 10
790.326372
 20
316.661286
 30
0.0
 11
794.031488
 21
320.366402
 31
0.0
  0
LINE
  5
3A6
102
{ACAD_REACTORS
330
56B
102
}
330
1F
100
AcDbEntity
  8
LC-003-005-----0
 62
     7
370
    25
100
AcDbLine
 10
761.303254
 20
290.466596
 30
0.0
 11
768.83163
 21
297.994971
 31
0.0
  0
LINE
  5
3A7
102
{ACAD_REACTORS
330
56B
102
}
330
1F
100
AcDbEntity
  8
LC-003-005-----0
 62
     7
370
    25
100
AcDbLine
 10
787.206901
 20
316.370242
 30
0.0
 11
791.106099
 21
320.26944
 31
0.0
  0
LINE
  5
3A8
102
{ACAD_REACTORS
330
56B
102
}
330
1F
100
AcDbEntity
  8
LC-003-005-----0
 62
     7
370
    25
100
AcDbLine
 10
758.474827
 20
290.466596
 30
0.0
 11
766.070985
 21
298.062753
 31
0.0
  0
LINE
  5
3A9
102
{ACAD_REACTORS
330
56B
102
}
330
1F
100
AcDbEntity
  8
LC-003-005-----0
 62
     7
370
    25
100
AcDbLine
 10
783.132536
 20
315.124305
 30
0.0
 11
788.18071
 21
320.172479
 31
0.0
  0
LINE
  5
3AA
102
{ACAD_REACTORS
330
565
102
}
330
1F
100
AcDbEntity
  8
LC-001-002-----0
  6
ByBlock
 62
     7
370
    50
100
AcDbLine
 10
701.725021
 20
422.447806
 30
0.0
 11
703.225021
 21
422.447806
 31
0.0
  0
DIMENSION
  5
3AB
330
1F
100
AcDbEntity
  8
LC-012-003-----0
 62
     7
370
    25
100
AcDbDimension
  2
*D20
 10
797.226358
 20
480.0
 30
0.0
 11
679.159713
 21
510.8
 31
0.0
 70
   160
  1
%%c<>
 71
     5
 42
230.001337
  3
LC-DIM-L-0140-02-02
100
AcDbAlignedDimension
 13
567.225021
 23
319.433776
 33
0.0
 14
797.226358
 24
319.434184
 34
0.0
100
AcDbRotatedDimension
  0
LINE
  5
3B8
102
{ACAD_REACTORS
330
565
102
}
330
1F
100
AcDbEntity
  8
LC-001-002-----0
  6
ByBlock
 62
     7
370
    50
100
AcDbLine
 10
703.225021
 20
422.447806
 30
0.0
 11
709.225021
 21
422.447806
 31
0.0
  0
LINE
  5
3B9
102
{ACAD_REACTORS
330
56B
102
}
330
1F
100
AcDbEntity
  8
LC-003-005-----0
 62
     7
370
    25
100
AcDbLine
 10
755.6464
 20
290.466596
 30
0.0
 11
763.016533
 21
297.836728
 31
0.0
  0
LINE
  5
3BA
102
{ACAD_REACTORS
330
56B
102
}
330
1F
100
AcDbEntity
  8
LC-003-005-----0
 62
     7
370
    25
100
AcDbLine
 10
779.058172
 20
313.878367
 30
0.0
 11
784.370103
 21
319.190299
 31
0.0
  0
LINE
  5
3BB
102
{ACAD_REACTORS
330
56B
102
}
330
1F
100
AcDbEntity
  8
LC-003-005-----0
 62
     7
370
    25
100
AcDbLine
 10
752.817973
 20
290.466596
 30
0.0
 11
759.534778
 21
297.183401
 31
0.0
  0
LINE
  5
3BC
102
{ACAD_REACTORS
330
56B
102
}
330
1F
100
AcDbEntity
  8
LC-003-005-----0
 62
     7
370
    25
100
AcDbLine
 10
774.983807
 20
312.63243
 30
0.0
 11
780.296141
 21
317.944764
 31
0.0
  0
LINE
  5
3BD
102
{ACAD_REACTORS
330
56B
102
}
330
1F
100
AcDbEntity
  8
LC-003-005-----0
 62
     7
370
    25
100
AcDbLine
 10
749.989546
 20
290.466596
 30
0.0
 11
755.298701
 21
295.775751
 31
0.0
  0
LINE
  5
3BE
102
{ACAD_REACTORS
330
56B
102
}
330
1F
100
AcDbEntity
  8
LC-003-005-----0
 62
     7
370
    25
100
AcDbLine
 10
770.909442
 20
311.386492
 30
0.0
 11
776.222179
 21
316.699229
 31
0.0
  0
LINE
  5
3BF
102
{ACAD_REACTORS
330
56B
102
}
330
1F
100
AcDbEntity
  8
LC-003-005-----0
 62
     7
370
    25
100
AcDbLine
 10
747.161119
 20
290.466596
 30
0.0
 11
751.324328
 21
294.629805
 31
0.0
  0
LINE
  5
3C0
102
{ACAD_REACTORS
330
56B
102
}
330
1F
100
AcDbEntity
  8
LC-003-005-----0
 62
     7
370
    25
100
AcDbLine
 10
755.142354
 20
298.447831
 30
0.0
 11
757.725542
 21
301.031019
 31
0.0
  0
LINE
  5
3C1
102
{ACAD_REACTORS
330
56B
102
}
330
1F
100
AcDbEntity
  8
LC-003-005-----0
 62
     7
370
    25
100
AcDbLine
 10
764.643044
 20
307.948521
 30
0.0
 11
772.148216
 21
315.453693
 31
0.0
  0
LINE
  5
3C2
102
{ACAD_REACTORS
330
56B
102
}
330
1F
100
AcDbEntity
  8
LC-003-005-----0
 62
     7
370
    25
100
AcDbLine
 10
744.332692
 20
290.466596
 30
0.0
 11
747.332692
 21
293.466596
 31
0.0
  0
LINE
  5
3C3
102
{ACAD_REACTORS
330
56B
102
}
330
1F
100
AcDbEntity
  8
LC-003-005-----0
 62
     7
370
    25
100
AcDbLine
 10
748.824328
 20
294.958232
 30
0.0
 11
749.644196
 21
295.7781
 31
0.0
  0
LINE
  5
3C4
102
{ACAD_REACTORS
330
56B
102
}
330
1F
100
AcDbEntity
  8
LC-003-005-----0
 62
     7
370
    25
100
AcDbLine
 10
752.313927
 20
298.447831
 30
0.0
 11
754.313927
 21
300.447831
 31
0.0
  0
LINE
  5
3C5
102
{ACAD_REACTORS
330
56B
102
}
330
1F
100
AcDbEntity
  8
LC-003-005-----0
 62
     7
370
    25
100
AcDbLine
 10
754.725596
 20
300.8595
 30
0.0
 11
757.725542
 21
303.859446
 31
0.0
  0
LINE
  5
3C6
102
{ACAD_REACTORS
330
56B
102
}
330
1F
100
AcDbEntity
  8
LC-003-005-----0
 62
     7
370
    25
100
AcDbLine
 10
761.814617
 20
307.948521
 30
0.0
 11
764.314617
 21
310.448521
 31
0.0
  0
LINE
  5
3C7
102
{ACAD_REACTORS
330
56B
102
}
330
1F
100
AcDbEntity
  8
LC-003-005-----0
 62
     7
370
    25
100
AcDbLine
 10
765.225628
 20
311.359533
 30
0.0
 11
768.074254
 21
314.208158
 31
0.0
  0
LINE
  5
3C8
102
{ACAD_REACTORS
330
56B
102
}
330
1F
100
AcDbEntity
  8
LC-003-005-----0
 62
     7
370
    25
100
AcDbLine
 10
741.504264
 20
290.466596
 30
0.0
 11
744.504264
 21
293.466596
 31
0.0
  0
LINE
  5
3C9
102
{ACAD_REACTORS
330
56B
102
}
330
1F
100
AcDbEntity
  8
LC-003-005-----0
 62
     7
370
    25
100
AcDbLine
 10
749.4855
 20
298.447831
 30
0.0
 11
751.4855
 21
300.447831
 31
0.0
  0
LINE
  5
3CA
102
{ACAD_REACTORS
330
56B
102
}
330
1F
100
AcDbEntity
  8
LC-003-005-----0
 62
     7
370
    25
100
AcDbLine
 10
754.725596
 20
303.687927
 30
0.0
 11
757.725542
 21
306.687874
 31
0.0
  0
LINE
  5
3CB
102
{ACAD_REACTORS
330
56B
102
}
330
1F
100
AcDbEntity
  8
LC-003-005-----0
 62
     7
370
    25
100
AcDbLine
 10
758.98619
 20
307.948521
 30
0.0
 11
761.48619
 21
310.448521
 31
0.0
  0
LINE
  5
3CC
102
{ACAD_REACTORS
330
56B
102
}
330
1F
100
AcDbEntity
  8
LC-003-005-----0
 62
     7
370
    25
100
AcDbLine
 10
738.675837
 20
290.466596
 30
0.0
 11
741.675837
 21
293.466596
 31
0.0
  0
LINE
  5
3CD
102
{ACAD_REACTORS
330
56B
102
}
330
1F
100
AcDbEntity
  8
LC-003-005-----0
 62
     7
370
    25
100
AcDbLine
 10
746.657072
 20
298.447831
 30
0.0
 11
749.725596
 21
301.516355
 31
0.0
  0
LINE
  5
3CE
102
{ACAD_REACTORS
330
56B
102
}
330
1F
100
AcDbEntity
  8
LC-003-005-----0
 62
     7
370
    25
100
AcDbLine
 10
754.725596
 20
306.516355
 30
0.0
 11
758.657763
 21
310.448521
 31
0.0
  0
LINE
  5
3CF
102
{ACAD_REACTORS
330
56B
102
}
330
1F
100
AcDbEntity
  8
LC-003-005-----0
 62
     7
370
    25
100
AcDbLine
 10
735.84741
 20
290.466596
 30
0.0
 11
738.84741
 21
293.466596
 31
0.0
  0
LINE
  5
3D0
102
{ACAD_REACTORS
330
56B
102
}
330
1F
100
AcDbEntity
  8
LC-003-005-----0
 62
     7
370
    25
100
AcDbLine
 10
743.828645
 20
298.447831
 30
0.0
 11
749.725596
 21
304.344782
 31
0.0
  0
LINE
  5
3D1
102
{ACAD_REACTORS
330
56B
102
}
330
1F
100
AcDbEntity
  8
LC-003-005-----0
 62
     7
370
    25
100
AcDbLine
 10
754.725596
 20
309.344782
 30
0.0
 11
758.225107
 21
312.844292
 31
0.0
  0
LINE
  5
3D2
102
{ACAD_REACTORS
330
56B
102
}
330
1F
100
AcDbEntity
  8
LC-003-005-----0
 62
     7
370
    25
100
AcDbLine
 10
734.225021
 20
291.672633
 30
0.0
 11
736.906338
 21
294.35395
 31
0.0
  0
LINE
  5
3D3
102
{ACAD_REACTORS
330
56B
102
}
330
1F
100
AcDbEntity
  8
LC-003-005-----0
 62
     7
370
    25
100
AcDbLine
 10
741.000218
 20
298.447831
 30
0.0
 11
749.725596
 21
307.173209
 31
0.0
  0
LINE
  5
3D4
102
{ACAD_REACTORS
330
56B
102
}
330
1F
100
AcDbEntity
  8
LC-003-005-----0
 62
     7
370
    25
100
AcDbLine
 10
754.725596
 20
312.173209
 30
0.0
 11
756.500909
 21
313.948521
 31
0.0
  0
LINE
  5
3D5
102
{ACAD_REACTORS
330
56B
102
}
330
1F
100
AcDbEntity
  8
LC-003-005-----0
 62
     7
370
    25
100
AcDbLine
 10
734.225021
 20
294.50106
 30
0.0
 11
736.906338
 21
297.182377
 31
0.0
  0
LINE
  5
3D6
102
{ACAD_REACTORS
330
56B
102
}
330
1F
100
AcDbEntity
  8
LC-003-005-----0
 62
     7
370
    25
100
AcDbLine
 10
738.171791
 20
298.447831
 30
0.0
 11
749.725596
 21
310.001636
 31
0.0
  0
LINE
  5
3D7
102
{ACAD_REACTORS
330
56B
102
}
330
1F
100
AcDbEntity
  8
LC-003-005-----0
 62
     7
370
    25
100
AcDbLine
 10
734.225021
 20
297.329488
 30
0.0
 11
739.843364
 21
302.947831
 31
0.0
  0
LINE
  5
3D8
102
{ACAD_REACTORS
330
56B
102
}
330
1F
100
AcDbEntity
  8
LC-003-005-----0
 62
     7
370
    25
100
AcDbLine
 10
742.225133
 20
305.3296
 30
0.0
 11
749.725596
 21
312.830063
 31
0.0
  0
LINE
  5
3D9
102
{ACAD_REACTORS
330
56B
102
}
330
1F
100
AcDbEntity
  8
LC-003-005-----0
 62
     7
370
    25
100
AcDbLine
 10
734.225021
 20
300.157915
 30
0.0
 11
737.014937
 21
302.947831
 31
0.0
  0
LINE
  5
3DA
102
{ACAD_REACTORS
330
56B
102
}
330
1F
100
AcDbEntity
  8
LC-003-005-----0
 62
     7
370
    25
100
AcDbLine
 10
742.225133
 20
308.158027
 30
0.0
 11
748.015627
 21
313.948521
 31
0.0
  0
LINE
  5
3DB
102
{ACAD_REACTORS
330
56B
102
}
330
1F
100
AcDbEntity
  8
LC-003-005-----0
 62
     7
370
    25
100
AcDbLine
 10
732.18651
 20
300.947831
 30
0.0
 11
734.18651
 21
302.947831
 31
0.0
  0
LINE
  5
3DC
102
{ACAD_REACTORS
330
56B
102
}
330
1F
100
AcDbEntity
  8
LC-003-005-----0
 62
     7
370
    25
100
AcDbLine
 10
742.225133
 20
310.986454
 30
0.0
 11
746.225107
 21
314.986428
 31
0.0
  0
LINE
  5
3DD
102
{ACAD_REACTORS
330
56B
102
}
330
1F
100
AcDbEntity
  8
LC-003-005-----0
 62
     7
370
    25
100
AcDbLine
 10
722.725021
 20
294.314769
 30
0.0
 11
724.725021
 21
296.314769
 31
0.0
  0
LINE
  5
3DE
102
{ACAD_REACTORS
330
56B
102
}
330
1F
100
AcDbEntity
  8
LC-003-005-----0
 62
     7
370
    25
100
AcDbLine
 10
729.358083
 20
300.947831
 30
0.0
 11
731.329357
 21
302.919106
 31
0.0
  0
LINE
  5
3DF
102
{ACAD_REACTORS
330
56B
102
}
330
1F
100
AcDbEntity
  8
LC-003-005-----0
 62
     7
370
    25
100
AcDbLine
 10
742.225133
 20
313.814881
 30
0.0
 11
743.858773
 21
315.448521
 31
0.0
  0
LINE
  5
3E0
102
{ACAD_REACTORS
330
56B
102
}
330
1F
100
AcDbEntity
  8
LC-003-005-----0
 62
     7
370
    25
100
AcDbLine
 10
722.725021
 20
297.143196
 30
0.0
 11
724.725021
 21
299.143196
 31
0.0
  0
LINE
  5
3E1
102
{ACAD_REACTORS
330
56B
102
}
330
1F
100
AcDbEntity
  8
LC-003-005-----0
 62
     7
370
    25
100
AcDbLine
 10
726.529655
 20
300.947831
 30
0.0
 11
728.450683
 21
302.868858
 31
0.0
  0
LINE
  5
3E2
102
{ACAD_REACTORS
330
56B
102
}
330
1F
100
AcDbEntity
  8
LC-003-005-----0
 62
     7
370
    25
100
AcDbLine
 10
722.725021
 20
299.971623
 30
0.0
 11
725.572008
 21
302.818611
 31
0.0
  0
LINE
  5
3E3
102
{ACAD_REACTORS
330
565
102
}
330
1F
100
AcDbEntity
  8
LC-001-002-----0
  6
ByBlock
 62
     7
370
    50
100
AcDbLine
 10
709.225021
 20
422.447806
 30
0.0
 11
710.725021
 21
422.447806
 31
0.0
  0
DIMENSION
  5
3E4
330
1F
100
AcDbEntity
  8
LC-012-003-----0
 62
     7
370
    25
100
AcDbDimension
  2
*D21
 10
854.0
 20
426.947806
 30
0.0
 11
823.2
 21
373.612304
 31
0.0
 70
   160
  1
15-107
 71
     5
 42
106.671004
 53
90.0
  3
LC-DIM-L-0140-02-02
100
AcDbAlignedDimension
 13
796.770315
 23
320.276802
 33
0.0
 14
731.225021
 24
426.947806
 34
0.0
 50
90.0
100
AcDbRotatedDimension
  0
LINE
  5
3F1
330
1F
100
AcDbEntity
  8
LC-003-005-----0
 62
     7
370
    25
100
AcDbLine
 10
567.146066
 20
316.926723
 30
0.0
 11
569.084493
 21
318.86515
 31
0.0
  0
LINE
  5
3F2
102
{ACAD_REACTORS
330
565
102
}
330
1F
100
AcDbEntity
  8
LC-001-002-----0
  6
ByBlock
 62
     7
370
    50
100
AcDbLine
 10
713.725021
 20
422.447806
 30
0.0
 11
715.225021
 21
422.447806
 31
0.0
  0
LINE
  5
3F3
102
{ACAD_REACTORS
330
565
102
}
330
1F
100
AcDbEntity
  8
LC-001-002-----0
  6
ByBlock
 62
     7
370
    50
100
AcDbLine
 10
715.225021
 20
422.447806
 30
0.0
 11
721.225021
 21
422.447806
 31
0.0
  0
LINE
  5
3F4
102
{ACAD_REACTORS
330
565
102
}
330
1F
100
AcDbEntity
  8
LC-001-002-----0
  6
ByBlock
 62
     7
370
    50
100
AcDbLine
 10
721.225021
 20
422.447806
 30
0.0
 11
722.725021
 21
422.447806
 31
0.0
  0
ARC
  5
3F5
102
{ACAD_REACTORS
330
565
102
}
330
1F
100
AcDbEntity
  8
LC-005-002-RND-0
 62
     7
370
    50
100
AcDbCircle
 10
723.725021
 20
423.947806
 30
0.0
 40
1.0
100
AcDbArc
 50
90.0
 51
180.0
  0
ARC
  5
3F6
102
{ACAD_REACTORS
330
565
102
}
330
1F
100
AcDbEntity
  8
LC-005-002-RND-0
 62
     7
370
    50
100
AcDbCircle
 10
723.725021
 20
423.947806
 30
0.0
 40
2.5
100
AcDbArc
 50
90.0
 51
180.0
  0
ARC
  5
3F7
102
{ACAD_REACTORS
330
565
102
}
330
1F
100
AcDbEntity
  8
LC-005-002-RND-0
 62
     7
370
    50
100
AcDbCircle
 10
712.725021
 20
423.947806
 30
0.0
 40
2.5
100
AcDbArc
 50
360.0
 51
90.0
  0
DIMENSION
  5
3F8
330
1F
100
AcDbEntity
  8
LC-012-003-----0
 62
     7
370
    25
100
AcDbDimension
  2
*D22
 10
545.763626
 20
238.4781
 30
0.0
 11
514.963626
 21
274.294
 31
0.0
 70
   160
  1
78
 71
     5
 42
78.089007
 53
90.0
  3
LC-DIM-L-0140-02-02
100
AcDbAlignedDimension
 13
576.59937
 23
316.567107
 33
0.0
 14
630.725021
 24
238.4781
 34
0.0
 50
90.0
100
AcDbRotatedDimension
  0
DIMENSION
  5
405
330
1F
100
AcDbEntity
  8
LC-012-003-----0
 62
     7
370
    25
100
AcDbDimension
  2
*D23
 10
910.453207
 20
243.466596
 30
0.0
 11
879.653207
 21
268.466596
 31
0.0
 70
   160
  1
DN50
 71
     5
 42
50.0
 53
90.0
  3
LC-DIM-L-0140-02-02
100
AcDbAlignedDimension
 13
869.725021
 23
293.466596
 33
0.0
 14
869.725021
 24
243.466596
 34
0.0
 50
90.0
100
AcDbRotatedDimension
  0
ARC
  5
414
102
{ACAD_REACTORS
330
565
102
}
330
1F
100
AcDbEntity
  8
LC-005-002-RND-0
 62
     7
370
    50
100
AcDbCircle
 10
711.725021
 20
423.947806
 30
0.0
 40
2.5
100
AcDbArc
 50
90.0
 51
180.0
  0
ARC
  5
415
102
{ACAD_REACTORS
330
565
102
}
330
1F
100
AcDbEntity
  8
LC-005-002-RND-0
 62
     7
370
    50
100
AcDbCircle
 10
700.725021
 20
423.947806
 30
0.0
 40
2.5
100
AcDbArc
 50
360.0
 51
90.0
  0
ARC
  5
416
102
{ACAD_REACTORS
330
565
102
}
330
1F
100
AcDbEntity
  8
LC-005-002-RND-0
 62
     7
370
    50
100
AcDbCircle
 10
699.725021
 20
423.947806
 30
0.0
 40
2.5
100
AcDbArc
 50
90.0
 51
180.0
  0
LINE
  5
417
102
{ACAD_REACTORS
330
565
102
}
330
1F
100
AcDbEntity
  8
LC-001-002-----0
  6
ByBlock
 62
     7
370
    50
100
AcDbLine
 10
727.725021
 20
423.947806
 30
0.0
 11
727.725021
 21
421.447806
 31
0.0
  0
LINE
  5
418
102
{ACAD_REACTORS
330
565
102
}
330
1F
100
AcDbEntity
  8
LC-001-002-----0
  6
ByBlock
 62
     7
370
    50
100
AcDbLine
 10
727.725021
 20
421.447806
 30
0.0
 11
726.225021
 21
421.447806
 31
0.0
  0
LINE
  5
419
102
{ACAD_REACTORS
330
565
102
}
330
1F
100
AcDbEntity
  8
LC-001-002-----0
  6
ByBlock
 62
     7
370
    50
100
AcDbLine
 10
726.225021
 20
421.447806
 30
0.0
 11
682.225021
 21
421.447806
 31
0.0
  0
LINE
  5
41A
102
{ACAD_REACTORS
330
565
102
}
330
1F
100
AcDbEntity
  8
LC-001-002-----0
  6
ByBlock
 62
     7
370
    50
100
AcDbLine
 10
682.225021
 20
426.447806
 30
0.0
 11
725.225021
 21
426.447806
 31
0.0
  0
LINE
  5
41B
102
{ACAD_REACTORS
330
565
102
}
330
1F
100
AcDbEntity
  8
LC-001-002-----0
  6
ByBlock
 62
     7
370
    50
100
AcDbLine
 10
726.225021
 20
421.447806
 30
0.0
 11
726.225021
 21
423.947806
 31
0.0
  0
DIMENSION
  5
41C
330
1F
100
AcDbEntity
  8
LC-012-003-----0
 62
     7
370
    25
100
AcDbDimension
  2
*D24
 10
873.225021
 20
188.164
 30
0.0
 11
805.225021
 21
218.964
 31
0.0
 70
   160
 71
     5
 42
136.0
  3
LC-DIM-L-0140-02-02
100
AcDbAlignedDimension
 13
737.225021
 23
241.9781
 33
0.0
 14
873.225021
 24
245.716596
 34
0.0
100
AcDbRotatedDimension
  0
LINE
  5
429
102
{ACAD_REACTORS
330
565
102
}
330
1F
100
AcDbEntity
  8
LC-001-002-----0
  6
ByBlock
 62
     7
370
    50
100
AcDbLine
 10
725.225021
 20
424.947806
 30
0.0
 11
723.725021
 21
424.947806
 31
0.0
  0
LINE
  5
42A
102
{ACAD_REACTORS
330
565
102
}
330
1F
100
AcDbEntity
  8
LC-001-002-----0
  6
ByBlock
 62
     7
370
    50
100
AcDbLine
 10
722.725021
 20
423.947806
 30
0.0
 11
722.725021
 21
422.447806
 31
0.0
  0
LINE
  5
42B
330
1F
100
AcDbEntity
  8
LC-001-002-----0
  6
ByBlock
 62
     7
370
    50
100
AcDbLine
 10
576.59937
 20
316.567107
 30
0.0
 11
567.225021
 21
316.92372
 31
0.0
  0
LINE
  5
42C
102
{ACAD_REACTORS
330
565
102
}
330
1F
100
AcDbEntity
  8
LC-001-002-----0
  6
ByBlock
 62
     7
370
    50
100
AcDbLine
 10
721.225021
 20
423.947806
 30
0.0
 11
721.225021
 21
422.447806
 31
0.0
  0
LINE
  5
42D
102
{ACAD_REACTORS
330
565
102
}
330
1F
100
AcDbEntity
  8
LC-001-002-----0
  6
ByBlock
 62
     7
370
    50
100
AcDbLine
 10
715.225021
 20
423.947806
 30
0.0
 11
715.225021
 21
422.447806
 31
0.0
  0
LINE
  5
42E
102
{ACAD_REACTORS
330
565
102
}
330
1F
100
AcDbEntity
  8
LC-001-002-----0
  6
ByBlock
 62
     7
370
    50
100
AcDbLine
 10
709.225021
 20
423.947806
 30
0.0
 11
709.225021
 21
422.447806
 31
0.0
  0
LINE
  5
42F
102
{ACAD_REACTORS
330
565
102
}
330
1F
100
AcDbEntity
  8
LC-001-002-----0
  6
ByBlock
 62
     7
370
    50
100
AcDbLine
 10
703.225021
 20
423.947806
 30
0.0
 11
703.225021
 21
422.447806
 31
0.0
  0
LINE
  5
430
102
{ACAD_REACTORS
330
565
102
}
330
1F
100
AcDbEntity
  8
LC-001-002-----0
  6
ByBlock
 62
     7
370
    50
100
AcDbLine
 10
697.225021
 20
423.947806
 30
0.0
 11
697.225021
 21
422.447806
 31
0.0
  0
LINE
  5
431
102
{ACAD_REACTORS
330
565
102
}
330
1F
100
AcDbEntity
  8
LC-001-002-----0
  6
ByBlock
 62
     7
370
    50
100
AcDbLine
 10
691.225021
 20
423.947806
 30
0.0
 11
691.225021
 21
422.447806
 31
0.0
  0
LINE
  5
432
102
{ACAD_REACTORS
330
565
102
}
330
1F
100
AcDbEntity
  8
LC-001-002-----0
  6
ByBlock
 62
     7
370
    50
100
AcDbLine
 10
713.725021
 20
423.947806
 30
0.0
 11
713.725021
 21
422.447806
 31
0.0
  0
LINE
  5
433
102
{ACAD_REACTORS
330
565
102
}
330
1F
100
AcDbEntity
  8
LC-001-002-----0
  6
ByBlock
 62
     7
370
    50
100
AcDbLine
 10
710.725021
 20
423.947806
 30
0.0
 11
710.725021
 21
422.447806
 31
0.0
  0
LINE
  5
434
330
1F
100
AcDbEntity
  8
LC-001-002-----0
  6
ByBlock
 62
     7
370
    50
100
AcDbLine
 10
785.818068
 20
291.216596
 30
0.0
 11
785.818068
 21
245.716596
 31
0.0
  0
LINE
  5
435
102
{ACAD_REACTORS
330
565
102
}
330
1F
100
AcDbEntity
  8
LC-001-002-----0
  6
ByBlock
 62
     7
370
    50
100
AcDbLine
 10
701.725021
 20
423.947806
 30
0.0
 11
701.725021
 21
422.447806
 31
0.0
  0
LINE
  5
436
102
{ACAD_REACTORS
330
565
102
}
330
1F
100
AcDbEntity
  8
LC-001-002-----0
  6
ByBlock
 62
     7
370
    50
100
AcDbLine
 10
698.725021
 20
423.947806
 30
0.0
 11
698.725021
 21
422.447806
 31
0.0
  0
LINE
  5
437
102
{ACAD_REACTORS
330
565
102
}
330
1F
100
AcDbEntity
  8
LC-001-002-----0
  6
ByBlock
 62
     7
370
    50
100
AcDbLine
 10
689.725021
 20
423.947806
 30
0.0
 11
689.725021
 21
422.447806
 31
0.0
  0
LINE
  5
438
102
{ACAD_REACTORS
330
565
102
}
330
1F
100
AcDbEntity
  8
LC-001-002-----0
  6
ByBlock
 62
     7
370
    50
100
AcDbLine
 10
712.725021
 20
424.947806
 30
0.0
 11
711.725021
 21
424.947806
 31
0.0
  0
LINE
  5
439
102
{ACAD_REACTORS
330
565
102
}
330
1F
100
AcDbEntity
  8
LC-001-002-----0
  6
ByBlock
 62
     7
370
    50
100
AcDbLine
 10
700.725021
 20
424.947806
 30
0.0
 11
699.725021
 21
424.947806
 31
0.0
  0
LINE
  5
43A
102
{ACAD_REACTORS
330
565
102
}
330
1F
100
AcDbEntity
  8
LC-001-002-----0
  6
ByBlock
 62
     7
370
    50
100
AcDbLine
 10
688.725021
 20
424.947806
 30
0.0
 11
682.225021
 21
424.947806
 31
0.0
  0
LINE
  5
43B
102
{ACAD_REACTORS
330
564
102
}
330
1F
100
AcDbEntity
  8
LC-001-002-----0
  6
ByBlock
 62
     7
370
    50
100
AcDbLine
 10
638.225021
 20
404.447806
 30
0.0
 11
682.225021
 21
404.447806
 31
0.0
  0
INSERT
  5
444
102
{ACAD_REACTORS
330
565
102
}
330
1F
100
AcDbEntity
  8
LC-003-005-----0
 62
     7
370
    25
100
AcDbBlockReference
  2
*X1925
 10
0.0
 20
0.0
 30
0.0
  0
LINE
  5
445
102
{ACAD_REACTORS
330
564
102
}
330
1F
100
AcDbEntity
  8
LC-001-002-----0
  6
ByBlock
 62
     7
370
    50
100
AcDbLine
 10
639.225021
 20
411.447806
 30
0.0
 11
639.225021
 21
413.260936
 31
0.0
  0
LINE
  5
446
102
{ACAD_REACTORS
330
564
102
}
330
1F
100
AcDbEntity
  8
LC-001-002-----0
  6
ByBlock
 62
     7
370
    50
100
AcDbLine
 10
627.225021
 20
408.447806
 30
0.0
 11
634.225021
 21
415.447806
 31
0.0
  0
LINE
  5
447
102
{ACAD_REACTORS
330
564
102
}
330
1F
100
AcDbEntity
  8
LC-001-002-----0
  6
ByBlock
 62
     7
370
    50
100
AcDbLine
 10
634.517914
 20
411.498058
 30
0.0
 11
630.225021
 21
407.205165
 31
0.0
  0
LINE
  5
448
102
{ACAD_REACTORS
330
564
102
}
330
1F
100
AcDbEntity
  8
LC-001-002-----0
  6
ByBlock
 62
     7
370
    50
100
AcDbLine
 10
639.225021
 20
411.447806
 30
0.0
 11
638.225021
 21
410.447806
 31
0.0
  0
LINE
  5
449
102
{ACAD_REACTORS
330
564
102
}
330
1F
100
AcDbEntity
  8
LC-001-002-----0
  6
ByBlock
 62
     7
370
    50
100
AcDbLine
 10
638.225021
 20
410.447806
 30
0.0
 11
638.225021
 21
404.447806
 31
0.0
  0
LINE
  5
44A
102
{ACAD_REACTORS
330
564
102
}
330
1F
100
AcDbEntity
  8
LC-001-002-----0
  6
ByBlock
 62
     7
370
    50
100
AcDbLine
 10
628.225021
 20
305.947806
 30
0.0
 11
630.225021
 21
305.947806
 31
0.0
  0
LINE
  5
44B
102
{ACAD_REACTORS
330
564
102
}
330
1F
100
AcDbEntity
  8
LC-001-002-----0
  6
ByBlock
 62
     7
370
    50
100
AcDbLine
 10
628.225021
 20
305.947806
 30
0.0
 11
627.225021
 21
306.947806
 31
0.0
  0
LINE
  5
44C
102
{ACAD_REACTORS
330
564
102
}
330
1F
100
AcDbEntity
  8
LC-001-002-----0
  6
ByBlock
 62
     7
370
    50
100
AcDbLine
 10
636.225021
 20
404.447806
 30
0.0
 11
638.225021
 21
404.447806
 31
0.0
  0
ARC
  5
44D
102
{ACAD_REACTORS
330
564
102
}
330
1F
100
AcDbEntity
  8
LC-005-002-RND-0
 62
     7
370
    50
100
AcDbCircle
 10
635.225021
 20
410.790951
 30
0.0
 40
1.0
100
AcDbArc
 50
360.0
 51
135.0
  0
INSERT
  5
47E
330
1F
100
AcDbEntity
  8
LC-003-005-----0
 62
     7
370
    25
100
AcDbBlockReference
  2
*X2026
 10
0.0
 20
0.0
 30
0.0
  0
LINE
  5
47F
330
1F
100
AcDbEntity
  8
LC-001-002-----0
  6
ByBlock
 62
     7
370
    50
100
AcDbLine
 10
734.225021
 20
305.947806
 30
0.0
 11
630.225021
 21
305.947806
 31
0.0
  0
DIMENSION
  5
480
330
1F
100
AcDbEntity
  8
LC-012-003-----0
 62
     7
370
    25
100
AcDbDimension
  2
*D27
 10
731.725021
 20
440.0
 30
0.0
 11
682.343319
 21
470.8
 31
0.0
 70
   160
  1
100
 71
     5
 42
99.0
  3
LC-DIM-L-0140-02-02
100
AcDbAlignedDimension
 13
632.725021
 23
426.447806
 33
0.0
 14
731.725021
 24
426.447806
 34
0.0
100
AcDbRotatedDimension
  0
LINE
  5
48D
330
1F
100
AcDbEntity
  8
LC-001-002-----0
  6
ByBlock
 62
     7
370
    25
100
AcDbLine
 10
646.119278
 20
453.088
 30
0.0
 11
661.119278
 21
453.088
 31
0.0
  0
LINE
  5
48E
330
1F
100
AcDbEntity
  8
LC-001-002-----0
  6
ByBlock
 62
     7
370
    25
100
AcDbLine
 10
661.119278
 20
453.088
 30
0.0
 11
661.119278
 21
468.088
 31
0.0
  0
LINE
  5
48F
330
1F
100
AcDbEntity
  8
LC-001-002-----0
  6
ByBlock
 62
     7
370
    50
100
AcDbLine
 10
787.850671
 20
316.567107
 30
0.0
 11
797.225021
 21
316.92372
 31
0.0
  0
LINE
  5
490
330
1F
100
AcDbEntity
  8
LC-001-002-----0
  6
ByBlock
 62
     7
370
    25
100
AcDbLine
 10
797.225021
 20
318.404863
 30
0.0
 11
797.225021
 21
319.434184
 31
0.0
  0
LINE
  5
491
102
{ACAD_REACTORS
330
563
102
}
330
1F
100
AcDbEntity
  8
LC-001-002-----0
  6
ByBlock
 62
     7
370
    50
100
AcDbLine
 10
737.224512
 20
320.94764
 30
0.0
 11
737.224536
 21
312.947747
 31
0.0
  0
LINE
  5
492
102
{ACAD_REACTORS
330
563
102
}
330
1F
100
AcDbEntity
  8
LC-001-002-----0
  6
ByBlock
 62
     7
370
    50
100
AcDbLine
 10
734.224583
 20
302.947831
 30
0.0
 11
742.224628
 21
302.947831
 31
0.0
  0
LINE
  5
493
330
1F
100
AcDbEntity
  8
LC-001-002-----0
  6
ByBlock
 62
     7
370
    50
100
AcDbLine
 10
567.225021
 20
318.404863
 30
0.0
 11
567.225021
 21
316.926723
 31
0.0
  0
LINE
  5
494
330
1F
100
AcDbEntity
  8
LC-001-002-----0
  6
ByBlock
 62
     7
370
    25
100
AcDbLine
 10
796.770315
 20
320.276802
 30
0.0
 11
795.929183
 21
320.276802
 31
0.0
  0
LINE
  5
495
102
{ACAD_REACTORS
330
563
102
}
330
1F
100
AcDbEntity
  8
LC-001-002-----0
  6
ByBlock
 62
     7
370
    50
100
AcDbLine
 10
742.224628
 20
302.947831
 30
0.0
 11
742.224628
 21
312.947056
 31
0.0
  0
LINE
  5
496
102
{ACAD_REACTORS
330
563
102
}
330
1F
100
AcDbEntity
  8
LC-001-002-----0
  6
ByBlock
 62
     7
370
    50
100
AcDbLine
 10
739.224534
 20
322.947662
 30
0.0
 11
739.224534
 21
312.947747
 31
0.0
  0
LINE
  5
497
102
{ACAD_REACTORS
330
563
102
}
330
1F
100
AcDbEntity
  8
LC-001-002-----0
  6
ByBlock
 62
     7
370
    50
100
AcDbLine
 10
740.72464
 20
312.947747
 30
0.0
 11
742.224628
 21
312.947747
 31
0.0
  0
LINE
  5
498
102
{ACAD_REACTORS
330
563
102
}
330
1F
100
AcDbEntity
  8
LC-001-002-----0
  6
ByBlock
 62
     7
370
    50
100
AcDbLine
 10
739.224534
 20
322.947662
 30
0.0
 11
737.224512
 21
320.94764
 31
0.0
  0
LINE
  5
499
102
{ACAD_REACTORS
330
563
102
}
330
1F
100
AcDbEntity
  8
LC-001-002-----0
  6
ByBlock
 62
     7
370
    50
100
AcDbLine
 10
740.72464
 20
312.947747
 30
0.0
 11
739.224534
 21
312.947747
 31
0.0
  0
LINE
  5
49A
102
{ACAD_REACTORS
330
563
102
}
330
1F
100
AcDbEntity
  8
LC-001-002-----0
  6
ByBlock
 62
     7
370
    50
100
AcDbLine
 10
680.725033
 20
305.947806
 30
0.0
 11
683.725008
 21
305.947806
 31
0.0
  0
LINE
  5
49B
102
{ACAD_REACTORS
330
563
102
}
330
1F
100
AcDbEntity
  8
LC-001-002-----0
  6
ByBlock
 62
     7
370
    50
100
AcDbLine
 10
639.810558
 20
305.947806
 30
0.0
 11
646.53173
 21
305.947806
 31
0.0
  0
INSERT
  5
4A9
102
{ACAD_REACTORS
330
563
102
}
330
1F
100
AcDbEntity
  8
LC-003-005-----0
 62
     7
370
    25
100
AcDbBlockReference
  2
*X2128
 10
0.0
 20
0.0
 30
0.0
  0
LINE
  5
4AA
102
{ACAD_REACTORS
330
563
102
}
330
1F
100
AcDbEntity
  8
LC-001-002-----0
  6
ByBlock
 62
     7
370
    50
100
AcDbLine
 10
627.22553
 20
320.94764
 30
0.0
 11
627.225484
 21
305.947806
 31
0.0
  0
LINE
  5
4AB
102
{ACAD_REACTORS
330
563
102
}
330
1F
100
AcDbEntity
  8
LC-001-002-----0
  6
ByBlock
 62
     7
370
    50
100
AcDbLine
 10
630.225458
 20
302.947831
 30
0.0
 11
622.225414
 21
302.947831
 31
0.0
  0
LINE
  5
4AC
102
{ACAD_REACTORS
330
563
102
}
330
1F
100
AcDbEntity
  8
LC-001-002-----0
  6
ByBlock
 62
     7
370
    50
100
AcDbLine
 10
622.225414
 20
302.947831
 30
0.0
 11
622.225414
 21
312.947056
 31
0.0
  0
LINE
  5
4AD
102
{ACAD_REACTORS
330
563
102
}
330
1F
100
AcDbEntity
  8
LC-001-002-----0
  6
ByBlock
 62
     7
370
    50
100
AcDbLine
 10
625.225507
 20
322.947662
 30
0.0
 11
625.225507
 21
312.947747
 31
0.0
  0
LINE
  5
4AE
102
{ACAD_REACTORS
330
563
102
}
330
1F
100
AcDbEntity
  8
LC-001-002-----0
  6
ByBlock
 62
     7
370
    50
100
AcDbLine
 10
623.725401
 20
312.947747
 30
0.0
 11
622.225414
 21
312.947747
 31
0.0
  0
LINE
  5
4AF
102
{ACAD_REACTORS
330
563
102
}
330
1F
100
AcDbEntity
  8
LC-001-002-----0
  6
ByBlock
 62
     7
370
    50
100
AcDbLine
 10
625.225507
 20
322.947662
 30
0.0
 11
627.22553
 21
320.94764
 31
0.0
  0
LINE
  5
4B0
102
{ACAD_REACTORS
330
563
102
}
330
1F
100
AcDbEntity
  8
LC-001-002-----0
  6
ByBlock
 62
     7
370
    50
100
AcDbLine
 10
627.225484
 20
305.947806
 30
0.0
 11
630.225458
 21
305.947806
 31
0.0
  0
LINE
  5
4B1
102
{ACAD_REACTORS
330
563
102
}
330
1F
100
AcDbEntity
  8
LC-001-002-----0
  6
ByBlock
 62
     7
370
    50
100
AcDbLine
 10
630.225458
 20
305.947806
 30
0.0
 11
630.225458
 21
302.947831
 31
0.0
  0
LINE
  5
4B2
102
{ACAD_REACTORS
330
563
102
}
330
1F
100
AcDbEntity
  8
LC-001-002-----0
  6
ByBlock
 62
     7
370
    50
100
AcDbLine
 10
623.725401
 20
312.947747
 30
0.0
 11
625.225507
 21
312.947747
 31
0.0
  0
INSERT
  5
4BF
102
{ACAD_REACTORS
330
563
102
}
330
1F
100
AcDbEntity
  8
LC-003-005-----0
 62
     7
370
    25
100
AcDbBlockReference
  2
*X2229
 10
0.0
 20
0.0
 30
0.0
  0
LINE
  5
4C0
102
{ACAD_REACTORS
330
563
102
}
330
1F
100
AcDbEntity
  8
LC-001-002-----0
  6
ByBlock
 62
     7
370
    50
100
AcDbLine
 10
737.224558
 20
305.947806
 30
0.0
 11
734.224583
 21
305.947806
 31
0.0
  0
LINE
  5
4C1
102
{ACAD_REACTORS
330
563
102
}
330
1F
100
AcDbEntity
  8
LC-001-002-----0
  6
ByBlock
 62
     7
370
    50
100
AcDbLine
 10
734.224583
 20
305.947806
 30
0.0
 11
734.224583
 21
302.947831
 31
0.0
  0
LINE
  5
4C2
102
{ACAD_REACTORS
330
563
102
}
330
1F
100
AcDbEntity
  8
LC-001-002-----0
  6
ByBlock
 62
     7
370
    50
100
AcDbLine
 10
737.224512
 20
320.94764
 30
0.0
 11
737.224558
 21
305.947806
 31
0.0
  0
LINE
  5
4C3
102
{ACAD_REACTORS
330
563
102
}
330
1F
100
AcDbEntity
  8
LC-001-002-----0
  6
ByBlock
 62
     7
370
    50
100
AcDbLine
 10
739.224534
 20
322.947662
 30
0.0
 11
737.224512
 21
320.94764
 31
0.0
  0
LINE
  5
4C4
102
{ACAD_REACTORS
330
563
102
}
330
1F
100
AcDbEntity
  8
LC-001-002-----0
  6
ByBlock
 62
     7
370
    50
100
AcDbLine
 10
739.224534
 20
322.947662
 30
0.0
 11
739.224534
 21
312.947747
 31
0.0
  0
LINE
  5
4C5
102
{ACAD_REACTORS
330
563
102
}
330
1F
100
AcDbEntity
  8
LC-001-002-----0
  6
ByBlock
 62
     7
370
    50
100
AcDbLine
 10
742.224628
 20
302.947831
 30
0.0
 11
742.224628
 21
312.947056
 31
0.0
  0
LINE
  5
4C6
102
{ACAD_REACTORS
330
563
102
}
330
1F
100
AcDbEntity
  8
LC-001-002-----0
  6
ByBlock
 62
     7
370
    50
100
AcDbLine
 10
734.224583
 20
302.947831
 30
0.0
 11
742.224628
 21
302.947831
 31
0.0
  0
LINE
  5
4C7
102
{ACAD_REACTORS
330
563
102
}
330
1F
100
AcDbEntity
  8
LC-001-002-----0
  6
ByBlock
 62
     7
370
    50
100
AcDbLine
 10
724.639483
 20
305.947806
 30
0.0
 11
717.918311
 21
305.947806
 31
0.0
  0
ARC
  5
4C8
330
1F
100
AcDbEntity
  8
LC-005-002-RND-0
 62
     7
370
    50
100
AcDbCircle
 10
605.724499
 20
306.948521
 30
0.0
 40
1.0
100
AcDbArc
 50
360.0
 51
90.0
  0
LINE
  5
4C9
330
1F
100
AcDbEntity
  8
LC-001-002-----0
  6
ByBlock
 62
     7
370
    50
100
AcDbLine
 10
576.940091
 20
320.150247
 30
0.0
 11
569.225057
 21
320.40596
 31
0.0
  0
LINE
  5
4CA
330
1F
100
AcDbEntity
  8
LC-001-002-----0
  6
ByBlock
 62
     7
370
    50
100
AcDbLine
 10
597.225021
 20
313.948521
 30
0.0
 11
576.940091
 21
320.150247
 31
0.0
  0
LINE
  5
4CB
330
1F
100
AcDbEntity
  8
LC-001-002-----0
  6
ByBlock
 62
     7
370
    50
100
AcDbLine
 10
596.775872
 20
310.397148
 30
0.0
 11
576.59937
 21
316.567107
 31
0.0
  0
LINE
  5
4CC
330
1F
100
AcDbEntity
  8
LC-001-002-----0
  6
ByBlock
 62
     7
370
    50
100
AcDbLine
 10
767.674293
 20
310.397186
 30
0.0
 11
787.850672
 21
316.567107
 31
0.0
  0
LINE
  5
4CD
330
1F
100
AcDbEntity
  8
LC-001-002-----0
  6
ByBlock
 62
     7
370
    50
100
AcDbLine
 10
767.225021
 20
313.948521
 30
0.0
 11
787.50995
 21
320.150247
 31
0.0
  0
LINE
  5
4CE
330
1F
100
AcDbEntity
  8
LC-001-002-----0
  6
ByBlock
 62
     7
370
    50
100
AcDbLine
 10
622.224995
 20
315.447831
 30
0.0
 11
622.224995
 21
302.947831
 31
0.0
  0
LINE
  5
4CF
330
1F
100
AcDbEntity
  8
LC-001-002-----0
  6
ByBlock
 62
     7
370
    50
100
AcDbLine
 10
742.225133
 20
315.447831
 30
0.0
 11
742.225133
 21
302.947831
 31
0.0
  0
LINE
  5
4D0
330
1F
100
AcDbEntity
  8
LC-001-002-----0
  6
ByBlock
 62
     7
370
    50
100
AcDbLine
 10
606.724499
 20
306.948521
 30
0.0
 11
606.724499
 21
299.447831
 31
0.0
  0
LINE
  5
4D1
330
1F
100
AcDbEntity
  8
LC-001-002-----0
  6
ByBlock
 62
     7
370
    50
100
AcDbLine
 10
570.580381
 20
320.361038
 30
0.0
 11
625.225507
 21
320.361038
 31
0.0
  0
LINE
  5
4D2
330
1F
100
AcDbEntity
  8
LC-001-002-----0
  6
ByBlock
 62
     7
370
    50
100
AcDbLine
 10
794.031488
 20
320.366402
 30
0.0
 11
739.224534
 21
320.366402
 31
0.0
  0
LINE
  5
4D3
102
{ACAD_REACTORS
330
56A
102
}
330
1F
100
AcDbEntity
  8
LC-001-002-----0
  6
DASHED
 62
     7
370
    25
100
AcDbLine
 10
859.748312
 20
217.497475
 30
0.0
 11
863.371779
 21
217.497475
 31
0.0
  0
ARC
  5
4D4
102
{ACAD_REACTORS
330
56A
102
}
330
1F
100
AcDbEntity
  8
LC-008-207-----0
 62
     7
370
    50
100
AcDbCircle
 10
766.728857
 20
268.303867
 30
0.0
 40
29.70000000000018
100
AcDbArc
 50
54.721682
 51
89.141305
  0
ARC
  5
4D5
102
{ACAD_REACTORS
330
56A
102
}
330
1F
100
AcDbEntity
  8
LC-001-002-----0
  6
DASHED
 62
     7
370
    25
100
AcDbCircle
 10
751.779026
 20
241.48983
 30
0.0
 40
1.000000000000003
100
AcDbArc
 50
60.858695
 51
165.0
  0
LINE
  5
4D6
102
{ACAD_REACTORS
330
56A
102
}
330
1F
100
AcDbEntity
  8
LC-001-002-----0
  6
DASHED
 62
     7
370
    25
100
AcDbLine
 10
750.813101
 20
241.748649
 30
0.0
 11
750.235849
 21
239.594317
 31
0.0
  0
LINE
  5
4D7
102
{ACAD_REACTORS
330
56A
102
}
330
1F
100
AcDbEntity
  8
LC-001-002-----0
  6
DASHED
 62
     7
370
    25
100
AcDbLine
 10
863.371779
 20
217.497475
 30
0.0
 11
863.711395
 21
218.764941
 31
0.0
  0
LINE
  5
4D8
102
{ACAD_REACTORS
330
56A
102
}
330
1F
100
AcDbEntity
  8
LC-001-002-----0
  6
DASHED
 62
     7
370
    25
100
AcDbLine
 10
863.711395
 20
218.764941
 30
0.0
 11
875.487662
 21
262.714566
 31
0.0
  0
LINE
  5
4D9
102
{ACAD_REACTORS
330
56A
102
}
330
1F
100
AcDbEntity
  8
LC-001-002-----0
  6
DASHED
 62
     7
370
    25
100
AcDbLine
 10
875.487662
 20
262.714566
 30
0.0
 11
875.827278
 21
263.982033
 31
0.0
  0
LINE
  5
4DA
102
{ACAD_REACTORS
330
56A
102
}
330
1F
100
AcDbEntity
  8
LC-001-002-----0
 62
     7
370
    25
100
AcDbLine
 10
869.599529
 20
240.739754
 30
0.0
 11
740.052567
 21
275.451757
 31
0.0
  0
LINE
  5
4DB
102
{ACAD_REACTORS
330
56A
102
}
330
1F
100
AcDbEntity
  8
LC-001-002-----0
  6
DASHED
 62
     7
370
    25
100
AcDbLine
 10
872.689264
 20
265.793766
 30
0.0
 11
875.827278
 21
263.982033
 31
0.0
  0
ARC
  5
4DC
102
{ACAD_REACTORS
330
56A
102
}
330
1F
100
AcDbEntity
  8
LC-001-002-----0
  6
DASHED
 62
     7
370
    25
100
AcDbCircle
 10
767.188942
 20
299.000419
 30
0.0
 40
1.00000000000003
100
AcDbArc
 50
165.0
 51
269.141305
  0
LINE
  5
4DD
102
{ACAD_REACTORS
330
56A
102
}
330
1F
100
AcDbEntity
  8
LC-001-002-----0
  6
DASHED
 62
     7
370
    25
100
AcDbLine
 10
792.58985
 20
287.256339
 30
0.0
 11
872.689264
 21
265.793766
 31
0.0
  0
LINE
  5
4DE
102
{ACAD_REACTORS
330
56A
102
}
330
1F
100
AcDbEntity
  8
LC-001-002-----0
  6
DASHED
 62
     7
370
    25
100
AcDbLine
 10
779.648898
 20
238.960048
 30
0.0
 11
859.748312
 21
217.497475
 31
0.0
  0
LINE
  5
4DF
102
{ACAD_REACTORS
330
56A
102
}
330
1F
100
AcDbEntity
  8
LC-001-002-----0
  6
DASHED
 62
     7
370
    25
100
AcDbLine
 10
791.059029
 20
285.33715
 30
0.0
 11
875.487662
 21
262.714566
 31
0.0
  0
LINE
  5
4E0
102
{ACAD_REACTORS
330
56A
102
}
330
1F
100
AcDbEntity
  8
LC-001-002-----0
  6
DASHED
 62
     7
370
    25
100
AcDbLine
 10
779.282762
 20
241.387525
 30
0.0
 11
863.711395
 21
218.764941
 31
0.0
  0
LINE
  5
4E1
102
{ACAD_REACTORS
330
56A
102
}
330
1F
100
AcDbEntity
  8
LC-001-002-----0
  6
DASHED
 62
     7
370
    25
100
AcDbLine
 10
766.223016
 20
299.259238
 30
0.0
 11
766.800268
 21
301.41357
 31
0.0
  0
LINE
  5
4E2
102
{ACAD_REACTORS
330
56A
102
}
330
1F
100
AcDbEntity
  8
LC-001-002-----0
  6
DASHED
 62
     7
370
    25
100
AcDbLine
 10
766.800268
 20
301.41357
 30
0.0
 11
775.010638
 21
299.213608
 31
0.0
  0
LINE
  5
4E3
102
{ACAD_REACTORS
330
56A
102
}
330
1F
100
AcDbEntity
  8
LC-001-002-----0
  6
DASHED
 62
     7
370
    25
100
AcDbLine
 10
750.235849
 20
239.594317
 30
0.0
 11
758.542811
 21
237.368474
 31
0.0
  0
ARC
  5
4E4
102
{ACAD_REACTORS
330
56A
102
}
330
1F
100
AcDbEntity
  8
LC-001-002-----0
  6
DASHED
 62
     7
370
    25
100
AcDbCircle
 10
766.825021
 20
268.2781
 30
0.0
 40
32.00000000000085
100
AcDbArc
 50
36.375167
 51
75.17905
  0
ARC
  5
4E5
102
{ACAD_REACTORS
330
56A
102
}
330
1F
100
AcDbEntity
  8
LC-001-002-----0
  6
DASHED
 62
     7
370
    25
100
AcDbCircle
 10
766.825021
 20
268.2781
 30
0.0
 40
32.00000000000124
100
AcDbArc
 50
255.0
 51
293.624833
  0
ARC
  5
4E6
102
{ACAD_REACTORS
330
56A
102
}
330
1F
100
AcDbEntity
  8
LC-001-002-----0
  6
DASHED
 62
     7
370
    25
100
AcDbCircle
 10
766.728857
 20
268.303867
 30
0.0
 40
29.7000000000002
100
AcDbArc
 50
34.995438
 51
54.721682
  0
ARC
  5
4E7
102
{ACAD_REACTORS
330
56A
102
}
330
1F
100
AcDbEntity
  8
LC-001-002-----0
  6
DASHED
 62
     7
370
    25
100
AcDbCircle
 10
766.728857
 20
268.303867
 30
0.0
 40
29.70000000000012
100
AcDbArc
 50
240.858695
 51
295.004562
  0
LINE
  5
4E8
330
1F
100
AcDbEntity
  8
LC-001-002-----0
  6
DASHED
 62
     7
370
    25
100
AcDbLine
 10
791.059029
 20
285.33715
 30
0.0
 11
779.282762
 21
241.387525
 31
0.0
  0
INSERT
  5
508
330
1F
100
AcDbEntity
  8
LC-012-003-----0
 62
     7
370
    25
100
AcDbBlockReference
  2
LCDIM1
 10
0.0
 20
0.0
 30
0.0
  0
LINE
  5
509
102
{ACAD_REACTORS
330
562
102
}
330
1F
100
AcDbEntity
  8
LC-003-005-----0
 62
     7
370
    25
100
AcDbLine
 10
779.224794
 20
241.82364
 30
0.0
 11
783.867749
 21
246.466596
 31
0.0
  0
LINE
  5
50A
102
{ACAD_REACTORS
330
562
102
}
330
1F
100
AcDbEntity
  8
LC-003-005-----0
 62
     7
370
    25
100
AcDbLine
 10
777.324328
 20
242.751602
 30
0.0
 11
781.039322
 21
246.466596
 31
0.0
  0
LINE
  5
50B
102
{ACAD_REACTORS
330
562
102
}
330
1F
100
AcDbEntity
  8
LC-003-005-----0
 62
     7
370
    25
100
AcDbLine
 10
771.128737
 20
239.384437
 30
0.0
 11
772.824328
 21
241.080029
 31
0.0
  0
LINE
  5
50C
102
{ACAD_REACTORS
330
562
102
}
330
1F
100
AcDbEntity
  8
LC-003-005-----0
 62
     7
370
    25
100
AcDbLine
 10
775.399391
 20
243.655091
 30
0.0
 11
778.210895
 21
246.466596
 31
0.0
  0
LINE
  5
50D
102
{ACAD_REACTORS
330
562
102
}
330
1F
100
AcDbEntity
  8
LC-003-005-----0
 62
     7
370
    25
100
AcDbLine
 10
767.998345
 20
239.082473
 30
0.0
 11
775.382468
 21
246.466596
 31
0.0
  0
LINE
  5
50E
102
{ACAD_REACTORS
330
562
102
}
330
1F
100
AcDbEntity
  8
LC-003-005-----0
 62
     7
370
    25
100
AcDbLine
 10
765.182765
 20
239.09532
 30
0.0
 11
772.554041
 21
246.466596
 31
0.0
  0
LINE
  5
50F
102
{ACAD_REACTORS
330
562
102
}
330
1F
100
AcDbEntity
  8
LC-003-005-----0
 62
     7
370
    25
100
AcDbLine
 10
762.602639
 20
239.343621
 30
0.0
 11
769.725614
 21
246.466596
 31
0.0
  0
LINE
  5
510
102
{ACAD_REACTORS
330
562
102
}
330
1F
100
AcDbEntity
  8
LC-003-005-----0
 62
     7
370
    25
100
AcDbLine
 10
760.211361
 20
239.78077
 30
0.0
 11
766.897187
 21
246.466596
 31
0.0
  0
LINE
  5
511
102
{ACAD_REACTORS
330
562
102
}
330
1F
100
AcDbEntity
  8
LC-003-005-----0
 62
     7
370
    25
100
AcDbLine
 10
757.979005
 20
240.376841
 30
0.0
 11
764.06876
 21
246.466596
 31
0.0
  0
LINE
  5
512
102
{ACAD_REACTORS
330
562
102
}
330
1F
100
AcDbEntity
  8
LC-003-005-----0
 62
     7
370
    25
100
AcDbLine
 10
755.885236
 20
241.1115
 30
0.0
 11
761.240332
 21
246.466596
 31
0.0
  0
LINE
  5
513
102
{ACAD_REACTORS
330
562
102
}
330
1F
100
AcDbEntity
  8
LC-003-005-----0
 62
     7
370
    25
100
AcDbLine
 10
753.915742
 20
241.970433
 30
0.0
 11
758.411905
 21
246.466596
 31
0.0
  0
LINE
  5
514
102
{ACAD_REACTORS
330
562
102
}
330
1F
100
AcDbEntity
  8
LC-003-005-----0
 62
     7
370
    25
100
AcDbLine
 10
750.271974
 20
241.155091
 30
0.0
 11
751.324328
 21
242.207446
 31
0.0
  0
LINE
  5
515
102
{ACAD_REACTORS
330
562
102
}
330
1F
100
AcDbEntity
  8
LC-003-005-----0
 62
     7
370
    25
100
AcDbLine
 10
752.060266
 20
242.943383
 30
0.0
 11
755.583478
 21
246.466596
 31
0.0
  0
LINE
  5
516
102
{ACAD_REACTORS
330
562
102
}
330
1F
100
AcDbEntity
  8
LC-003-005-----0
 62
     7
370
    25
100
AcDbLine
 10
748.824328
 20
242.535873
 30
0.0
 11
752.755051
 21
246.466596
 31
0.0
  0
LINE
  5
517
102
{ACAD_REACTORS
330
562
102
}
330
1F
100
AcDbEntity
  8
LC-003-005-----0
 62
     7
370
    25
100
AcDbLine
 10
746.926624
 20
243.466596
 30
0.0
 11
749.926624
 21
246.466596
 31
0.0
  0
LINE
  5
518
102
{ACAD_REACTORS
330
562
102
}
330
1F
100
AcDbEntity
  8
LC-003-005-----0
 62
     7
370
    25
100
AcDbLine
 10
744.098197
 20
243.466596
 30
0.0
 11
747.098197
 21
246.466596
 31
0.0
  0
LINE
  5
519
102
{ACAD_REACTORS
330
562
102
}
330
1F
100
AcDbEntity
  8
LC-003-005-----0
 62
     7
370
    25
100
AcDbLine
 10
741.26977
 20
243.466596
 30
0.0
 11
744.26977
 21
246.466596
 31
0.0
  0
LINE
  5
51A
102
{ACAD_REACTORS
330
562
102
}
330
1F
100
AcDbEntity
  8
LC-003-005-----0
 62
     7
370
    25
100
AcDbLine
 10
733.452847
 20
238.4781
 30
0.0
 11
737.225021
 21
242.250274
 31
0.0
  0
LINE
  5
51B
102
{ACAD_REACTORS
330
562
102
}
330
1F
100
AcDbEntity
  8
LC-003-005-----0
 62
     7
370
    25
100
AcDbLine
 10
738.441343
 20
243.466596
 30
0.0
 11
741.441343
 21
246.466596
 31
0.0
  0
LINE
  5
51C
102
{ACAD_REACTORS
330
562
102
}
330
1F
100
AcDbEntity
  8
LC-003-005-----0
 62
     7
370
    25
100
AcDbLine
 10
730.62442
 20
238.4781
 30
0.0
 11
733.62442
 21
241.4781
 31
0.0
  0
LINE
  5
51D
102
{ACAD_REACTORS
330
562
102
}
330
1F
100
AcDbEntity
  8
LC-003-005-----0
 62
     7
370
    25
100
AcDbLine
 10
734.225021
 20
242.078701
 30
0.0
 11
738.612915
 21
246.466596
 31
0.0
  0
LINE
  5
51E
102
{ACAD_REACTORS
330
562
102
}
330
1F
100
AcDbEntity
  8
LC-003-005-----0
 62
     7
370
    25
100
AcDbLine
 10
727.795993
 20
238.4781
 30
0.0
 11
730.795993
 21
241.4781
 31
0.0
  0
LINE
  5
51F
102
{ACAD_REACTORS
330
562
102
}
330
1F
100
AcDbEntity
  8
LC-003-005-----0
 62
     7
370
    25
100
AcDbLine
 10
734.225021
 20
244.907128
 30
0.0
 11
735.784488
 21
246.466596
 31
0.0
  0
LINE
  5
520
102
{ACAD_REACTORS
330
562
102
}
330
1F
100
AcDbEntity
  8
LC-003-005-----0
 62
     7
370
    25
100
AcDbLine
 10
724.967566
 20
238.4781
 30
0.0
 11
727.967566
 21
241.4781
 31
0.0
  0
LINE
  5
521
102
{ACAD_REACTORS
330
562
102
}
330
1F
100
AcDbEntity
  8
LC-003-005-----0
 62
     7
370
    25
100
AcDbLine
 10
722.139138
 20
238.4781
 30
0.0
 11
725.139138
 21
241.4781
 31
0.0
  0
LINE
  5
522
102
{ACAD_REACTORS
330
562
102
}
330
1F
100
AcDbEntity
  8
LC-003-005-----0
 62
     7
370
    25
100
AcDbLine
 10
719.310711
 20
238.4781
 30
0.0
 11
722.310711
 21
241.4781
 31
0.0
  0
LINE
  5
523
102
{ACAD_REACTORS
330
562
102
}
330
1F
100
AcDbEntity
  8
LC-003-005-----0
 62
     7
370
    25
100
AcDbLine
 10
716.482284
 20
238.4781
 30
0.0
 11
719.482284
 21
241.4781
 31
0.0
  0
LINE
  5
524
102
{ACAD_REACTORS
330
562
102
}
330
1F
100
AcDbEntity
  8
LC-003-005-----0
 62
     7
370
    25
100
AcDbLine
 10
713.653857
 20
238.4781
 30
0.0
 11
716.653857
 21
241.4781
 31
0.0
  0
LINE
  5
525
102
{ACAD_REACTORS
330
562
102
}
330
1F
100
AcDbEntity
  8
LC-003-005-----0
 62
     7
370
    25
100
AcDbLine
 10
710.82543
 20
238.4781
 30
0.0
 11
713.82543
 21
241.4781
 31
0.0
  0
LINE
  5
526
102
{ACAD_REACTORS
330
562
102
}
330
1F
100
AcDbEntity
  8
LC-003-005-----0
 62
     7
370
    25
100
AcDbLine
 10
707.997003
 20
238.4781
 30
0.0
 11
710.997003
 21
241.4781
 31
0.0
  0
LINE
  5
527
102
{ACAD_REACTORS
330
562
102
}
330
1F
100
AcDbEntity
  8
LC-003-005-----0
 62
     7
370
    25
100
AcDbLine
 10
705.168576
 20
238.4781
 30
0.0
 11
708.168576
 21
241.4781
 31
0.0
  0
LINE
  5
528
102
{ACAD_REACTORS
330
562
102
}
330
1F
100
AcDbEntity
  8
LC-003-005-----0
 62
     7
370
    25
100
AcDbLine
 10
702.340149
 20
238.4781
 30
0.0
 11
705.340149
 21
241.4781
 31
0.0
  0
LINE
  5
529
102
{ACAD_REACTORS
330
562
102
}
330
1F
100
AcDbEntity
  8
LC-003-005-----0
 62
     7
370
    25
100
AcDbLine
 10
699.511721
 20
238.4781
 30
0.0
 11
702.511721
 21
241.4781
 31
0.0
  0
LINE
  5
52A
102
{ACAD_REACTORS
330
562
102
}
330
1F
100
AcDbEntity
  8
LC-003-005-----0
 62
     7
370
    25
100
AcDbLine
 10
696.683294
 20
238.4781
 30
0.0
 11
699.683294
 21
241.4781
 31
0.0
  0
LINE
  5
52B
102
{ACAD_REACTORS
330
562
102
}
330
1F
100
AcDbEntity
  8
LC-003-005-----0
 62
     7
370
    25
100
AcDbLine
 10
693.854867
 20
238.4781
 30
0.0
 11
696.854867
 21
241.4781
 31
0.0
  0
LINE
  5
52C
102
{ACAD_REACTORS
330
562
102
}
330
1F
100
AcDbEntity
  8
LC-003-005-----0
 62
     7
370
    25
100
AcDbLine
 10
691.02644
 20
238.4781
 30
0.0
 11
694.02644
 21
241.4781
 31
0.0
  0
LINE
  5
52D
102
{ACAD_REACTORS
330
562
102
}
330
1F
100
AcDbEntity
  8
LC-003-005-----0
 62
     7
370
    25
100
AcDbLine
 10
688.198013
 20
238.4781
 30
0.0
 11
691.198013
 21
241.4781
 31
0.0
  0
LINE
  5
52E
102
{ACAD_REACTORS
330
562
102
}
330
1F
100
AcDbEntity
  8
LC-003-005-----0
 62
     7
370
    25
100
AcDbLine
 10
685.369586
 20
238.4781
 30
0.0
 11
688.369586
 21
241.4781
 31
0.0
  0
LINE
  5
52F
102
{ACAD_REACTORS
330
562
102
}
330
1F
100
AcDbEntity
  8
LC-003-005-----0
 62
     7
370
    25
100
AcDbLine
 10
682.541159
 20
238.4781
 30
0.0
 11
685.541159
 21
241.4781
 31
0.0
  0
LINE
  5
530
102
{ACAD_REACTORS
330
562
102
}
330
1F
100
AcDbEntity
  8
LC-003-005-----0
 62
     7
370
    25
100
AcDbLine
 10
679.712732
 20
238.4781
 30
0.0
 11
682.712732
 21
241.4781
 31
0.0
  0
LINE
  5
531
102
{ACAD_REACTORS
330
562
102
}
330
1F
100
AcDbEntity
  8
LC-003-005-----0
 62
     7
370
    25
100
AcDbLine
 10
676.884304
 20
238.4781
 30
0.0
 11
679.884304
 21
241.4781
 31
0.0
  0
LINE
  5
532
102
{ACAD_REACTORS
330
562
102
}
330
1F
100
AcDbEntity
  8
LC-003-005-----0
 62
     7
370
    25
100
AcDbLine
 10
674.055877
 20
238.4781
 30
0.0
 11
677.055877
 21
241.4781
 31
0.0
  0
LINE
  5
533
102
{ACAD_REACTORS
330
562
102
}
330
1F
100
AcDbEntity
  8
LC-003-005-----0
 62
     7
370
    25
100
AcDbLine
 10
671.22745
 20
238.4781
 30
0.0
 11
674.22745
 21
241.4781
 31
0.0
  0
LINE
  5
534
102
{ACAD_REACTORS
330
562
102
}
330
1F
100
AcDbEntity
  8
LC-003-005-----0
 62
     7
370
    25
100
AcDbLine
 10
668.399023
 20
238.4781
 30
0.0
 11
671.399023
 21
241.4781
 31
0.0
  0
LINE
  5
535
102
{ACAD_REACTORS
330
562
102
}
330
1F
100
AcDbEntity
  8
LC-003-005-----0
 62
     7
370
    25
100
AcDbLine
 10
665.570596
 20
238.4781
 30
0.0
 11
668.570596
 21
241.4781
 31
0.0
  0
LINE
  5
536
102
{ACAD_REACTORS
330
562
102
}
330
1F
100
AcDbEntity
  8
LC-003-005-----0
 62
     7
370
    25
100
AcDbLine
 10
662.742169
 20
238.4781
 30
0.0
 11
665.742169
 21
241.4781
 31
0.0
  0
LINE
  5
537
102
{ACAD_REACTORS
330
562
102
}
330
1F
100
AcDbEntity
  8
LC-003-005-----0
 62
     7
370
    25
100
AcDbLine
 10
659.913742
 20
238.4781
 30
0.0
 11
662.913742
 21
241.4781
 31
0.0
  0
LINE
  5
538
102
{ACAD_REACTORS
330
562
102
}
330
1F
100
AcDbEntity
  8
LC-003-005-----0
 62
     7
370
    25
100
AcDbLine
 10
657.085315
 20
238.4781
 30
0.0
 11
660.085315
 21
241.4781
 31
0.0
  0
LINE
  5
539
102
{ACAD_REACTORS
330
562
102
}
330
1F
100
AcDbEntity
  8
LC-003-005-----0
 62
     7
370
    25
100
AcDbLine
 10
654.256887
 20
238.4781
 30
0.0
 11
657.256887
 21
241.4781
 31
0.0
  0
LINE
  5
53A
102
{ACAD_REACTORS
330
562
102
}
330
1F
100
AcDbEntity
  8
LC-003-005-----0
 62
     7
370
    25
100
AcDbLine
 10
651.42846
 20
238.4781
 30
0.0
 11
654.42846
 21
241.4781
 31
0.0
  0
LINE
  5
53B
102
{ACAD_REACTORS
330
562
102
}
330
1F
100
AcDbEntity
  8
LC-003-005-----0
 62
     7
370
    25
100
AcDbLine
 10
648.600033
 20
238.4781
 30
0.0
 11
651.600033
 21
241.4781
 31
0.0
  0
LINE
  5
53C
102
{ACAD_REACTORS
330
562
102
}
330
1F
100
AcDbEntity
  8
LC-003-005-----0
 62
     7
370
    25
100
AcDbLine
 10
645.771606
 20
238.4781
 30
0.0
 11
648.771606
 21
241.4781
 31
0.0
  0
LINE
  5
53D
102
{ACAD_REACTORS
330
562
102
}
330
1F
100
AcDbEntity
  8
LC-003-005-----0
 62
     7
370
    25
100
AcDbLine
 10
642.943179
 20
238.4781
 30
0.0
 11
645.943179
 21
241.4781
 31
0.0
  0
LINE
  5
53E
102
{ACAD_REACTORS
330
562
102
}
330
1F
100
AcDbEntity
  8
LC-003-005-----0
 62
     7
370
    25
100
AcDbLine
 10
640.114752
 20
238.4781
 30
0.0
 11
643.114752
 21
241.4781
 31
0.0
  0
LINE
  5
53F
102
{ACAD_REACTORS
330
562
102
}
330
1F
100
AcDbEntity
  8
LC-003-005-----0
 62
     7
370
    25
100
AcDbLine
 10
637.286325
 20
238.4781
 30
0.0
 11
640.286325
 21
241.4781
 31
0.0
  0
LINE
  5
540
102
{ACAD_REACTORS
330
562
102
}
330
1F
100
AcDbEntity
  8
LC-003-005-----0
 62
     7
370
    25
100
AcDbLine
 10
634.457898
 20
238.4781
 30
0.0
 11
637.457898
 21
241.4781
 31
0.0
  0
LINE
  5
541
102
{ACAD_REACTORS
330
562
102
}
330
1F
100
AcDbEntity
  8
LC-003-005-----0
 62
     7
370
    25
100
AcDbLine
 10
631.62947
 20
238.4781
 30
0.0
 11
634.62947
 21
241.4781
 31
0.0
  0
LINE
  5
542
102
{ACAD_REACTORS
330
562
102
}
330
1F
100
AcDbEntity
  8
LC-003-005-----0
 62
     7
370
    25
100
AcDbLine
 10
629.166963
 20
238.84402
 30
0.0
 11
631.801043
 21
241.4781
 31
0.0
  0
LINE
  5
543
102
{ACAD_REACTORS
330
562
102
}
330
1F
100
AcDbEntity
  8
LC-003-005-----0
 62
     7
370
    25
100
AcDbLine
 10
627.704477
 20
240.209961
 30
0.0
 11
630.225021
 21
242.730505
 31
0.0
  0
LINE
  5
544
102
{ACAD_REACTORS
330
562
102
}
330
1F
100
AcDbEntity
  8
LC-003-005-----0
 62
     7
370
    25
100
AcDbLine
 10
627.225021
 20
242.558932
 30
0.0
 11
630.225021
 21
245.558932
 31
0.0
  0
LINE
  5
545
102
{ACAD_REACTORS
330
562
102
}
330
1F
100
AcDbEntity
  8
LC-003-005-----0
 62
     7
370
    25
100
AcDbLine
 10
627.225021
 20
245.387359
 30
0.0
 11
630.225021
 21
248.387359
 31
0.0
  0
LINE
  5
546
330
1F
100
AcDbEntity
  8
LC-003-005-----0
 62
     7
370
    25
100
AcDbLine
 10
627.225021
 20
286.49601
 30
0.0
 11
630.225021
 21
289.49601
 31
0.0
  0
LINE
  5
547
330
1F
100
AcDbEntity
  8
LC-003-005-----0
 62
     7
370
    25
100
AcDbLine
 10
627.225021
 20
283.667583
 30
0.0
 11
630.225021
 21
286.667583
 31
0.0
  0
LINE
  5
548
330
1F
100
AcDbEntity
  8
LC-003-005-----0
 62
     7
370
    25
100
AcDbLine
 10
627.225021
 20
280.839156
 30
0.0
 11
630.225021
 21
283.839156
 31
0.0
  0
LINE
  5
549
330
1F
100
AcDbEntity
  8
LC-003-005-----0
 62
     7
370
    25
100
AcDbLine
 10
627.225021
 20
278.010728
 30
0.0
 11
630.225021
 21
281.010728
 31
0.0
  0
LINE
  5
54A
330
1F
100
AcDbEntity
  8
LC-003-005-----0
 62
     7
370
    25
100
AcDbLine
 10
627.225021
 20
275.182301
 30
0.0
 11
630.225021
 21
278.182301
 31
0.0
  0
LINE
  5
54B
330
1F
100
AcDbEntity
  8
LC-003-005-----0
 62
     7
370
    25
100
AcDbLine
 10
627.225021
 20
272.353874
 30
0.0
 11
630.225021
 21
275.353874
 31
0.0
  0
LINE
  5
54C
330
1F
100
AcDbEntity
  8
LC-003-005-----0
 62
     7
370
    25
100
AcDbLine
 10
627.225021
 20
269.525447
 30
0.0
 11
630.225021
 21
272.525447
 31
0.0
  0
LINE
  5
54D
330
1F
100
AcDbEntity
  8
LC-003-005-----0
 62
     7
370
    25
100
AcDbLine
 10
627.225021
 20
266.69702
 30
0.0
 11
630.225021
 21
269.69702
 31
0.0
  0
LINE
  5
54E
330
1F
100
AcDbEntity
  8
LC-003-005-----0
 62
     7
370
    25
100
AcDbLine
 10
627.225021
 20
263.868593
 30
0.0
 11
630.225021
 21
266.868593
 31
0.0
  0
LINE
  5
54F
330
1F
100
AcDbEntity
  8
LC-003-005-----0
 62
     7
370
    25
100
AcDbLine
 10
627.225021
 20
261.040166
 30
0.0
 11
630.225021
 21
264.040166
 31
0.0
  0
LINE
  5
550
330
1F
100
AcDbEntity
  8
LC-003-005-----0
 62
     7
370
    25
100
AcDbLine
 10
627.225021
 20
258.211739
 30
0.0
 11
630.225021
 21
261.211739
 31
0.0
  0
LINE
  5
551
330
1F
100
AcDbEntity
  8
LC-003-005-----0
 62
     7
370
    25
100
AcDbLine
 10
627.225021
 20
255.383311
 30
0.0
 11
630.225021
 21
258.383311
 31
0.0
  0
LINE
  5
552
330
1F
100
AcDbEntity
  8
LC-003-005-----0
 62
     7
370
    25
100
AcDbLine
 10
627.225021
 20
252.554884
 30
0.0
 11
630.225021
 21
255.554884
 31
0.0
  0
LINE
  5
553
330
1F
100
AcDbEntity
  8
LC-003-005-----0
 62
     7
370
    25
100
AcDbLine
 10
627.225021
 20
249.726457
 30
0.0
 11
630.225021
 21
252.726457
 31
0.0
  0
LINE
  5
554
330
1F
100
AcDbEntity
  8
LC-001-002-----0
  6
ByBlock
 62
     7
370
    50
100
AcDbLine
 10
627.225021
 20
292.619404
 30
0.0
 11
627.225021
 21
243.688169
 31
0.0
  0
DIMENSION
  5
555
330
1F
100
AcDbEntity
  8
LC-012-003-----0
 62
     7
370
    25
100
AcDbDimension
  2
*D31
 10
873.225021
 20
141.238
 30
0.0
 11
712.797596
 21
172.038
 31
0.0
 70
   160
  1
305
 71
     5
 42
306.0
  3
LC-DIM-L-0140-02-02
100
AcDbAlignedDimension
 13
567.225021
 23
316.92372
 33
0.0
 14
873.225021
 24
268.466596
 34
0.0
100
AcDbRotatedDimension
  0
ENDSEC
  0
SECTION
  2
OBJECTS
  0
DICTIONARY
  5
C
330
0
100
AcDbDictionary
281
     1
  3
ACAD_GROUP
350
D
  3
ACAD_LAYOUT
350
1A
  3
ACAD_MLINESTYLE
350
17
  3
ACAD_PLOTSETTINGS
350
19
  3
ACAD_PLOTSTYLENAME
350
E
  0
DICTIONARY
  5
D
102
{ACAD_REACTORS
330
C
102
}
330
C
100
AcDbDictionary
281
     1
  3
LCGROUP10
350
562
  3
LCGROUP199
350
56B
  3
LCGROUP200
350
56C
  3
LCGROUP259
350
56E
  3
LCGROUP3945
350
56A
  3
LCGROUP470
350
56D
  3
LCGROUP882
350
568
  3
LCGROUP883
350
569
  3
LCGROUP884
350
567
  3
LCGROUP885
350
566
  3
LCGROUP886
350
565
  3
LCGROUP887
350
564
  3
LCGROUP888
350
563
  0
DICTIONARY
  5
1A
102
{ACAD_REACTORS
330
C
102
}
330
C
100
AcDbDictionary
281
     1
  3
Layout1
350
1E
  3
Layout2
350
26
  3
Model
350
22
  0
DICTIONARY
  5
17
102
{ACAD_REACTORS
330
C
102
}
330
C
100
AcDbDictionary
281
     1
  3
Standard
350
18
  0
DICTIONARY
  5
19
102
{ACAD_REACTORS
330
C
102
}
330
C
100
AcDbDictionary
281
     1
  0
ACDBDICTIONARYWDFLT
  5
E
102
{ACAD_REACTORS
330
C
102
}
330
C
100
AcDbDictionary
281
     1
  3
Normal
350
F
100
AcDbDictionaryWithDefault
340
F
  0
GROUP
  5
562
102
{ACAD_REACTORS
330
D
102
}
330
D
100
AcDbGroup
300
GRP10
 70
     1
 71
     1
340
509
340
50A
340
50B
340
50C
340
50D
340
50E
340
50F
340
510
340
511
340
512
340
513
340
514
340
515
340
516
340
517
340
518
340
519
340
51A
340
51B
340
51C
340
51D
340
51E
340
51F
340
520
340
521
340
522
340
523
340
524
340
525
340
526
340
527
340
528
340
529
340
52A
340
52B
340
52C
340
52D
340
52E
340
52F
340
530
340
531
340
532
340
533
340
534
340
535
340
536
340
537
340
538
340
539
340
53A
340
53B
340
53C
340
53D
340
53E
340
53F
340
540
340
541
340
542
340
543
340
544
340
545
  0
GROUP
  5
56B
102
{ACAD_REACTORS
330
D
102
}
330
D
100
AcDbGroup
300
GRP199
 70
     1
 71
     1
340
39B
340
39C
340
39D
340
39E
340
39F
340
3A0
340
3A1
340
3A2
340
3A3
340
3A4
340
3A5
340
3A6
340
3A7
340
3A8
340
3A9
340
3B9
340
3BA
340
3BB
340
3BC
340
3BD
340
3BE
340
3BF
340
3C0
340
3C1
340
3C2
340
3C3
340
3C4
340
3C5
340
3C6
340
3C7
340
3C8
340
3C9
340
3CA
340
3CB
340
3CC
340
3CD
340
3CE
340
3CF
340
3D0
340
3D1
340
3D2
340
3D3
340
3D4
340
3D5
340
3D6
340
3D7
340
3D8
340
3D9
340
3DA
340
3DB
340
3DC
340
3DD
340
3DE
340
3DF
340
3E0
340
3E1
340
3E2
  0
GROUP
  5
56C
102
{ACAD_REACTORS
330
D
102
}
330
D
100
AcDbGroup
300
GRP200
 70
     1
 71
     1
340
39
340
171
340
173
340
178
340
17A
340
210
340
211
340
212
340
213
340
214
340
215
340
216
340
252
340
261
340
2B0
340
2D6
340
326
340
328
340
334
340
35E
340
37E
340
37F
340
381
340
382
340
383
340
384
340
386
340
387
340
388
340
389
340
38A
340
38B
340
38C
340
38D
340
38E
340
38F
340
390
340
391
340
392
340
393
340
394
340
395
340
396
340
397
340
398
340
399
  0
GROUP
  5
56E
102
{ACAD_REACTORS
330
D
102
}
330
D
100
AcDbGroup
300
GRP259
 70
     1
 71
     1
340
17E
340
180
340
192
340
193
340
194
340
195
340
196
340
197
340
198
340
19A
340
19B
340
19D
340
19E
340
19F
340
1CF
340
1FA
340
1FB
340
1FC
340
1FD
340
1FE
340
1FF
340
20C
340
20D
  0
GROUP
  5
56A
102
{ACAD_REACTORS
330
D
102
}
330
D
100
AcDbGroup
300
GRP3945
 70
     1
 71
     1
340
4D3
340
4D4
340
4D5
340
4D6
340
4D7
340
4D8
340
4D9
340
4DA
340
4DB
340
4DC
340
4DD
340
4DE
340
4DF
340
4E0
340
4E1
340
4E2
340
4E3
340
4E4
340
4E5
340
4E6
340
4E7
  0
GROUP
  5
56D
102
{ACAD_REACTORS
330
D
102
}
330
D
100
AcDbGroup
300
ablaufschn
 70
     1
 71
     1
340
36
340
44
340
10B
340
10D
340
124
340
20F
340
2B1
340
2B2
340
2B3
340
2B5
340
2BD
340
2C0
340
2C1
340
2C2
340
2F6
340
2F7
340
2F8
340
2F9
340
2FA
340
2FB
340
2FC
340
2FD
340
2FE
340
2FF
340
300
340
301
340
302
340
303
340
304
340
305
340
306
340
307
340
308
340
309
340
30A
340
30B
340
30C
340
30D
  0
GROUP
  5
568
102
{ACAD_REACTORS
330
D
102
}
330
D
100
AcDbGroup
300
Rahmen
 70
     1
 71
     1
340
248
340
249
340
24A
340
24B
340
24C
340
24D
340
24E
340
251
340
258
340
259
340
25C
340
262
340
263
340
264
340
266
340
267
340
268
340
269
340
26A
340
278
340
279
340
27A
340
27B
340
27E
340
27F
340
280
  0
GROUP
  5
569
102
{ACAD_REACTORS
330
D
102
}
330
D
100
AcDbGroup
300
Rahmenverlängerung
 70
     1
 71
     1
340
217
340
218
340
255
340
256
340
257
340
25A
340
25B
340
25D
340
260
340
265
340
27D
340
281
340
282
340
283
340
284
  0
GROUP
  5
567
102
{ACAD_REACTORS
330
D
102
}
330
D
100
AcDbGroup
300
Rahmen
 70
     1
 71
     1
340
24F
340
28C
340
28D
340
28E
340
28F
340
290
340
291
340
2A4
340
2A5
340
2AD
340
2AE
340
2AF
340
2B4
340
2BE
340
2BF
340
325
340
32C
340
33A
340
33B
340
33C
340
34A
340
34B
340
34C
340
34D
340
34E
340
350
  0
GROUP
  5
566
102
{ACAD_REACTORS
330
D
102
}
330
D
100
AcDbGroup
300
rost
 70
     1
 71
     1
340
285
340
286
340
287
340
288
340
289
340
28A
340
28B
340
2AC
340
2BC
340
313
340
314
340
315
340
31D
340
31E
340
31F
340
320
340
321
340
322
340
323
340
324
340
327
340
329
340
32B
340
32D
340
32E
340
32F
340
330
340
331
340
332
340
333
340
335
340
336
340
337
340
338
340
339
340
34F
340
351
340
352
340
353
340
354
340
355
340
356
340
357
340
358
340
359
340
35A
340
35B
340
379
  0
GROUP
  5
565
102
{ACAD_REACTORS
330
D
102
}
330
D
100
AcDbGroup
300
rost
 70
     1
 71
     1
340
35C
340
35D
340
35F
340
360
340
361
340
362
340
363
340
36A
340
371
340
376
340
377
340
378
340
380
340
385
340
3AA
340
3B8
340
3E3
340
3F2
340
3F3
340
3F4
340
3F5
340
3F6
340
3F7
340
414
340
415
340
416
340
417
340
418
340
419
340
41A
340
41B
340
429
340
42A
340
42C
340
42D
340
42E
340
42F
340
430
340
431
340
432
340
433
340
435
340
436
340
437
340
438
340
439
340
43A
340
444
  0
GROUP
  5
564
102
{ACAD_REACTORS
330
D
102
}
330
D
100
AcDbGroup
300
Rahmenverlängerung
 70
     1
 71
     1
340
37A
340
37B
340
37C
340
37D
340
43B
340
445
340
446
340
447
340
448
340
449
340
44A
340
44B
340
44C
340
44D
  0
GROUP
  5
563
102
{ACAD_REACTORS
330
D
102
}
330
D
100
AcDbGroup
300
Zentrierring
 70
     1
 71
     1
340
491
340
492
340
495
340
496
340
497
340
498
340
499
340
49A
340
49B
340
4A9
340
4AA
340
4AB
340
4AC
340
4AD
340
4AE
340
4AF
340
4B0
340
4B1
340
4B2
340
4BF
340
4C0
340
4C1
340
4C2
340
4C3
340
4C4
340
4C5
340
4C6
340
4C7
  0
LAYOUT
  5
1E
102
{ACAD_REACTORS
330
1A
102
}
330
1A
100
AcDbPlotSettings
  1

  2

  4

  6

 40
0.0
 41
0.0
 42
0.0
 43
0.0
 44
0.0
 45
0.0
 46
0.0
 47
0.0
 48
0.0
 49
0.0
140
0.0
141
0.0
142
1.0
143
1.0
 70
   688
 72
     0
 73
     0
 74
     5
  7

 75
    16
147
1.0
148
0.0
149
0.0
100
AcDbLayout
  1
Layout1
 70
     1
 71
     1
 10
300.546594
 20
31.942
 11
1140.546594
 21
625.942
 12
0.0
 22
0.0
 32
0.0
 14
300.546594
 24
31.942
 34
0.0
 15
1140.546594
 25
625.942
 35
0.0
146
0.0
 13
0.0
 23
0.0
 33
0.0
 16
1.0
 26
0.0
 36
0.0
 17
0.0
 27
1.0
 37
0.0
 76
     0
330
1B
  0
LAYOUT
  5
26
102
{ACAD_REACTORS
330
1A
102
}
330
1A
100
AcDbPlotSettings
  1

  2

  4

  6

 40
0.0
 41
0.0
 42
0.0
 43
0.0
 44
0.0
 45
0.0
 46
0.0
 47
0.0
 48
0.0
 49
0.0
140
0.0
141
0.0
142
1.0
143
1.0
 70
   688
 72
     0
 73
     0
 74
     5
  7

 75
    16
147
1.0
148
0.0
149
0.0
100
AcDbLayout
  1
Layout2
 70
     1
 71
     2
 10
0.0
 20
0.0
 11
0.0
 21
0.0
 12
0.0
 22
0.0
 32
0.0
 14
0.0
 24
0.0
 34
0.0
 15
0.0
 25
0.0
 35
0.0
146
0.0
 13
0.0
 23
0.0
 33
0.0
 16
1.0
 26
0.0
 36
0.0
 17
0.0
 27
1.0
 37
0.0
 76
     0
330
23
  0
LAYOUT
  5
22
102
{ACAD_REACTORS
330
1A
102
}
330
1A
100
AcDbPlotSettings
  1

  2

  4

  6

 40
0.0
 41
0.0
 42
0.0
 43
0.0
 44
0.0
 45
0.0
 46
0.0
 47
0.0
 48
0.0
 49
0.0
140
0.0
141
0.0
142
1.0
143
1.0
 70
  1776
 72
     0
 73
     0
 74
     0
  7

 75
     0
147
1.0
148
0.0
149
0.0
100
AcDbLayout
  1
Model
 70
     1
 71
     0
 10
300.546594
 20
31.942
 11
1140.546594
 21
625.942
 12
300.546594
 22
31.942
 32
0.0
 14
300.546594
 24
31.942
 34
0.0
 15
1140.546594
 25
625.942
 35
0.0
146
0.0
 13
0.0
 23
0.0
 33
0.0
 16
1.0
 26
0.0
 36
0.0
 17
0.0
 27
1.0
 37
0.0
 76
     0
330
1F
  0
MLINESTYLE
  5
18
102
{ACAD_REACTORS
330
17
102
}
330
17
100
AcDbMlineStyle
  2
Standard
 70
     0
  3

 62
   256
 51
90.0
 52
90.0
 71
     2
 49
0.5
 62
   256
  6
BYLAYER
 49
-0.5
 62
   256
  6
BYLAYER
  0
ACDBPLACEHOLDER
  5
F
102
{ACAD_REACTORS
330
E
102
}
330
E
  0
ENDSEC
  0
EOF
