  0
SECTION
  2
HEADER
  9
$ACADVER
  1
AC1009
  9
$INSBASE
 10
0.0
 20
0.0
 30
0.0
  9
$EXTMIN
 10
-210.0
 20
-148.5
 30
0.0
  9
$EXTMAX
 10
630.0
 20
445.5
 30
0.0
  9
$LIMMIN
 10
-210.0
 20
-148.5
  9
$LIMMAX
 10
630.0
 20
445.5
  9
$ORTHOMODE
 70
     0
  9
$REGENMODE
 70
     1
  9
$FILLMODE
 70
     1
  9
$QTEXTMODE
 70
     0
  9
$MIRRTEXT
 70
     1
  9
$DRAGMODE
 70
     2
  9
$LTSCALE
 40
2.0
  9
$OSMODE
 70
     0
  9
$ATTMODE
 70
     1
  9
$TEXTSIZE
 40
0.2
  9
$TRACEWID
 40
0.05
  9
$TEXTSTYLE
  7
STANDARD
  9
$CLAYER
  8
0
  9
$CELTYPE
  6
BYLAYER
  9
$CECOLOR
 62
     7
  9
$DIMSCALE
 40
2.0
  9
$DIMASZ
 40
3.5
  9
$DIMEXO
 40
0.0625
  9
$DIMDLI
 40
0.38
  9
$DIMRND
 40
0.0
  9
$DIMDLE
 40
0.0
  9
$DIMEXE
 40
0.18
  9
$DIMTP
 40
0.0
  9
$DIMTM
 40
0.0
  9
$DIMTXT
 40
3.5
  9
$DIMCEN
 40
0.09
  9
$DIMTSZ
 40
0.0
  9
$DIMTOL
 70
     0
  9
$DIMLIM
 70
     0
  9
$DIMTIH
 70
     1
  9
$DIMTOH
 70
     1
  9
$DIMSE1
 70
     0
  9
$DIMSE2
 70
     0
  9
$DIMTAD
 70
     1
  9
$DIMZIN
 70
     0
  9
$DIMBLK
  1

  9
$DIMASO
 70
     1
  9
$DIMSHO
 70
     1
  9
$DIMPOST
  1

  9
$DIMAPOST
  1

  9
$DIMALT
 70
     0
  9
$DIMALTD
 70
     2
  9
$DIMALTF
 40
25.4
  9
$DIMLFAC
 40
1.0
  9
$DIMTOFL
 70
     0
  9
$DIMTVP
 40
0.0
  9
$DIMTIX
 70
     0
  9
$DIMSOXD
 70
     0
  9
$DIMSAH
 70
     0
  9
$DIMBLK1
  1

  9
$DIMBLK2
  1

  9
$DIMSTYLE
  2
STANDARD
  9
$DIMCLRD
 70
     0
  9
$DIMCLRE
 70
     0
  9
$DIMCLRT
 70
     0
  9
$DIMTFAC
 40
1.0
  9
$DIMGAP
 40
0.09
  9
$LUNITS
 70
     2
  9
$LUPREC
 70
     2
  9
$AXISMODE
 70
     0
  9
$AXISUNIT
 10
0.0
 20
0.0
  9
$SKETCHINC
 40
0.1
  9
$FILLETRAD
 40
0.0
  9
$AUNITS
 70
     0
  9
$AUPREC
 70
     0
  9
$MENU
  1
acad
  9
$ELEVATION
 40
0.0
  9
$PELEVATION
 40
0.0
  9
$THICKNESS
 40
0.0
  9
$LIMCHECK
 70
     0
  9
$BLIPMODE
 70
     1
  9
$CHAMFERA
 40
0.0
  9
$CHAMFERB
 40
0.0
  9
$SKPOLY
 70
     0
  9
$TDCREATE
 40
0.000000000
  9
$TDUPDATE
 40
0.000000000
  9
$TDINDWG
 40
0.0000000000
  9
$TDUSRTIMER
 40
0.0000000000
  9
$USRTIMER
 70
     1
  9
$ANGBASE
 50
0.0
  9
$ANGDIR
 70
     0
  9
$PDMODE
 70
     0
  9
$PDSIZE
 40
0.0
  9
$PLINEWID
 40
0.0
  9
$COORDS
 70
     0
  9
$SPLFRAME
 70
     0
  9
$SPLINETYPE
 70
     6
  9
$SPLINESEGS
 70
     8
  9
$ATTDIA
 70
     0
  9
$ATTREQ
 70
     1
  9
$HANDLING
 70
     1
  9
$HANDSEED
  5
245
  9
$SURFTAB1
 70
     6
  9
$SURFTAB2
 70
     6
  9
$SURFTYPE
 70
     6
  9
$SURFU
 70
     6
  9
$SURFV
 70
     6
  9
$UCSNAME
  2

  9
$UCSORG
 10
0.0
 20
0.0
 30
0.0
  9
$UCSXDIR
 10
1.0
 20
0.0
 30
0.0
  9
$UCSYDIR
 10
0.0
 20
1.0
 30
0.0
  9
$PUCSNAME
  2

  9
$PUCSORG
 10
0.0
 20
0.0
 30
0.0
  9
$PUCSXDIR
 10
1.0
 20
0.0
 30
0.0
  9
$PUCSYDIR
 10
0.0
 20
1.0
 30
0.0
  9
$USERI1
 70
     0
  9
$USERI2
 70
     0
  9
$USERI3
 70
     0
  9
$USERI4
 70
     0
  9
$USERI5
 70
     0
  9
$USERR1
 40
0.0
  9
$USERR2
 40
0.0
  9
$USERR3
 40
0.0
  9
$USERR4
 40
0.0
  9
$USERR5
 40
0.0
  9
$WORLDVIEW
 70
     1
  9
$SHADEDGE
 70
     3
  9
$SHADEDIF
 70
    70
  9
$TILEMODE
 70
     1
  9
$MAXACTVP
 70
    16
  9
$PINSBASE
 10
0.0
 20
0.0
 30
0.0
  9
$PLIMCHECK
 70
     0
  9
$PEXTMIN
 10
1.000000E+20
 20
1.000000E+20
 30
1.000000E+20
  9
$PEXTMAX
 10
-1.000000E+20
 20
-1.000000E+20
 30
-1.000000E+20
  9
$PLIMMIN
 10
-210.0
 20
-148.5
  9
$PLIMMAX
 10
630.0
 20
445.5
  9
$UNITMODE
 70
     0
  9
$VISRETAIN
 70
     0
  9
$PLINEGEN
 70
     1
  9
$PSLTSCALE
 70
     0
  9
$TREEDEPTH
 70
  3020
  9
$DWGCODEPAGE
  3
dos850
  0
ENDSEC
  0
SECTION
  2
TABLES
  0
TABLE
  2
VPORT
 70
     1
  0
VPORT
  2
*ACTIVE
 70
     0
 10
0.0
 20
0.0
 11
1.0
 21
1.0
 12
420.0
 22
297.0
 13
0.0
 23
0.0
 14
1.0
 24
1.0
 15
0.0
 25
0.0
 16
0.0
 26
0.0
 36
1.0
 17
-210.0
 27
-148.5
 37
0.0
 40
594.0
 41
1.604229
 42
50.0
 43
0.0
 44
0.0
 50
0.0
 51
0.0
 71
     0
 72
   100
 73
     1
 74
     1
 75
     0
 76
     0
 77
     0
 78
     0
  0
ENDTAB
  0
TABLE
  2
LTYPE
 70
     2
  0
LTYPE
  2
CONTINUOUS
 70
    64
  3
Solid line
 72
    65
 73
     0
 40
0.0
  0
LTYPE
  2
DASHDOT
 70
    64
  3
__ . __ . __ . __ . __
 72
    65
 73
     4
 40
7.5
 49
5.0
 49
-1.25
 49
0.0
 49
-1.25
  0
ENDTAB
  0
TABLE
  2
LAYER
 70
    11
  0
LAYER
  2
0
 70
     0
 62
     7
  6
CONTINUOUS
  0
LAYER
  2
LC-INFO-1-2-MM-A3-0
 70
     1
 62
    -1
  6
CONTINUOUS
  0
LAYER
  2
LC-006-005-----0
 70
     0
 62
     2
  6
CONTINUOUS
  0
LAYER
  2
LC-007-003-MTH-0
 70
     0
 62
     2
  6
CONTINUOUS
  0
LAYER
  2
LC-008-003-MTG-0
 70
     0
 62
     2
  6
CONTINUOUS
  0
LAYER
  2
LC-005-003-----0
 70
     0
 62
     2
  6
CONTINUOUS
  0
LAYER
  2
LC-003-000-----0
 70
     0
 62
     7
  6
CONTINUOUS
  0
LAYER
  2
LC-001-002-----0
 70
     0
 62
     1
  6
CONTINUOUS
  0
LAYER
  2
LC-002-002-RND-0
 70
     0
 62
     1
  6
CONTINUOUS
  0
LAYER
  2
LC-004-001-----0
 70
     0
 62
     1
  6
CONTINUOUS
  0
LAYER
  2
LC-000
 70
     0
 62
     7
  6
CONTINUOUS
  0
ENDTAB
  0
TABLE
  2
STYLE
 70
     3
  0
STYLE
  2
STANDARD
 70
     0
 40
0.0
 41
1.0
 50
0.0
 71
     0
 42
0.0
  3
txt
  4

  0
STYLE
  2
LC-TXTSTYLE-150-400-0-0-A1
 70
    64
 40
0.0
 41
1.0
 50
15.0
 71
     0
 42
3.5
  3
Arial
  4

  0
STYLE
  2
LC-STANDARD
 70
    64
 40
0.0
 41
1.0
 50
0.0
 71
     0
 42
3.5
  3
MONOTXT
  4

  0
ENDTAB
  0
TABLE
  2
VIEW
 70
     0
  0
ENDTAB
  0
TABLE
  2
UCS
 70
     0
  0
ENDTAB
  0
TABLE
  2
APPID
 70
     1
  0
APPID
  2
ACAD
 70
     0
  0
ENDTAB
  0
TABLE
  2
DIMSTYLE
 70
     3
  0
DIMSTYLE
  2
STANDARD
 70
     0
  3

  4

  5

  6

  7

 40
1.0
 41
0.18
 42
0.0625
 43
0.38
 44
0.18
 45
0.0
 46
0.0
 47
0.0
 48
0.0
 71
     0
 72
     0
 73
     1
 74
     1
 75
     0
 76
     0
 77
     0
 78
     0
140
0.18
141
0.09
142
0.0
143
25.4
144
1.0
145
0.0
146
1.0
147
0.09
170
     0
171
     2
172
     0
173
     0
174
     0
175
     0
176
     0
177
     0
178
     0
  0
DIMSTYLE
  2
LC-STANDARD
 70
     0
  3

  4

  5

  6

  7

 40
1.0
 41
3.5
 42
0.0
 43
7.5
 44
1.8
 45
0.0
 46
0.0
 47
0.0
 48
0.0
 71
     0
 72
     0
 73
     0
 74
     0
 75
     0
 76
     0
 77
     1
 78
     8
140
3.5
141
0.0
142
0.0
143
25.4
144
1.0
145
0.0
146
0.71
147
1.5
170
     0
171
     2
172
     1
173
     0
174
     0
175
     0
176
     0
177
     0
178
     3
  0
DIMSTYLE
  2
LC-DIM-L-0140-02-02
 70
     0
  3

  4

  5

  6

  7

 40
2.0
 41
3.5
 42
0.0
 43
7.5
 44
1.8
 45
0.0
 46
0.0
 47
0.0
 48
0.0
 71
     0
 72
     0
 73
     0
 74
     0
 75
     0
 76
     0
 77
     1
 78
     8
140
14.0
141
0.0
142
0.0
143
25.4
144
1.0
145
0.0
146
0.71
147
1.5
170
     0
171
     2
172
     0
173
     0
174
     0
175
     0
176
     2
177
     2
178
     8
  0
ENDTAB
  0
ENDSEC
  0
SECTION
  2
BLOCKS
  0
BLOCK
  8
0
  5
23
  2
BLK1
 70
    64
 10
0.0
 20
0.0
 30
0.0
  3
BLK1
  0
ENDBLK
  8
0
  5
24
  0
BLOCK
  8
0
  5
26
  2
BLK2
 70
    64
 10
0.0
 20
0.0
 30
0.0
  3
BLK2
  0
ENDBLK
  8
0
  5
27
  0
BLOCK
  8
0
  5
29
  2
*X2
 70
    65
 10
137.841291
 20
203.797972
 30
0.0
  3
*X2
  0
LINE
  8
LC-006-005-----0
  6
CONTINUOUS
  5
2B
 10
152.017214
 20
217.071038
 30
0.0
 11
152.717214
 21
217.771038
 31
0.0
  0
LINE
  8
LC-006-005-----0
  6
CONTINUOUS
  5
2C
 10
153.69157
 20
218.745394
 30
0.0
 11
154.39157
 21
219.445394
 31
0.0
  0
LINE
  8
LC-006-005-----0
  6
CONTINUOUS
  5
2D
 10
138.737555
 20
206.619806
 30
0.0
 11
139.628439
 21
207.51069
 31
0.0
  0
LINE
  8
LC-006-005-----0
  6
CONTINUOUS
  5
2E
 10
149.188787
 20
217.071038
 30
0.0
 11
149.888787
 21
217.771038
 31
0.0
  0
LINE
  8
LC-006-005-----0
  6
CONTINUOUS
  5
2F
 10
153.69157
 20
221.573821
 30
0.0
 11
155.012318
 21
222.894569
 31
0.0
  0
LINE
  8
LC-006-005-----0
  6
CONTINUOUS
  5
30
 10
138.19157
 20
208.902248
 30
0.0
 11
138.89157
 21
209.602248
 31
0.0
  0
LINE
  8
LC-006-005-----0
  6
CONTINUOUS
  5
31
 10
146.36036
 20
217.071038
 30
0.0
 11
147.06036
 21
217.771038
 31
0.0
  0
LINE
  8
LC-006-005-----0
  6
CONTINUOUS
  5
32
 10
138.19157
 20
211.730675
 30
0.0
 11
138.89157
 21
212.430675
 31
0.0
  0
LINE
  8
LC-006-005-----0
  6
CONTINUOUS
  5
33
 10
139.527546
 20
213.066652
 30
0.0
 11
140.227546
 21
213.766652
 31
0.0
  0
LINE
  8
LC-006-005-----0
  6
CONTINUOUS
  5
34
 10
141.79157
 20
215.330675
 30
0.0
 11
142.49157
 21
216.030675
 31
0.0
  0
LINE
  8
LC-006-005-----0
  6
CONTINUOUS
  5
35
 10
143.531932
 20
217.071038
 30
0.0
 11
144.231932
 21
217.771038
 31
0.0
  0
ENDBLK
  8
0
  5
36
  0
BLOCK
  8
0
  5
38
  2
*X3
 70
    65
 10
36.29157
 20
203.797972
 30
0.0
  3
*X3
  0
LINE
  8
LC-006-005-----0
  6
CONTINUOUS
  5
39
 10
52.430105
 20
205.165169
 30
0.0
 11
52.976249
 21
205.711314
 31
0.0
  0
LINE
  8
LC-006-005-----0
  6
CONTINUOUS
  5
3A
 10
52.49157
 20
210.883489
 30
0.0
 11
53.19157
 21
211.583489
 31
0.0
  0
LINE
  8
LC-006-005-----0
  6
CONTINUOUS
  5
3B
 10
51.846306
 20
213.066652
 30
0.0
 11
52.453736
 21
213.674082
 31
0.0
  0
LINE
  8
LC-006-005-----0
  6
CONTINUOUS
  5
3C
 10
49.30855
 20
213.357323
 30
0.0
 11
49.806857
 21
213.85563
 31
0.0
  0
LINE
  8
LC-006-005-----0
  6
CONTINUOUS
  5
3D
 10
48.89157
 20
215.76877
 30
0.0
 11
49.59157
 21
216.46877
 31
0.0
  0
LINE
  8
LC-006-005-----0
  6
CONTINUOUS
  5
3E
 10
47.36541
 20
217.071038
 30
0.0
 11
48.06541
 21
217.771038
 31
0.0
  0
LINE
  8
LC-006-005-----0
  6
CONTINUOUS
  5
3F
 10
44.536983
 20
217.071038
 30
0.0
 11
45.236983
 21
217.771038
 31
0.0
  0
LINE
  8
LC-006-005-----0
  6
CONTINUOUS
  5
40
 10
41.708556
 20
217.071038
 30
0.0
 11
42.408556
 21
217.771038
 31
0.0
  0
LINE
  8
LC-006-005-----0
  6
CONTINUOUS
  5
41
 10
38.880129
 20
217.071038
 30
0.0
 11
39.580129
 21
217.771038
 31
0.0
  0
LINE
  8
LC-006-005-----0
  6
CONTINUOUS
  5
42
 10
37.015122
 20
218.034458
 30
0.0
 11
37.69157
 21
218.710906
 31
0.0
  0
LINE
  8
LC-006-005-----0
  6
CONTINUOUS
  5
43
 10
36.923275
 20
220.771038
 30
0.0
 11
37.69157
 21
221.539333
 31
0.0
  0
ENDBLK
  8
0
  5
44
  0
BLOCK
  8
0
  5
46
  2
BLK3
 70
    64
 10
0.0
 20
0.0
 30
0.0
  3
BLK3
  0
ENDBLK
  8
0
  5
47
  0
BLOCK
  8
0
  5
49
  2
*X5
 70
    65
 10
138.69157
 20
74.566652
 30
0.0
  3
*X5
  0
LINE
  8
LC-006-005-----0
  6
CONTINUOUS
  5
4A
 10
167.516187
 20
200.179339
 30
0.0
 11
161.804257
 21
205.891269
 31
0.0
  0
LINE
  8
LC-006-005-----0
  6
CONTINUOUS
  5
4B
 10
168.190971
 20
196.676128
 30
0.0
 11
158.301047
 21
206.566052
 31
0.0
  0
LINE
  8
LC-006-005-----0
  6
CONTINUOUS
  5
4C
 10
168.19157
 20
193.847102
 30
0.0
 11
165.185712
 21
196.85296
 31
0.0
  0
LINE
  8
LC-006-005-----0
  6
CONTINUOUS
  5
4D
 10
158.477878
 20
203.560794
 30
0.0
 11
155.47202
 21
206.566652
 31
0.0
  0
LINE
  8
LC-006-005-----0
  6
CONTINUOUS
  5
4E
 10
168.19157
 20
191.018675
 30
0.0
 11
165.19157
 21
194.018675
 31
0.0
  0
LINE
  8
LC-006-005-----0
  6
CONTINUOUS
  5
4F
 10
155.643593
 20
203.566652
 30
0.0
 11
152.643593
 21
206.566652
 31
0.0
  0
LINE
  8
LC-006-005-----0
  6
CONTINUOUS
  5
50
 10
168.19157
 20
188.190248
 30
0.0
 11
165.19157
 21
191.190248
 31
0.0
  0
LINE
  8
LC-006-005-----0
  6
CONTINUOUS
  5
51
 10
152.815166
 20
203.566652
 30
0.0
 11
149.815166
 21
206.566652
 31
0.0
  0
LINE
  8
LC-006-005-----0
  6
CONTINUOUS
  5
52
 10
168.19157
 20
185.361821
 30
0.0
 11
165.19157
 21
188.361821
 31
0.0
  0
LINE
  8
LC-006-005-----0
  6
CONTINUOUS
  5
53
 10
149.986739
 20
203.566652
 30
0.0
 11
146.986739
 21
206.566652
 31
0.0
  0
LINE
  8
LC-006-005-----0
  6
CONTINUOUS
  5
54
 10
142.69157
 20
210.861821
 30
0.0
 11
140.486739
 21
213.066652
 31
0.0
  0
LINE
  8
LC-006-005-----0
  6
CONTINUOUS
  5
55
 10
168.19157
 20
182.533394
 30
0.0
 11
165.19157
 21
185.533394
 31
0.0
  0
LINE
  8
LC-006-005-----0
  6
CONTINUOUS
  5
56
 10
147.158312
 20
203.566652
 30
0.0
 11
144.158312
 21
206.566652
 31
0.0
  0
LINE
  8
LC-006-005-----0
  6
CONTINUOUS
  5
57
 10
142.69157
 20
208.033394
 30
0.0
 11
139.658312
 21
211.066652
 31
0.0
  0
LINE
  8
LC-006-005-----0
  6
CONTINUOUS
  5
58
 10
168.19157
 20
179.704966
 30
0.0
 11
165.19157
 21
182.704966
 31
0.0
  0
LINE
  8
LC-006-005-----0
  6
CONTINUOUS
  5
59
 10
144.329885
 20
203.566652
 30
0.0
 11
139.69157
 21
208.204966
 31
0.0
  0
LINE
  8
LC-006-005-----0
  6
CONTINUOUS
  5
5A
 10
139.329885
 20
208.566652
 30
0.0
 11
138.69157
 21
209.204966
 31
0.0
  0
LINE
  8
LC-006-005-----0
  6
CONTINUOUS
  5
5B
 10
168.19157
 20
176.876539
 30
0.0
 11
165.19157
 21
179.876539
 31
0.0
  0
LINE
  8
LC-006-005-----0
  6
CONTINUOUS
  5
5C
 10
141.501457
 20
203.566652
 30
0.0
 11
139.69157
 21
205.376539
 31
0.0
  0
LINE
  8
LC-006-005-----0
  6
CONTINUOUS
  5
5D
 10
168.19157
 20
174.048112
 30
0.0
 11
165.19157
 21
177.048112
 31
0.0
  0
LINE
  8
LC-006-005-----0
  6
CONTINUOUS
  5
5E
 10
168.19157
 20
171.219685
 30
0.0
 11
165.19157
 21
174.219685
 31
0.0
  0
LINE
  8
LC-006-005-----0
  6
CONTINUOUS
  5
5F
 10
168.19157
 20
168.391258
 30
0.0
 11
165.19157
 21
171.391258
 31
0.0
  0
LINE
  8
LC-006-005-----0
  6
CONTINUOUS
  5
60
 10
168.19157
 20
165.562831
 30
0.0
 11
165.19157
 21
168.562831
 31
0.0
  0
LINE
  8
LC-006-005-----0
  6
CONTINUOUS
  5
61
 10
168.19157
 20
162.734404
 30
0.0
 11
165.19157
 21
165.734404
 31
0.0
  0
LINE
  8
LC-006-005-----0
  6
CONTINUOUS
  5
62
 10
168.19157
 20
159.905977
 30
0.0
 11
165.19157
 21
162.905977
 31
0.0
  0
LINE
  8
LC-006-005-----0
  6
CONTINUOUS
  5
63
 10
168.19157
 20
157.077549
 30
0.0
 11
165.19157
 21
160.077549
 31
0.0
  0
LINE
  8
LC-006-005-----0
  6
CONTINUOUS
  5
64
 10
168.19157
 20
154.249122
 30
0.0
 11
165.19157
 21
157.249122
 31
0.0
  0
LINE
  8
LC-006-005-----0
  6
CONTINUOUS
  5
65
 10
168.19157
 20
151.420695
 30
0.0
 11
165.19157
 21
154.420695
 31
0.0
  0
LINE
  8
LC-006-005-----0
  6
CONTINUOUS
  5
66
 10
168.19157
 20
148.592268
 30
0.0
 11
165.19157
 21
151.592268
 31
0.0
  0
LINE
  8
LC-006-005-----0
  6
CONTINUOUS
  5
67
 10
168.19157
 20
145.763841
 30
0.0
 11
165.19157
 21
148.763841
 31
0.0
  0
LINE
  8
LC-006-005-----0
  6
CONTINUOUS
  5
68
 10
168.19157
 20
142.935414
 30
0.0
 11
165.19157
 21
145.935414
 31
0.0
  0
LINE
  8
LC-006-005-----0
  6
CONTINUOUS
  5
69
 10
168.19157
 20
140.106987
 30
0.0
 11
165.19157
 21
143.106987
 31
0.0
  0
LINE
  8
LC-006-005-----0
  6
CONTINUOUS
  5
6A
 10
168.19157
 20
137.27856
 30
0.0
 11
165.19157
 21
140.27856
 31
0.0
  0
LINE
  8
LC-006-005-----0
  6
CONTINUOUS
  5
6B
 10
168.19157
 20
134.450132
 30
0.0
 11
165.19157
 21
137.450132
 31
0.0
  0
LINE
  8
LC-006-005-----0
  6
CONTINUOUS
  5
6C
 10
168.19157
 20
131.621705
 30
0.0
 11
165.19157
 21
134.621705
 31
0.0
  0
LINE
  8
LC-006-005-----0
  6
CONTINUOUS
  5
6D
 10
168.19157
 20
128.793278
 30
0.0
 11
165.19157
 21
131.793278
 31
0.0
  0
LINE
  8
LC-006-005-----0
  6
CONTINUOUS
  5
6E
 10
168.19157
 20
125.964851
 30
0.0
 11
165.19157
 21
128.964851
 31
0.0
  0
LINE
  8
LC-006-005-----0
  6
CONTINUOUS
  5
6F
 10
168.19157
 20
123.136424
 30
0.0
 11
165.19157
 21
126.136424
 31
0.0
  0
LINE
  8
LC-006-005-----0
  6
CONTINUOUS
  5
70
 10
168.19157
 20
120.307997
 30
0.0
 11
165.19157
 21
123.307997
 31
0.0
  0
LINE
  8
LC-006-005-----0
  6
CONTINUOUS
  5
71
 10
168.19157
 20
117.47957
 30
0.0
 11
165.19157
 21
120.47957
 31
0.0
  0
LINE
  8
LC-006-005-----0
  6
CONTINUOUS
  5
72
 10
168.19157
 20
114.651143
 30
0.0
 11
165.19157
 21
117.651143
 31
0.0
  0
LINE
  8
LC-006-005-----0
  6
CONTINUOUS
  5
73
 10
168.19157
 20
111.822715
 30
0.0
 11
165.19157
 21
114.822715
 31
0.0
  0
LINE
  8
LC-006-005-----0
  6
CONTINUOUS
  5
74
 10
168.19157
 20
108.994288
 30
0.0
 11
165.19157
 21
111.994288
 31
0.0
  0
LINE
  8
LC-006-005-----0
  6
CONTINUOUS
  5
75
 10
168.19157
 20
106.165861
 30
0.0
 11
165.19157
 21
109.165861
 31
0.0
  0
LINE
  8
LC-006-005-----0
  6
CONTINUOUS
  5
76
 10
168.19157
 20
103.337434
 30
0.0
 11
165.19157
 21
106.337434
 31
0.0
  0
LINE
  8
LC-006-005-----0
  6
CONTINUOUS
  5
77
 10
168.19157
 20
100.509007
 30
0.0
 11
165.19157
 21
103.509007
 31
0.0
  0
LINE
  8
LC-006-005-----0
  6
CONTINUOUS
  5
78
 10
168.19157
 20
97.68058
 30
0.0
 11
165.19157
 21
100.68058
 31
0.0
  0
LINE
  8
LC-006-005-----0
  6
CONTINUOUS
  5
79
 10
168.19157
 20
94.852153
 30
0.0
 11
165.19157
 21
97.852153
 31
0.0
  0
LINE
  8
LC-006-005-----0
  6
CONTINUOUS
  5
7A
 10
168.19157
 20
92.023726
 30
0.0
 11
165.19157
 21
95.023726
 31
0.0
  0
LINE
  8
LC-006-005-----0
  6
CONTINUOUS
  5
7B
 10
168.19157
 20
89.195298
 30
0.0
 11
165.19157
 21
92.195298
 31
0.0
  0
LINE
  8
LC-006-005-----0
  6
CONTINUOUS
  5
7C
 10
168.19157
 20
86.366871
 30
0.0
 11
165.19157
 21
89.366871
 31
0.0
  0
LINE
  8
LC-006-005-----0
  6
CONTINUOUS
  5
7D
 10
168.19157
 20
83.538444
 30
0.0
 11
165.19157
 21
86.538444
 31
0.0
  0
LINE
  8
LC-006-005-----0
  6
CONTINUOUS
  5
7E
 10
168.19157
 20
80.710017
 30
0.0
 11
165.19157
 21
83.710017
 31
0.0
  0
LINE
  8
LC-006-005-----0
  6
CONTINUOUS
  5
7F
 10
167.941137
 20
78.132023
 30
0.0
 11
165.19157
 21
80.88159
 31
0.0
  0
LINE
  8
LC-006-005-----0
  6
CONTINUOUS
  5
80
 10
167.34342
 20
75.901313
 30
0.0
 11
165.19157
 21
78.053163
 31
0.0
  0
LINE
  8
LC-006-005-----0
  6
CONTINUOUS
  5
81
 10
165.849654
 20
74.566652
 30
0.0
 11
165.19157
 21
75.224736
 31
0.0
  0
ENDBLK
  8
0
  5
82
  0
BLOCK
  8
0
  5
84
  2
*X6
 70
    65
 10
23.19157
 20
74.566652
 30
0.0
  3
*X6
  0
LINE
  8
LC-006-005-----0
  6
CONTINUOUS
  5
85
 10
52.69157
 20
210.352153
 30
0.0
 11
51.977071
 21
211.066652
 31
0.0
  0
LINE
  8
LC-006-005-----0
  6
CONTINUOUS
  5
86
 10
51.69157
 20
211.352153
 30
0.0
 11
49.977071
 21
213.066652
 31
0.0
  0
LINE
  8
LC-006-005-----0
  6
CONTINUOUS
  5
87
 10
51.69157
 20
208.523726
 30
0.0
 11
48.69157
 21
211.523726
 31
0.0
  0
LINE
  8
LC-006-005-----0
  6
CONTINUOUS
  5
88
 10
51.69157
 20
205.695298
 30
0.0
 11
48.69157
 21
208.695298
 31
0.0
  0
LINE
  8
LC-006-005-----0
  6
CONTINUOUS
  5
89
 10
50.991789
 20
203.566652
 30
0.0
 11
47.991789
 21
206.566652
 31
0.0
  0
LINE
  8
LC-006-005-----0
  6
CONTINUOUS
  5
8A
 10
48.163362
 20
203.566652
 30
0.0
 11
45.163362
 21
206.566652
 31
0.0
  0
LINE
  8
LC-006-005-----0
  6
CONTINUOUS
  5
8B
 10
45.334935
 20
203.566652
 30
0.0
 11
42.334935
 21
206.566652
 31
0.0
  0
LINE
  8
LC-006-005-----0
  6
CONTINUOUS
  5
8C
 10
42.506508
 20
203.566652
 30
0.0
 11
39.506508
 21
206.566652
 31
0.0
  0
LINE
  8
LC-006-005-----0
  6
CONTINUOUS
  5
8D
 10
39.678081
 20
203.566652
 30
0.0
 11
36.678081
 21
206.566652
 31
0.0
  0
LINE
  8
LC-006-005-----0
  6
CONTINUOUS
  5
8E
 10
36.849654
 20
203.566652
 30
0.0
 11
33.849654
 21
206.566652
 31
0.0
  0
LINE
  8
LC-006-005-----0
  6
CONTINUOUS
  5
8F
 10
34.021227
 20
203.566652
 30
0.0
 11
31.217925
 21
206.369954
 31
0.0
  0
LINE
  8
LC-006-005-----0
  6
CONTINUOUS
  5
90
 10
31.420543
 20
203.338909
 30
0.0
 11
29.078039
 21
205.681412
 31
0.0
  0
LINE
  8
LC-006-005-----0
  6
CONTINUOUS
  5
91
 10
29.44892
 20
202.482104
 30
0.0
 11
27.290859
 21
204.640165
 31
0.0
  0
LINE
  8
LC-006-005-----0
  6
CONTINUOUS
  5
92
 10
27.924877
 20
201.17772
 30
0.0
 11
25.800293
 21
203.302305
 31
0.0
  0
LINE
  8
LC-006-005-----0
  6
CONTINUOUS
  5
93
 10
26.816473
 20
199.457697
 30
0.0
 11
24.596417
 21
201.677753
 31
0.0
  0
LINE
  8
LC-006-005-----0
  6
CONTINUOUS
  5
94
 10
26.222438
 20
197.223305
 30
0.0
 11
23.70776
 21
199.737983
 31
0.0
  0
LINE
  8
LC-006-005-----0
  6
CONTINUOUS
  5
95
 10
26.19157
 20
194.425746
 30
0.0
 11
23.22566
 21
197.391656
 31
0.0
  0
LINE
  8
LC-006-005-----0
  6
CONTINUOUS
  5
96
 10
26.19157
 20
191.597319
 30
0.0
 11
23.19157
 21
194.597319
 31
0.0
  0
LINE
  8
LC-006-005-----0
  6
CONTINUOUS
  5
97
 10
26.19157
 20
188.768892
 30
0.0
 11
23.19157
 21
191.768892
 31
0.0
  0
LINE
  8
LC-006-005-----0
  6
CONTINUOUS
  5
98
 10
26.19157
 20
185.940464
 30
0.0
 11
23.19157
 21
188.940464
 31
0.0
  0
LINE
  8
LC-006-005-----0
  6
CONTINUOUS
  5
99
 10
26.19157
 20
183.112037
 30
0.0
 11
23.19157
 21
186.112037
 31
0.0
  0
LINE
  8
LC-006-005-----0
  6
CONTINUOUS
  5
9A
 10
26.19157
 20
180.28361
 30
0.0
 11
23.19157
 21
183.28361
 31
0.0
  0
LINE
  8
LC-006-005-----0
  6
CONTINUOUS
  5
9B
 10
26.19157
 20
177.455183
 30
0.0
 11
23.19157
 21
180.455183
 31
0.0
  0
LINE
  8
LC-006-005-----0
  6
CONTINUOUS
  5
9C
 10
26.19157
 20
174.626756
 30
0.0
 11
23.19157
 21
177.626756
 31
0.0
  0
LINE
  8
LC-006-005-----0
  6
CONTINUOUS
  5
9D
 10
26.19157
 20
171.798329
 30
0.0
 11
23.19157
 21
174.798329
 31
0.0
  0
LINE
  8
LC-006-005-----0
  6
CONTINUOUS
  5
9E
 10
26.19157
 20
168.969902
 30
0.0
 11
23.19157
 21
171.969902
 31
0.0
  0
LINE
  8
LC-006-005-----0
  6
CONTINUOUS
  5
9F
 10
26.19157
 20
166.141475
 30
0.0
 11
23.19157
 21
169.141475
 31
0.0
  0
LINE
  8
LC-006-005-----0
  6
CONTINUOUS
  5
A0
 10
26.19157
 20
163.313047
 30
0.0
 11
23.19157
 21
166.313047
 31
0.0
  0
LINE
  8
LC-006-005-----0
  6
CONTINUOUS
  5
A1
 10
26.19157
 20
160.48462
 30
0.0
 11
23.19157
 21
163.48462
 31
0.0
  0
LINE
  8
LC-006-005-----0
  6
CONTINUOUS
  5
A2
 10
26.19157
 20
157.656193
 30
0.0
 11
23.19157
 21
160.656193
 31
0.0
  0
LINE
  8
LC-006-005-----0
  6
CONTINUOUS
  5
A3
 10
26.19157
 20
154.827766
 30
0.0
 11
23.19157
 21
157.827766
 31
0.0
  0
LINE
  8
LC-006-005-----0
  6
CONTINUOUS
  5
A4
 10
26.19157
 20
151.999339
 30
0.0
 11
23.19157
 21
154.999339
 31
0.0
  0
LINE
  8
LC-006-005-----0
  6
CONTINUOUS
  5
A5
 10
26.19157
 20
149.170912
 30
0.0
 11
23.19157
 21
152.170912
 31
0.0
  0
LINE
  8
LC-006-005-----0
  6
CONTINUOUS
  5
A6
 10
26.19157
 20
146.342485
 30
0.0
 11
23.19157
 21
149.342485
 31
0.0
  0
LINE
  8
LC-006-005-----0
  6
CONTINUOUS
  5
A7
 10
26.19157
 20
143.514058
 30
0.0
 11
23.19157
 21
146.514058
 31
0.0
  0
LINE
  8
LC-006-005-----0
  6
CONTINUOUS
  5
A8
 10
26.19157
 20
140.68563
 30
0.0
 11
23.19157
 21
143.68563
 31
0.0
  0
LINE
  8
LC-006-005-----0
  6
CONTINUOUS
  5
A9
 10
26.19157
 20
137.857203
 30
0.0
 11
23.19157
 21
140.857203
 31
0.0
  0
LINE
  8
LC-006-005-----0
  6
CONTINUOUS
  5
AA
 10
26.19157
 20
135.028776
 30
0.0
 11
23.19157
 21
138.028776
 31
0.0
  0
LINE
  8
LC-006-005-----0
  6
CONTINUOUS
  5
AB
 10
26.19157
 20
132.200349
 30
0.0
 11
23.19157
 21
135.200349
 31
0.0
  0
LINE
  8
LC-006-005-----0
  6
CONTINUOUS
  5
AC
 10
26.19157
 20
129.371922
 30
0.0
 11
23.19157
 21
132.371922
 31
0.0
  0
LINE
  8
LC-006-005-----0
  6
CONTINUOUS
  5
AD
 10
26.19157
 20
126.543495
 30
0.0
 11
23.19157
 21
129.543495
 31
0.0
  0
LINE
  8
LC-006-005-----0
  6
CONTINUOUS
  5
AE
 10
26.19157
 20
123.715068
 30
0.0
 11
23.19157
 21
126.715068
 31
0.0
  0
LINE
  8
LC-006-005-----0
  6
CONTINUOUS
  5
AF
 10
26.19157
 20
120.886641
 30
0.0
 11
23.19157
 21
123.886641
 31
0.0
  0
LINE
  8
LC-006-005-----0
  6
CONTINUOUS
  5
B0
 10
26.19157
 20
118.058213
 30
0.0
 11
23.19157
 21
121.058213
 31
0.0
  0
LINE
  8
LC-006-005-----0
  6
CONTINUOUS
  5
B1
 10
26.19157
 20
115.229786
 30
0.0
 11
23.19157
 21
118.229786
 31
0.0
  0
LINE
  8
LC-006-005-----0
  6
CONTINUOUS
  5
B2
 10
26.19157
 20
112.401359
 30
0.0
 11
23.19157
 21
115.401359
 31
0.0
  0
LINE
  8
LC-006-005-----0
  6
CONTINUOUS
  5
B3
 10
26.19157
 20
109.572932
 30
0.0
 11
23.19157
 21
112.572932
 31
0.0
  0
LINE
  8
LC-006-005-----0
  6
CONTINUOUS
  5
B4
 10
26.19157
 20
106.744505
 30
0.0
 11
23.19157
 21
109.744505
 31
0.0
  0
LINE
  8
LC-006-005-----0
  6
CONTINUOUS
  5
B5
 10
26.19157
 20
103.916078
 30
0.0
 11
23.19157
 21
106.916078
 31
0.0
  0
LINE
  8
LC-006-005-----0
  6
CONTINUOUS
  5
B6
 10
26.19157
 20
101.087651
 30
0.0
 11
23.19157
 21
104.087651
 31
0.0
  0
LINE
  8
LC-006-005-----0
  6
CONTINUOUS
  5
B7
 10
26.19157
 20
98.259224
 30
0.0
 11
23.19157
 21
101.259224
 31
0.0
  0
LINE
  8
LC-006-005-----0
  6
CONTINUOUS
  5
B8
 10
26.19157
 20
95.430796
 30
0.0
 11
23.19157
 21
98.430796
 31
0.0
  0
LINE
  8
LC-006-005-----0
  6
CONTINUOUS
  5
B9
 10
26.19157
 20
92.602369
 30
0.0
 11
23.19157
 21
95.602369
 31
0.0
  0
LINE
  8
LC-006-005-----0
  6
CONTINUOUS
  5
BA
 10
26.19157
 20
89.773942
 30
0.0
 11
23.19157
 21
92.773942
 31
0.0
  0
LINE
  8
LC-006-005-----0
  6
CONTINUOUS
  5
BB
 10
26.19157
 20
86.945515
 30
0.0
 11
23.19157
 21
89.945515
 31
0.0
  0
LINE
  8
LC-006-005-----0
  6
CONTINUOUS
  5
BC
 10
26.19157
 20
84.117088
 30
0.0
 11
23.19157
 21
87.117088
 31
0.0
  0
LINE
  8
LC-006-005-----0
  6
CONTINUOUS
  5
BD
 10
26.19157
 20
81.288661
 30
0.0
 11
23.19157
 21
84.288661
 31
0.0
  0
LINE
  8
LC-006-005-----0
  6
CONTINUOUS
  5
BE
 10
26.19157
 20
78.460234
 30
0.0
 11
23.19157
 21
81.460234
 31
0.0
  0
LINE
  8
LC-006-005-----0
  6
CONTINUOUS
  5
BF
 10
26.19157
 20
75.631807
 30
0.0
 11
23.350734
 21
78.472642
 31
0.0
  0
LINE
  8
LC-006-005-----0
  6
CONTINUOUS
  5
C0
 10
24.428298
 20
74.566652
 30
0.0
 11
24.38601
 21
74.608939
 31
0.0
  0
ENDBLK
  8
0
  5
C1
  0
BLOCK
  8
0
  5
C3
  2
BLK4
 70
    64
 10
0.0
 20
0.0
 30
0.0
  3
BLK4
  0
ENDBLK
  8
0
  5
C4
  0
BLOCK
  8
0
  5
C6
  2
*D8
 70
    65
 10
0.0
 20
0.0
 30
0.0
  3
*D8
  0
LINE
  8
LC-007-003-MTH-0
  6
CONTINUOUS
  5
C8
 10
23.19157
 20
79.066652
 30
0.0
 11
23.19157
 21
22.4
 31
0.0
  0
LINE
  8
LC-007-003-MTH-0
  6
CONTINUOUS
  5
C9
 10
168.19157
 20
79.066652
 30
0.0
 11
168.19157
 21
22.4
 31
0.0
  0
LINE
  8
LC-008-003-MTG-0
  6
CONTINUOUS
  5
CB
 10
23.19157
 20
39.2
 30
0.0
 11
168.19157
 21
39.2
 31
0.0
  0
LINE
  8
LC-005-003-----0
  6
CONTINUOUS
  5
CD
 10
50.952026
 20
42.854733
 30
0.0
 11
23.19157
 21
39.2
 31
0.0
  0
LINE
  8
LC-005-003-----0
  6
CONTINUOUS
  5
CE
 10
23.19157
 20
39.2
 30
0.0
 11
50.952026
 21
35.545267
 31
0.0
  0
LINE
  8
LC-005-003-----0
  6
CONTINUOUS
  5
CF
 10
50.952026
 20
35.545267
 30
0.0
 11
50.952026
 21
42.854733
 31
0.0
  0
LINE
  8
LC-005-003-----0
  6
CONTINUOUS
  5
D0
 10
51.014307
 20
41.904503
 30
0.0
 11
30.47157
 21
39.2
 31
0.0
  0
LINE
  8
LC-005-003-----0
  6
CONTINUOUS
  5
D1
 10
30.47157
 20
39.2
 30
0.0
 11
51.014307
 21
36.495497
 31
0.0
  0
LINE
  8
LC-005-003-----0
  6
CONTINUOUS
  5
D2
 10
51.076589
 20
40.954272
 30
0.0
 11
37.75157
 21
39.2
 31
0.0
  0
LINE
  8
LC-005-003-----0
  6
CONTINUOUS
  5
D3
 10
37.75157
 20
39.2
 30
0.0
 11
51.076589
 21
37.445728
 31
0.0
  0
LINE
  8
LC-005-003-----0
  6
CONTINUOUS
  5
D4
 10
51.13887
 20
40.004041
 30
0.0
 11
45.03157
 21
39.2
 31
0.0
  0
LINE
  8
LC-005-003-----0
  6
CONTINUOUS
  5
D5
 10
45.03157
 20
39.2
 30
0.0
 11
51.13887
 21
38.395959
 31
0.0
  0
LINE
  8
LC-005-003-----0
  6
CONTINUOUS
  5
D6
 10
140.431114
 20
35.545267
 30
0.0
 11
168.19157
 21
39.2
 31
0.0
  0
LINE
  8
LC-005-003-----0
  6
CONTINUOUS
  5
D7
 10
168.19157
 20
39.2
 30
0.0
 11
140.431114
 21
42.854733
 31
0.0
  0
LINE
  8
LC-005-003-----0
  6
CONTINUOUS
  5
D8
 10
140.431114
 20
42.854733
 30
0.0
 11
140.431114
 21
35.545267
 31
0.0
  0
LINE
  8
LC-005-003-----0
  6
CONTINUOUS
  5
D9
 10
140.368832
 20
36.495497
 30
0.0
 11
160.91157
 21
39.2
 31
0.0
  0
LINE
  8
LC-005-003-----0
  6
CONTINUOUS
  5
DA
 10
160.91157
 20
39.2
 30
0.0
 11
140.368832
 21
41.904503
 31
0.0
  0
LINE
  8
LC-005-003-----0
  6
CONTINUOUS
  5
DB
 10
140.306551
 20
37.445728
 30
0.0
 11
153.63157
 21
39.2
 31
0.0
  0
LINE
  8
LC-005-003-----0
  6
CONTINUOUS
  5
DC
 10
153.63157
 20
39.2
 30
0.0
 11
140.306551
 21
40.954272
 31
0.0
  0
LINE
  8
LC-005-003-----0
  6
CONTINUOUS
  5
DD
 10
140.24427
 20
38.395959
 30
0.0
 11
146.35157
 21
39.2
 31
0.0
  0
LINE
  8
LC-005-003-----0
  6
CONTINUOUS
  5
DE
 10
146.35157
 20
39.2
 30
0.0
 11
140.24427
 21
40.004041
 31
0.0
  0
TEXT
  8
LC-005-003-----0
  6
CONTINUOUS
 62
     8
  5
DF
 10
61.76828
 20
47.027554
 30
0.0
 40
28.0
  1
Ø145
 41
0.9
 51
15.0
  7
LC-TXTSTYLE-150-400-0-0-A0
 72
     1
 11
100.03973
 21
47.027554
 31
0.0
  0
ENDBLK
  8
0
  5
E0
  0
BLOCK
  8
0
  5
E2
  2
*D9
 70
    65
 10
0.0
 20
0.0
 30
0.0
  3
*D9
  0
LINE
  8
LC-007-003-MTH-0
  6
CONTINUOUS
  5
E3
 10
36.29157
 20
220.771038
 30
0.0
 11
36.29157
 21
252.0
 31
0.0
  0
LINE
  8
LC-007-003-MTH-0
  6
CONTINUOUS
  5
E4
 10
155.09157
 20
220.771038
 30
0.0
 11
155.09157
 21
252.0
 31
0.0
  0
LINE
  8
LC-008-003-MTG-0
  6
CONTINUOUS
  5
E5
 10
36.29157
 20
235.2
 30
0.0
 11
155.09157
 21
235.2
 31
0.0
  0
LINE
  8
LC-005-003-----0
  6
CONTINUOUS
  5
E6
 10
64.052026
 20
238.854733
 30
0.0
 11
36.29157
 21
235.2
 31
0.0
  0
LINE
  8
LC-005-003-----0
  6
CONTINUOUS
  5
E7
 10
36.29157
 20
235.2
 30
0.0
 11
64.052026
 21
231.545267
 31
0.0
  0
LINE
  8
LC-005-003-----0
  6
CONTINUOUS
  5
E8
 10
64.052026
 20
231.545267
 30
0.0
 11
64.052026
 21
238.854733
 31
0.0
  0
LINE
  8
LC-005-003-----0
  6
CONTINUOUS
  5
E9
 10
64.114307
 20
237.904503
 30
0.0
 11
43.57157
 21
235.2
 31
0.0
  0
LINE
  8
LC-005-003-----0
  6
CONTINUOUS
  5
EA
 10
43.57157
 20
235.2
 30
0.0
 11
64.114307
 21
232.495497
 31
0.0
  0
LINE
  8
LC-005-003-----0
  6
CONTINUOUS
  5
EB
 10
64.176589
 20
236.954272
 30
0.0
 11
50.85157
 21
235.2
 31
0.0
  0
LINE
  8
LC-005-003-----0
  6
CONTINUOUS
  5
EC
 10
50.85157
 20
235.2
 30
0.0
 11
64.176589
 21
233.445728
 31
0.0
  0
LINE
  8
LC-005-003-----0
  6
CONTINUOUS
  5
ED
 10
64.23887
 20
236.004041
 30
0.0
 11
58.13157
 21
235.2
 31
0.0
  0
LINE
  8
LC-005-003-----0
  6
CONTINUOUS
  5
EE
 10
58.13157
 20
235.2
 30
0.0
 11
64.23887
 21
234.395959
 31
0.0
  0
LINE
  8
LC-005-003-----0
  6
CONTINUOUS
  5
EF
 10
127.331114
 20
231.545267
 30
0.0
 11
155.09157
 21
235.2
 31
0.0
  0
LINE
  8
LC-005-003-----0
  6
CONTINUOUS
  5
F0
 10
155.09157
 20
235.2
 30
0.0
 11
127.331114
 21
238.854733
 31
0.0
  0
LINE
  8
LC-005-003-----0
  6
CONTINUOUS
  5
F1
 10
127.331114
 20
238.854733
 30
0.0
 11
127.331114
 21
231.545267
 31
0.0
  0
LINE
  8
LC-005-003-----0
  6
CONTINUOUS
  5
F2
 10
127.268832
 20
232.495497
 30
0.0
 11
147.81157
 21
235.2
 31
0.0
  0
LINE
  8
LC-005-003-----0
  6
CONTINUOUS
  5
F3
 10
147.81157
 20
235.2
 30
0.0
 11
127.268832
 21
237.904503
 31
0.0
  0
LINE
  8
LC-005-003-----0
  6
CONTINUOUS
  5
F4
 10
127.206551
 20
233.445728
 30
0.0
 11
140.53157
 21
235.2
 31
0.0
  0
LINE
  8
LC-005-003-----0
  6
CONTINUOUS
  5
F5
 10
140.53157
 20
235.2
 30
0.0
 11
127.206551
 21
236.954272
 31
0.0
  0
LINE
  8
LC-005-003-----0
  6
CONTINUOUS
  5
F6
 10
127.14427
 20
234.395959
 30
0.0
 11
133.25157
 21
235.2
 31
0.0
  0
LINE
  8
LC-005-003-----0
  6
CONTINUOUS
  5
F7
 10
133.25157
 20
235.2
 30
0.0
 11
127.14427
 21
236.004041
 31
0.0
  0
TEXT
  8
LC-005-003-----0
  6
CONTINUOUS
 62
     8
  5
F8
 10
73.63643
 20
243.027554
 30
0.0
 40
28.0
  1
120
 41
0.9
 51
15.0
  7
LC-TXTSTYLE-150-400-0-0-A0
 72
     1
 11
100.03973
 21
243.027554
 31
0.0
  0
ENDBLK
  8
0
  5
F9
  0
BLOCK
  8
0
  5
FB
  2
*D10
 70
    65
 10
0.0
 20
0.0
 30
0.0
  3
*D10
  0
LINE
  8
LC-007-003-MTH-0
  6
CONTINUOUS
  5
FC
 10
38.19157
 20
217.071038
 30
0.0
 11
-16.8
 21
217.071038
 31
0.0
  0
LINE
  8
LC-007-003-MTH-0
  6
CONTINUOUS
  5
FD
 10
36.99157
 20
223.271038
 30
0.0
 11
-16.8
 21
223.271038
 31
0.0
  0
LINE
  8
LC-005-003-----0
  6
CONTINUOUS
  5
FE
 10
3.654733
 20
189.310582
 30
0.0
 11
0.0
 21
217.071038
 31
0.0
  0
LINE
  8
LC-005-003-----0
  6
CONTINUOUS
  5
FF
 10
0.0
 20
217.071038
 30
0.0
 11
-3.654733
 21
189.310582
 31
0.0
  0
LINE
  8
LC-005-003-----0
  6
CONTINUOUS
  5
100
 10
-3.654733
 20
189.310582
 30
0.0
 11
3.654733
 21
189.310582
 31
0.0
  0
LINE
  8
LC-005-003-----0
  6
CONTINUOUS
  5
101
 10
2.704503
 20
189.2483
 30
0.0
 11
0.0
 21
209.791038
 31
0.0
  0
LINE
  8
LC-005-003-----0
  6
CONTINUOUS
  5
102
 10
0.0
 20
209.791038
 30
0.0
 11
-2.704503
 21
189.2483
 31
0.0
  0
LINE
  8
LC-005-003-----0
  6
CONTINUOUS
  5
103
 10
1.754272
 20
189.186019
 30
0.0
 11
0.0
 21
202.511038
 31
0.0
  0
LINE
  8
LC-005-003-----0
  6
CONTINUOUS
  5
104
 10
0.0
 20
202.511038
 30
0.0
 11
-1.754272
 21
189.186019
 31
0.0
  0
LINE
  8
LC-005-003-----0
  6
CONTINUOUS
  5
105
 10
0.804041
 20
189.123737
 30
0.0
 11
0.0
 21
195.231038
 31
0.0
  0
LINE
  8
LC-005-003-----0
  6
CONTINUOUS
  5
106
 10
0.0
 20
195.231038
 30
0.0
 11
-0.804041
 21
189.123737
 31
0.0
  0
LINE
  8
LC-005-003-----0
  6
CONTINUOUS
  5
107
 10
-3.654733
 20
251.031494
 30
0.0
 11
0.0
 21
223.271038
 31
0.0
  0
LINE
  8
LC-005-003-----0
  6
CONTINUOUS
  5
108
 10
0.0
 20
223.271038
 30
0.0
 11
3.654733
 21
251.031494
 31
0.0
  0
LINE
  8
LC-005-003-----0
  6
CONTINUOUS
  5
109
 10
3.654733
 20
251.031494
 30
0.0
 11
-3.654733
 21
251.031494
 31
0.0
  0
LINE
  8
LC-005-003-----0
  6
CONTINUOUS
  5
10A
 10
-2.704503
 20
251.093775
 30
0.0
 11
0.0
 21
230.551038
 31
0.0
  0
LINE
  8
LC-005-003-----0
  6
CONTINUOUS
  5
10B
 10
0.0
 20
230.551038
 30
0.0
 11
2.704503
 21
251.093775
 31
0.0
  0
LINE
  8
LC-005-003-----0
  6
CONTINUOUS
  5
10C
 10
-1.754272
 20
251.156057
 30
0.0
 11
0.0
 21
237.831038
 31
0.0
  0
LINE
  8
LC-005-003-----0
  6
CONTINUOUS
  5
10D
 10
0.0
 20
237.831038
 30
0.0
 11
1.754272
 21
251.156057
 31
0.0
  0
LINE
  8
LC-005-003-----0
  6
CONTINUOUS
  5
10E
 10
-0.804041
 20
251.218338
 30
0.0
 11
0.0
 21
245.111038
 31
0.0
  0
LINE
  8
LC-005-003-----0
  6
CONTINUOUS
  5
10F
 10
0.0
 20
245.111038
 30
0.0
 11
0.804041
 21
251.218338
 31
0.0
  0
LINE
  8
LC-008-003-MTG-0
  6
CONTINUOUS
  5
110
 10
0.0
 20
124.905538
 30
0.0
 11
0.0
 21
262.471038
 31
0.0
  0
TEXT
  8
LC-005-003-----0
  6
CONTINUOUS
 62
     8
  5
111
 10
-7.827554
 20
139.333698
 30
0.0
 40
28.0
  1
6,2
 50
90.0
 41
0.9
 51
15.0
  7
LC-TXTSTYLE-150-400-0-0-A0
 72
     2
 11
-7.827554
 21
183.339198
 31
0.0
  0
ENDBLK
  8
0
  5
112
  0
BLOCK
  8
0
  5
114
  2
*X11
 70
    65
 10
95.69157
 20
74.566652
 30
0.0
  3
*X11
  0
LINE
  8
LC-006-005-----0
  6
CONTINUOUS
  5
115
 10
165.07632
 20
74.566652
 30
0.0
 11
165.19157
 21
74.681902
 31
0.0
  0
LINE
  8
LC-006-005-----0
  6
CONTINUOUS
  5
116
 10
159.419465
 20
74.566652
 30
0.0
 11
165.19157
 21
80.338756
 31
0.0
  0
LINE
  8
LC-006-005-----0
  6
CONTINUOUS
  5
117
 10
153.762611
 20
74.566652
 30
0.0
 11
165.19157
 21
85.99561
 31
0.0
  0
LINE
  8
LC-006-005-----0
  6
CONTINUOUS
  5
118
 10
148.105757
 20
74.566652
 30
0.0
 11
165.19157
 21
91.652465
 31
0.0
  0
LINE
  8
LC-006-005-----0
  6
CONTINUOUS
  5
119
 10
142.448903
 20
74.566652
 30
0.0
 11
165.19157
 21
97.309319
 31
0.0
  0
LINE
  8
LC-006-005-----0
  6
CONTINUOUS
  5
11A
 10
136.792048
 20
74.566652
 30
0.0
 11
159.792048
 21
97.566652
 31
0.0
  0
LINE
  8
LC-006-005-----0
  6
CONTINUOUS
  5
11B
 10
131.135194
 20
74.566652
 30
0.0
 11
154.135194
 21
97.566652
 31
0.0
  0
LINE
  8
LC-006-005-----0
  6
CONTINUOUS
  5
11C
 10
125.47834
 20
74.566652
 30
0.0
 11
148.47834
 21
97.566652
 31
0.0
  0
LINE
  8
LC-006-005-----0
  6
CONTINUOUS
  5
11D
 10
119.821486
 20
74.566652
 30
0.0
 11
142.821486
 21
97.566652
 31
0.0
  0
LINE
  8
LC-006-005-----0
  6
CONTINUOUS
  5
11E
 10
114.164631
 20
74.566652
 30
0.0
 11
137.164631
 21
97.566652
 31
0.0
  0
LINE
  8
LC-006-005-----0
  6
CONTINUOUS
  5
11F
 10
108.507777
 20
74.566652
 30
0.0
 11
131.507777
 21
97.566652
 31
0.0
  0
LINE
  8
LC-006-005-----0
  6
CONTINUOUS
  5
120
 10
102.850923
 20
74.566652
 30
0.0
 11
125.850923
 21
97.566652
 31
0.0
  0
LINE
  8
LC-006-005-----0
  6
CONTINUOUS
  5
121
 10
97.194069
 20
74.566652
 30
0.0
 11
120.194069
 21
97.566652
 31
0.0
  0
LINE
  8
LC-006-005-----0
  6
CONTINUOUS
  5
122
 10
95.69157
 20
78.721007
 30
0.0
 11
114.537214
 21
97.566652
 31
0.0
  0
LINE
  8
LC-006-005-----0
  6
CONTINUOUS
  5
123
 10
95.69157
 20
84.377861
 30
0.0
 11
108.88036
 21
97.566652
 31
0.0
  0
LINE
  8
LC-006-005-----0
  6
CONTINUOUS
  5
124
 10
95.69157
 20
90.034716
 30
0.0
 11
103.223506
 21
97.566652
 31
0.0
  0
LINE
  8
LC-006-005-----0
  6
CONTINUOUS
  5
125
 10
95.69157
 20
95.69157
 30
0.0
 11
97.566652
 21
97.566652
 31
0.0
  0
LINE
  8
LC-006-005-----0
  6
CONTINUOUS
  5
126
 10
165.19157
 20
95.023726
 30
0.0
 11
162.648644
 21
97.566652
 31
0.0
  0
LINE
  8
LC-006-005-----0
  6
CONTINUOUS
  5
127
 10
165.19157
 20
89.366871
 30
0.0
 11
156.991789
 21
97.566652
 31
0.0
  0
LINE
  8
LC-006-005-----0
  6
CONTINUOUS
  5
128
 10
165.19157
 20
83.710017
 30
0.0
 11
151.334935
 21
97.566652
 31
0.0
  0
LINE
  8
LC-006-005-----0
  6
CONTINUOUS
  5
129
 10
165.19157
 20
78.053163
 30
0.0
 11
145.678081
 21
97.566652
 31
0.0
  0
LINE
  8
LC-006-005-----0
  6
CONTINUOUS
  5
12A
 10
163.021227
 20
74.566652
 30
0.0
 11
140.021227
 21
97.566652
 31
0.0
  0
LINE
  8
LC-006-005-----0
  6
CONTINUOUS
  5
12B
 10
157.364372
 20
74.566652
 30
0.0
 11
134.364372
 21
97.566652
 31
0.0
  0
LINE
  8
LC-006-005-----0
  6
CONTINUOUS
  5
12C
 10
151.707518
 20
74.566652
 30
0.0
 11
128.707518
 21
97.566652
 31
0.0
  0
LINE
  8
LC-006-005-----0
  6
CONTINUOUS
  5
12D
 10
146.050664
 20
74.566652
 30
0.0
 11
123.050664
 21
97.566652
 31
0.0
  0
LINE
  8
LC-006-005-----0
  6
CONTINUOUS
  5
12E
 10
140.39381
 20
74.566652
 30
0.0
 11
117.39381
 21
97.566652
 31
0.0
  0
LINE
  8
LC-006-005-----0
  6
CONTINUOUS
  5
12F
 10
134.736955
 20
74.566652
 30
0.0
 11
111.736955
 21
97.566652
 31
0.0
  0
LINE
  8
LC-006-005-----0
  6
CONTINUOUS
  5
130
 10
129.080101
 20
74.566652
 30
0.0
 11
106.080101
 21
97.566652
 31
0.0
  0
LINE
  8
LC-006-005-----0
  6
CONTINUOUS
  5
131
 10
123.423247
 20
74.566652
 30
0.0
 11
100.423247
 21
97.566652
 31
0.0
  0
LINE
  8
LC-006-005-----0
  6
CONTINUOUS
  5
132
 10
117.766393
 20
74.566652
 30
0.0
 11
95.69157
 21
96.641475
 31
0.0
  0
LINE
  8
LC-006-005-----0
  6
CONTINUOUS
  5
133
 10
112.109538
 20
74.566652
 30
0.0
 11
95.69157
 21
90.98462
 31
0.0
  0
LINE
  8
LC-006-005-----0
  6
CONTINUOUS
  5
134
 10
106.452684
 20
74.566652
 30
0.0
 11
95.69157
 21
85.327766
 31
0.0
  0
LINE
  8
LC-006-005-----0
  6
CONTINUOUS
  5
135
 10
100.79583
 20
74.566652
 30
0.0
 11
95.69157
 21
79.670912
 31
0.0
  0
ENDBLK
  8
0
  5
136
  0
BLOCK
  8
0
  5
138
  2
*X12
 70
    65
 10
26.19157
 20
74.566652
 30
0.0
  3
*X12
  0
LINE
  8
LC-006-005-----0
  6
CONTINUOUS
  5
139
 10
91.537214
 20
74.566652
 30
0.0
 11
95.69157
 21
78.721007
 31
0.0
  0
LINE
  8
LC-006-005-----0
  6
CONTINUOUS
  5
13A
 10
85.88036
 20
74.566652
 30
0.0
 11
95.69157
 21
84.377861
 31
0.0
  0
LINE
  8
LC-006-005-----0
  6
CONTINUOUS
  5
13B
 10
80.223506
 20
74.566652
 30
0.0
 11
95.69157
 21
90.034716
 31
0.0
  0
LINE
  8
LC-006-005-----0
  6
CONTINUOUS
  5
13C
 10
74.566652
 20
74.566652
 30
0.0
 11
95.69157
 21
95.69157
 31
0.0
  0
LINE
  8
LC-006-005-----0
  6
CONTINUOUS
  5
13D
 10
68.909797
 20
74.566652
 30
0.0
 11
91.909797
 21
97.566652
 31
0.0
  0
LINE
  8
LC-006-005-----0
  6
CONTINUOUS
  5
13E
 10
63.252943
 20
74.566652
 30
0.0
 11
86.252943
 21
97.566652
 31
0.0
  0
LINE
  8
LC-006-005-----0
  6
CONTINUOUS
  5
13F
 10
57.596089
 20
74.566652
 30
0.0
 11
80.596089
 21
97.566652
 31
0.0
  0
LINE
  8
LC-006-005-----0
  6
CONTINUOUS
  5
140
 10
51.939235
 20
74.566652
 30
0.0
 11
74.939235
 21
97.566652
 31
0.0
  0
LINE
  8
LC-006-005-----0
  6
CONTINUOUS
  5
141
 10
46.28238
 20
74.566652
 30
0.0
 11
69.28238
 21
97.566652
 31
0.0
  0
LINE
  8
LC-006-005-----0
  6
CONTINUOUS
  5
142
 10
40.625526
 20
74.566652
 30
0.0
 11
63.625526
 21
97.566652
 31
0.0
  0
LINE
  8
LC-006-005-----0
  6
CONTINUOUS
  5
143
 10
34.968672
 20
74.566652
 30
0.0
 11
57.968672
 21
97.566652
 31
0.0
  0
LINE
  8
LC-006-005-----0
  6
CONTINUOUS
  5
144
 10
29.311818
 20
74.566652
 30
0.0
 11
52.311818
 21
97.566652
 31
0.0
  0
LINE
  8
LC-006-005-----0
  6
CONTINUOUS
  5
145
 10
26.19157
 20
77.103258
 30
0.0
 11
46.654963
 21
97.566652
 31
0.0
  0
LINE
  8
LC-006-005-----0
  6
CONTINUOUS
  5
146
 10
26.19157
 20
82.760112
 30
0.0
 11
40.998109
 21
97.566652
 31
0.0
  0
LINE
  8
LC-006-005-----0
  6
CONTINUOUS
  5
147
 10
26.19157
 20
88.416967
 30
0.0
 11
35.341255
 21
97.566652
 31
0.0
  0
LINE
  8
LC-006-005-----0
  6
CONTINUOUS
  5
148
 10
26.19157
 20
94.073821
 30
0.0
 11
29.684401
 21
97.566652
 31
0.0
  0
LINE
  8
LC-006-005-----0
  6
CONTINUOUS
  5
149
 10
95.69157
 20
96.641475
 30
0.0
 11
94.766393
 21
97.566652
 31
0.0
  0
LINE
  8
LC-006-005-----0
  6
CONTINUOUS
  5
14A
 10
95.69157
 20
90.98462
 30
0.0
 11
89.109538
 21
97.566652
 31
0.0
  0
LINE
  8
LC-006-005-----0
  6
CONTINUOUS
  5
14B
 10
95.69157
 20
85.327766
 30
0.0
 11
83.452684
 21
97.566652
 31
0.0
  0
LINE
  8
LC-006-005-----0
  6
CONTINUOUS
  5
14C
 10
95.69157
 20
79.670912
 30
0.0
 11
77.79583
 21
97.566652
 31
0.0
  0
LINE
  8
LC-006-005-----0
  6
CONTINUOUS
  5
14D
 10
95.138976
 20
74.566652
 30
0.0
 11
72.138976
 21
97.566652
 31
0.0
  0
LINE
  8
LC-006-005-----0
  6
CONTINUOUS
  5
14E
 10
89.482121
 20
74.566652
 30
0.0
 11
66.482121
 21
97.566652
 31
0.0
  0
LINE
  8
LC-006-005-----0
  6
CONTINUOUS
  5
14F
 10
83.825267
 20
74.566652
 30
0.0
 11
60.825267
 21
97.566652
 31
0.0
  0
LINE
  8
LC-006-005-----0
  6
CONTINUOUS
  5
150
 10
78.168413
 20
74.566652
 30
0.0
 11
55.168413
 21
97.566652
 31
0.0
  0
LINE
  8
LC-006-005-----0
  6
CONTINUOUS
  5
151
 10
72.511559
 20
74.566652
 30
0.0
 11
49.511559
 21
97.566652
 31
0.0
  0
LINE
  8
LC-006-005-----0
  6
CONTINUOUS
  5
152
 10
66.854705
 20
74.566652
 30
0.0
 11
43.854705
 21
97.566652
 31
0.0
  0
LINE
  8
LC-006-005-----0
  6
CONTINUOUS
  5
153
 10
61.19785
 20
74.566652
 30
0.0
 11
38.19785
 21
97.566652
 31
0.0
  0
LINE
  8
LC-006-005-----0
  6
CONTINUOUS
  5
154
 10
55.540996
 20
74.566652
 30
0.0
 11
32.540996
 21
97.566652
 31
0.0
  0
LINE
  8
LC-006-005-----0
  6
CONTINUOUS
  5
155
 10
49.884142
 20
74.566652
 30
0.0
 11
26.884142
 21
97.566652
 31
0.0
  0
LINE
  8
LC-006-005-----0
  6
CONTINUOUS
  5
156
 10
44.227288
 20
74.566652
 30
0.0
 11
26.19157
 21
92.602369
 31
0.0
  0
LINE
  8
LC-006-005-----0
  6
CONTINUOUS
  5
157
 10
38.570433
 20
74.566652
 30
0.0
 11
26.19157
 21
86.945515
 31
0.0
  0
LINE
  8
LC-006-005-----0
  6
CONTINUOUS
  5
158
 10
32.913579
 20
74.566652
 30
0.0
 11
26.19157
 21
81.288661
 31
0.0
  0
LINE
  8
LC-006-005-----0
  6
CONTINUOUS
  5
159
 10
27.256725
 20
74.566652
 30
0.0
 11
26.19157
 21
75.631807
 31
0.0
  0
ENDBLK
  8
0
  5
15A
  0
BLOCK
  8
0
  5
15C
  2
*D13
 70
    65
 10
0.0
 20
0.0
 30
0.0
  3
*D13
  0
LINE
  8
LC-007-003-MTH-0
  6
CONTINUOUS
  5
15D
 10
165.19157
 20
74.566652
 30
0.0
 11
212.8
 21
74.566652
 31
0.0
  0
LINE
  8
LC-007-003-MTH-0
  6
CONTINUOUS
  5
15E
 10
165.19157
 20
97.566652
 30
0.0
 11
212.8
 21
97.566652
 31
0.0
  0
LINE
  8
LC-005-003-----0
  6
CONTINUOUS
  5
15F
 10
199.654733
 20
46.806196
 30
0.0
 11
196.0
 21
74.566652
 31
0.0
  0
LINE
  8
LC-005-003-----0
  6
CONTINUOUS
  5
160
 10
196.0
 20
74.566652
 30
0.0
 11
192.345267
 21
46.806196
 31
0.0
  0
LINE
  8
LC-005-003-----0
  6
CONTINUOUS
  5
161
 10
192.345267
 20
46.806196
 30
0.0
 11
199.654733
 21
46.806196
 31
0.0
  0
LINE
  8
LC-005-003-----0
  6
CONTINUOUS
  5
162
 10
198.704503
 20
46.743914
 30
0.0
 11
196.0
 21
67.286652
 31
0.0
  0
LINE
  8
LC-005-003-----0
  6
CONTINUOUS
  5
163
 10
196.0
 20
67.286652
 30
0.0
 11
193.295497
 21
46.743914
 31
0.0
  0
LINE
  8
LC-005-003-----0
  6
CONTINUOUS
  5
164
 10
197.754272
 20
46.681633
 30
0.0
 11
196.0
 21
60.006652
 31
0.0
  0
LINE
  8
LC-005-003-----0
  6
CONTINUOUS
  5
165
 10
196.0
 20
60.006652
 30
0.0
 11
194.245728
 21
46.681633
 31
0.0
  0
LINE
  8
LC-005-003-----0
  6
CONTINUOUS
  5
166
 10
196.804041
 20
46.619351
 30
0.0
 11
196.0
 21
52.726652
 31
0.0
  0
LINE
  8
LC-005-003-----0
  6
CONTINUOUS
  5
167
 10
196.0
 20
52.726652
 30
0.0
 11
195.195959
 21
46.619351
 31
0.0
  0
LINE
  8
LC-005-003-----0
  6
CONTINUOUS
  5
168
 10
192.345267
 20
125.327108
 30
0.0
 11
196.0
 21
97.566652
 31
0.0
  0
LINE
  8
LC-005-003-----0
  6
CONTINUOUS
  5
169
 10
196.0
 20
97.566652
 30
0.0
 11
199.654733
 21
125.327108
 31
0.0
  0
LINE
  8
LC-005-003-----0
  6
CONTINUOUS
  5
16A
 10
199.654733
 20
125.327108
 30
0.0
 11
192.345267
 21
125.327108
 31
0.0
  0
LINE
  8
LC-005-003-----0
  6
CONTINUOUS
  5
16B
 10
193.295497
 20
125.389389
 30
0.0
 11
196.0
 21
104.846652
 31
0.0
  0
LINE
  8
LC-005-003-----0
  6
CONTINUOUS
  5
16C
 10
196.0
 20
104.846652
 30
0.0
 11
198.704503
 21
125.389389
 31
0.0
  0
LINE
  8
LC-005-003-----0
  6
CONTINUOUS
  5
16D
 10
194.245728
 20
125.451671
 30
0.0
 11
196.0
 21
112.126652
 31
0.0
  0
LINE
  8
LC-005-003-----0
  6
CONTINUOUS
  5
16E
 10
196.0
 20
112.126652
 30
0.0
 11
197.754272
 21
125.451671
 31
0.0
  0
LINE
  8
LC-005-003-----0
  6
CONTINUOUS
  5
16F
 10
195.195959
 20
125.513952
 30
0.0
 11
196.0
 21
119.406652
 31
0.0
  0
LINE
  8
LC-005-003-----0
  6
CONTINUOUS
  5
170
 10
196.0
 20
119.406652
 30
0.0
 11
196.804041
 21
125.513952
 31
0.0
  0
LINE
  8
LC-008-003-MTG-0
  6
CONTINUOUS
  5
171
 10
196.0
 20
35.366652
 30
0.0
 11
196.0
 21
180.931052
 31
0.0
  0
TEXT
  8
LC-005-003-----0
  6
CONTINUOUS
 62
     8
  5
172
 10
193.772446
 20
139.994812
 30
0.0
 40
28.0
  1
23
 50
90.0
 41
0.9
 51
15.0
  7
LC-TXTSTYLE-150-400-0-0-A0
  0
ENDBLK
  8
0
  5
173
  0
BLOCK
  8
0
  5
175
  2
*D14
 70
    65
 10
0.0
 20
0.0
 30
0.0
  3
*D14
  0
LINE
  8
LC-007-003-MTH-0
  6
CONTINUOUS
  5
176
 10
165.19157
 20
97.566652
 30
0.0
 11
252.0
 21
97.566652
 31
0.0
  0
LINE
  8
LC-007-003-MTH-0
  6
CONTINUOUS
  5
177
 10
153.69157
 20
222.571038
 30
0.0
 11
252.0
 21
222.571038
 31
0.0
  0
LINE
  8
LC-008-003-MTG-0
  6
CONTINUOUS
  5
178
 10
235.2
 20
97.566652
 30
0.0
 11
235.2
 21
222.571038
 31
0.0
  0
LINE
  8
LC-005-003-----0
  6
CONTINUOUS
  5
179
 10
231.545267
 20
125.327108
 30
0.0
 11
235.2
 21
97.566652
 31
0.0
  0
LINE
  8
LC-005-003-----0
  6
CONTINUOUS
  5
17A
 10
235.2
 20
97.566652
 30
0.0
 11
238.854733
 21
125.327108
 31
0.0
  0
LINE
  8
LC-005-003-----0
  6
CONTINUOUS
  5
17B
 10
238.854733
 20
125.327108
 30
0.0
 11
231.545267
 21
125.327108
 31
0.0
  0
LINE
  8
LC-005-003-----0
  6
CONTINUOUS
  5
17C
 10
232.495497
 20
125.389389
 30
0.0
 11
235.2
 21
104.846652
 31
0.0
  0
LINE
  8
LC-005-003-----0
  6
CONTINUOUS
  5
17D
 10
235.2
 20
104.846652
 30
0.0
 11
237.904503
 21
125.389389
 31
0.0
  0
LINE
  8
LC-005-003-----0
  6
CONTINUOUS
  5
17E
 10
233.445728
 20
125.451671
 30
0.0
 11
235.2
 21
112.126652
 31
0.0
  0
LINE
  8
LC-005-003-----0
  6
CONTINUOUS
  5
17F
 10
235.2
 20
112.126652
 30
0.0
 11
236.954272
 21
125.451671
 31
0.0
  0
LINE
  8
LC-005-003-----0
  6
CONTINUOUS
  5
180
 10
234.395959
 20
125.513952
 30
0.0
 11
235.2
 21
119.406652
 31
0.0
  0
LINE
  8
LC-005-003-----0
  6
CONTINUOUS
  5
181
 10
235.2
 20
119.406652
 30
0.0
 11
236.004041
 21
125.513952
 31
0.0
  0
LINE
  8
LC-005-003-----0
  6
CONTINUOUS
  5
182
 10
238.854733
 20
194.810582
 30
0.0
 11
235.2
 21
222.571038
 31
0.0
  0
LINE
  8
LC-005-003-----0
  6
CONTINUOUS
  5
183
 10
235.2
 20
222.571038
 30
0.0
 11
231.545267
 21
194.810582
 31
0.0
  0
LINE
  8
LC-005-003-----0
  6
CONTINUOUS
  5
184
 10
231.545267
 20
194.810582
 30
0.0
 11
238.854733
 21
194.810582
 31
0.0
  0
LINE
  8
LC-005-003-----0
  6
CONTINUOUS
  5
185
 10
237.904503
 20
194.7483
 30
0.0
 11
235.2
 21
215.291038
 31
0.0
  0
LINE
  8
LC-005-003-----0
  6
CONTINUOUS
  5
186
 10
235.2
 20
215.291038
 30
0.0
 11
232.495497
 21
194.7483
 31
0.0
  0
LINE
  8
LC-005-003-----0
  6
CONTINUOUS
  5
187
 10
236.954272
 20
194.686019
 30
0.0
 11
235.2
 21
208.011038
 31
0.0
  0
LINE
  8
LC-005-003-----0
  6
CONTINUOUS
  5
188
 10
235.2
 20
208.011038
 30
0.0
 11
233.445728
 21
194.686019
 31
0.0
  0
LINE
  8
LC-005-003-----0
  6
CONTINUOUS
  5
189
 10
236.004041
 20
194.623737
 30
0.0
 11
235.2
 21
200.731038
 31
0.0
  0
LINE
  8
LC-005-003-----0
  6
CONTINUOUS
  5
18A
 10
235.2
 20
200.731038
 30
0.0
 11
234.395959
 21
194.623737
 31
0.0
  0
TEXT
  8
LC-005-003-----0
  6
CONTINUOUS
 62
     8
  5
18B
 10
227.372446
 20
115.14418
 30
0.0
 40
28.0
  1
12-125
 50
90.0
 41
0.9
 51
15.0
  7
LC-TXTSTYLE-150-400-0-0-A0
 72
     1
 11
227.372446
 21
164.417005
 31
0.0
  0
ENDBLK
  8
0
  5
18C
  0
ENDSEC
  0
SECTION
  2
ENTITIES
  0
VIEWPORT
  8
LC-000
  5
23D
 67
     1
 68
     1
 10
420.0
 20
297.0
 30
0.0
 40
840.0
 41
594.0
 69
     1
1001
ACAD
1000
MVIEW
1002
{
1070
    16
1010
0.0
1020
0.0
1030
0.0
1010
0.0
1020
0.0
1030
1.0
1040
0.0
1040
594.0
1040
420.0
1040
297.0
1040
50.0
1040
0.0
1040
0.0
1070
     0
1070
   100
1070
     1
1070
     1
1070
     0
1070
     0
1070
     0
1070
     0
1040
0.0
1040
0.0
1040
0.0
1040
1.0
1040
1.0
1040
0.0
1040
0.0
1070
     0
1002
{
1002
}
1002
}
  0
VIEWPORT
  8
0
  5
23E
 67
     1
 68
     1
 10
0.0
 20
0.0
 30
0.0
 40
0.0
 41
0.0
 69
     1
1001
ACAD
1000
MVIEW
1002
{
1070
    16
1010
0.0
1020
0.0
1030
0.0
1010
0.0
1020
0.0
1030
1.0
1040
0.0
1040
594.0
1040
0.0
1040
0.0
1040
50.0
1040
0.0
1040
0.0
1070
     0
1070
   100
1070
     0
1070
     1
1070
     0
1070
     0
1070
     0
1070
     0
1040
0.0
1040
0.0
1040
0.0
1040
0.5
1040
0.5
1040
0.5
1040
0.5
1070
     0
1002
{
1002
}
1002
}
  0
INSERT
  8
LC-003-000-----0
  5
18E
  2
BLK1
 10
0.0
 20
0.0
 30
0.0
  0
INSERT
  8
LC-003-000-----0
  5
18F
  2
BLK2
 10
0.0
 20
0.0
 30
0.0
  0
INSERT
  8
LC-006-005-----0
  6
CONTINUOUS
  5
190
  2
*X2
 10
137.841291
 20
203.797972
 30
0.0
  0
INSERT
  8
LC-006-005-----0
  6
CONTINUOUS
  5
191
  2
*X3
 10
36.29157
 20
203.797972
 30
0.0
  0
INSERT
  8
LC-003-000-----0
  5
192
  2
BLK3
 10
0.0
 20
0.0
 30
0.0
  0
INSERT
  8
LC-006-005-----0
  6
CONTINUOUS
  5
193
  2
*X5
 10
138.69157
 20
74.566652
 30
0.0
  0
INSERT
  8
LC-006-005-----0
  6
CONTINUOUS
  5
194
  2
*X6
 10
23.19157
 20
74.566652
 30
0.0
  0
INSERT
  8
LC-003-000-----0
  5
195
  2
BLK4
 10
0.0
 20
0.0
 30
0.0
  0
DIMENSION
  8
LC-005-003-----0
  6
CONTINUOUS
  5
196
  2
*D8
 10
95.69157
 20
39.2
 30
0.0
 11
95.69157
 21
39.2
 31
0.0
  1
%%c<>
 13
23.19157
 23
79.066652
 33
0.0
 14
168.19157
 24
79.066652
 34
0.0
  3
LC-DIM-L-0140-02-02
  0
DIMENSION
  8
LC-005-003-----0
  6
CONTINUOUS
  5
197
  2
*D9
 10
95.69157
 20
235.2
 30
0.0
 11
95.69157
 21
235.2
 31
0.0
  1
120
 13
36.29157
 23
220.771038
 33
0.0
 14
155.09157
 24
220.771038
 34
0.0
  3
LC-DIM-L-0140-02-02
  0
DIMENSION
  8
LC-005-003-----0
  6
CONTINUOUS
  5
198
  2
*D10
 10
0.0
 20
194.238
 30
0.0
 11
0.0
 21
194.238
 31
0.0
 13
36.99157
 23
223.271038
 33
0.0
 14
38.19157
 24
217.071038
 34
0.0
 50
90.0
  3
LC-DIM-L-0140-02-02
  0
INSERT
  8
LC-006-005-----0
  6
CONTINUOUS
  5
199
  2
*X11
 10
95.69157
 20
74.566652
 30
0.0
  0
INSERT
  8
LC-006-005-----0
  6
CONTINUOUS
  5
19A
  2
*X12
 10
26.19157
 20
74.566652
 30
0.0
  0
DIMENSION
  8
LC-005-003-----0
  6
CONTINUOUS
  5
19B
  2
*D13
 10
196.0
 20
105.138
 30
0.0
 11
196.0
 21
105.138
 31
0.0
 13
165.19157
 23
74.566652
 33
0.0
 14
165.19157
 24
97.566652
 34
0.0
 50
90.0
  3
LC-DIM-L-0140-02-02
  0
DIMENSION
  8
LC-005-003-----0
  6
CONTINUOUS
  5
19C
  2
*D14
 10
235.2
 20
160.068845
 30
0.0
 11
235.2
 21
160.068845
 31
0.0
  1
12-125
 13
165.19157
 23
97.566652
 33
0.0
 14
153.69157
 24
222.571038
 34
0.0
 50
90.0
  3
LC-DIM-L-0140-02-02
  0
LINE
  8
LC-001-002-----0
  6
CONTINUOUS
  5
19E
 10
95.69157
 20
74.566652
 30
0.0
 11
166.985799
 21
74.566652
 31
0.0
  0
ARC
  8
LC-002-002-RND-0
  6
CONTINUOUS
  5
1A0
 10
158.19157
 20
196.566652
 30
0.0
 40
10.0
 50
0.0
 51
90.0
  0
LINE
  8
LC-001-002-----0
  6
CONTINUOUS
  5
1A1
 10
168.19157
 20
196.566652
 30
0.0
 11
168.19157
 21
79.066652
 31
0.0
  0
LINE
  8
LC-001-002-----0
  6
CONTINUOUS
  5
1A2
 10
139.69157
 20
203.566652
 30
0.0
 11
165.19157
 21
190.566652
 31
0.0
  0
LINE
  8
LC-001-002-----0
  6
CONTINUOUS
  5
1A3
 10
139.69157
 20
211.066652
 30
0.0
 11
138.69157
 21
211.066652
 31
0.0
  0
LINE
  8
LC-001-002-----0
  6
CONTINUOUS
  5
1A4
 10
138.69157
 20
211.066652
 30
0.0
 11
138.69157
 21
208.566652
 31
0.0
  0
LINE
  8
LC-001-002-----0
  6
CONTINUOUS
  5
1A5
 10
138.69157
 20
208.566652
 30
0.0
 11
139.69157
 21
208.566652
 31
0.0
  0
LINE
  8
LC-001-002-----0
  6
CONTINUOUS
  5
1A6
 10
125.696261
 20
203.566652
 30
0.0
 11
143.763384
 21
190.566652
 31
0.0
  0
LINE
  8
LC-001-002-----0
  6
CONTINUOUS
  5
1A7
 10
143.763384
 20
190.566652
 30
0.0
 11
145.884704
 21
190.566652
 31
0.0
  0
LINE
  8
LC-001-002-----0
  6
CONTINUOUS
  5
1A8
 10
145.884704
 20
190.566652
 30
0.0
 11
127.846844
 21
203.566652
 31
0.0
  0
LINE
  8
LC-001-002-----0
  6
CONTINUOUS
  5
1A9
 10
139.69157
 20
213.066652
 30
0.0
 11
139.69157
 21
211.066652
 31
0.0
  0
LINE
  8
LC-001-002-----0
  6
CONTINUOUS
  5
1AA
 10
145.884704
 20
190.566652
 30
0.0
 11
145.884704
 21
196.566652
 31
0.0
  0
LINE
  8
LC-001-002-----0
  6
CONTINUOUS
  5
1AB
 10
139.69157
 20
208.566652
 30
0.0
 11
139.69157
 21
203.566652
 31
0.0
  0
ARC
  8
LC-002-002-RND-0
  6
CONTINUOUS
  5
1AC
 10
138.884704
 20
196.566652
 30
0.0
 40
7.0
 50
0.0
 51
43.593564
  0
LINE
  8
LC-001-002-----0
  6
CONTINUOUS
  5
1AD
 10
142.69157
 20
206.566652
 30
0.0
 11
158.19157
 21
206.566652
 31
0.0
  0
LINE
  8
LC-001-002-----0
  6
CONTINUOUS
  5
1AE
 10
168.19157
 20
79.066652
 30
0.0
 11
166.985799
 21
74.566652
 31
0.0
  0
LINE
  8
LC-001-002-----0
  6
CONTINUOUS
  5
1AF
 10
142.69157
 20
213.066652
 30
0.0
 11
142.69157
 21
206.566652
 31
0.0
  0
LINE
  8
LC-001-002-----0
  6
CONTINUOUS
  5
1B0
 10
154.39157
 20
223.271038
 30
0.0
 11
95.69157
 21
223.271038
 31
0.0
  0
LINE
  8
LC-001-002-----0
  6
CONTINUOUS
  5
1B1
 10
153.19157
 20
217.071038
 30
0.0
 11
142.79157
 21
217.071038
 31
0.0
  0
ARC
  8
LC-002-002-RND-0
  6
CONTINUOUS
  5
1B2
 10
153.19157
 20
218.271038
 30
0.0
 40
1.2
 50
270.0
 51
0.0
  0
LINE
  8
LC-001-002-----0
  6
CONTINUOUS
  5
1B3
 10
153.19157
 20
217.771038
 30
0.0
 11
142.79157
 21
217.771038
 31
0.0
  0
ARC
  8
LC-002-002-RND-0
  6
CONTINUOUS
  5
1B4
 10
153.19157
 20
218.271038
 30
0.0
 40
0.5
 50
270.0
 51
0.0
  0
LINE
  8
LC-001-002-----0
  6
CONTINUOUS
  5
1B5
 10
38.19157
 20
217.071038
 30
0.0
 11
48.59157
 21
217.071038
 31
0.0
  0
ARC
  8
LC-002-002-RND-0
  6
CONTINUOUS
  5
1B6
 10
38.19157
 20
218.271038
 30
0.0
 40
1.2
 50
180.0
 51
270.0
  0
ARC
  8
LC-002-002-RND-0
  6
CONTINUOUS
  5
1B7
 10
38.19157
 20
218.271038
 30
0.0
 40
0.5
 50
180.0
 51
270.0
  0
ARC
  8
LC-001-002-----0
  6
CONTINUOUS
  5
1B8
 10
36.99157
 20
222.571038
 30
0.0
 40
0.7
 50
360.0
 51
180.0
  0
ARC
  8
LC-002-002-RND-0
  6
CONTINUOUS
  5
1B9
 10
50.09157
 20
214.266652
 30
0.0
 40
0.5
 50
180.0
 51
270.0
  0
LINE
  8
LC-001-002-----0
  6
CONTINUOUS
  5
1BA
 10
36.99157
 20
220.771038
 30
0.0
 11
36.29157
 21
220.771038
 31
0.0
  0
LINE
  8
LC-001-002-----0
  6
CONTINUOUS
  5
1BB
 10
36.99157
 20
218.271038
 30
0.0
 11
36.99157
 21
222.571038
 31
0.0
  0
LINE
  8
LC-001-002-----0
  6
CONTINUOUS
  5
1BC
 10
37.69157
 20
218.271038
 30
0.0
 11
37.69157
 21
222.571038
 31
0.0
  0
LINE
  8
LC-001-002-----0
  6
CONTINUOUS
  5
1BD
 10
36.29157
 20
220.771038
 30
0.0
 11
36.29157
 21
222.571038
 31
0.0
  0
ARC
  8
LC-002-002-RND-0
  6
CONTINUOUS
  5
1BE
 10
50.09157
 20
214.266652
 30
0.0
 40
1.2
 50
180.0
 51
270.0
  0
LINE
  8
LC-001-002-----0
  6
CONTINUOUS
  5
1BF
 10
51.99157
 20
213.066652
 30
0.0
 11
50.09157
 21
213.066652
 31
0.0
  0
LINE
  8
LC-001-002-----0
  6
CONTINUOUS
  5
1C0
 10
49.59157
 20
216.771038
 30
0.0
 11
49.59157
 21
214.266652
 31
0.0
  0
ARC
  8
LC-001-002-----0
  6
CONTINUOUS
  5
1C1
 10
154.39157
 20
222.571038
 30
0.0
 40
0.7
 50
0.0
 51
180.0
  0
LINE
  8
LC-001-002-----0
  6
CONTINUOUS
  5
1C2
 10
48.89157
 20
216.771038
 30
0.0
 11
48.89157
 21
214.266652
 31
0.0
  0
ARC
  8
LC-002-002-RND-0
  6
CONTINUOUS
  5
1C3
 10
141.29157
 20
214.266652
 30
0.0
 40
0.5
 50
270.0
 51
0.0
  0
LINE
  8
LC-001-002-----0
  6
CONTINUOUS
  5
1C4
 10
154.39157
 20
220.771038
 30
0.0
 11
155.09157
 21
220.771038
 31
0.0
  0
LINE
  8
LC-001-002-----0
  6
CONTINUOUS
  5
1C5
 10
154.39157
 20
218.271038
 30
0.0
 11
154.39157
 21
222.571038
 31
0.0
  0
LINE
  8
LC-001-002-----0
  6
CONTINUOUS
  5
1C6
 10
143.99157
 20
217.771038
 30
0.0
 11
95.69157
 21
217.771038
 31
0.0
  0
LINE
  8
LC-001-002-----0
  6
CONTINUOUS
  5
1C7
 10
36.99157
 20
223.271038
 30
0.0
 11
95.69157
 21
223.271038
 31
0.0
  0
LINE
  8
LC-001-002-----0
  6
CONTINUOUS
  5
1C8
 10
38.19157
 20
217.771038
 30
0.0
 11
48.59157
 21
217.771038
 31
0.0
  0
LINE
  8
LC-001-002-----0
  6
CONTINUOUS
  5
1C9
 10
95.69157
 20
213.766652
 30
0.0
 11
51.99157
 21
213.766652
 31
0.0
  0
LINE
  8
LC-001-002-----0
  6
CONTINUOUS
  5
1CA
 10
153.69157
 20
218.271038
 30
0.0
 11
153.69157
 21
222.571038
 31
0.0
  0
LINE
  8
LC-001-002-----0
  6
CONTINUOUS
  5
1CB
 10
48.59157
 20
217.771038
 30
0.0
 11
95.69157
 21
217.771038
 31
0.0
  0
LINE
  8
LC-001-002-----0
  6
CONTINUOUS
  5
1CC
 10
51.99157
 20
213.766652
 30
0.0
 11
50.09157
 21
213.766652
 31
0.0
  0
LINE
  8
LC-001-002-----0
  6
CONTINUOUS
  5
1CD
 10
139.39157
 20
213.766652
 30
0.0
 11
141.29157
 21
213.766652
 31
0.0
  0
LINE
  8
LC-001-002-----0
  6
CONTINUOUS
  5
1CE
 10
155.09157
 20
220.771038
 30
0.0
 11
155.09157
 21
222.571038
 31
0.0
  0
ARC
  8
LC-002-002-RND-0
  6
CONTINUOUS
  5
1CF
 10
141.29157
 20
214.266652
 30
0.0
 40
1.2
 50
270.0
 51
0.0
  0
LINE
  8
LC-001-002-----0
  6
CONTINUOUS
  5
1D0
 10
139.39157
 20
213.066652
 30
0.0
 11
141.29157
 21
213.066652
 31
0.0
  0
LINE
  8
LC-001-002-----0
  6
CONTINUOUS
  5
1D1
 10
95.69157
 20
213.766652
 30
0.0
 11
139.39157
 21
213.766652
 31
0.0
  0
LINE
  8
LC-001-002-----0
  6
CONTINUOUS
  5
1D2
 10
141.79157
 20
216.771038
 30
0.0
 11
141.79157
 21
214.266652
 31
0.0
  0
LINE
  8
LC-001-002-----0
  6
CONTINUOUS
  5
1D3
 10
142.49157
 20
216.771038
 30
0.0
 11
142.49157
 21
214.266652
 31
0.0
  0
LINE
  8
LC-001-002-----0
  6
CONTINUOUS
  5
1D4
 10
150.19157
 20
217.771038
 30
0.0
 11
150.19157
 21
217.771038
 31
0.0
  0
LINE
  8
LC-001-002-----0
  6
CONTINUOUS
  5
1D5
 10
136.19157
 20
217.771038
 30
0.0
 11
136.19157
 21
217.771038
 31
0.0
  0
LINE
  8
LC-001-002-----0
  6
CONTINUOUS
  5
1D6
 10
136.19157
 20
217.771038
 30
0.0
 11
136.19157
 21
217.771038
 31
0.0
  0
LINE
  8
LC-001-002-----0
  6
CONTINUOUS
  5
1D7
 10
150.19157
 20
217.771038
 30
0.0
 11
150.19157
 21
217.771038
 31
0.0
  0
ARC
  8
LC-002-002-RND-0
  6
CONTINUOUS
  5
1D8
 10
136.69157
 20
217.771038
 30
0.0
 40
0.5
 50
90.0
 51
180.0
  0
LINE
  8
LC-001-002-----0
  6
CONTINUOUS
  5
1D9
 10
149.69157
 20
218.271038
 30
0.0
 11
136.69157
 21
218.271038
 31
0.0
  0
ARC
  8
LC-002-002-RND-0
  6
CONTINUOUS
  5
1DA
 10
149.69157
 20
217.771038
 30
0.0
 40
0.5
 50
0.0
 51
90.0
  0
LINE
  8
LC-001-002-----0
  6
CONTINUOUS
  5
1DB
 10
49.59157
 20
216.761054
 30
0.0
 11
49.59157
 21
214.266652
 31
0.0
  0
LINE
  8
LC-001-002-----0
  6
CONTINUOUS
  5
1DC
 10
41.19157
 20
217.771038
 30
0.0
 11
41.19157
 21
217.771038
 31
0.0
  0
LINE
  8
LC-001-002-----0
  6
CONTINUOUS
  5
1DD
 10
55.19157
 20
217.771038
 30
0.0
 11
55.19157
 21
217.771038
 31
0.0
  0
LINE
  8
LC-001-002-----0
  6
CONTINUOUS
  5
1DE
 10
41.19157
 20
217.771038
 30
0.0
 11
41.19157
 21
217.771038
 31
0.0
  0
ARC
  8
LC-002-002-RND-0
  6
CONTINUOUS
  5
1DF
 10
54.69157
 20
217.771038
 30
0.0
 40
0.5
 50
0.0
 51
90.0
  0
LINE
  8
LC-001-002-----0
  6
CONTINUOUS
  5
1E0
 10
41.69157
 20
218.271038
 30
0.0
 11
54.69157
 21
218.271038
 31
0.0
  0
ARC
  8
LC-002-002-RND-0
  6
CONTINUOUS
  5
1E1
 10
41.69157
 20
217.771038
 30
0.0
 40
0.5
 50
90.0
 51
180.0
  0
LINE
  8
LC-004-001-----0
  6
CONTINUOUS
  5
1E3
 10
51.99157
 20
213.766652
 30
0.0
 11
95.69157
 21
213.766652
 31
0.0
  0
LINE
  8
LC-001-002-----0
  6
CONTINUOUS
  5
1E4
 10
53.541848
 20
204.157342
 30
0.0
 11
95.69157
 21
204.157342
 31
0.0
  0
LINE
  8
LC-001-002-----0
  6
CONTINUOUS
  5
1E5
 10
52.927724
 20
203.797972
 30
0.0
 11
95.69157
 21
203.797972
 31
0.0
  0
LINE
  8
LC-004-001-----0
  6
CONTINUOUS
  5
1E6
 10
52.49157
 20
212.566652
 30
0.0
 11
52.49157
 21
208.066652
 31
0.0
  0
LINE
  8
LC-004-001-----0
  6
CONTINUOUS
  5
1E7
 10
53.19157
 20
212.566652
 30
0.0
 11
53.19157
 21
207.366652
 31
0.0
  0
ARC
  8
LC-001-002-----0
  6
CONTINUOUS
  5
1E8
 10
52.51657
 20
207.266652
 30
0.0
 40
0.8
 50
90.0
 51
200.0
  0
LINE
  8
LC-001-002-----0
  6
CONTINUOUS
  5
1E9
 10
95.69157
 20
207.366652
 30
0.0
 11
52.373755
 21
207.366652
 31
0.0
  0
ARC
  8
LC-004-001-----0
  6
CONTINUOUS
  5
1EA
 10
51.99157
 20
212.566652
 30
0.0
 40
0.5
 50
0.0
 51
90.0
  0
ARC
  8
LC-004-001-----0
  6
CONTINUOUS
  5
1EB
 10
51.99157
 20
212.566652
 30
0.0
 40
1.2
 50
0.0
 51
90.0
  0
LINE
  8
LC-004-001-----0
  6
CONTINUOUS
  5
1EC
 10
139.39157
 20
213.766652
 30
0.0
 11
95.69157
 21
213.766652
 31
0.0
  0
LINE
  8
LC-001-002-----0
  6
CONTINUOUS
  5
1ED
 10
137.841291
 20
204.157342
 30
0.0
 11
95.69157
 21
204.157342
 31
0.0
  0
LINE
  8
LC-001-002-----0
  6
CONTINUOUS
  5
1EE
 10
138.455416
 20
203.797972
 30
0.0
 11
95.69157
 21
203.797972
 31
0.0
  0
LINE
  8
LC-004-001-----0
  6
CONTINUOUS
  5
1EF
 10
138.89157
 20
212.566652
 30
0.0
 11
138.89157
 21
208.066652
 31
0.0
  0
LINE
  8
LC-004-001-----0
  6
CONTINUOUS
  5
1F0
 10
138.19157
 20
212.566652
 30
0.0
 11
138.19157
 21
207.366652
 31
0.0
  0
ARC
  8
LC-001-002-----0
  6
CONTINUOUS
  5
1F1
 10
138.86657
 20
207.266652
 30
0.0
 40
0.8
 50
340.0
 51
88.209215
  0
LINE
  8
LC-001-002-----0
  6
CONTINUOUS
  5
1F2
 10
95.69157
 20
207.366652
 30
0.0
 11
139.009385
 21
207.366652
 31
0.0
  0
ARC
  8
LC-004-001-----0
  6
CONTINUOUS
  5
1F3
 10
139.39157
 20
212.566652
 30
0.0
 40
0.5
 50
90.0
 51
180.0
  0
ARC
  8
LC-004-001-----0
  6
CONTINUOUS
  5
1F4
 10
139.39157
 20
212.566652
 30
0.0
 40
1.2
 50
90.0
 51
180.0
  0
LINE
  8
LC-001-002-----0
  6
CONTINUOUS
  5
1F5
 10
52.927724
 20
203.797972
 30
0.0
 11
53.541848
 21
204.157342
 31
0.0
  0
LINE
  8
LC-001-002-----0
  6
CONTINUOUS
  5
1F6
 10
51.764816
 20
206.993036
 30
0.0
 11
52.927724
 21
203.797972
 31
0.0
  0
LINE
  8
LC-001-002-----0
  6
CONTINUOUS
  5
1F7
 10
52.373755
 20
207.366652
 30
0.0
 11
53.541848
 21
204.157342
 31
0.0
  0
LINE
  8
LC-001-002-----0
  6
CONTINUOUS
  5
1F8
 10
138.455416
 20
203.797972
 30
0.0
 11
137.841291
 21
204.157342
 31
0.0
  0
LINE
  8
LC-001-002-----0
  6
CONTINUOUS
  5
1F9
 10
139.618324
 20
206.993036
 30
0.0
 11
138.455416
 21
203.797972
 31
0.0
  0
LINE
  8
LC-001-002-----0
  6
CONTINUOUS
  5
1FA
 10
139.009385
 20
207.366652
 30
0.0
 11
137.841291
 21
204.157342
 31
0.0
  0
ARC
  8
LC-002-002-RND-0
  6
CONTINUOUS
  5
1FB
 10
383.79157
 20
87.816652
 30
0.0
 40
2.0
 50
270.0
 51
0.0
  0
ARC
  8
LC-002-002-RND-0
  6
CONTINUOUS
  5
1FC
 10
271.79157
 20
87.816652
 30
0.0
 40
2.0
 50
180.0
 51
270.0
  0
CIRCLE
  8
LC-001-002-----0
  6
CONTINUOUS
  5
1FD
 10
327.79157
 20
143.816652
 30
0.0
 40
42.149721
  0
CIRCLE
  8
LC-005-003-----0
  6
CONTINUOUS
  5
1FE
 10
327.79157
 20
143.816652
 30
0.0
 40
43.7
  0
CIRCLE
  8
LC-001-002-----0
  6
CONTINUOUS
  5
1FF
 10
280.29157
 20
96.316652
 30
0.0
 40
7.0
  0
LINE
  8
LC-001-002-----0
  6
CONTINUOUS
  5
200
 10
268.39157
 20
87.816652
 30
0.0
 11
268.39157
 21
199.816652
 31
0.0
  0
LINE
  8
LC-001-002-----0
  6
CONTINUOUS
  5
201
 10
269.79157
 20
87.816652
 30
0.0
 11
269.79157
 21
199.816652
 31
0.0
  0
LINE
  8
LC-001-002-----0
  6
CONTINUOUS
  5
202
 10
383.79157
 20
85.816652
 30
0.0
 11
271.79157
 21
85.816652
 31
0.0
  0
LINE
  8
LC-001-002-----0
  6
CONTINUOUS
  5
203
 10
385.79157
 20
199.816652
 30
0.0
 11
385.79157
 21
87.816652
 31
0.0
  0
LINE
  8
LC-001-002-----0
  6
CONTINUOUS
  5
204
 10
271.79157
 20
201.816652
 30
0.0
 11
383.79157
 21
201.816652
 31
0.0
  0
LINE
  8
LC-001-002-----0
  6
CONTINUOUS
  5
205
 10
383.79157
 20
84.416652
 30
0.0
 11
271.79157
 21
84.416652
 31
0.0
  0
LINE
  8
LC-001-002-----0
  6
CONTINUOUS
  5
206
 10
387.19157
 20
199.816652
 30
0.0
 11
387.19157
 21
87.816652
 31
0.0
  0
LINE
  8
LC-001-002-----0
  6
CONTINUOUS
  5
207
 10
271.79157
 20
203.216652
 30
0.0
 11
383.79157
 21
203.216652
 31
0.0
  0
ARC
  8
LC-002-002-RND-0
  6
CONTINUOUS
  5
208
 10
271.79157
 20
199.816652
 30
0.0
 40
2.0
 50
90.0
 51
180.0
  0
ARC
  8
LC-002-002-RND-0
  6
CONTINUOUS
  5
209
 10
383.79157
 20
199.816652
 30
0.0
 40
2.0
 50
0.0
 51
90.0
  0
ARC
  8
LC-002-002-RND-0
  6
CONTINUOUS
  5
20A
 10
271.79157
 20
87.816652
 30
0.0
 40
3.4
 50
180.0
 51
270.0
  0
ARC
  8
LC-002-002-RND-0
  6
CONTINUOUS
  5
20B
 10
271.79157
 20
199.816652
 30
0.0
 40
3.4
 50
90.0
 51
180.0
  0
ARC
  8
LC-002-002-RND-0
  6
CONTINUOUS
  5
20C
 10
383.79157
 20
199.816652
 30
0.0
 40
3.4
 50
0.0
 51
90.0
  0
ARC
  8
LC-002-002-RND-0
  6
CONTINUOUS
  5
20D
 10
383.79157
 20
87.816652
 30
0.0
 40
3.4
 50
270.0
 51
0.0
  0
CIRCLE
  8
LC-001-002-----0
  6
CONTINUOUS
  5
20E
 10
280.29157
 20
191.316652
 30
0.0
 40
7.0
  0
CIRCLE
  8
LC-001-002-----0
  6
CONTINUOUS
  5
20F
 10
375.29157
 20
96.316652
 30
0.0
 40
7.0
  0
CIRCLE
  8
LC-001-002-----0
  6
CONTINUOUS
  5
210
 10
375.29157
 20
191.316652
 30
0.0
 40
7.0
  0
CIRCLE
  8
LC-001-002-----0
  6
CONTINUOUS
  5
211
 10
280.29157
 20
96.316652
 30
0.0
 40
2.5
  0
ARC
  8
LC-005-003-----0
  6
CONTINUOUS
  5
212
 10
280.29157
 20
96.316652
 30
0.0
 40
3.0
 50
270.0
 51
180.0
  0
CIRCLE
  8
LC-001-002-----0
  6
CONTINUOUS
  5
213
 10
375.29157
 20
191.316652
 30
0.0
 40
2.5
  0
ARC
  8
LC-005-003-----0
  6
CONTINUOUS
  5
214
 10
375.29157
 20
191.316652
 30
0.0
 40
3.0
 50
270.0
 51
180.0
  0
CIRCLE
  8
LC-005-003-----0
  6
CONTINUOUS
  5
215
 10
327.79157
 20
143.816652
 30
0.0
 40
47.1
  0
CIRCLE
  8
LC-001-002-----0
  6
CONTINUOUS
  5
216
 10
327.79157
 20
143.816652
 30
0.0
 40
46.1
  0
ARC
  8
LC-002-002-RND-0
  6
CONTINUOUS
  5
217
 10
142.79157
 20
216.771038
 30
0.0
 40
1.0
 50
90.0
 51
180.0
  0
ARC
  8
LC-002-002-RND-0
  6
CONTINUOUS
  5
218
 10
142.79157
 20
216.771038
 30
0.0
 40
0.3
 50
90.0
 51
180.0
  0
ARC
  8
LC-002-002-RND-0
  6
CONTINUOUS
  5
219
 10
48.59157
 20
216.771038
 30
0.0
 40
0.3
 50
360.0
 51
90.0
  0
ARC
  8
LC-002-002-RND-0
  6
CONTINUOUS
  5
21A
 10
48.59157
 20
216.771038
 30
0.0
 40
1.0
 50
0.0
 51
90.0
  0
CIRCLE
  8
LC-001-002-----0
  6
CONTINUOUS
  5
21B
 10
327.79157
 20
143.816652
 30
0.0
 40
42.5
  0
LINE
  8
LC-001-002-----0
  6
CONTINUOUS
  5
21C
 10
142.69157
 20
213.066652
 30
0.0
 11
139.69157
 21
213.066652
 31
0.0
  0
LINE
  8
LC-001-002-----0
  6
CONTINUOUS
  5
21D
 10
139.69157
 20
203.566652
 30
0.0
 11
158.19157
 21
203.566652
 31
0.0
  0
ARC
  8
LC-002-002-RND-0
  6
CONTINUOUS
  5
21E
 10
158.19157
 20
196.566652
 30
0.0
 40
7.0
 50
0.0
 51
90.0
  0
LINE
  8
LC-001-002-----0
  6
CONTINUOUS
  5
21F
 10
165.19157
 20
196.566652
 30
0.0
 11
165.19157
 21
74.566652
 31
0.0
  0
LINE
  8
LC-001-002-----0
  6
CONTINUOUS
  5
220
 10
95.69157
 20
74.566652
 30
0.0
 11
24.397341
 21
74.566652
 31
0.0
  0
ARC
  8
LC-002-002-RND-0
  6
CONTINUOUS
  5
221
 10
33.19157
 20
196.566652
 30
0.0
 40
10.0
 50
90.0
 51
180.0
  0
LINE
  8
LC-001-002-----0
  6
CONTINUOUS
  5
222
 10
23.19157
 20
196.566652
 30
0.0
 11
23.19157
 21
79.066652
 31
0.0
  0
LINE
  8
LC-001-002-----0
  6
CONTINUOUS
  5
223
 10
51.69157
 20
203.566652
 30
0.0
 11
26.19157
 21
190.566652
 31
0.0
  0
LINE
  8
LC-001-002-----0
  6
CONTINUOUS
  5
224
 10
51.69157
 20
211.066652
 30
0.0
 11
52.69157
 21
211.066652
 31
0.0
  0
LINE
  8
LC-001-002-----0
  6
CONTINUOUS
  5
225
 10
52.69157
 20
211.066652
 30
0.0
 11
52.69157
 21
208.566652
 31
0.0
  0
LINE
  8
LC-001-002-----0
  6
CONTINUOUS
  5
226
 10
52.69157
 20
208.566652
 30
0.0
 11
51.69157
 21
208.566652
 31
0.0
  0
LINE
  8
LC-001-002-----0
  6
CONTINUOUS
  5
227
 10
65.686878
 20
203.566652
 30
0.0
 11
47.619756
 21
190.566652
 31
0.0
  0
LINE
  8
LC-001-002-----0
  6
CONTINUOUS
  5
228
 10
47.619756
 20
190.566652
 30
0.0
 11
45.498436
 21
190.566652
 31
0.0
  0
LINE
  8
LC-001-002-----0
  6
CONTINUOUS
  5
229
 10
45.498436
 20
190.566652
 30
0.0
 11
63.536296
 21
203.566652
 31
0.0
  0
LINE
  8
LC-001-002-----0
  6
CONTINUOUS
  5
22A
 10
51.69157
 20
213.066652
 30
0.0
 11
51.69157
 21
211.066652
 31
0.0
  0
LINE
  8
LC-001-002-----0
  6
CONTINUOUS
  5
22B
 10
45.498436
 20
190.566652
 30
0.0
 11
45.498436
 21
196.566652
 31
0.0
  0
LINE
  8
LC-001-002-----0
  6
CONTINUOUS
  5
22C
 10
51.69157
 20
208.566652
 30
0.0
 11
51.69157
 21
203.566652
 31
0.0
  0
ARC
  8
LC-002-002-RND-0
  6
CONTINUOUS
  5
22D
 10
52.498436
 20
196.566652
 30
0.0
 40
7.0
 50
136.406436
 51
180.0
  0
LINE
  8
LC-001-002-----0
  6
CONTINUOUS
  5
22E
 10
48.69157
 20
206.566652
 30
0.0
 11
33.19157
 21
206.566652
 31
0.0
  0
LINE
  8
LC-001-002-----0
  6
CONTINUOUS
  5
22F
 10
23.19157
 20
79.066652
 30
0.0
 11
24.397341
 21
74.566652
 31
0.0
  0
LINE
  8
LC-001-002-----0
  6
CONTINUOUS
  5
230
 10
48.69157
 20
213.066652
 30
0.0
 11
48.69157
 21
206.566652
 31
0.0
  0
LINE
  8
LC-001-002-----0
  6
CONTINUOUS
  5
231
 10
48.69157
 20
213.066652
 30
0.0
 11
51.69157
 21
213.066652
 31
0.0
  0
LINE
  8
LC-001-002-----0
  6
CONTINUOUS
  5
232
 10
139.69157
 20
203.566652
 30
0.0
 11
33.19157
 21
203.566652
 31
0.0
  0
ARC
  8
LC-002-002-RND-0
  6
CONTINUOUS
  5
233
 10
33.19157
 20
196.566652
 30
0.0
 40
7.0
 50
90.0
 51
180.0
  0
LINE
  8
LC-001-002-----0
  6
CONTINUOUS
  5
234
 10
26.19157
 20
196.566652
 30
0.0
 11
26.19157
 21
74.566652
 31
0.0
  0
LINE
  8
LC-001-002-----0
  6
DASHDOT
 62
     2
  5
236
 10
95.69157
 20
223.271038
 30
0.0
 11
95.69157
 21
74.566652
 31
0.0
  0
LINE
  8
LC-001-002-----0
  6
CONTINUOUS
 62
     2
  5
237
 10
165.19157
 20
97.566652
 30
0.0
 11
26.19157
 21
97.566652
 31
0.0
  0
LINE
  8
LC-001-002-----0
  6
CONTINUOUS
 62
     2
  5
238
 10
52.675998
 20
246.51
 30
0.0
 11
52.675998
 21
261.51
 31
0.0
  0
LINE
  8
LC-001-002-----0
  6
CONTINUOUS
 62
     2
  5
239
 10
52.675998
 20
261.51
 30
0.0
 11
67.675998
 21
261.51
 31
0.0
  0
LINE
  8
LC-001-002-----0
  6
CONTINUOUS
 62
     2
  5
23A
 10
67.675998
 20
261.51
 30
0.0
 11
67.675998
 21
246.51
 31
0.0
  0
LINE
  8
LC-001-002-----0
  6
CONTINUOUS
 62
     2
  5
23B
 10
67.675998
 20
246.51
 30
0.0
 11
52.675998
 21
246.51
 31
0.0
  0
ENDSEC
  0
EOF
