  0
SECTION
  2
HEADER
  9
$ACADVER
  1
AC1009
  9
$INSBASE
 10
0.0
 20
0.0
 30
0.0
  9
$EXTMIN
 10
-143.364436
 20
-178.758
 30
0.0
  9
$EXTMAX
 10
696.635564
 20
415.242
 30
0.0
  9
$LIMMIN
 10
-143.364436
 20
-178.758
  9
$LIMMAX
 10
696.635564
 20
415.242
  9
$ORTHOMODE
 70
     0
  9
$REGENMODE
 70
     1
  9
$FILLMODE
 70
     1
  9
$QTEXTMODE
 70
     0
  9
$MIRRTEXT
 70
     1
  9
$DRAGMODE
 70
     2
  9
$LTSCALE
 40
2.0
  9
$OSMODE
 70
     0
  9
$ATTMODE
 70
     1
  9
$TEXTSIZE
 40
0.2
  9
$TRACEWID
 40
0.05
  9
$TEXTSTYLE
  7
STANDARD
  9
$CLAYER
  8
0
  9
$CELTYPE
  6
BYLAYER
  9
$CECOLOR
 62
     7
  9
$DIMSCALE
 40
2.0
  9
$DIMASZ
 40
3.5
  9
$DIMEXO
 40
0.0625
  9
$DIMDLI
 40
0.38
  9
$DIMRND
 40
0.0
  9
$DIMDLE
 40
0.0
  9
$DIMEXE
 40
0.18
  9
$DIMTP
 40
0.0
  9
$DIMTM
 40
0.0
  9
$DIMTXT
 40
3.5
  9
$DIMCEN
 40
0.09
  9
$DIMTSZ
 40
0.0
  9
$DIMTOL
 70
     0
  9
$DIMLIM
 70
     0
  9
$DIMTIH
 70
     1
  9
$DIMTOH
 70
     1
  9
$DIMSE1
 70
     0
  9
$DIMSE2
 70
     0
  9
$DIMTAD
 70
     1
  9
$DIMZIN
 70
     0
  9
$DIMBLK
  1

  9
$DIMASO
 70
     1
  9
$DIMSHO
 70
     1
  9
$DIMPOST
  1

  9
$DIMAPOST
  1

  9
$DIMALT
 70
     0
  9
$DIMALTD
 70
     2
  9
$DIMALTF
 40
25.4
  9
$DIMLFAC
 40
1.0
  9
$DIMTOFL
 70
     0
  9
$DIMTVP
 40
0.0
  9
$DIMTIX
 70
     0
  9
$DIMSOXD
 70
     0
  9
$DIMSAH
 70
     0
  9
$DIMBLK1
  1

  9
$DIMBLK2
  1

  9
$DIMSTYLE
  2
STANDARD
  9
$DIMCLRD
 70
     0
  9
$DIMCLRE
 70
     0
  9
$DIMCLRT
 70
     0
  9
$DIMTFAC
 40
1.0
  9
$DIMGAP
 40
0.09
  9
$LUNITS
 70
     2
  9
$LUPREC
 70
     2
  9
$AXISMODE
 70
     0
  9
$AXISUNIT
 10
0.0
 20
0.0
  9
$SKETCHINC
 40
0.1
  9
$FILLETRAD
 40
0.0
  9
$AUNITS
 70
     0
  9
$AUPREC
 70
     0
  9
$MENU
  1
acad
  9
$ELEVATION
 40
0.0
  9
$PELEVATION
 40
0.0
  9
$THICKNESS
 40
0.0
  9
$LIMCHECK
 70
     0
  9
$BLIPMODE
 70
     1
  9
$CHAMFERA
 40
0.0
  9
$CHAMFERB
 40
0.0
  9
$SKPOLY
 70
     0
  9
$TDCREATE
 40
0.000000000
  9
$TDUPDATE
 40
0.000000000
  9
$TDINDWG
 40
0.0000000000
  9
$TDUSRTIMER
 40
0.0000000000
  9
$USRTIMER
 70
     1
  9
$ANGBASE
 50
0.0
  9
$ANGDIR
 70
     0
  9
$PDMODE
 70
     0
  9
$PDSIZE
 40
0.0
  9
$PLINEWID
 40
0.0
  9
$COORDS
 70
     0
  9
$SPLFRAME
 70
     0
  9
$SPLINETYPE
 70
     6
  9
$SPLINESEGS
 70
     8
  9
$ATTDIA
 70
     0
  9
$ATTREQ
 70
     1
  9
$HANDLING
 70
     1
  9
$HANDSEED
  5
2F8
  9
$SURFTAB1
 70
     6
  9
$SURFTAB2
 70
     6
  9
$SURFTYPE
 70
     6
  9
$SURFU
 70
     6
  9
$SURFV
 70
     6
  9
$UCSNAME
  2

  9
$UCSORG
 10
0.0
 20
0.0
 30
0.0
  9
$UCSXDIR
 10
1.0
 20
0.0
 30
0.0
  9
$UCSYDIR
 10
0.0
 20
1.0
 30
0.0
  9
$PUCSNAME
  2

  9
$PUCSORG
 10
0.0
 20
0.0
 30
0.0
  9
$PUCSXDIR
 10
1.0
 20
0.0
 30
0.0
  9
$PUCSYDIR
 10
0.0
 20
1.0
 30
0.0
  9
$USERI1
 70
     0
  9
$USERI2
 70
     0
  9
$USERI3
 70
     0
  9
$USERI4
 70
     0
  9
$USERI5
 70
     0
  9
$USERR1
 40
0.0
  9
$USERR2
 40
0.0
  9
$USERR3
 40
0.0
  9
$USERR4
 40
0.0
  9
$USERR5
 40
0.0
  9
$WORLDVIEW
 70
     1
  9
$SHADEDGE
 70
     3
  9
$SHADEDIF
 70
    70
  9
$TILEMODE
 70
     1
  9
$MAXACTVP
 70
    16
  9
$PINSBASE
 10
0.0
 20
0.0
 30
0.0
  9
$PLIMCHECK
 70
     0
  9
$PEXTMIN
 10
1.000000E+20
 20
1.000000E+20
 30
1.000000E+20
  9
$PEXTMAX
 10
-1.000000E+20
 20
-1.000000E+20
 30
-1.000000E+20
  9
$PLIMMIN
 10
-143.364436
 20
-178.758
  9
$PLIMMAX
 10
696.635564
 20
415.242
  9
$UNITMODE
 70
     0
  9
$VISRETAIN
 70
     0
  9
$PLINEGEN
 70
     1
  9
$PSLTSCALE
 70
     0
  9
$TREEDEPTH
 70
  3020
  9
$DWGCODEPAGE
  3
dos850
  0
ENDSEC
  0
SECTION
  2
TABLES
  0
TABLE
  2
VPORT
 70
     1
  0
VPORT
  2
*ACTIVE
 70
     0
 10
0.0
 20
0.0
 11
1.0
 21
1.0
 12
420.0
 22
297.0
 13
0.0
 23
0.0
 14
1.0
 24
1.0
 15
0.0
 25
0.0
 16
0.0
 26
0.0
 36
1.0
 17
-143.364436
 27
-178.758
 37
0.0
 40
594.0
 41
1.604229
 42
50.0
 43
0.0
 44
0.0
 50
0.0
 51
0.0
 71
     0
 72
   100
 73
     1
 74
     1
 75
     0
 76
     0
 77
     0
 78
     0
  0
ENDTAB
  0
TABLE
  2
LTYPE
 70
     2
  0
LTYPE
  2
CONTINUOUS
 70
    64
  3
Solid line
 72
    65
 73
     0
 40
0.0
  0
LTYPE
  2
DASHDOT
 70
    64
  3
__ . __ . __ . __ . __
 72
    65
 73
     4
 40
7.5
 49
5.0
 49
-1.25
 49
0.0
 49
-1.25
  0
ENDTAB
  0
TABLE
  2
LAYER
 70
    10
  0
LAYER
  2
0
 70
     0
 62
     7
  6
CONTINUOUS
  0
LAYER
  2
LC-INFO-1-2-MM-A3-0
 70
     1
 62
    -1
  6
CONTINUOUS
  0
LAYER
  2
LC-004-003-MTH-0
 70
     0
 62
     2
  6
CONTINUOUS
  0
LAYER
  2
LC-005-003-MTG-0
 70
     0
 62
     2
  6
CONTINUOUS
  0
LAYER
  2
LC-003-003-----0
 70
     0
 62
     2
  6
CONTINUOUS
  0
LAYER
  2
LC-006-005-----0
 70
     0
 62
     2
  6
CONTINUOUS
  0
LAYER
  2
LC-007-000-----0
 70
     0
 62
     7
  6
CONTINUOUS
  0
LAYER
  2
LC-001-002-----0
 70
     0
 62
     1
  6
CONTINUOUS
  0
LAYER
  2
LC-002-002-RND-0
 70
     0
 62
     1
  6
CONTINUOUS
  0
LAYER
  2
LC-000
 70
     0
 62
     7
  6
CONTINUOUS
  0
ENDTAB
  0
TABLE
  2
STYLE
 70
     4
  0
STYLE
  2
STANDARD
 70
     0
 40
0.0
 41
1.0
 50
0.0
 71
     0
 42
0.0
  3
txt
  4

  0
STYLE
  2
LC-STANDARD
 70
    64
 40
0.0
 41
1.0
 50
0.0
 71
     0
 42
3.5
  3
MONOTXT
  4

  0
STYLE
  2
LC-TXTSTYLE-150-400-0-0-A2
 70
    64
 40
0.0
 41
1.0
 50
15.0
 71
     0
 42
3.5
  3
MONOTXT
  4

  0
STYLE
  2
LC-TXTSTYLE-150-400-0-0-D3
 70
    64
 40
0.0
 41
1.0
 50
15.0
 71
     0
 42
3.5
  3
LC-STANDARD
  4

  0
ENDTAB
  0
TABLE
  2
VIEW
 70
     0
  0
ENDTAB
  0
TABLE
  2
UCS
 70
     0
  0
ENDTAB
  0
TABLE
  2
APPID
 70
     1
  0
APPID
  2
ACAD
 70
     0
  0
ENDTAB
  0
TABLE
  2
DIMSTYLE
 70
     3
  0
DIMSTYLE
  2
STANDARD
 70
     0
  3

  4

  5

  6

  7

 40
1.0
 41
0.18
 42
0.0625
 43
0.38
 44
0.18
 45
0.0
 46
0.0
 47
0.0
 48
0.0
 71
     0
 72
     0
 73
     1
 74
     1
 75
     0
 76
     0
 77
     0
 78
     0
140
0.18
141
0.09
142
0.0
143
25.4
144
1.0
145
0.0
146
1.0
147
0.09
170
     0
171
     2
172
     0
173
     0
174
     0
175
     0
176
     0
177
     0
178
     0
  0
DIMSTYLE
  2
LC-STANDARD
 70
     0
  3

  4

  5

  6

  7

 40
1.0
 41
3.5
 42
0.0
 43
7.5
 44
1.8
 45
0.0
 46
0.0
 47
0.0
 48
0.0
 71
     0
 72
     0
 73
     0
 74
     0
 75
     0
 76
     0
 77
     1
 78
     8
140
3.5
141
0.0
142
0.0
143
25.4
144
1.0
145
0.0
146
0.71
147
1.5
170
     0
171
     2
172
     1
173
     0
174
     0
175
     0
176
     0
177
     0
178
     3
  0
DIMSTYLE
  2
LC-DIM-L-0140-02-02
 70
     0
  3

  4

  5

  6

  7

 40
2.0
 41
3.5
 42
0.0
 43
7.5
 44
1.8
 45
0.0
 46
0.0
 47
0.0
 48
0.0
 71
     0
 72
     0
 73
     0
 74
     0
 75
     0
 76
     0
 77
     1
 78
     8
140
14.0
141
0.0
142
0.0
143
25.4
144
1.0
145
0.0
146
0.71
147
1.5
170
     0
171
     2
172
     0
173
     0
174
     0
175
     0
176
     2
177
     2
178
     8
  0
ENDTAB
  0
ENDSEC
  0
SECTION
  2
BLOCKS
  0
BLOCK
  8
0
  5
23
  2
*D0
 70
    65
 10
0.0
 20
0.0
 30
0.0
  3
*D0
  0
LINE
  8
LC-004-003-MTH-0
  6
CONTINUOUS
  5
25
 10
90.288104
 20
164.046962
 30
0.0
 11
90.288104
 21
212.8
 31
0.0
  0
LINE
  8
LC-004-003-MTH-0
  6
CONTINUOUS
  5
26
 10
190.288104
 20
164.046962
 30
0.0
 11
190.288104
 21
212.8
 31
0.0
  0
LINE
  8
LC-005-003-MTG-0
  6
CONTINUOUS
  5
28
 10
90.288104
 20
196.0
 30
0.0
 11
190.288104
 21
196.0
 31
0.0
  0
LINE
  8
LC-003-003-----0
  6
CONTINUOUS
  5
2A
 10
118.04856
 20
199.654733
 30
0.0
 11
90.288104
 21
196.0
 31
0.0
  0
LINE
  8
LC-003-003-----0
  6
CONTINUOUS
  5
2B
 10
90.288104
 20
196.0
 30
0.0
 11
118.04856
 21
192.345267
 31
0.0
  0
LINE
  8
LC-003-003-----0
  6
CONTINUOUS
  5
2C
 10
118.04856
 20
192.345267
 30
0.0
 11
118.04856
 21
199.654733
 31
0.0
  0
LINE
  8
LC-003-003-----0
  6
CONTINUOUS
  5
2D
 10
118.110841
 20
198.704503
 30
0.0
 11
97.568104
 21
196.0
 31
0.0
  0
LINE
  8
LC-003-003-----0
  6
CONTINUOUS
  5
2E
 10
97.568104
 20
196.0
 30
0.0
 11
118.110841
 21
193.295497
 31
0.0
  0
LINE
  8
LC-003-003-----0
  6
CONTINUOUS
  5
2F
 10
118.173122
 20
197.754272
 30
0.0
 11
104.848104
 21
196.0
 31
0.0
  0
LINE
  8
LC-003-003-----0
  6
CONTINUOUS
  5
30
 10
104.848104
 20
196.0
 30
0.0
 11
118.173122
 21
194.245728
 31
0.0
  0
LINE
  8
LC-003-003-----0
  6
CONTINUOUS
  5
31
 10
118.235404
 20
196.804041
 30
0.0
 11
112.128104
 21
196.0
 31
0.0
  0
LINE
  8
LC-003-003-----0
  6
CONTINUOUS
  5
32
 10
112.128104
 20
196.0
 30
0.0
 11
118.235404
 21
195.195959
 31
0.0
  0
LINE
  8
LC-003-003-----0
  6
CONTINUOUS
  5
33
 10
162.527647
 20
192.345267
 30
0.0
 11
190.288104
 21
196.0
 31
0.0
  0
LINE
  8
LC-003-003-----0
  6
CONTINUOUS
  5
34
 10
190.288104
 20
196.0
 30
0.0
 11
162.527647
 21
199.654733
 31
0.0
  0
LINE
  8
LC-003-003-----0
  6
CONTINUOUS
  5
35
 10
162.527647
 20
199.654733
 30
0.0
 11
162.527647
 21
192.345267
 31
0.0
  0
LINE
  8
LC-003-003-----0
  6
CONTINUOUS
  5
36
 10
162.465366
 20
193.295497
 30
0.0
 11
183.008104
 21
196.0
 31
0.0
  0
LINE
  8
LC-003-003-----0
  6
CONTINUOUS
  5
37
 10
183.008104
 20
196.0
 30
0.0
 11
162.465366
 21
198.704503
 31
0.0
  0
LINE
  8
LC-003-003-----0
  6
CONTINUOUS
  5
38
 10
162.403085
 20
194.245728
 30
0.0
 11
175.728104
 21
196.0
 31
0.0
  0
LINE
  8
LC-003-003-----0
  6
CONTINUOUS
  5
39
 10
175.728104
 20
196.0
 30
0.0
 11
162.403085
 21
197.754272
 31
0.0
  0
LINE
  8
LC-003-003-----0
  6
CONTINUOUS
  5
3A
 10
162.340803
 20
195.195959
 30
0.0
 11
168.448104
 21
196.0
 31
0.0
  0
LINE
  8
LC-003-003-----0
  6
CONTINUOUS
  5
3B
 10
168.448104
 20
196.0
 30
0.0
 11
162.340803
 21
196.804041
 31
0.0
  0
TEXT
  8
LC-003-003-----0
  6
CONTINUOUS
 62
     8
  5
3D
 10
114.872484
 20
203.827554
 30
0.0
 40
28.0
  1
100
 41
0.9
 51
15.0
  7
LC-TXTSTYLE-150-400-0-0-D0
 72
     1
 11
144.636264
 21
203.827554
 31
0.0
  0
ENDBLK
  8
0
  5
3E
  0
BLOCK
  8
0
  5
40
  2
*X1
 70
    65
 10
60.310104
 20
46.046962
 30
0.0
  3
*X1
  0
LINE
  8
LC-006-005-----0
  6
CONTINUOUS
  5
42
 10
93.788104
 20
163.598765
 30
0.0
 11
91.339906
 21
166.046962
 31
0.0
  0
LINE
  8
LC-006-005-----0
  6
CONTINUOUS
  5
43
 10
98.288104
 20
156.270338
 30
0.0
 11
96.511479
 21
158.046962
 31
0.0
  0
LINE
  8
LC-006-005-----0
  6
CONTINUOUS
  5
44
 10
93.788104
 20
160.770338
 30
0.0
 11
90.288104
 21
164.270338
 31
0.0
  0
LINE
  8
LC-006-005-----0
  6
CONTINUOUS
  5
45
 10
98.288104
 20
153.441911
 30
0.0
 11
87.683052
 21
164.046962
 31
0.0
  0
LINE
  8
LC-006-005-----0
  6
CONTINUOUS
  5
46
 10
98.288104
 20
150.613483
 30
0.0
 11
95.488104
 21
153.413483
 31
0.0
  0
LINE
  8
LC-006-005-----0
  6
CONTINUOUS
  5
47
 10
93.854625
 20
155.046962
 30
0.0
 11
84.854625
 21
164.046962
 31
0.0
  0
LINE
  8
LC-006-005-----0
  6
CONTINUOUS
  5
48
 10
98.026198
 20
148.046962
 30
0.0
 11
95.488104
 21
150.585056
 31
0.0
  0
LINE
  8
LC-006-005-----0
  6
CONTINUOUS
  5
49
 10
88.526198
 20
157.546962
 30
0.0
 11
85.288104
 21
160.785056
 31
0.0
  0
LINE
  8
LC-006-005-----0
  6
CONTINUOUS
  5
4A
 10
85.026198
 20
161.046962
 30
0.0
 11
82.026198
 21
164.046962
 31
0.0
  0
LINE
  8
LC-006-005-----0
  6
CONTINUOUS
  5
4B
 10
88.288104
 20
154.956629
 30
0.0
 11
85.288104
 21
157.956629
 31
0.0
  0
LINE
  8
LC-006-005-----0
  6
CONTINUOUS
  5
4C
 10
82.197771
 20
161.046962
 30
0.0
 11
79.197771
 21
164.046962
 31
0.0
  0
LINE
  8
LC-006-005-----0
  6
CONTINUOUS
  5
4D
 10
88.288104
 20
152.128202
 30
0.0
 11
85.288104
 21
155.128202
 31
0.0
  0
LINE
  8
LC-006-005-----0
  6
CONTINUOUS
  5
4E
 10
79.369344
 20
161.046962
 30
0.0
 11
76.369344
 21
164.046962
 31
0.0
  0
LINE
  8
LC-006-005-----0
  6
CONTINUOUS
  5
4F
 10
88.288104
 20
149.299775
 30
0.0
 11
85.288104
 21
152.299775
 31
0.0
  0
LINE
  8
LC-006-005-----0
  6
CONTINUOUS
  5
50
 10
76.540916
 20
161.046962
 30
0.0
 11
73.540916
 21
164.046962
 31
0.0
  0
LINE
  8
LC-006-005-----0
  6
CONTINUOUS
  5
51
 10
88.288104
 20
146.471348
 30
0.0
 11
85.288104
 21
149.471348
 31
0.0
  0
LINE
  8
LC-006-005-----0
  6
CONTINUOUS
  5
52
 10
73.712489
 20
161.046962
 30
0.0
 11
70.712489
 21
164.046962
 31
0.0
  0
LINE
  8
LC-006-005-----0
  6
CONTINUOUS
  5
53
 10
88.288104
 20
143.642921
 30
0.0
 11
85.288104
 21
146.642921
 31
0.0
  0
LINE
  8
LC-006-005-----0
  6
CONTINUOUS
  5
54
 10
70.884062
 20
161.046962
 30
0.0
 11
67.884062
 21
164.046962
 31
0.0
  0
LINE
  8
LC-006-005-----0
  6
CONTINUOUS
  5
55
 10
88.288104
 20
140.814494
 30
0.0
 11
85.288104
 21
143.814494
 31
0.0
  0
LINE
  8
LC-006-005-----0
  6
CONTINUOUS
  5
56
 10
68.055635
 20
161.046962
 30
0.0
 11
65.055635
 21
164.046962
 31
0.0
  0
LINE
  8
LC-006-005-----0
  6
CONTINUOUS
  5
57
 10
88.288104
 20
137.986066
 30
0.0
 11
85.288104
 21
140.986066
 31
0.0
  0
LINE
  8
LC-006-005-----0
  6
CONTINUOUS
  5
58
 10
65.227208
 20
161.046962
 30
0.0
 11
62.227208
 21
164.046962
 31
0.0
  0
LINE
  8
LC-006-005-----0
  6
CONTINUOUS
  5
59
 10
88.288104
 20
135.157639
 30
0.0
 11
85.288104
 21
138.157639
 31
0.0
  0
LINE
  8
LC-006-005-----0
  6
CONTINUOUS
  5
5A
 10
62.398781
 20
161.046962
 30
0.0
 11
60.310104
 21
163.135639
 31
0.0
  0
LINE
  8
LC-006-005-----0
  6
CONTINUOUS
  5
5B
 10
88.288104
 20
132.329212
 30
0.0
 11
85.288104
 21
135.329212
 31
0.0
  0
LINE
  8
LC-006-005-----0
  6
CONTINUOUS
  5
5C
 10
88.288104
 20
129.500785
 30
0.0
 11
85.288104
 21
132.500785
 31
0.0
  0
LINE
  8
LC-006-005-----0
  6
CONTINUOUS
  5
5D
 10
88.288104
 20
126.672358
 30
0.0
 11
85.288104
 21
129.672358
 31
0.0
  0
LINE
  8
LC-006-005-----0
  6
CONTINUOUS
  5
5E
 10
88.288104
 20
123.843931
 30
0.0
 11
85.288104
 21
126.843931
 31
0.0
  0
LINE
  8
LC-006-005-----0
  6
CONTINUOUS
  5
5F
 10
88.288104
 20
121.015504
 30
0.0
 11
85.288104
 21
124.015504
 31
0.0
  0
LINE
  8
LC-006-005-----0
  6
CONTINUOUS
  5
60
 10
88.288104
 20
118.187077
 30
0.0
 11
85.288104
 21
121.187077
 31
0.0
  0
LINE
  8
LC-006-005-----0
  6
CONTINUOUS
  5
61
 10
88.288104
 20
115.358649
 30
0.0
 11
85.288104
 21
118.358649
 31
0.0
  0
LINE
  8
LC-006-005-----0
  6
CONTINUOUS
  5
62
 10
88.288104
 20
112.530222
 30
0.0
 11
85.288104
 21
115.530222
 31
0.0
  0
LINE
  8
LC-006-005-----0
  6
CONTINUOUS
  5
63
 10
88.288104
 20
109.701795
 30
0.0
 11
85.288104
 21
112.701795
 31
0.0
  0
LINE
  8
LC-006-005-----0
  6
CONTINUOUS
  5
64
 10
88.288104
 20
106.873368
 30
0.0
 11
85.288104
 21
109.873368
 31
0.0
  0
LINE
  8
LC-006-005-----0
  6
CONTINUOUS
  5
65
 10
88.288104
 20
104.044941
 30
0.0
 11
85.288104
 21
107.044941
 31
0.0
  0
LINE
  8
LC-006-005-----0
  6
CONTINUOUS
  5
66
 10
88.288104
 20
101.216514
 30
0.0
 11
85.288104
 21
104.216514
 31
0.0
  0
LINE
  8
LC-006-005-----0
  6
CONTINUOUS
  5
67
 10
88.288104
 20
98.388087
 30
0.0
 11
85.288104
 21
101.388087
 31
0.0
  0
LINE
  8
LC-006-005-----0
  6
CONTINUOUS
  5
68
 10
88.288104
 20
95.55966
 30
0.0
 11
85.288104
 21
98.55966
 31
0.0
  0
LINE
  8
LC-006-005-----0
  6
CONTINUOUS
  5
69
 10
88.288104
 20
92.731232
 30
0.0
 11
85.288104
 21
95.731232
 31
0.0
  0
LINE
  8
LC-006-005-----0
  6
CONTINUOUS
  5
6A
 10
88.288104
 20
89.902805
 30
0.0
 11
85.288104
 21
92.902805
 31
0.0
  0
LINE
  8
LC-006-005-----0
  6
CONTINUOUS
  5
6B
 10
88.288104
 20
87.074378
 30
0.0
 11
85.288104
 21
90.074378
 31
0.0
  0
LINE
  8
LC-006-005-----0
  6
CONTINUOUS
  5
6C
 10
88.288104
 20
84.245951
 30
0.0
 11
85.288104
 21
87.245951
 31
0.0
  0
LINE
  8
LC-006-005-----0
  6
CONTINUOUS
  5
6D
 10
88.288104
 20
81.417524
 30
0.0
 11
85.288104
 21
84.417524
 31
0.0
  0
LINE
  8
LC-006-005-----0
  6
CONTINUOUS
  5
6E
 10
88.288104
 20
78.589097
 30
0.0
 11
85.288104
 21
81.589097
 31
0.0
  0
LINE
  8
LC-006-005-----0
  6
CONTINUOUS
  5
6F
 10
88.288104
 20
75.76067
 30
0.0
 11
85.288104
 21
78.76067
 31
0.0
  0
LINE
  8
LC-006-005-----0
  6
CONTINUOUS
  5
70
 10
88.288104
 20
72.932243
 30
0.0
 11
85.288104
 21
75.932243
 31
0.0
  0
LINE
  8
LC-006-005-----0
  6
CONTINUOUS
  5
71
 10
88.288104
 20
70.103815
 30
0.0
 11
85.288104
 21
73.103815
 31
0.0
  0
LINE
  8
LC-006-005-----0
  6
CONTINUOUS
  5
72
 10
88.288104
 20
67.275388
 30
0.0
 11
85.288104
 21
70.275388
 31
0.0
  0
LINE
  8
LC-006-005-----0
  6
CONTINUOUS
  5
73
 10
88.288104
 20
64.446961
 30
0.0
 11
85.288104
 21
67.446961
 31
0.0
  0
LINE
  8
LC-006-005-----0
  6
CONTINUOUS
  5
74
 10
88.288104
 20
61.618534
 30
0.0
 11
85.288104
 21
64.618534
 31
0.0
  0
LINE
  8
LC-006-005-----0
  6
CONTINUOUS
  5
75
 10
88.288104
 20
58.790107
 30
0.0
 11
85.288104
 21
61.790107
 31
0.0
  0
LINE
  8
LC-006-005-----0
  6
CONTINUOUS
  5
76
 10
88.288104
 20
55.96168
 30
0.0
 11
85.288104
 21
58.96168
 31
0.0
  0
LINE
  8
LC-006-005-----0
  6
CONTINUOUS
  5
77
 10
88.288104
 20
53.133253
 30
0.0
 11
85.288104
 21
56.133253
 31
0.0
  0
LINE
  8
LC-006-005-----0
  6
CONTINUOUS
  5
78
 10
88.288104
 20
50.304826
 30
0.0
 11
85.288104
 21
53.304826
 31
0.0
  0
LINE
  8
LC-006-005-----0
  6
CONTINUOUS
  5
79
 10
88.288104
 20
47.476398
 30
0.0
 11
85.288104
 21
50.476398
 31
0.0
  0
LINE
  8
LC-006-005-----0
  6
CONTINUOUS
  5
7A
 10
86.889113
 20
46.046962
 30
0.0
 11
85.288104
 21
47.647971
 31
0.0
  0
ENDBLK
  8
0
  5
7B
  0
BLOCK
  8
0
  5
7D
  2
BLK1
 70
    64
 10
0.0
 20
0.0
 30
0.0
  3
BLK1
  0
ENDBLK
  8
0
  5
7E
  0
BLOCK
  8
0
  5
80
  2
*X3
 70
    65
 10
80.288497
 20
43.046987
 30
0.0
  3
*X3
  0
LINE
  8
LC-006-005-----0
  6
CONTINUOUS
  5
81
 10
85.473394
 20
43.046987
 30
0.0
 11
88.288541
 21
45.862135
 31
0.0
  0
LINE
  8
LC-006-005-----0
  6
CONTINUOUS
  5
82
 10
82.644967
 20
43.046987
 30
0.0
 11
85.644942
 21
46.046962
 31
0.0
  0
LINE
  8
LC-006-005-----0
  6
CONTINUOUS
  5
83
 10
80.288497
 20
43.518944
 30
0.0
 11
85.288574
 21
48.519022
 31
0.0
  0
LINE
  8
LC-006-005-----0
  6
CONTINUOUS
  5
84
 10
80.288497
 20
46.347371
 30
0.0
 11
85.288583
 21
51.347457
 31
0.0
  0
LINE
  8
LC-006-005-----0
  6
CONTINUOUS
  5
85
 10
80.288497
 20
49.175798
 30
0.0
 11
85.288592
 21
54.175893
 31
0.0
  0
LINE
  8
LC-006-005-----0
  6
CONTINUOUS
  5
86
 10
80.288497
 20
52.004225
 30
0.0
 11
81.331174
 21
53.046903
 31
0.0
  0
LINE
  8
LC-006-005-----0
  6
CONTINUOUS
  5
87
 10
83.28859
 20
55.004319
 30
0.0
 11
85.2886
 21
57.004329
 31
0.0
  0
LINE
  8
LC-006-005-----0
  6
CONTINUOUS
  5
88
 10
83.28859
 20
57.832746
 30
0.0
 11
85.288609
 21
59.832765
 31
0.0
  0
LINE
  8
LC-006-005-----0
  6
CONTINUOUS
  5
89
 10
83.28859
 20
60.661173
 30
0.0
 11
84.481413
 21
61.853996
 31
0.0
  0
ENDBLK
  8
0
  5
8A
  0
BLOCK
  8
0
  5
8C
  2
BLK2
 70
    64
 10
0.0
 20
0.0
 30
0.0
  3
BLK2
  0
ENDBLK
  8
0
  5
8D
  0
BLOCK
  8
0
  5
8F
  2
*X5
 70
    65
 10
192.287666
 20
43.046987
 30
0.0
  3
*X5
  0
LINE
  8
LC-006-005-----0
  6
CONTINUOUS
  5
90
 10
198.610479
 20
43.046987
 30
0.0
 11
200.287711
 21
44.724219
 31
0.0
  0
LINE
  8
LC-006-005-----0
  6
CONTINUOUS
  5
91
 10
195.782052
 20
43.046987
 30
0.0
 11
200.287711
 21
47.552646
 31
0.0
  0
LINE
  8
LC-006-005-----0
  6
CONTINUOUS
  5
92
 10
192.953625
 20
43.046987
 30
0.0
 11
200.287711
 21
50.381073
 31
0.0
  0
LINE
  8
LC-006-005-----0
  6
CONTINUOUS
  5
93
 10
192.287666
 20
45.209455
 30
0.0
 11
193.125173
 21
46.046962
 31
0.0
  0
LINE
  8
LC-006-005-----0
  6
CONTINUOUS
  5
94
 10
195.287634
 20
48.209423
 30
0.0
 11
200.125114
 21
53.046903
 31
0.0
  0
LINE
  8
LC-006-005-----0
  6
CONTINUOUS
  5
95
 10
195.287625
 20
51.037842
 30
0.0
 11
197.296686
 21
53.046903
 31
0.0
  0
LINE
  8
LC-006-005-----0
  6
CONTINUOUS
  5
96
 10
195.287617
 20
53.86626
 30
0.0
 11
197.287617
 21
55.86626
 31
0.0
  0
LINE
  8
LC-006-005-----0
  6
CONTINUOUS
  5
97
 10
195.287608
 20
56.694679
 30
0.0
 11
197.287617
 21
58.694688
 31
0.0
  0
LINE
  8
LC-006-005-----0
  6
CONTINUOUS
  5
98
 10
195.287599
 20
59.523097
 30
0.0
 11
197.287617
 21
61.523115
 31
0.0
  0
ENDBLK
  8
0
  5
99
  0
BLOCK
  8
0
  5
9B
  2
BLK3
 70
    64
 10
0.0
 20
0.0
 30
0.0
  3
BLK3
  0
ENDBLK
  8
0
  5
9C
  0
BLOCK
  8
0
  5
9E
  2
*D7
 70
    65
 10
0.0
 20
0.0
 30
0.0
  3
*D7
  0
LINE
  8
LC-004-003-MTH-0
  6
CONTINUOUS
  5
9F
 10
60.310104
 20
164.046962
 30
0.0
 11
60.310104
 21
252.0
 31
0.0
  0
LINE
  8
LC-004-003-MTH-0
  6
CONTINUOUS
  5
A0
 10
220.266104
 20
164.046962
 30
0.0
 11
220.266104
 21
252.0
 31
0.0
  0
LINE
  8
LC-005-003-MTG-0
  6
CONTINUOUS
  5
A1
 10
60.310104
 20
235.2
 30
0.0
 11
220.266104
 21
235.2
 31
0.0
  0
LINE
  8
LC-003-003-----0
  6
CONTINUOUS
  5
A2
 10
88.07056
 20
238.854733
 30
0.0
 11
60.310104
 21
235.2
 31
0.0
  0
LINE
  8
LC-003-003-----0
  6
CONTINUOUS
  5
A3
 10
60.310104
 20
235.2
 30
0.0
 11
88.07056
 21
231.545267
 31
0.0
  0
LINE
  8
LC-003-003-----0
  6
CONTINUOUS
  5
A4
 10
88.07056
 20
231.545267
 30
0.0
 11
88.07056
 21
238.854733
 31
0.0
  0
LINE
  8
LC-003-003-----0
  6
CONTINUOUS
  5
A5
 10
88.132841
 20
237.904503
 30
0.0
 11
67.590104
 21
235.2
 31
0.0
  0
LINE
  8
LC-003-003-----0
  6
CONTINUOUS
  5
A6
 10
67.590104
 20
235.2
 30
0.0
 11
88.132841
 21
232.495497
 31
0.0
  0
LINE
  8
LC-003-003-----0
  6
CONTINUOUS
  5
A7
 10
88.195122
 20
236.954272
 30
0.0
 11
74.870104
 21
235.2
 31
0.0
  0
LINE
  8
LC-003-003-----0
  6
CONTINUOUS
  5
A8
 10
74.870104
 20
235.2
 30
0.0
 11
88.195122
 21
233.445728
 31
0.0
  0
LINE
  8
LC-003-003-----0
  6
CONTINUOUS
  5
A9
 10
88.257404
 20
236.004041
 30
0.0
 11
82.150104
 21
235.2
 31
0.0
  0
LINE
  8
LC-003-003-----0
  6
CONTINUOUS
  5
AA
 10
82.150104
 20
235.2
 30
0.0
 11
88.257404
 21
234.395959
 31
0.0
  0
LINE
  8
LC-003-003-----0
  6
CONTINUOUS
  5
AB
 10
192.505647
 20
231.545267
 30
0.0
 11
220.266104
 21
235.2
 31
0.0
  0
LINE
  8
LC-003-003-----0
  6
CONTINUOUS
  5
AC
 10
220.266104
 20
235.2
 30
0.0
 11
192.505647
 21
238.854733
 31
0.0
  0
LINE
  8
LC-003-003-----0
  6
CONTINUOUS
  5
AD
 10
192.505647
 20
238.854733
 30
0.0
 11
192.505647
 21
231.545267
 31
0.0
  0
LINE
  8
LC-003-003-----0
  6
CONTINUOUS
  5
AE
 10
192.443366
 20
232.495497
 30
0.0
 11
212.986104
 21
235.2
 31
0.0
  0
LINE
  8
LC-003-003-----0
  6
CONTINUOUS
  5
AF
 10
212.986104
 20
235.2
 30
0.0
 11
192.443366
 21
237.904503
 31
0.0
  0
LINE
  8
LC-003-003-----0
  6
CONTINUOUS
  5
B0
 10
192.381085
 20
233.445728
 30
0.0
 11
205.706104
 21
235.2
 31
0.0
  0
LINE
  8
LC-003-003-----0
  6
CONTINUOUS
  5
B1
 10
205.706104
 20
235.2
 30
0.0
 11
192.381085
 21
236.954272
 31
0.0
  0
LINE
  8
LC-003-003-----0
  6
CONTINUOUS
  5
B2
 10
192.318803
 20
234.395959
 30
0.0
 11
198.426104
 21
235.2
 31
0.0
  0
LINE
  8
LC-003-003-----0
  6
CONTINUOUS
  5
B3
 10
198.426104
 20
235.2
 30
0.0
 11
192.318803
 21
236.004041
 31
0.0
  0
TEXT
  8
LC-003-003-----0
  6
CONTINUOUS
 62
     8
  5
B4
 10
114.872484
 20
243.027554
 30
0.0
 40
28.0
  1
160
 51
15.0
  7
LC-TXTSTYLE-150-400-0-0-D0
 72
     1
 11
144.636264
 21
243.027554
 31
0.0
  0
ENDBLK
  8
0
  5
B5
  0
BLOCK
  8
0
  5
B7
  2
*D8
 70
    65
 10
0.0
 20
0.0
 30
0.0
  3
*D8
  0
LINE
  8
LC-004-003-MTH-0
  6
CONTINUOUS
  5
B8
 10
85.28858
 20
50.545182
 30
0.0
 11
85.28858
 21
-16.8
 31
0.0
  0
LINE
  8
LC-004-003-MTH-0
  6
CONTINUOUS
  5
B9
 10
195.287627
 20
50.545182
 30
0.0
 11
195.287627
 21
-16.8
 31
0.0
  0
LINE
  8
LC-005-003-MTG-0
  6
CONTINUOUS
  5
BA
 10
85.28858
 20
0.0
 30
0.0
 11
195.287627
 21
0.0
 31
0.0
  0
LINE
  8
LC-003-003-----0
  6
CONTINUOUS
  5
BB
 10
113.049037
 20
3.654733
 30
0.0
 11
85.28858
 21
0.0
 31
0.0
  0
LINE
  8
LC-003-003-----0
  6
CONTINUOUS
  5
BC
 10
85.28858
 20
0.0
 30
0.0
 11
113.049037
 21
-3.654733
 31
0.0
  0
LINE
  8
LC-003-003-----0
  6
CONTINUOUS
  5
BD
 10
113.049037
 20
-3.654733
 30
0.0
 11
113.049037
 21
3.654733
 31
0.0
  0
LINE
  8
LC-003-003-----0
  6
CONTINUOUS
  5
BE
 10
113.111318
 20
2.704503
 30
0.0
 11
92.56858
 21
0.0
 31
0.0
  0
LINE
  8
LC-003-003-----0
  6
CONTINUOUS
  5
BF
 10
92.56858
 20
0.0
 30
0.0
 11
113.111318
 21
-2.704503
 31
0.0
  0
LINE
  8
LC-003-003-----0
  6
CONTINUOUS
  5
C0
 10
113.173599
 20
1.754272
 30
0.0
 11
99.84858
 21
0.0
 31
0.0
  0
LINE
  8
LC-003-003-----0
  6
CONTINUOUS
  5
C1
 10
99.84858
 20
0.0
 30
0.0
 11
113.173599
 21
-1.754272
 31
0.0
  0
LINE
  8
LC-003-003-----0
  6
CONTINUOUS
  5
C2
 10
113.235881
 20
0.804041
 30
0.0
 11
107.12858
 21
0.0
 31
0.0
  0
LINE
  8
LC-003-003-----0
  6
CONTINUOUS
  5
C3
 10
107.12858
 20
0.0
 30
0.0
 11
113.235881
 21
-0.804041
 31
0.0
  0
LINE
  8
LC-003-003-----0
  6
CONTINUOUS
  5
C4
 10
167.527171
 20
-3.654733
 30
0.0
 11
195.287627
 21
0.0
 31
0.0
  0
LINE
  8
LC-003-003-----0
  6
CONTINUOUS
  5
C5
 10
195.287627
 20
0.0
 30
0.0
 11
167.527171
 21
3.654733
 31
0.0
  0
LINE
  8
LC-003-003-----0
  6
CONTINUOUS
  5
C6
 10
167.527171
 20
3.654733
 30
0.0
 11
167.527171
 21
-3.654733
 31
0.0
  0
LINE
  8
LC-003-003-----0
  6
CONTINUOUS
  5
C7
 10
167.464889
 20
-2.704503
 30
0.0
 11
188.007627
 21
0.0
 31
0.0
  0
LINE
  8
LC-003-003-----0
  6
CONTINUOUS
  5
C8
 10
188.007627
 20
0.0
 30
0.0
 11
167.464889
 21
2.704503
 31
0.0
  0
LINE
  8
LC-003-003-----0
  6
CONTINUOUS
  5
C9
 10
167.402608
 20
-1.754272
 30
0.0
 11
180.727627
 21
0.0
 31
0.0
  0
LINE
  8
LC-003-003-----0
  6
CONTINUOUS
  5
CA
 10
180.727627
 20
0.0
 30
0.0
 11
167.402608
 21
1.754272
 31
0.0
  0
LINE
  8
LC-003-003-----0
  6
CONTINUOUS
  5
CB
 10
167.340326
 20
-0.804041
 30
0.0
 11
173.447627
 21
0.0
 31
0.0
  0
LINE
  8
LC-003-003-----0
  6
CONTINUOUS
  5
CC
 10
173.447627
 20
0.0
 30
0.0
 11
167.340326
 21
0.804041
 31
0.0
  0
TEXT
  8
LC-003-003-----0
  6
CONTINUOUS
 62
     8
  5
CD
 10
106.538626
 20
7.827554
 30
0.0
 40
28.0
  1
Ø110
 51
15.0
  7
LC-TXTSTYLE-150-400-0-0-D0
 72
     1
 11
144.636264
 21
7.827554
 31
0.0
  0
ENDBLK
  8
0
  5
CE
  0
BLOCK
  8
0
  5
D0
  2
*X9
 70
    65
 10
94.788104
 20
159.546962
 30
0.0
  3
*X9
  0
LINE
  8
LC-006-005-----0
  6
CONTINUOUS
  5
D1
 10
99.788104
 20
162.0135
 30
0.0
 11
101.250953
 21
163.47635
 31
0.0
  0
LINE
  8
LC-006-005-----0
  6
CONTINUOUS
  5
D2
 10
94.788104
 20
162.670355
 30
0.0
 11
97.664711
 21
165.546962
 31
0.0
  0
ENDBLK
  8
0
  5
D3
  0
BLOCK
  8
0
  5
D5
  2
*X10
 70
    65
 10
107.288104
 20
160.546962
 30
0.0
  3
*X10
  0
LINE
  8
LC-006-005-----0
  6
CONTINUOUS
  5
D6
 10
111.788104
 20
162.699792
 30
0.0
 11
113.096095
 21
164.007783
 31
0.0
  0
LINE
  8
LC-006-005-----0
  6
CONTINUOUS
  5
D7
 10
107.511572
 20
164.080114
 30
0.0
 11
108.754951
 21
165.323494
 31
0.0
  0
ENDBLK
  8
0
  5
D8
  0
BLOCK
  8
0
  5
DA
  2
*X11
 70
    65
 10
119.288104
 20
160.546962
 30
0.0
  3
*X11
  0
LINE
  8
LC-006-005-----0
  6
CONTINUOUS
  5
DB
 10
123.743691
 20
163.341671
 30
0.0
 11
124.855152
 21
164.453131
 31
0.0
  0
ENDBLK
  8
0
  5
DC
  0
BLOCK
  8
0
  5
DE
  2
*X12
 70
    65
 10
131.288104
 20
160.546962
 30
0.0
  3
*X12
  0
LINE
  8
LC-006-005-----0
  6
CONTINUOUS
  5
DF
 10
138.591118
 20
164.046962
 30
0.0
 11
140.091118
 21
165.546962
 31
0.0
  0
LINE
  8
LC-006-005-----0
  6
CONTINUOUS
  5
E0
 10
135.762691
 20
164.046962
 30
0.0
 11
137.262691
 21
165.546962
 31
0.0
  0
LINE
  8
LC-006-005-----0
  6
CONTINUOUS
  5
E1
 10
131.288104
 20
162.400802
 30
0.0
 11
134.434264
 21
165.546962
 31
0.0
  0
ENDBLK
  8
0
  5
E2
  0
BLOCK
  8
0
  5
E4
  2
BLK4
 70
    64
 10
0.0
 20
0.0
 30
0.0
  3
BLK4
  0
ENDBLK
  8
0
  5
E5
  0
BLOCK
  8
0
  5
E7
  2
*X14
 70
    65
 10
179.288104
 20
159.546962
 30
0.0
  3
*X14
  0
LINE
  8
LC-006-005-----0
  6
CONTINUOUS
  5
E8
 10
184.288104
 20
161.660687
 30
0.0
 11
185.785627
 21
163.15821
 31
0.0
  0
LINE
  8
LC-006-005-----0
  6
CONTINUOUS
  5
E9
 10
179.288104
 20
162.317541
 30
0.0
 11
182.517525
 21
165.546962
 31
0.0
  0
ENDBLK
  8
0
  5
EA
  0
BLOCK
  8
0
  5
EC
  2
*X15
 70
    65
 10
167.288104
 20
160.546962
 30
0.0
  3
*X15
  0
LINE
  8
LC-006-005-----0
  6
CONTINUOUS
  5
ED
 10
172.860671
 20
161.546962
 30
0.0
 11
173.288104
 21
161.974395
 31
0.0
  0
LINE
  8
LC-006-005-----0
  6
CONTINUOUS
  5
EE
 10
167.288104
 20
161.631249
 30
0.0
 11
168.791999
 21
163.135145
 31
0.0
  0
LINE
  8
LC-006-005-----0
  6
CONTINUOUS
  5
EF
 10
169.699921
 20
164.043066
 30
0.0
 11
171.173873
 21
165.517019
 31
0.0
  0
ENDBLK
  8
0
  5
F0
  0
BLOCK
  8
0
  5
F2
  2
*X16
 70
    65
 10
155.288104
 20
160.546962
 30
0.0
  3
*X16
  0
LINE
  8
LC-006-005-----0
  6
CONTINUOUS
  5
F3
 10
155.890108
 20
161.546962
 30
0.0
 11
156.788104
 21
162.444958
 31
0.0
  0
LINE
  8
LC-006-005-----0
  6
CONTINUOUS
  5
F4
 10
158.390108
 20
164.046962
 30
0.0
 11
159.712806
 21
165.36966
 31
0.0
  0
ENDBLK
  8
0
  5
F5
  0
BLOCK
  8
0
  5
F7
  2
*X17
 70
    65
 10
140.288104
 20
160.546962
 30
0.0
  3
*X17
  0
LINE
  8
LC-006-005-----0
  6
CONTINUOUS
  5
F8
 10
147.788104
 20
161.930239
 30
0.0
 11
149.2624
 21
163.404535
 31
0.0
  0
LINE
  8
LC-006-005-----0
  6
CONTINUOUS
  5
F9
 10
147.043291
 20
164.013854
 30
0.0
 11
148.163831
 21
165.134394
 31
0.0
  0
LINE
  8
LC-006-005-----0
  6
CONTINUOUS
  5
FA
 10
144.247972
 20
164.046962
 30
0.0
 11
145.747972
 21
165.546962
 31
0.0
  0
LINE
  8
LC-006-005-----0
  6
CONTINUOUS
  5
FB
 10
141.419545
 20
164.046962
 30
0.0
 11
142.919545
 21
165.546962
 31
0.0
  0
ENDBLK
  8
0
  5
FC
  0
BLOCK
  8
0
  5
FE
  2
BLK5
 70
    64
 10
0.0
 20
0.0
 30
0.0
  3
BLK5
  0
ENDBLK
  8
0
  5
FF
  0
BLOCK
  8
0
  5
101
  2
BLK6
 70
    64
 10
0.0
 20
0.0
 30
0.0
  3
BLK6
  0
ENDBLK
  8
0
  5
102
  0
BLOCK
  8
0
  5
104
  2
BLK7
 70
    64
 10
0.0
 20
0.0
 30
0.0
  3
BLK7
  0
ENDBLK
  8
0
  5
105
  0
BLOCK
  8
0
  5
107
  2
BLK8
 70
    64
 10
0.0
 20
0.0
 30
0.0
  3
BLK8
  0
ENDBLK
  8
0
  5
108
  0
BLOCK
  8
0
  5
10A
  2
*X22
 70
    65
 10
182.288104
 20
46.046962
 30
0.0
  3
*X22
  0
LINE
  8
LC-006-005-----0
  6
CONTINUOUS
  5
10B
 10
220.266104
 20
161.571558
 30
0.0
 11
217.7907
 21
164.046962
 31
0.0
  0
LINE
  8
LC-006-005-----0
  6
CONTINUOUS
  5
10C
 10
217.962273
 20
161.046962
 30
0.0
 11
214.962273
 21
164.046962
 31
0.0
  0
LINE
  8
LC-006-005-----0
  6
CONTINUOUS
  5
10D
 10
215.133846
 20
161.046962
 30
0.0
 11
212.133846
 21
164.046962
 31
0.0
  0
LINE
  8
LC-006-005-----0
  6
CONTINUOUS
  5
10E
 10
212.305418
 20
161.046962
 30
0.0
 11
209.305418
 21
164.046962
 31
0.0
  0
LINE
  8
LC-006-005-----0
  6
CONTINUOUS
  5
10F
 10
209.476991
 20
161.046962
 30
0.0
 11
206.476991
 21
164.046962
 31
0.0
  0
LINE
  8
LC-006-005-----0
  6
CONTINUOUS
  5
110
 10
206.648564
 20
161.046962
 30
0.0
 11
203.648564
 21
164.046962
 31
0.0
  0
LINE
  8
LC-006-005-----0
  6
CONTINUOUS
  5
111
 10
203.820137
 20
161.046962
 30
0.0
 11
200.820137
 21
164.046962
 31
0.0
  0
LINE
  8
LC-006-005-----0
  6
CONTINUOUS
  5
112
 10
200.99171
 20
161.046962
 30
0.0
 11
197.99171
 21
164.046962
 31
0.0
  0
LINE
  8
LC-006-005-----0
  6
CONTINUOUS
  5
113
 10
198.163283
 20
161.046962
 30
0.0
 11
195.163283
 21
164.046962
 31
0.0
  0
LINE
  8
LC-006-005-----0
  6
CONTINUOUS
  5
114
 10
195.334856
 20
161.046962
 30
0.0
 11
192.334856
 21
164.046962
 31
0.0
  0
LINE
  8
LC-006-005-----0
  6
CONTINUOUS
  5
115
 10
195.288104
 20
158.265287
 30
0.0
 11
187.506429
 21
166.046962
 31
0.0
  0
LINE
  8
LC-006-005-----0
  6
CONTINUOUS
  5
116
 10
195.288104
 20
155.43686
 30
0.0
 11
186.788104
 21
163.93686
 31
0.0
  0
LINE
  8
LC-006-005-----0
  6
CONTINUOUS
  5
117
 10
195.288104
 20
152.608433
 30
0.0
 11
192.288104
 21
155.608433
 31
0.0
  0
LINE
  8
LC-006-005-----0
  6
CONTINUOUS
  5
118
 10
190.349574
 20
157.546962
 30
0.0
 11
186.788104
 21
161.108433
 31
0.0
  0
LINE
  8
LC-006-005-----0
  6
CONTINUOUS
  5
119
 10
195.288104
 20
149.780006
 30
0.0
 11
192.288104
 21
152.780006
 31
0.0
  0
LINE
  8
LC-006-005-----0
  6
CONTINUOUS
  5
11A
 10
189.288104
 20
155.780006
 30
0.0
 11
186.788104
 21
158.280006
 31
0.0
  0
LINE
  8
LC-006-005-----0
  6
CONTINUOUS
  5
11B
 10
195.288104
 20
146.951579
 30
0.0
 11
192.288104
 21
149.951579
 31
0.0
  0
LINE
  8
LC-006-005-----0
  6
CONTINUOUS
  5
11C
 10
187.19272
 20
155.046962
 30
0.0
 11
184.19272
 21
158.046962
 31
0.0
  0
LINE
  8
LC-006-005-----0
  6
CONTINUOUS
  5
11D
 10
195.288104
 20
144.123151
 30
0.0
 11
192.288104
 21
147.123151
 31
0.0
  0
LINE
  8
LC-006-005-----0
  6
CONTINUOUS
  5
11E
 10
185.088104
 20
154.323151
 30
0.0
 11
182.288104
 21
157.123151
 31
0.0
  0
LINE
  8
LC-006-005-----0
  6
CONTINUOUS
  5
11F
 10
195.288104
 20
141.294724
 30
0.0
 11
192.288104
 21
144.294724
 31
0.0
  0
LINE
  8
LC-006-005-----0
  6
CONTINUOUS
  5
120
 10
185.088104
 20
151.494724
 30
0.0
 11
182.288104
 21
154.294724
 31
0.0
  0
LINE
  8
LC-006-005-----0
  6
CONTINUOUS
  5
121
 10
195.288104
 20
138.466297
 30
0.0
 11
192.288104
 21
141.466297
 31
0.0
  0
LINE
  8
LC-006-005-----0
  6
CONTINUOUS
  5
122
 10
185.088104
 20
148.666297
 30
0.0
 11
182.288104
 21
151.466297
 31
0.0
  0
LINE
  8
LC-006-005-----0
  6
CONTINUOUS
  5
123
 10
195.288104
 20
135.63787
 30
0.0
 11
192.288104
 21
138.63787
 31
0.0
  0
LINE
  8
LC-006-005-----0
  6
CONTINUOUS
  5
124
 10
182.879012
 20
148.046962
 30
0.0
 11
182.288104
 21
148.63787
 31
0.0
  0
LINE
  8
LC-006-005-----0
  6
CONTINUOUS
  5
125
 10
195.288104
 20
132.809443
 30
0.0
 11
192.288104
 21
135.809443
 31
0.0
  0
LINE
  8
LC-006-005-----0
  6
CONTINUOUS
  5
126
 10
195.288104
 20
129.981016
 30
0.0
 11
192.288104
 21
132.981016
 31
0.0
  0
LINE
  8
LC-006-005-----0
  6
CONTINUOUS
  5
127
 10
195.288104
 20
127.152589
 30
0.0
 11
192.288104
 21
130.152589
 31
0.0
  0
LINE
  8
LC-006-005-----0
  6
CONTINUOUS
  5
128
 10
195.288104
 20
124.324162
 30
0.0
 11
192.288104
 21
127.324162
 31
0.0
  0
LINE
  8
LC-006-005-----0
  6
CONTINUOUS
  5
129
 10
195.288104
 20
121.495734
 30
0.0
 11
192.288104
 21
124.495734
 31
0.0
  0
LINE
  8
LC-006-005-----0
  6
CONTINUOUS
  5
12A
 10
195.288104
 20
118.667307
 30
0.0
 11
192.288104
 21
121.667307
 31
0.0
  0
LINE
  8
LC-006-005-----0
  6
CONTINUOUS
  5
12B
 10
195.288104
 20
115.83888
 30
0.0
 11
192.288104
 21
118.83888
 31
0.0
  0
LINE
  8
LC-006-005-----0
  6
CONTINUOUS
  5
12C
 10
195.288104
 20
113.010453
 30
0.0
 11
192.288104
 21
116.010453
 31
0.0
  0
LINE
  8
LC-006-005-----0
  6
CONTINUOUS
  5
12D
 10
195.288104
 20
110.182026
 30
0.0
 11
192.288104
 21
113.182026
 31
0.0
  0
LINE
  8
LC-006-005-----0
  6
CONTINUOUS
  5
12E
 10
195.288104
 20
107.353599
 30
0.0
 11
192.288104
 21
110.353599
 31
0.0
  0
LINE
  8
LC-006-005-----0
  6
CONTINUOUS
  5
12F
 10
195.288104
 20
104.525172
 30
0.0
 11
192.288104
 21
107.525172
 31
0.0
  0
LINE
  8
LC-006-005-----0
  6
CONTINUOUS
  5
130
 10
195.288104
 20
101.696745
 30
0.0
 11
192.288104
 21
104.696745
 31
0.0
  0
LINE
  8
LC-006-005-----0
  6
CONTINUOUS
  5
131
 10
195.288104
 20
98.868317
 30
0.0
 11
192.288104
 21
101.868317
 31
0.0
  0
LINE
  8
LC-006-005-----0
  6
CONTINUOUS
  5
132
 10
195.288104
 20
96.03989
 30
0.0
 11
192.288104
 21
99.03989
 31
0.0
  0
LINE
  8
LC-006-005-----0
  6
CONTINUOUS
  5
133
 10
195.288104
 20
93.211463
 30
0.0
 11
192.288104
 21
96.211463
 31
0.0
  0
LINE
  8
LC-006-005-----0
  6
CONTINUOUS
  5
134
 10
195.288104
 20
90.383036
 30
0.0
 11
192.288104
 21
93.383036
 31
0.0
  0
LINE
  8
LC-006-005-----0
  6
CONTINUOUS
  5
135
 10
195.288104
 20
87.554609
 30
0.0
 11
192.288104
 21
90.554609
 31
0.0
  0
LINE
  8
LC-006-005-----0
  6
CONTINUOUS
  5
136
 10
195.288104
 20
84.726182
 30
0.0
 11
192.288104
 21
87.726182
 31
0.0
  0
LINE
  8
LC-006-005-----0
  6
CONTINUOUS
  5
137
 10
195.288104
 20
81.897755
 30
0.0
 11
192.288104
 21
84.897755
 31
0.0
  0
LINE
  8
LC-006-005-----0
  6
CONTINUOUS
  5
138
 10
195.288104
 20
79.069328
 30
0.0
 11
192.288104
 21
82.069328
 31
0.0
  0
LINE
  8
LC-006-005-----0
  6
CONTINUOUS
  5
139
 10
195.288104
 20
76.2409
 30
0.0
 11
192.288104
 21
79.2409
 31
0.0
  0
LINE
  8
LC-006-005-----0
  6
CONTINUOUS
  5
13A
 10
195.288104
 20
73.412473
 30
0.0
 11
192.288104
 21
76.412473
 31
0.0
  0
LINE
  8
LC-006-005-----0
  6
CONTINUOUS
  5
13B
 10
195.288104
 20
70.584046
 30
0.0
 11
192.288104
 21
73.584046
 31
0.0
  0
LINE
  8
LC-006-005-----0
  6
CONTINUOUS
  5
13C
 10
195.288104
 20
67.755619
 30
0.0
 11
192.288104
 21
70.755619
 31
0.0
  0
LINE
  8
LC-006-005-----0
  6
CONTINUOUS
  5
13D
 10
195.288104
 20
64.927192
 30
0.0
 11
192.288104
 21
67.927192
 31
0.0
  0
LINE
  8
LC-006-005-----0
  6
CONTINUOUS
  5
13E
 10
195.288104
 20
62.098765
 30
0.0
 11
192.288104
 21
65.098765
 31
0.0
  0
LINE
  8
LC-006-005-----0
  6
CONTINUOUS
  5
13F
 10
195.288104
 20
59.270338
 30
0.0
 11
192.288104
 21
62.270338
 31
0.0
  0
LINE
  8
LC-006-005-----0
  6
CONTINUOUS
  5
140
 10
195.288104
 20
56.441911
 30
0.0
 11
192.288104
 21
59.441911
 31
0.0
  0
LINE
  8
LC-006-005-----0
  6
CONTINUOUS
  5
141
 10
195.288104
 20
53.613483
 30
0.0
 11
192.288104
 21
56.613483
 31
0.0
  0
LINE
  8
LC-006-005-----0
  6
CONTINUOUS
  5
142
 10
195.288104
 20
50.785056
 30
0.0
 11
192.288104
 21
53.785056
 31
0.0
  0
LINE
  8
LC-006-005-----0
  6
CONTINUOUS
  5
143
 10
195.288104
 20
47.956629
 30
0.0
 11
192.288104
 21
50.956629
 31
0.0
  0
LINE
  8
LC-006-005-----0
  6
CONTINUOUS
  5
144
 10
194.328724
 20
46.087582
 30
0.0
 11
192.288104
 21
48.128202
 31
0.0
  0
ENDBLK
  8
0
  5
145
  0
BLOCK
  8
0
  5
147
  2
*X23
 70
    65
 10
88.288104
 20
46.046962
 30
0.0
  3
*X23
  0
LINE
  8
LC-006-005-----0
  6
CONTINUOUS
  5
148
 10
136.55663
 20
46.046962
 30
0.0
 11
140.288104
 21
49.778436
 31
0.0
  0
LINE
  8
LC-006-005-----0
  6
CONTINUOUS
  5
149
 10
130.899776
 20
46.046962
 30
0.0
 11
140.288104
 21
55.43529
 31
0.0
  0
LINE
  8
LC-006-005-----0
  6
CONTINUOUS
  5
14A
 10
125.242922
 20
46.046962
 30
0.0
 11
139.242922
 21
60.046962
 31
0.0
  0
LINE
  8
LC-006-005-----0
  6
CONTINUOUS
  5
14B
 10
119.586067
 20
46.046962
 30
0.0
 11
133.586067
 21
60.046962
 31
0.0
  0
LINE
  8
LC-006-005-----0
  6
CONTINUOUS
  5
14C
 10
113.929213
 20
46.046962
 30
0.0
 11
127.929213
 21
60.046962
 31
0.0
  0
LINE
  8
LC-006-005-----0
  6
CONTINUOUS
  5
14D
 10
108.272359
 20
46.046962
 30
0.0
 11
122.272359
 21
60.046962
 31
0.0
  0
LINE
  8
LC-006-005-----0
  6
CONTINUOUS
  5
14E
 10
102.615505
 20
46.046962
 30
0.0
 11
116.615505
 21
60.046962
 31
0.0
  0
LINE
  8
LC-006-005-----0
  6
CONTINUOUS
  5
14F
 10
96.95865
 20
46.046962
 30
0.0
 11
110.95865
 21
60.046962
 31
0.0
  0
LINE
  8
LC-006-005-----0
  6
CONTINUOUS
  5
150
 10
91.301796
 20
46.046962
 30
0.0
 11
105.301796
 21
60.046962
 31
0.0
  0
LINE
  8
LC-006-005-----0
  6
CONTINUOUS
  5
151
 10
88.288104
 20
48.690124
 30
0.0
 11
99.644942
 21
60.046962
 31
0.0
  0
LINE
  8
LC-006-005-----0
  6
CONTINUOUS
  5
152
 10
88.288104
 20
54.346978
 30
0.0
 11
93.988088
 21
60.046962
 31
0.0
  0
LINE
  8
LC-006-005-----0
  6
CONTINUOUS
  5
153
 10
88.288104
 20
60.003832
 30
0.0
 11
88.331233
 21
60.046962
 31
0.0
  0
LINE
  8
LC-006-005-----0
  6
CONTINUOUS
  5
154
 10
140.288104
 20
57.701795
 30
0.0
 11
137.942937
 21
60.046962
 31
0.0
  0
LINE
  8
LC-006-005-----0
  6
CONTINUOUS
  5
155
 10
140.288104
 20
52.044941
 30
0.0
 11
132.286082
 21
60.046962
 31
0.0
  0
LINE
  8
LC-006-005-----0
  6
CONTINUOUS
  5
156
 10
140.288104
 20
46.388087
 30
0.0
 11
126.629228
 21
60.046962
 31
0.0
  0
LINE
  8
LC-006-005-----0
  6
CONTINUOUS
  5
157
 10
134.972374
 20
46.046962
 30
0.0
 11
120.972374
 21
60.046962
 31
0.0
  0
LINE
  8
LC-006-005-----0
  6
CONTINUOUS
  5
158
 10
129.31552
 20
46.046962
 30
0.0
 11
115.31552
 21
60.046962
 31
0.0
  0
LINE
  8
LC-006-005-----0
  6
CONTINUOUS
  5
159
 10
123.658665
 20
46.046962
 30
0.0
 11
109.658665
 21
60.046962
 31
0.0
  0
LINE
  8
LC-006-005-----0
  6
CONTINUOUS
  5
15A
 10
118.001811
 20
46.046962
 30
0.0
 11
104.001811
 21
60.046962
 31
0.0
  0
LINE
  8
LC-006-005-----0
  6
CONTINUOUS
  5
15B
 10
112.344957
 20
46.046962
 30
0.0
 11
98.344957
 21
60.046962
 31
0.0
  0
LINE
  8
LC-006-005-----0
  6
CONTINUOUS
  5
15C
 10
106.688103
 20
46.046962
 30
0.0
 11
92.688103
 21
60.046962
 31
0.0
  0
LINE
  8
LC-006-005-----0
  6
CONTINUOUS
  5
15D
 10
101.031248
 20
46.046962
 30
0.0
 11
88.288104
 21
58.790107
 31
0.0
  0
LINE
  8
LC-006-005-----0
  6
CONTINUOUS
  5
15E
 10
95.374394
 20
46.046962
 30
0.0
 11
88.288104
 21
53.133253
 31
0.0
  0
LINE
  8
LC-006-005-----0
  6
CONTINUOUS
  5
15F
 10
89.71754
 20
46.046962
 30
0.0
 11
88.288104
 21
47.476398
 31
0.0
  0
ENDBLK
  8
0
  5
160
  0
BLOCK
  8
0
  5
162
  2
*X24
 70
    65
 10
140.288104
 20
46.046962
 30
0.0
  3
*X24
  0
LINE
  8
LC-006-005-----0
  6
CONTINUOUS
  5
163
 10
187.468318
 20
46.046962
 30
0.0
 11
192.288104
 21
50.866747
 31
0.0
  0
LINE
  8
LC-006-005-----0
  6
CONTINUOUS
  5
164
 10
181.811464
 20
46.046962
 30
0.0
 11
192.288104
 21
56.523602
 31
0.0
  0
LINE
  8
LC-006-005-----0
  6
CONTINUOUS
  5
165
 10
176.15461
 20
46.046962
 30
0.0
 11
190.15461
 21
60.046962
 31
0.0
  0
LINE
  8
LC-006-005-----0
  6
CONTINUOUS
  5
166
 10
170.497756
 20
46.046962
 30
0.0
 11
184.497756
 21
60.046962
 31
0.0
  0
LINE
  8
LC-006-005-----0
  6
CONTINUOUS
  5
167
 10
164.840901
 20
46.046962
 30
0.0
 11
178.840901
 21
60.046962
 31
0.0
  0
LINE
  8
LC-006-005-----0
  6
CONTINUOUS
  5
168
 10
159.184047
 20
46.046962
 30
0.0
 11
173.184047
 21
60.046962
 31
0.0
  0
LINE
  8
LC-006-005-----0
  6
CONTINUOUS
  5
169
 10
153.527193
 20
46.046962
 30
0.0
 11
167.527193
 21
60.046962
 31
0.0
  0
LINE
  8
LC-006-005-----0
  6
CONTINUOUS
  5
16A
 10
147.870339
 20
46.046962
 30
0.0
 11
161.870339
 21
60.046962
 31
0.0
  0
LINE
  8
LC-006-005-----0
  6
CONTINUOUS
  5
16B
 10
142.213484
 20
46.046962
 30
0.0
 11
156.213484
 21
60.046962
 31
0.0
  0
LINE
  8
LC-006-005-----0
  6
CONTINUOUS
  5
16C
 10
140.288104
 20
49.778436
 30
0.0
 11
150.55663
 21
60.046962
 31
0.0
  0
LINE
  8
LC-006-005-----0
  6
CONTINUOUS
  5
16D
 10
140.288104
 20
55.43529
 30
0.0
 11
144.899776
 21
60.046962
 31
0.0
  0
LINE
  8
LC-006-005-----0
  6
CONTINUOUS
  5
16E
 10
192.288104
 20
56.613483
 30
0.0
 11
188.854625
 21
60.046962
 31
0.0
  0
LINE
  8
LC-006-005-----0
  6
CONTINUOUS
  5
16F
 10
192.288104
 20
50.956629
 30
0.0
 11
183.197771
 21
60.046962
 31
0.0
  0
LINE
  8
LC-006-005-----0
  6
CONTINUOUS
  5
170
 10
191.540916
 20
46.046962
 30
0.0
 11
177.540916
 21
60.046962
 31
0.0
  0
LINE
  8
LC-006-005-----0
  6
CONTINUOUS
  5
171
 10
185.884062
 20
46.046962
 30
0.0
 11
171.884062
 21
60.046962
 31
0.0
  0
LINE
  8
LC-006-005-----0
  6
CONTINUOUS
  5
172
 10
180.227208
 20
46.046962
 30
0.0
 11
166.227208
 21
60.046962
 31
0.0
  0
LINE
  8
LC-006-005-----0
  6
CONTINUOUS
  5
173
 10
174.570354
 20
46.046962
 30
0.0
 11
160.570354
 21
60.046962
 31
0.0
  0
LINE
  8
LC-006-005-----0
  6
CONTINUOUS
  5
174
 10
168.913499
 20
46.046962
 30
0.0
 11
154.913499
 21
60.046962
 31
0.0
  0
LINE
  8
LC-006-005-----0
  6
CONTINUOUS
  5
175
 10
163.256645
 20
46.046962
 30
0.0
 11
149.256645
 21
60.046962
 31
0.0
  0
LINE
  8
LC-006-005-----0
  6
CONTINUOUS
  5
176
 10
157.599791
 20
46.046962
 30
0.0
 11
143.599791
 21
60.046962
 31
0.0
  0
LINE
  8
LC-006-005-----0
  6
CONTINUOUS
  5
177
 10
151.942937
 20
46.046962
 30
0.0
 11
140.288104
 21
57.701795
 31
0.0
  0
LINE
  8
LC-006-005-----0
  6
CONTINUOUS
  5
178
 10
146.286082
 20
46.046962
 30
0.0
 11
140.288104
 21
52.044941
 31
0.0
  0
LINE
  8
LC-006-005-----0
  6
CONTINUOUS
  5
179
 10
140.629228
 20
46.046962
 30
0.0
 11
140.288104
 21
46.388087
 31
0.0
  0
ENDBLK
  8
0
  5
17A
  0
BLOCK
  8
0
  5
17C
  2
*D25
 70
    65
 10
0.0
 20
0.0
 30
0.0
  3
*D25
  0
LINE
  8
LC-004-003-MTH-0
  6
CONTINUOUS
  5
17D
 10
192.288104
 20
46.046962
 30
0.0
 11
254.8
 21
46.046962
 31
0.0
  0
LINE
  8
LC-004-003-MTH-0
  6
CONTINUOUS
  5
17E
 10
192.288104
 20
60.046962
 30
0.0
 11
254.8
 21
60.046962
 31
0.0
  0
LINE
  8
LC-003-003-----0
  6
CONTINUOUS
  5
17F
 10
241.654733
 20
18.286506
 30
0.0
 11
238.0
 21
46.046962
 31
0.0
  0
LINE
  8
LC-003-003-----0
  6
CONTINUOUS
  5
180
 10
238.0
 20
46.046962
 30
0.0
 11
234.345267
 21
18.286506
 31
0.0
  0
LINE
  8
LC-003-003-----0
  6
CONTINUOUS
  5
181
 10
234.345267
 20
18.286506
 30
0.0
 11
241.654733
 21
18.286506
 31
0.0
  0
LINE
  8
LC-003-003-----0
  6
CONTINUOUS
  5
182
 10
240.704503
 20
18.224225
 30
0.0
 11
238.0
 21
38.766962
 31
0.0
  0
LINE
  8
LC-003-003-----0
  6
CONTINUOUS
  5
183
 10
238.0
 20
38.766962
 30
0.0
 11
235.295497
 21
18.224225
 31
0.0
  0
LINE
  8
LC-003-003-----0
  6
CONTINUOUS
  5
184
 10
239.754272
 20
18.161943
 30
0.0
 11
238.0
 21
31.486962
 31
0.0
  0
LINE
  8
LC-003-003-----0
  6
CONTINUOUS
  5
185
 10
238.0
 20
31.486962
 30
0.0
 11
236.245728
 21
18.161943
 31
0.0
  0
LINE
  8
LC-003-003-----0
  6
CONTINUOUS
  5
186
 10
238.804041
 20
18.099662
 30
0.0
 11
238.0
 21
24.206962
 31
0.0
  0
LINE
  8
LC-003-003-----0
  6
CONTINUOUS
  5
187
 10
238.0
 20
24.206962
 30
0.0
 11
237.195959
 21
18.099662
 31
0.0
  0
LINE
  8
LC-003-003-----0
  6
CONTINUOUS
  5
188
 10
234.345267
 20
87.807418
 30
0.0
 11
238.0
 21
60.046962
 31
0.0
  0
LINE
  8
LC-003-003-----0
  6
CONTINUOUS
  5
189
 10
238.0
 20
60.046962
 30
0.0
 11
241.654733
 21
87.807418
 31
0.0
  0
LINE
  8
LC-003-003-----0
  6
CONTINUOUS
  5
18A
 10
241.654733
 20
87.807418
 30
0.0
 11
234.345267
 21
87.807418
 31
0.0
  0
LINE
  8
LC-003-003-----0
  6
CONTINUOUS
  5
18B
 10
235.295497
 20
87.8697
 30
0.0
 11
238.0
 21
67.326962
 31
0.0
  0
LINE
  8
LC-003-003-----0
  6
CONTINUOUS
  5
18C
 10
238.0
 20
67.326962
 30
0.0
 11
240.704503
 21
87.8697
 31
0.0
  0
LINE
  8
LC-003-003-----0
  6
CONTINUOUS
  5
18D
 10
236.245728
 20
87.931981
 30
0.0
 11
238.0
 21
74.606962
 31
0.0
  0
LINE
  8
LC-003-003-----0
  6
CONTINUOUS
  5
18E
 10
238.0
 20
74.606962
 30
0.0
 11
239.754272
 21
87.931981
 31
0.0
  0
LINE
  8
LC-003-003-----0
  6
CONTINUOUS
  5
18F
 10
237.195959
 20
87.994262
 30
0.0
 11
238.0
 21
81.886962
 31
0.0
  0
LINE
  8
LC-003-003-----0
  6
CONTINUOUS
  5
190
 10
238.0
 20
81.886962
 30
0.0
 11
238.804041
 21
87.994262
 31
0.0
  0
LINE
  8
LC-005-003-MTG-0
  6
CONTINUOUS
  5
191
 10
238.0
 20
6.846962
 30
0.0
 11
238.0
 21
143.411362
 31
0.0
  0
TEXT
  8
LC-003-003-----0
  6
CONTINUOUS
 62
     8
  5
192
 10
230.172446
 20
102.475122
 30
0.0
 40
28.0
  1
14
 50
90.0
 51
15.0
  7
LC-TXTSTYLE-150-400-0-0-D0
  0
ENDBLK
  8
0
  5
193
  0
BLOCK
  8
0
  5
195
  2
*D26
 70
    65
 10
0.0
 20
0.0
 30
0.0
  3
*D26
  0
LINE
  8
LC-004-003-MTH-0
  6
CONTINUOUS
  5
196
 10
192.288104
 20
60.046962
 30
0.0
 11
296.8
 21
60.046962
 31
0.0
  0
LINE
  8
LC-004-003-MTH-0
  6
CONTINUOUS
  5
197
 10
220.266104
 20
164.046962
 30
0.0
 11
296.8
 21
164.046962
 31
0.0
  0
LINE
  8
LC-005-003-MTG-0
  6
CONTINUOUS
  5
198
 10
280.0
 20
60.046962
 30
0.0
 11
280.0
 21
164.046962
 31
0.0
  0
LINE
  8
LC-003-003-----0
  6
CONTINUOUS
  5
199
 10
276.345267
 20
87.807418
 30
0.0
 11
280.0
 21
60.046962
 31
0.0
  0
LINE
  8
LC-003-003-----0
  6
CONTINUOUS
  5
19A
 10
280.0
 20
60.046962
 30
0.0
 11
283.654733
 21
87.807418
 31
0.0
  0
LINE
  8
LC-003-003-----0
  6
CONTINUOUS
  5
19B
 10
283.654733
 20
87.807418
 30
0.0
 11
276.345267
 21
87.807418
 31
0.0
  0
LINE
  8
LC-003-003-----0
  6
CONTINUOUS
  5
19C
 10
277.295497
 20
87.8697
 30
0.0
 11
280.0
 21
67.326962
 31
0.0
  0
LINE
  8
LC-003-003-----0
  6
CONTINUOUS
  5
19D
 10
280.0
 20
67.326962
 30
0.0
 11
282.704503
 21
87.8697
 31
0.0
  0
LINE
  8
LC-003-003-----0
  6
CONTINUOUS
  5
19E
 10
278.245728
 20
87.931981
 30
0.0
 11
280.0
 21
74.606962
 31
0.0
  0
LINE
  8
LC-003-003-----0
  6
CONTINUOUS
  5
19F
 10
280.0
 20
74.606962
 30
0.0
 11
281.754272
 21
87.931981
 31
0.0
  0
LINE
  8
LC-003-003-----0
  6
CONTINUOUS
  5
1A0
 10
279.195959
 20
87.994262
 30
0.0
 11
280.0
 21
81.886962
 31
0.0
  0
LINE
  8
LC-003-003-----0
  6
CONTINUOUS
  5
1A1
 10
280.0
 20
81.886962
 30
0.0
 11
280.804041
 21
87.994262
 31
0.0
  0
LINE
  8
LC-003-003-----0
  6
CONTINUOUS
  5
1A2
 10
283.654733
 20
136.286506
 30
0.0
 11
280.0
 21
164.046962
 31
0.0
  0
LINE
  8
LC-003-003-----0
  6
CONTINUOUS
  5
1A3
 10
280.0
 20
164.046962
 30
0.0
 11
276.345267
 21
136.286506
 31
0.0
  0
LINE
  8
LC-003-003-----0
  6
CONTINUOUS
  5
1A4
 10
276.345267
 20
136.286506
 30
0.0
 11
283.654733
 21
136.286506
 31
0.0
  0
LINE
  8
LC-003-003-----0
  6
CONTINUOUS
  5
1A5
 10
282.704503
 20
136.224225
 30
0.0
 11
280.0
 21
156.766962
 31
0.0
  0
LINE
  8
LC-003-003-----0
  6
CONTINUOUS
  5
1A6
 10
280.0
 20
156.766962
 30
0.0
 11
277.295497
 21
136.224225
 31
0.0
  0
LINE
  8
LC-003-003-----0
  6
CONTINUOUS
  5
1A7
 10
281.754272
 20
136.161943
 30
0.0
 11
280.0
 21
149.486962
 31
0.0
  0
LINE
  8
LC-003-003-----0
  6
CONTINUOUS
  5
1A8
 10
280.0
 20
149.486962
 30
0.0
 11
278.245728
 21
136.161943
 31
0.0
  0
LINE
  8
LC-003-003-----0
  6
CONTINUOUS
  5
1A9
 10
280.804041
 20
136.099662
 30
0.0
 11
280.0
 21
142.206962
 31
0.0
  0
LINE
  8
LC-003-003-----0
  6
CONTINUOUS
  5
1AA
 10
280.0
 20
142.206962
 30
0.0
 11
279.195959
 21
136.099662
 31
0.0
  0
TEXT
  8
LC-003-003-----0
  6
CONTINUOUS
 62
     8
  5
1AB
 10
272.172446
 20
62.721106
 30
0.0
 40
28.0
  1
6-104
 50
90.0
 51
15.0
  7
LC-TXTSTYLE-150-400-0-0-D0
 72
     1
 11
272.172446
 21
116.395122
 31
0.0
  0
ENDBLK
  8
0
  5
1AC
  0
ENDSEC
  0
SECTION
  2
ENTITIES
  0
VIEWPORT
  8
LC-000
  5
2EC
 67
     1
 68
     1
 10
420.0
 20
297.0
 30
0.0
 40
840.0
 41
594.0
 69
     1
1001
ACAD
1000
MVIEW
1002
{
1070
    16
1010
0.0
1020
0.0
1030
0.0
1010
0.0
1020
0.0
1030
1.0
1040
0.0
1040
594.0
1040
420.0
1040
297.0
1040
50.0
1040
0.0
1040
0.0
1070
     0
1070
   100
1070
     1
1070
     1
1070
     0
1070
     0
1070
     0
1070
     0
1040
0.0
1040
0.0
1040
0.0
1040
1.0
1040
1.0
1040
0.0
1040
0.0
1070
     0
1002
{
1002
}
1002
}
  0
VIEWPORT
  8
0
  5
2ED
 67
     1
 68
     1
 10
0.0
 20
0.0
 30
0.0
 40
0.0
 41
0.0
 69
     1
1001
ACAD
1000
MVIEW
1002
{
1070
    16
1010
0.0
1020
0.0
1030
0.0
1010
0.0
1020
0.0
1030
1.0
1040
0.0
1040
594.0
1040
0.0
1040
0.0
1040
50.0
1040
0.0
1040
0.0
1070
     0
1070
   100
1070
     0
1070
     1
1070
     0
1070
     0
1070
     0
1070
     0
1040
0.0
1040
0.0
1040
0.0
1040
0.5
1040
0.5
1040
0.5
1040
0.5
1070
     0
1002
{
1002
}
1002
}
  0
DIMENSION
  8
0
  5
1AD
  2
*D0
 10
140.288104
 20
196.0
 30
0.0
 11
140.288104
 21
196.0
 31
0.0
 13
90.288104
 23
164.046962
 33
0.0
 14
190.288104
 24
164.046962
 34
0.0
  3
LC-DIM-L-0140-02-02
  0
INSERT
  8
0
  5
1AE
  2
*X1
 10
60.310104
 20
46.046962
 30
0.0
  0
INSERT
  8
0
  5
1B0
  2
BLK1
 10
0.0
 20
0.0
 30
0.0
  0
INSERT
  8
0
  5
1B1
  2
*X3
 10
80.288497
 20
43.046987
 30
0.0
  0
INSERT
  8
0
  5
1B2
  2
BLK2
 10
0.0
 20
0.0
 30
0.0
  0
INSERT
  8
0
  5
1B3
  2
*X5
 10
192.287666
 20
43.046987
 30
0.0
  0
INSERT
  8
0
  5
1B4
  2
BLK3
 10
0.0
 20
0.0
 30
0.0
  0
DIMENSION
  8
0
  5
1B5
  2
*D7
 10
140.288104
 20
235.2
 30
0.0
 11
140.288104
 21
235.2
 31
0.0
  1
160
 13
60.310104
 23
164.046962
 33
0.0
 14
220.266104
 24
164.046962
 34
0.0
  3
LC-DIM-L-0140-02-02
  0
DIMENSION
  8
0
  5
1B6
  2
*D8
 10
140.288104
 20
0.0
 30
0.0
 11
140.288104
 21
0.0
 31
0.0
  1
%%c110
 13
85.28858
 23
50.545182
 33
0.0
 14
195.287627
 24
50.545182
 34
0.0
  3
LC-DIM-L-0140-02-02
  0
INSERT
  8
0
  5
1B7
  2
*X9
 10
94.788104
 20
159.546962
 30
0.0
  0
INSERT
  8
0
  5
1B8
  2
*X10
 10
107.288104
 20
160.546962
 30
0.0
  0
INSERT
  8
0
  5
1B9
  2
*X11
 10
119.288104
 20
160.546962
 30
0.0
  0
INSERT
  8
0
  5
1BA
  2
*X12
 10
131.288104
 20
160.546962
 30
0.0
  0
INSERT
  8
0
  5
1BB
  2
BLK4
 10
0.0
 20
0.0
 30
0.0
  0
INSERT
  8
0
  5
1BC
  2
*X14
 10
179.288104
 20
159.546962
 30
0.0
  0
INSERT
  8
0
  5
1BD
  2
*X15
 10
167.288104
 20
160.546962
 30
0.0
  0
INSERT
  8
0
  5
1BE
  2
*X16
 10
155.288104
 20
160.546962
 30
0.0
  0
INSERT
  8
0
  5
1BF
  2
*X17
 10
140.288104
 20
160.546962
 30
0.0
  0
INSERT
  8
0
  5
1C0
  2
BLK5
 10
0.0
 20
0.0
 30
0.0
  0
INSERT
  8
0
  5
1C1
  2
BLK6
 10
0.0
 20
0.0
 30
0.0
  0
INSERT
  8
0
  5
1C2
  2
BLK7
 10
0.0
 20
0.0
 30
0.0
  0
INSERT
  8
0
  5
1C3
  2
BLK8
 10
0.0
 20
0.0
 30
0.0
  0
INSERT
  8
0
  5
1C4
  2
*X22
 10
182.288104
 20
46.046962
 30
0.0
  0
INSERT
  8
0
  5
1C5
  2
*X23
 10
88.288104
 20
46.046962
 30
0.0
  0
INSERT
  8
0
  5
1C6
  2
*X24
 10
140.288104
 20
46.046962
 30
0.0
  0
DIMENSION
  8
0
  5
1C7
  2
*D25
 10
238.0
 20
53.046962
 30
0.0
 11
238.0
 21
53.046962
 31
0.0
 13
192.288104
 23
46.046962
 33
0.0
 14
192.288104
 24
60.046962
 34
0.0
 50
90.0
  3
LC-DIM-L-0140-02-02
  0
DIMENSION
  8
0
  5
1C8
  2
*D26
 10
280.0
 20
112.046962
 30
0.0
 11
280.0
 21
112.046962
 31
0.0
  1
6-104
 13
192.288104
 23
60.046962
 33
0.0
 14
220.266104
 24
164.046962
 34
0.0
 50
90.0
  3
LC-DIM-L-0140-02-02
  0
LINE
  8
LC-001-002-----0
  6
CONTINUOUS
  5
1CA
 10
85.288104
 20
157.046962
 30
0.0
 11
85.288104
 21
157.046962
 31
0.0
  0
LINE
  8
LC-001-002-----0
  6
CONTINUOUS
  5
1CB
 10
195.288104
 20
157.046962
 30
0.0
 11
195.288104
 21
157.046962
 31
0.0
  0
LINE
  8
LC-001-002-----0
  6
CONTINUOUS
  5
1CC
 10
85.288104
 20
159.546962
 30
0.0
 11
85.288104
 21
158.546962
 31
0.0
  0
LINE
  8
LC-001-002-----0
  6
CONTINUOUS
  5
1CD
 10
90.288104
 20
164.046962
 30
0.0
 11
90.288104
 21
165.546962
 31
0.0
  0
LINE
  8
LC-001-002-----0
  6
CONTINUOUS
  5
1CE
 10
90.288104
 20
164.046962
 30
0.0
 11
60.310104
 21
164.046962
 31
0.0
  0
LINE
  8
LC-001-002-----0
  6
CONTINUOUS
  5
1CF
 10
60.310104
 20
161.046962
 30
0.0
 11
85.288104
 21
161.046962
 31
0.0
  0
ARC
  8
LC-002-002-RND-0
  6
CONTINUOUS
  5
1D1
 10
330.766104
 20
61.546962
 30
0.0
 40
2.0
 50
180.0
 51
270.0
  0
ARC
  8
LC-002-002-RND-0
  6
CONTINUOUS
  5
1D2
 10
419.766104
 20
61.546962
 30
0.0
 40
2.0
 50
270.0
 51
0.0
  0
LINE
  8
LC-001-002-----0
  6
CONTINUOUS
  5
1D3
 10
325.266104
 20
57.046962
 30
0.0
 11
325.266104
 21
155.046962
 31
0.0
  0
LINE
  8
LC-001-002-----0
  6
CONTINUOUS
  5
1D4
 10
195.288104
 20
159.546962
 30
0.0
 11
195.288104
 21
158.546962
 31
0.0
  0
LINE
  8
LC-001-002-----0
  6
CONTINUOUS
  5
1D5
 10
424.266104
 20
56.046962
 30
0.0
 11
326.266104
 21
56.046962
 31
0.0
  0
LINE
  8
LC-001-002-----0
  6
CONTINUOUS
  5
1D6
 10
425.266104
 20
155.046962
 30
0.0
 11
425.266104
 21
57.046962
 31
0.0
  0
ARC
  8
LC-002-002-RND-0
  6
CONTINUOUS
  5
1D7
 10
326.266104
 20
155.046962
 30
0.0
 40
1.0
 50
90.0
 51
180.0
  0
LINE
  8
LC-001-002-----0
  6
CONTINUOUS
  5
1D8
 10
195.287595
 20
61.046797
 30
0.0
 11
195.287619
 21
53.046903
 31
0.0
  0
ARC
  8
LC-002-002-RND-0
  6
CONTINUOUS
  5
1D9
 10
419.766104
 20
150.546962
 30
0.0
 40
2.0
 50
0.0
 51
90.0
  0
LINE
  8
LC-001-002-----0
  6
CONTINUOUS
  5
1DA
 10
190.288104
 20
164.046962
 30
0.0
 11
190.288104
 21
165.546962
 31
0.0
  0
ARC
  8
LC-002-002-RND-0
  6
CONTINUOUS
  5
1DB
 10
330.766104
 20
150.546962
 30
0.0
 40
2.0
 50
90.0
 51
180.0
  0
LINE
  8
LC-001-002-----0
  6
CONTINUOUS
  5
1DC
 10
93.788104
 20
160.546962
 30
0.0
 11
93.788104
 21
158.046962
 31
0.0
  0
LINE
  8
LC-001-002-----0
  6
CONTINUOUS
  5
1DD
 10
190.288104
 20
164.046962
 30
0.0
 11
220.266104
 21
164.046962
 31
0.0
  0
LINE
  8
LC-001-002-----0
  6
CONTINUOUS
  5
1DE
 10
326.266104
 20
156.046962
 30
0.0
 11
424.266104
 21
156.046962
 31
0.0
  0
LINE
  8
LC-001-002-----0
  6
CONTINUOUS
  5
1DF
 10
140.288104
 20
166.046962
 30
0.0
 11
93.288104
 21
166.046962
 31
0.0
  0
LINE
  8
LC-001-002-----0
  6
CONTINUOUS
  5
1E0
 10
93.788104
 20
158.046962
 30
0.0
 11
98.288104
 21
158.046962
 31
0.0
  0
LINE
  8
LC-001-002-----0
  6
CONTINUOUS
  5
1E1
 10
91.288104
 20
155.046962
 30
0.0
 11
91.288104
 21
157.546962
 31
0.0
  0
LINE
  8
LC-001-002-----0
  6
CONTINUOUS
  5
1E2
 10
91.288104
 20
155.046962
 30
0.0
 11
94.988104
 21
155.046962
 31
0.0
  0
LINE
  8
LC-001-002-----0
  6
CONTINUOUS
  5
1E3
 10
88.288104
 20
157.546962
 30
0.0
 11
91.288104
 21
157.546962
 31
0.0
  0
LINE
  8
LC-001-002-----0
  6
CONTINUOUS
  5
1E4
 10
220.266104
 20
161.046962
 30
0.0
 11
195.288104
 21
161.046962
 31
0.0
  0
ARC
  8
LC-002-002-RND-0
  6
CONTINUOUS
  5
1E5
 10
90.788104
 20
165.546962
 30
0.0
 40
0.5
 50
90.0
 51
180.0
  0
LINE
  8
LC-001-002-----0
  6
CONTINUOUS
  5
1E6
 10
192.287666
 20
43.046987
 30
0.0
 11
200.287711
 21
43.046987
 31
0.0
  0
ARC
  8
LC-002-002-RND-0
  6
CONTINUOUS
  5
1E7
 10
93.288104
 20
165.546962
 30
0.0
 40
0.5
 50
360.0
 51
90.0
  0
LINE
  8
LC-001-002-----0
  6
CONTINUOUS
  5
1E8
 10
175.981394
 20
43.046987
 30
0.0
 11
175.981394
 21
46.046962
 31
0.0
  0
LINE
  8
LC-001-002-----0
  6
CONTINUOUS
  5
1E9
 10
186.788104
 20
160.546962
 30
0.0
 11
186.788104
 21
158.046962
 31
0.0
  0
LINE
  8
LC-001-002-----0
  6
CONTINUOUS
  5
1EA
 10
140.288104
 20
166.046962
 30
0.0
 11
187.288104
 21
166.046962
 31
0.0
  0
LINE
  8
LC-001-002-----0
  6
CONTINUOUS
  5
1EB
 10
85.288104
 20
157.046962
 30
0.0
 11
85.288104
 21
50.546962
 31
0.0
  0
LINE
  8
LC-001-002-----0
  6
CONTINUOUS
  5
1EC
 10
88.288104
 20
157.546962
 30
0.0
 11
88.288104
 21
46.046962
 31
0.0
  0
LINE
  8
LC-001-002-----0
  6
CONTINUOUS
  5
1ED
 10
86.493875
 20
46.046962
 30
0.0
 11
88.288104
 21
46.046962
 31
0.0
  0
LINE
  8
LC-001-002-----0
  6
CONTINUOUS
  5
1EE
 10
295.288104
 20
31.068962
 30
0.0
 11
295.288104
 21
181.024962
 31
0.0
  0
LINE
  8
LC-001-002-----0
  6
CONTINUOUS
  5
1EF
 10
300.288104
 20
186.024962
 30
0.0
 11
450.244104
 21
186.024962
 31
0.0
  0
LINE
  8
LC-001-002-----0
  6
CONTINUOUS
  5
1F0
 10
455.244104
 20
181.024962
 30
0.0
 11
455.244104
 21
31.068962
 31
0.0
  0
LINE
  8
LC-001-002-----0
  6
CONTINUOUS
  5
1F1
 10
450.244104
 20
26.068962
 30
0.0
 11
300.288104
 21
26.068962
 31
0.0
  0
ARC
  8
LC-002-002-RND-0
  6
CONTINUOUS
  5
1F2
 10
300.288104
 20
31.068962
 30
0.0
 40
5.0
 50
180.0
 51
270.0
  0
ARC
  8
LC-002-002-RND-0
  6
CONTINUOUS
  5
1F3
 10
300.288104
 20
181.024962
 30
0.0
 40
5.0
 50
90.0
 51
180.0
  0
ARC
  8
LC-002-002-RND-0
  6
CONTINUOUS
  5
1F4
 10
450.244104
 20
181.024962
 30
0.0
 40
5.0
 50
0.0
 51
90.0
  0
ARC
  8
LC-002-002-RND-0
  6
CONTINUOUS
  5
1F5
 10
450.244104
 20
31.068962
 30
0.0
 40
5.0
 50
270.0
 51
0.0
  0
LINE
  8
LC-001-002-----0
  6
CONTINUOUS
  5
1F6
 10
85.288104
 20
50.546962
 30
0.0
 11
86.493875
 21
46.046962
 31
0.0
  0
LINE
  8
LC-001-002-----0
  6
CONTINUOUS
  5
1F7
 10
95.488104
 20
146.546962
 30
0.0
 11
98.288104
 21
146.546962
 31
0.0
  0
ARC
  8
LC-002-002-RND-0
  6
CONTINUOUS
  5
1F8
 10
424.266104
 20
57.046962
 30
0.0
 40
1.0
 50
270.0
 51
0.0
  0
LINE
  8
LC-001-002-----0
  6
CONTINUOUS
  5
1F9
 10
95.488104
 20
154.546962
 30
0.0
 11
95.488104
 21
146.546962
 31
0.0
  0
ARC
  8
LC-002-002-RND-0
  6
CONTINUOUS
  5
1FA
 10
424.266104
 20
155.046962
 30
0.0
 40
1.0
 50
0.0
 51
90.0
  0
ARC
  8
LC-001-002-----0
  6
CONTINUOUS
  5
1FB
 10
94.988104
 20
154.546962
 30
0.0
 40
0.5
 50
360.0
 51
90.0
  0
LINE
  8
LC-001-002-----0
  6
CONTINUOUS
  5
1FC
 10
98.288104
 20
158.046962
 30
0.0
 11
98.288104
 21
146.546962
 31
0.0
  0
LINE
  8
LC-001-002-----0
  6
CONTINUOUS
  5
1FD
 10
186.788104
 20
158.046962
 30
0.0
 11
182.288104
 21
158.046962
 31
0.0
  0
LINE
  8
LC-001-002-----0
  6
CONTINUOUS
  5
1FE
 10
189.288104
 20
155.046962
 30
0.0
 11
189.288104
 21
157.546962
 31
0.0
  0
LINE
  8
LC-001-002-----0
  6
CONTINUOUS
  5
1FF
 10
91.288104
 20
157.546962
 30
0.0
 11
88.288104
 21
157.546962
 31
0.0
  0
LINE
  8
LC-001-002-----0
  6
CONTINUOUS
  5
200
 10
93.788104
 20
160.546962
 30
0.0
 11
93.788104
 21
160.546962
 31
0.0
  0
LINE
  8
LC-001-002-----0
  6
CONTINUOUS
  5
201
 10
93.788104
 20
160.546962
 30
0.0
 11
93.788104
 21
165.546962
 31
0.0
  0
LINE
  8
LC-001-002-----0
  6
CONTINUOUS
  5
202
 10
189.288104
 20
155.046962
 30
0.0
 11
185.588104
 21
155.046962
 31
0.0
  0
LINE
  8
LC-001-002-----0
  6
CONTINUOUS
  5
203
 10
85.288104
 20
157.046962
 30
0.0
 11
85.288104
 21
161.046962
 31
0.0
  0
LINE
  8
LC-001-002-----0
  6
CONTINUOUS
  5
204
 10
192.288104
 20
157.546962
 30
0.0
 11
189.288104
 21
157.546962
 31
0.0
  0
LINE
  8
LC-001-002-----0
  6
CONTINUOUS
  5
205
 10
140.288104
 20
158.046962
 30
0.0
 11
98.304614
 21
158.046962
 31
0.0
  0
LINE
  8
LC-001-002-----0
  6
CONTINUOUS
  5
206
 10
140.288104
 20
46.046962
 30
0.0
 11
88.288104
 21
46.046962
 31
0.0
  0
LINE
  8
LC-001-002-----0
  6
CONTINUOUS
  5
207
 10
60.310104
 20
164.046962
 30
0.0
 11
60.310104
 21
161.046962
 31
0.0
  0
LINE
  8
LC-001-002-----0
  6
CONTINUOUS
  5
208
 10
93.288104
 20
166.046962
 30
0.0
 11
90.788104
 21
166.046962
 31
0.0
  0
ARC
  8
LC-002-002-RND-0
  6
CONTINUOUS
  5
209
 10
189.788104
 20
165.546962
 30
0.0
 40
0.5
 50
0.0
 51
90.0
  0
LINE
  8
LC-001-002-----0
  6
CONTINUOUS
  5
20A
 10
140.288104
 20
146.546962
 30
0.0
 11
98.051487
 21
146.546962
 31
0.0
  0
ARC
  8
LC-002-002-RND-0
  6
CONTINUOUS
  5
20B
 10
326.266104
 20
57.046962
 30
0.0
 40
1.0
 50
180.0
 51
270.0
  0
LINE
  8
LC-001-002-----0
  6
CONTINUOUS
  5
20C
 10
93.788104
 20
160.546962
 30
0.0
 11
140.288104
 21
160.546962
 31
0.0
  0
LINE
  8
LC-001-002-----0
  6
DASHDOT
 62
     2
  5
20E
 10
140.288104
 20
166.046962
 30
0.0
 11
140.288104
 21
46.046962
 31
0.0
  0
LINE
  8
LC-001-002-----0
  6
CONTINUOUS
  5
20F
 10
104.594813
 20
43.046987
 30
0.0
 11
104.594813
 21
46.046962
 31
0.0
  0
LINE
  8
LC-001-002-----0
  6
CONTINUOUS
  5
210
 10
102.47351
 20
43.046987
 30
0.0
 11
102.47351
 21
46.046962
 31
0.0
  0
LINE
  8
LC-001-002-----0
  6
CONTINUOUS
  5
211
 10
200.287711
 20
43.046987
 30
0.0
 11
200.287711
 21
53.046213
 31
0.0
  0
ARC
  8
LC-002-002-RND-0
  6
CONTINUOUS
  5
212
 10
187.288104
 20
165.546962
 30
0.0
 40
0.5
 50
90.0
 51
180.0
  0
LINE
  8
LC-001-002-----0
  6
CONTINUOUS
  5
213
 10
197.287617
 20
63.046819
 30
0.0
 11
197.287617
 21
53.046903
 31
0.0
  0
LINE
  8
LC-001-002-----0
  6
CONTINUOUS
  5
214
 10
198.787723
 20
53.046903
 30
0.0
 11
200.287711
 21
53.046903
 31
0.0
  0
LINE
  8
LC-001-002-----0
  6
CONTINUOUS
  5
215
 10
197.287617
 20
63.046819
 30
0.0
 11
195.287595
 21
61.046797
 31
0.0
  0
LINE
  8
LC-001-002-----0
  6
CONTINUOUS
  5
216
 10
198.787723
 20
53.046903
 30
0.0
 11
197.287617
 21
53.046903
 31
0.0
  0
LINE
  8
LC-001-002-----0
  6
CONTINUOUS
  5
217
 10
138.788116
 20
46.046962
 30
0.0
 11
141.788091
 21
46.046962
 31
0.0
  0
LINE
  8
LC-001-002-----0
  6
CONTINUOUS
  5
218
 10
141.788091
 20
43.046987
 30
0.0
 11
141.788091
 21
46.046962
 31
0.0
  0
CIRCLE
  8
LC-001-002-----0
  6
CONTINUOUS
  5
219
 10
336.766104
 20
67.546962
 30
0.0
 40
5.5
  0
LINE
  8
LC-001-002-----0
  6
CONTINUOUS
  5
21A
 10
97.873641
 20
43.046987
 30
0.0
 11
97.873641
 21
46.046962
 31
0.0
  0
LINE
  8
LC-001-002-----0
  6
CONTINUOUS
  5
21B
 10
97.873641
 20
46.046962
 30
0.0
 11
104.594813
 21
46.046962
 31
0.0
  0
LINE
  8
LC-001-002-----0
  6
CONTINUOUS
  5
21C
 10
88.288541
 20
43.046987
 30
0.0
 11
141.788091
 21
43.046987
 31
0.0
  0
LINE
  8
LC-001-002-----0
  6
CONTINUOUS
  5
21D
 10
141.788091
 20
43.046987
 30
0.0
 11
175.981394
 21
43.046987
 31
0.0
  0
LINE
  8
LC-001-002-----0
  6
CONTINUOUS
  5
21E
 10
175.981394
 20
43.046987
 30
0.0
 11
192.266027
 21
43.046987
 31
0.0
  0
LINE
  8
LC-001-002-----0
  6
CONTINUOUS
  5
21F
 10
195.288104
 20
157.046962
 30
0.0
 11
195.288104
 21
50.546962
 31
0.0
  0
LINE
  8
LC-001-002-----0
  6
CONTINUOUS
  5
220
 10
138.788116
 20
43.046987
 30
0.0
 11
138.788116
 21
46.046962
 31
0.0
  0
LINE
  8
LC-001-002-----0
  6
CONTINUOUS
  5
221
 10
192.288104
 20
157.546962
 30
0.0
 11
192.288104
 21
46.046962
 31
0.0
  0
LINE
  8
LC-001-002-----0
  6
CONTINUOUS
  5
222
 10
85.288613
 20
61.046797
 30
0.0
 11
85.288567
 21
46.046962
 31
0.0
  0
LINE
  8
LC-001-002-----0
  6
CONTINUOUS
  5
223
 10
88.288541
 20
43.046987
 30
0.0
 11
80.288497
 21
43.046987
 31
0.0
  0
LINE
  8
LC-001-002-----0
  6
CONTINUOUS
  5
224
 10
80.288497
 20
43.046987
 30
0.0
 11
80.288497
 21
53.046213
 31
0.0
  0
LINE
  8
LC-001-002-----0
  6
CONTINUOUS
  5
225
 10
83.28859
 20
63.046819
 30
0.0
 11
83.28859
 21
53.046903
 31
0.0
  0
LINE
  8
LC-001-002-----0
  6
CONTINUOUS
  5
226
 10
194.082332
 20
46.046962
 30
0.0
 11
192.288104
 21
46.046962
 31
0.0
  0
LINE
  8
LC-001-002-----0
  6
CONTINUOUS
  5
227
 10
195.288104
 20
50.546962
 30
0.0
 11
194.082332
 21
46.046962
 31
0.0
  0
LINE
  8
LC-001-002-----0
  6
CONTINUOUS
  5
228
 10
81.788484
 20
53.046903
 30
0.0
 11
80.288497
 21
53.046903
 31
0.0
  0
LINE
  8
LC-001-002-----0
  6
CONTINUOUS
  5
229
 10
185.088104
 20
146.546962
 30
0.0
 11
182.288104
 21
146.546962
 31
0.0
  0
LINE
  8
LC-001-002-----0
  6
CONTINUOUS
  5
22A
 10
83.28859
 20
63.046819
 30
0.0
 11
85.288613
 21
61.046797
 31
0.0
  0
LINE
  8
LC-001-002-----0
  6
CONTINUOUS
  5
22B
 10
85.288567
 20
46.046962
 30
0.0
 11
88.288541
 21
46.046962
 31
0.0
  0
LINE
  8
LC-001-002-----0
  6
CONTINUOUS
  5
22C
 10
185.088104
 20
154.546962
 30
0.0
 11
185.088104
 21
146.546962
 31
0.0
  0
ARC
  8
LC-001-002-----0
  6
CONTINUOUS
  5
22D
 10
185.588104
 20
154.546962
 30
0.0
 40
0.5
 50
90.0
 51
180.0
  0
LINE
  8
LC-001-002-----0
  6
CONTINUOUS
  5
22E
 10
182.288104
 20
158.046962
 30
0.0
 11
182.288104
 21
146.546962
 31
0.0
  0
LINE
  8
LC-001-002-----0
  6
CONTINUOUS
  5
22F
 10
88.288541
 20
46.046962
 30
0.0
 11
88.288541
 21
43.046987
 31
0.0
  0
LINE
  8
LC-001-002-----0
  6
CONTINUOUS
  5
230
 10
189.288104
 20
157.546962
 30
0.0
 11
192.288104
 21
157.546962
 31
0.0
  0
LINE
  8
LC-001-002-----0
  6
CONTINUOUS
  5
231
 10
81.788484
 20
53.046903
 30
0.0
 11
83.28859
 21
53.046903
 31
0.0
  0
LINE
  8
LC-001-002-----0
  6
CONTINUOUS
  5
232
 10
186.788104
 20
160.546962
 30
0.0
 11
186.788104
 21
160.546962
 31
0.0
  0
LINE
  8
LC-001-002-----0
  6
CONTINUOUS
  5
233
 10
186.788104
 20
160.546962
 30
0.0
 11
186.788104
 21
165.546962
 31
0.0
  0
LINE
  8
LC-001-002-----0
  6
CONTINUOUS
  5
234
 10
195.288104
 20
157.046962
 30
0.0
 11
195.288104
 21
161.046962
 31
0.0
  0
LINE
  8
LC-001-002-----0
  6
CONTINUOUS
  5
235
 10
140.288104
 20
158.046962
 30
0.0
 11
182.271593
 21
158.046962
 31
0.0
  0
LINE
  8
LC-001-002-----0
  6
CONTINUOUS
  5
236
 10
195.28764
 20
46.046962
 30
0.0
 11
192.287666
 21
46.046962
 31
0.0
  0
LINE
  8
LC-001-002-----0
  6
CONTINUOUS
  5
237
 10
192.287666
 20
46.046962
 30
0.0
 11
192.287666
 21
43.046987
 31
0.0
  0
LINE
  8
LC-001-002-----0
  6
CONTINUOUS
  5
238
 10
195.287595
 20
61.046797
 30
0.0
 11
195.28764
 21
46.046962
 31
0.0
  0
LINE
  8
LC-001-002-----0
  6
CONTINUOUS
  5
239
 10
328.766104
 20
61.546962
 30
0.0
 11
328.766104
 21
150.546962
 31
0.0
  0
LINE
  8
LC-001-002-----0
  6
CONTINUOUS
  5
23A
 10
197.287617
 20
63.046819
 30
0.0
 11
195.287595
 21
61.046797
 31
0.0
  0
LINE
  8
LC-001-002-----0
  6
CONTINUOUS
  5
23B
 10
336.266104
 20
68.046962
 30
0.0
 11
334.266104
 21
68.046962
 31
0.0
  0
LINE
  8
LC-001-002-----0
  6
CONTINUOUS
  5
23C
 10
197.287617
 20
63.046819
 30
0.0
 11
197.287617
 21
53.046903
 31
0.0
  0
LINE
  8
LC-001-002-----0
  6
CONTINUOUS
  5
23D
 10
200.287711
 20
43.046987
 30
0.0
 11
200.287711
 21
53.046213
 31
0.0
  0
LINE
  8
LC-001-002-----0
  6
CONTINUOUS
  5
23E
 10
337.266104
 20
65.046962
 30
0.0
 11
336.266104
 21
65.046962
 31
0.0
  0
LINE
  8
LC-001-002-----0
  6
CONTINUOUS
  5
23F
 10
192.287666
 20
43.046987
 30
0.0
 11
200.287711
 21
43.046987
 31
0.0
  0
LINE
  8
LC-001-002-----0
  6
CONTINUOUS
  5
240
 10
182.702566
 20
43.046987
 30
0.0
 11
182.702566
 21
46.046962
 31
0.0
  0
LINE
  8
LC-001-002-----0
  6
CONTINUOUS
  5
241
 10
182.702566
 20
46.046962
 30
0.0
 11
175.981394
 21
46.046962
 31
0.0
  0
LINE
  8
LC-001-002-----0
  6
CONTINUOUS
  5
242
 10
178.102697
 20
43.046987
 30
0.0
 11
178.102697
 21
46.046962
 31
0.0
  0
LINE
  8
LC-001-002-----0
  6
CONTINUOUS
  5
243
 10
419.766104
 20
59.546962
 30
0.0
 11
330.766104
 21
59.546962
 31
0.0
  0
LINE
  8
LC-001-002-----0
  6
CONTINUOUS
  5
244
 10
421.766104
 20
150.546962
 30
0.0
 11
421.766104
 21
61.546962
 31
0.0
  0
LINE
  8
LC-001-002-----0
  6
CONTINUOUS
  5
245
 10
330.766104
 20
152.546962
 30
0.0
 11
419.766104
 21
152.546962
 31
0.0
  0
LINE
  8
LC-001-002-----0
  6
CONTINUOUS
 62
     2
  5
246
 10
103.900274
 20
206.214
 30
0.0
 11
118.900274
 21
206.214
 31
0.0
  0
LINE
  8
LC-001-002-----0
  6
CONTINUOUS
  5
247
 10
336.266104
 20
67.046962
 30
0.0
 11
336.266104
 21
65.046962
 31
0.0
  0
LINE
  8
LC-001-002-----0
  6
CONTINUOUS
 62
     2
  5
248
 10
103.900274
 20
221.214
 30
0.0
 11
103.900274
 21
206.214
 31
0.0
  0
LINE
  8
LC-001-002-----0
  6
CONTINUOUS
  5
249
 10
336.266104
 20
67.046962
 30
0.0
 11
334.266104
 21
67.046962
 31
0.0
  0
LINE
  8
LC-001-002-----0
  6
CONTINUOUS
 62
     2
  5
24A
 10
118.900274
 20
221.214
 30
0.0
 11
118.900274
 21
206.214
 31
0.0
  0
LINE
  8
LC-001-002-----0
  6
CONTINUOUS
  5
24B
 10
337.266104
 20
70.046962
 30
0.0
 11
336.266104
 21
70.046962
 31
0.0
  0
LINE
  8
LC-001-002-----0
  6
CONTINUOUS
 62
     2
  5
24C
 10
103.900274
 20
221.214
 30
0.0
 11
118.900274
 21
221.214
 31
0.0
  0
LINE
  8
LC-001-002-----0
  6
CONTINUOUS
  5
24D
 10
339.266104
 20
68.046962
 30
0.0
 11
339.266104
 21
67.046962
 31
0.0
  0
LINE
  8
LC-001-002-----0
  6
CONTINUOUS
  5
24E
 10
334.266104
 20
68.046962
 30
0.0
 11
334.266104
 21
67.046962
 31
0.0
  0
LINE
  8
LC-001-002-----0
  6
CONTINUOUS
  5
24F
 10
339.266104
 20
68.046962
 30
0.0
 11
337.266104
 21
68.046962
 31
0.0
  0
ARC
  8
LC-002-002-RND-0
  6
CONTINUOUS
  5
250
 10
97.288104
 20
163.046962
 30
0.0
 40
2.5
 50
90.0
 51
180.0
  0
ARC
  8
LC-002-002-RND-0
  6
CONTINUOUS
  5
251
 10
97.288104
 20
163.046962
 30
0.0
 40
1.0
 50
90.0
 51
180.0
  0
ARC
  8
LC-002-002-RND-0
  6
CONTINUOUS
  5
252
 10
109.788104
 20
163.046962
 30
0.0
 40
1.0
 50
90.0
 51
180.0
  0
ARC
  8
LC-002-002-RND-0
  6
CONTINUOUS
  5
253
 10
110.788104
 20
163.046962
 30
0.0
 40
1.0
 50
360.0
 51
90.0
  0
ARC
  8
LC-002-002-RND-0
  6
CONTINUOUS
  5
254
 10
121.788104
 20
163.046962
 30
0.0
 40
1.0
 50
90.0
 51
180.0
  0
ARC
  8
LC-002-002-RND-0
  6
CONTINUOUS
  5
255
 10
122.788104
 20
163.046962
 30
0.0
 40
1.0
 50
360.0
 51
90.0
  0
ARC
  8
LC-002-002-RND-0
  6
CONTINUOUS
  5
256
 10
133.788104
 20
163.046962
 30
0.0
 40
1.0
 50
90.0
 51
180.0
  0
LINE
  8
LC-001-002-----0
  6
CONTINUOUS
  5
257
 10
132.788104
 20
161.546962
 30
0.0
 11
131.288104
 21
161.546962
 31
0.0
  0
LINE
  8
LC-001-002-----0
  6
CONTINUOUS
  5
258
 10
131.288104
 20
161.546962
 30
0.0
 11
125.288104
 21
161.546962
 31
0.0
  0
LINE
  8
LC-001-002-----0
  6
CONTINUOUS
  5
259
 10
132.788104
 20
163.046962
 30
0.0
 11
132.788104
 21
161.546962
 31
0.0
  0
LINE
  8
LC-001-002-----0
  6
CONTINUOUS
  5
25A
 10
123.788104
 20
163.046962
 30
0.0
 11
123.788104
 21
161.546962
 31
0.0
  0
LINE
  8
LC-001-002-----0
  6
CONTINUOUS
  5
25B
 10
133.788104
 20
164.046962
 30
0.0
 11
140.288104
 21
164.046962
 31
0.0
  0
LINE
  8
LC-001-002-----0
  6
CONTINUOUS
  5
25C
 10
121.788104
 20
164.046962
 30
0.0
 11
122.788104
 21
164.046962
 31
0.0
  0
LINE
  8
LC-001-002-----0
  6
CONTINUOUS
  5
25D
 10
109.788104
 20
164.046962
 30
0.0
 11
110.788104
 21
164.046962
 31
0.0
  0
ARC
  8
LC-001-002-----0
  6
CONTINUOUS
  5
25E
 10
133.788104
 20
163.046962
 30
0.0
 40
2.5
 50
90.0
 51
180.0
  0
LINE
  8
LC-001-002-----0
  6
CONTINUOUS
  5
25F
 10
125.288104
 20
161.546962
 30
0.0
 11
123.788104
 21
161.546962
 31
0.0
  0
LINE
  8
LC-001-002-----0
  6
CONTINUOUS
  5
260
 10
120.788104
 20
161.546962
 30
0.0
 11
119.288104
 21
161.546962
 31
0.0
  0
LINE
  8
LC-001-002-----0
  6
CONTINUOUS
  5
261
 10
119.288104
 20
161.546962
 30
0.0
 11
113.288104
 21
161.546962
 31
0.0
  0
LINE
  8
LC-001-002-----0
  6
CONTINUOUS
  5
262
 10
113.288104
 20
161.546962
 30
0.0
 11
111.788104
 21
161.546962
 31
0.0
  0
LINE
  8
LC-001-002-----0
  6
CONTINUOUS
  5
263
 10
108.788104
 20
161.546962
 30
0.0
 11
107.288104
 21
161.546962
 31
0.0
  0
LINE
  8
LC-001-002-----0
  6
CONTINUOUS
  5
264
 10
107.288104
 20
161.546962
 30
0.0
 11
101.288104
 21
161.546962
 31
0.0
  0
LINE
  8
LC-001-002-----0
  6
CONTINUOUS
  5
265
 10
101.288104
 20
161.546962
 30
0.0
 11
99.788104
 21
161.546962
 31
0.0
  0
ARC
  8
LC-002-002-RND-0
  6
CONTINUOUS
  5
266
 10
98.788104
 20
163.046962
 30
0.0
 40
1.0
 50
360.0
 51
90.0
  0
ARC
  8
LC-002-002-RND-0
  6
CONTINUOUS
  5
267
 10
98.788104
 20
163.046962
 30
0.0
 40
2.5
 50
0.0
 51
90.0
  0
ARC
  8
LC-002-002-RND-0
  6
CONTINUOUS
  5
268
 10
109.788104
 20
163.046962
 30
0.0
 40
2.5
 50
90.0
 51
180.0
  0
ARC
  8
LC-002-002-RND-0
  6
CONTINUOUS
  5
269
 10
110.788104
 20
163.046962
 30
0.0
 40
2.5
 50
0.0
 51
90.0
  0
ARC
  8
LC-002-002-RND-0
  6
CONTINUOUS
  5
26A
 10
121.788104
 20
163.046962
 30
0.0
 40
2.5
 50
90.0
 51
180.0
  0
ARC
  8
LC-002-002-RND-0
  6
CONTINUOUS
  5
26B
 10
122.788104
 20
163.046962
 30
0.0
 40
2.5
 50
0.0
 51
90.0
  0
LINE
  8
LC-001-002-----0
  6
CONTINUOUS
  5
26C
 10
94.788104
 20
163.046962
 30
0.0
 11
94.788104
 21
160.546962
 31
0.0
  0
LINE
  8
LC-001-002-----0
  6
CONTINUOUS
  5
26D
 10
94.788104
 20
160.546962
 30
0.0
 11
96.288104
 21
160.546962
 31
0.0
  0
LINE
  8
LC-001-002-----0
  6
CONTINUOUS
  5
26E
 10
96.288104
 20
160.546962
 30
0.0
 11
140.288104
 21
160.546962
 31
0.0
  0
LINE
  8
LC-001-002-----0
  6
CONTINUOUS
  5
26F
 10
140.288104
 20
165.546962
 30
0.0
 11
97.288104
 21
165.546962
 31
0.0
  0
LINE
  8
LC-001-002-----0
  6
CONTINUOUS
  5
270
 10
96.288104
 20
160.546962
 30
0.0
 11
96.288104
 21
163.046962
 31
0.0
  0
LINE
  8
LC-001-002-----0
  6
CONTINUOUS
  5
271
 10
97.288104
 20
164.046962
 30
0.0
 11
98.788104
 21
164.046962
 31
0.0
  0
LINE
  8
LC-001-002-----0
  6
CONTINUOUS
  5
272
 10
99.788104
 20
163.046962
 30
0.0
 11
99.788104
 21
161.546962
 31
0.0
  0
LINE
  8
LC-001-002-----0
  6
CONTINUOUS
  5
273
 10
101.288104
 20
163.046962
 30
0.0
 11
101.288104
 21
161.546962
 31
0.0
  0
LINE
  8
LC-001-002-----0
  6
CONTINUOUS
  5
274
 10
107.288104
 20
163.046962
 30
0.0
 11
107.288104
 21
161.546962
 31
0.0
  0
LINE
  8
LC-001-002-----0
  6
CONTINUOUS
  5
275
 10
113.288104
 20
163.046962
 30
0.0
 11
113.288104
 21
161.546962
 31
0.0
  0
LINE
  8
LC-001-002-----0
  6
CONTINUOUS
  5
276
 10
119.288104
 20
163.046962
 30
0.0
 11
119.288104
 21
161.546962
 31
0.0
  0
LINE
  8
LC-001-002-----0
  6
CONTINUOUS
  5
277
 10
125.288104
 20
163.046962
 30
0.0
 11
125.288104
 21
161.546962
 31
0.0
  0
LINE
  8
LC-001-002-----0
  6
CONTINUOUS
  5
278
 10
131.288104
 20
163.046962
 30
0.0
 11
131.288104
 21
161.546962
 31
0.0
  0
LINE
  8
LC-001-002-----0
  6
CONTINUOUS
  5
279
 10
108.788104
 20
163.046962
 30
0.0
 11
108.788104
 21
161.546962
 31
0.0
  0
LINE
  8
LC-001-002-----0
  6
CONTINUOUS
  5
27A
 10
111.788104
 20
163.046962
 30
0.0
 11
111.788104
 21
161.546962
 31
0.0
  0
LINE
  8
LC-001-002-----0
  6
CONTINUOUS
  5
27B
 10
120.788104
 20
163.046962
 30
0.0
 11
120.788104
 21
161.546962
 31
0.0
  0
ARC
  8
LC-002-002-RND-0
  6
CONTINUOUS
  5
27C
 10
183.288104
 20
163.046962
 30
0.0
 40
2.5
 50
0.0
 51
90.0
  0
ARC
  8
LC-002-002-RND-0
  6
CONTINUOUS
  5
27D
 10
183.288104
 20
163.046962
 30
0.0
 40
1.0
 50
0.0
 51
90.0
  0
ARC
  8
LC-002-002-RND-0
  6
CONTINUOUS
  5
27E
 10
170.788104
 20
163.046962
 30
0.0
 40
1.0
 50
0.0
 51
90.0
  0
ARC
  8
LC-002-002-RND-0
  6
CONTINUOUS
  5
27F
 10
169.788104
 20
163.046962
 30
0.0
 40
1.0
 50
90.0
 51
180.0
  0
ARC
  8
LC-002-002-RND-0
  6
CONTINUOUS
  5
280
 10
158.788104
 20
163.046962
 30
0.0
 40
1.0
 50
0.0
 51
90.0
  0
ARC
  8
LC-002-002-RND-0
  6
CONTINUOUS
  5
281
 10
157.788104
 20
163.046962
 30
0.0
 40
1.0
 50
90.0
 51
180.0
  0
ARC
  8
LC-002-002-RND-0
  6
CONTINUOUS
  5
282
 10
146.788104
 20
163.046962
 30
0.0
 40
1.0
 50
0.0
 51
90.0
  0
LINE
  8
LC-001-002-----0
  6
CONTINUOUS
  5
283
 10
147.788104
 20
161.546962
 30
0.0
 11
149.288104
 21
161.546962
 31
0.0
  0
LINE
  8
LC-001-002-----0
  6
CONTINUOUS
  5
284
 10
149.288104
 20
161.546962
 30
0.0
 11
155.288104
 21
161.546962
 31
0.0
  0
LINE
  8
LC-001-002-----0
  6
CONTINUOUS
  5
285
 10
147.788104
 20
163.046962
 30
0.0
 11
147.788104
 21
161.546962
 31
0.0
  0
LINE
  8
LC-001-002-----0
  6
CONTINUOUS
  5
286
 10
156.788104
 20
163.046962
 30
0.0
 11
156.788104
 21
161.546962
 31
0.0
  0
LINE
  8
LC-001-002-----0
  6
CONTINUOUS
  5
287
 10
146.788104
 20
164.046962
 30
0.0
 11
140.288104
 21
164.046962
 31
0.0
  0
LINE
  8
LC-001-002-----0
  6
CONTINUOUS
  5
288
 10
158.788104
 20
164.046962
 30
0.0
 11
157.788104
 21
164.046962
 31
0.0
  0
LINE
  8
LC-001-002-----0
  6
CONTINUOUS
  5
289
 10
170.788104
 20
164.046962
 30
0.0
 11
169.788104
 21
164.046962
 31
0.0
  0
ARC
  8
LC-001-002-----0
  6
CONTINUOUS
  5
28A
 10
146.788104
 20
163.046962
 30
0.0
 40
2.5
 50
360.0
 51
90.0
  0
LINE
  8
LC-001-002-----0
  6
CONTINUOUS
  5
28B
 10
155.288104
 20
161.546962
 30
0.0
 11
156.788104
 21
161.546962
 31
0.0
  0
LINE
  8
LC-001-002-----0
  6
CONTINUOUS
  5
28C
 10
159.788104
 20
161.546962
 30
0.0
 11
161.288104
 21
161.546962
 31
0.0
  0
LINE
  8
LC-001-002-----0
  6
CONTINUOUS
  5
28D
 10
161.288104
 20
161.546962
 30
0.0
 11
167.288104
 21
161.546962
 31
0.0
  0
LINE
  8
LC-001-002-----0
  6
CONTINUOUS
  5
28E
 10
167.288104
 20
161.546962
 30
0.0
 11
168.788104
 21
161.546962
 31
0.0
  0
LINE
  8
LC-001-002-----0
  6
CONTINUOUS
  5
28F
 10
171.788104
 20
161.546962
 30
0.0
 11
173.288104
 21
161.546962
 31
0.0
  0
LINE
  8
LC-001-002-----0
  6
CONTINUOUS
  5
290
 10
173.288104
 20
161.546962
 30
0.0
 11
179.288104
 21
161.546962
 31
0.0
  0
LINE
  8
LC-001-002-----0
  6
CONTINUOUS
  5
291
 10
179.288104
 20
161.546962
 30
0.0
 11
180.788104
 21
161.546962
 31
0.0
  0
ARC
  8
LC-002-002-RND-0
  6
CONTINUOUS
  5
292
 10
181.788104
 20
163.046962
 30
0.0
 40
1.0
 50
90.0
 51
180.0
  0
ARC
  8
LC-002-002-RND-0
  6
CONTINUOUS
  5
293
 10
181.788104
 20
163.046962
 30
0.0
 40
2.5
 50
90.0
 51
180.0
  0
ARC
  8
LC-002-002-RND-0
  6
CONTINUOUS
  5
294
 10
170.788104
 20
163.046962
 30
0.0
 40
2.5
 50
360.0
 51
90.0
  0
ARC
  8
LC-002-002-RND-0
  6
CONTINUOUS
  5
295
 10
169.788104
 20
163.046962
 30
0.0
 40
2.5
 50
90.0
 51
180.0
  0
ARC
  8
LC-002-002-RND-0
  6
CONTINUOUS
  5
296
 10
158.788104
 20
163.046962
 30
0.0
 40
2.5
 50
360.0
 51
90.0
  0
ARC
  8
LC-002-002-RND-0
  6
CONTINUOUS
  5
297
 10
157.788104
 20
163.046962
 30
0.0
 40
2.5
 50
90.0
 51
180.0
  0
LINE
  8
LC-001-002-----0
  6
CONTINUOUS
  5
298
 10
185.788104
 20
163.046962
 30
0.0
 11
185.788104
 21
160.546962
 31
0.0
  0
LINE
  8
LC-001-002-----0
  6
CONTINUOUS
  5
299
 10
185.788104
 20
160.546962
 30
0.0
 11
184.288104
 21
160.546962
 31
0.0
  0
LINE
  8
LC-001-002-----0
  6
CONTINUOUS
  5
29A
 10
184.288104
 20
160.546962
 30
0.0
 11
140.288104
 21
160.546962
 31
0.0
  0
LINE
  8
LC-001-002-----0
  6
CONTINUOUS
  5
29B
 10
140.288104
 20
165.546962
 30
0.0
 11
183.288104
 21
165.546962
 31
0.0
  0
LINE
  8
LC-001-002-----0
  6
CONTINUOUS
  5
29C
 10
184.288104
 20
160.546962
 30
0.0
 11
184.288104
 21
163.046962
 31
0.0
  0
LINE
  8
LC-001-002-----0
  6
CONTINUOUS
  5
29D
 10
183.288104
 20
164.046962
 30
0.0
 11
181.788104
 21
164.046962
 31
0.0
  0
LINE
  8
LC-001-002-----0
  6
CONTINUOUS
  5
29E
 10
180.788104
 20
163.046962
 30
0.0
 11
180.788104
 21
161.546962
 31
0.0
  0
LINE
  8
LC-001-002-----0
  6
CONTINUOUS
  5
29F
 10
179.288104
 20
163.046962
 30
0.0
 11
179.288104
 21
161.546962
 31
0.0
  0
LINE
  8
LC-001-002-----0
  6
CONTINUOUS
  5
2A0
 10
173.288104
 20
163.046962
 30
0.0
 11
173.288104
 21
161.546962
 31
0.0
  0
LINE
  8
LC-001-002-----0
  6
CONTINUOUS
  5
2A1
 10
167.288104
 20
163.046962
 30
0.0
 11
167.288104
 21
161.546962
 31
0.0
  0
LINE
  8
LC-001-002-----0
  6
CONTINUOUS
  5
2A2
 10
161.288104
 20
163.046962
 30
0.0
 11
161.288104
 21
161.546962
 31
0.0
  0
LINE
  8
LC-001-002-----0
  6
CONTINUOUS
  5
2A3
 10
155.288104
 20
163.046962
 30
0.0
 11
155.288104
 21
161.546962
 31
0.0
  0
LINE
  8
LC-001-002-----0
  6
CONTINUOUS
  5
2A4
 10
149.288104
 20
163.046962
 30
0.0
 11
149.288104
 21
161.546962
 31
0.0
  0
LINE
  8
LC-001-002-----0
  6
CONTINUOUS
  5
2A5
 10
171.788104
 20
163.046962
 30
0.0
 11
171.788104
 21
161.546962
 31
0.0
  0
LINE
  8
LC-001-002-----0
  6
CONTINUOUS
  5
2A6
 10
168.788104
 20
163.046962
 30
0.0
 11
168.788104
 21
161.546962
 31
0.0
  0
LINE
  8
LC-001-002-----0
  6
CONTINUOUS
  5
2A7
 10
159.788104
 20
163.046962
 30
0.0
 11
159.788104
 21
161.546962
 31
0.0
  0
LINE
  8
LC-001-002-----0
  6
CONTINUOUS
  5
2A8
 10
336.266104
 20
70.046962
 30
0.0
 11
336.266104
 21
68.046962
 31
0.0
  0
LINE
  8
LC-001-002-----0
  6
CONTINUOUS
  5
2A9
 10
339.266104
 20
67.046962
 30
0.0
 11
337.266104
 21
67.046962
 31
0.0
  0
LINE
  8
LC-001-002-----0
  6
CONTINUOUS
  5
2AA
 10
337.266104
 20
70.046962
 30
0.0
 11
337.266104
 21
68.046962
 31
0.0
  0
LINE
  8
LC-001-002-----0
  6
CONTINUOUS
  5
2AB
 10
337.266104
 20
67.046962
 30
0.0
 11
337.266104
 21
65.046962
 31
0.0
  0
CIRCLE
  8
LC-001-002-----0
  6
CONTINUOUS
  5
2AC
 10
413.766104
 20
144.546962
 30
0.0
 40
5.5
  0
LINE
  8
LC-001-002-----0
  6
CONTINUOUS
  5
2AD
 10
413.266104
 20
145.046962
 30
0.0
 11
411.266104
 21
145.046962
 31
0.0
  0
LINE
  8
LC-001-002-----0
  6
CONTINUOUS
  5
2AE
 10
414.266104
 20
142.046962
 30
0.0
 11
413.266104
 21
142.046962
 31
0.0
  0
LINE
  8
LC-001-002-----0
  6
CONTINUOUS
  5
2AF
 10
414.266104
 20
144.046962
 30
0.0
 11
414.266104
 21
142.046962
 31
0.0
  0
LINE
  8
LC-001-002-----0
  6
CONTINUOUS
  5
2B0
 10
413.266104
 20
144.046962
 30
0.0
 11
413.266104
 21
142.046962
 31
0.0
  0
LINE
  8
LC-001-002-----0
  6
CONTINUOUS
  5
2B1
 10
414.266104
 20
147.046962
 30
0.0
 11
413.266104
 21
147.046962
 31
0.0
  0
LINE
  8
LC-001-002-----0
  6
CONTINUOUS
  5
2B2
 10
416.266104
 20
145.046962
 30
0.0
 11
416.266104
 21
144.046962
 31
0.0
  0
LINE
  8
LC-001-002-----0
  6
CONTINUOUS
  5
2B3
 10
140.288104
 20
46.046962
 30
0.0
 11
192.288104
 21
46.046962
 31
0.0
  0
LINE
  8
LC-001-002-----0
  6
CONTINUOUS
  5
2B4
 10
411.266104
 20
145.046962
 30
0.0
 11
411.266104
 21
144.046962
 31
0.0
  0
LINE
  8
LC-001-002-----0
  6
CONTINUOUS
  5
2B5
 10
416.266104
 20
145.046962
 30
0.0
 11
414.266104
 21
145.046962
 31
0.0
  0
LINE
  8
LC-001-002-----0
  6
CONTINUOUS
  5
2B6
 10
413.266104
 20
147.046962
 30
0.0
 11
413.266104
 21
145.046962
 31
0.0
  0
LINE
  8
LC-001-002-----0
  6
CONTINUOUS
  5
2B7
 10
414.266104
 20
147.046962
 30
0.0
 11
414.266104
 21
145.046962
 31
0.0
  0
LINE
  8
LC-001-002-----0
  6
CONTINUOUS
  5
2B8
 10
416.266104
 20
144.046962
 30
0.0
 11
414.266104
 21
144.046962
 31
0.0
  0
LINE
  8
LC-001-002-----0
  6
CONTINUOUS
  5
2B9
 10
220.266104
 20
164.046962
 30
0.0
 11
220.266104
 21
161.046962
 31
0.0
  0
LINE
  8
LC-001-002-----0
  6
CONTINUOUS
  5
2BA
 10
413.266104
 20
144.046962
 30
0.0
 11
411.266104
 21
144.046962
 31
0.0
  0
ARC
  8
LC-001-002-----0
  6
CONTINUOUS
  5
2BB
 10
378.766104
 20
94.046962
 30
0.0
 40
3.0
 50
270.0
 51
90.0
  0
ARC
  8
LC-001-002-----0
  6
CONTINUOUS
  5
2BC
 10
371.766104
 20
118.046962
 30
0.0
 40
3.0
 50
90.0
 51
270.0
  0
LINE
  8
LC-001-002-----0
  6
CONTINUOUS
  5
2BD
 10
371.766104
 20
91.046962
 30
0.0
 11
378.766104
 21
91.046962
 31
0.0
  0
LINE
  8
LC-001-002-----0
  6
CONTINUOUS
  5
2BE
 10
378.766104
 20
121.046962
 30
0.0
 11
371.766104
 21
121.046962
 31
0.0
  0
LINE
  8
LC-001-002-----0
  6
CONTINUOUS
  5
2BF
 10
371.766104
 20
97.046962
 30
0.0
 11
378.766104
 21
97.046962
 31
0.0
  0
ARC
  8
LC-001-002-----0
  6
CONTINUOUS
  5
2C0
 10
339.266104
 20
132.046962
 30
0.0
 40
3.0
 50
0.0
 51
180.0
  0
ARC
  8
LC-001-002-----0
  6
CONTINUOUS
  5
2C1
 10
339.266104
 20
80.046962
 30
0.0
 40
3.0
 50
180.0
 51
0.0
  0
LINE
  8
LC-001-002-----0
  6
CONTINUOUS
  5
2C2
 10
342.266104
 20
132.046962
 30
0.0
 11
342.266104
 21
80.046962
 31
0.0
  0
LINE
  8
LC-001-002-----0
  6
CONTINUOUS
  5
2C3
 10
336.266104
 20
132.046962
 30
0.0
 11
336.266104
 21
80.046962
 31
0.0
  0
LINE
  8
LC-001-002-----0
  6
CONTINUOUS
  5
2C4
 10
378.766104
 20
115.046962
 30
0.0
 11
371.766104
 21
115.046962
 31
0.0
  0
ARC
  8
LC-001-002-----0
  6
CONTINUOUS
  5
2C5
 10
351.266104
 20
91.046962
 30
0.0
 40
3.0
 50
180.0
 51
0.0
  0
ARC
  8
LC-001-002-----0
  6
CONTINUOUS
  5
2C6
 10
351.266104
 20
121.046962
 30
0.0
 40
3.0
 50
0.0
 51
180.0
  0
LINE
  8
LC-001-002-----0
  6
CONTINUOUS
  5
2C7
 10
348.266104
 20
91.046962
 30
0.0
 11
348.266104
 21
121.046962
 31
0.0
  0
LINE
  8
LC-001-002-----0
  6
CONTINUOUS
  5
2C8
 10
354.266104
 20
91.046962
 30
0.0
 11
354.266104
 21
121.046962
 31
0.0
  0
ARC
  8
LC-001-002-----0
  6
CONTINUOUS
  5
2C9
 10
371.766104
 20
94.046962
 30
0.0
 40
3.0
 50
90.0
 51
270.0
  0
ARC
  8
LC-001-002-----0
  6
CONTINUOUS
  5
2CA
 10
378.766104
 20
118.046962
 30
0.0
 40
3.0
 50
270.0
 51
90.0
  0
LINE
  8
LC-001-002-----0
  6
CONTINUOUS
  5
2CB
 10
390.266104
 20
85.046962
 30
0.0
 11
360.266104
 21
85.046962
 31
0.0
  0
LINE
  8
LC-001-002-----0
  6
CONTINUOUS
  5
2CC
 10
396.266104
 20
121.046962
 30
0.0
 11
396.266104
 21
91.046962
 31
0.0
  0
LINE
  8
LC-001-002-----0
  6
CONTINUOUS
  5
2CD
 10
360.266104
 20
127.046962
 30
0.0
 11
390.266104
 21
127.046962
 31
0.0
  0
ARC
  8
LC-001-002-----0
  6
CONTINUOUS
  5
2CE
 10
360.266104
 20
82.046962
 30
0.0
 40
3.0
 50
90.0
 51
270.0
  0
ARC
  8
LC-001-002-----0
  6
CONTINUOUS
  5
2CF
 10
399.266104
 20
91.046962
 30
0.0
 40
3.0
 50
180.0
 51
0.0
  0
ARC
  8
LC-001-002-----0
  6
CONTINUOUS
  5
2D0
 10
390.266104
 20
130.046962
 30
0.0
 40
3.0
 50
270.0
 51
90.0
  0
LINE
  8
LC-001-002-----0
  6
CONTINUOUS
  5
2D1
 10
390.266104
 20
79.046962
 30
0.0
 11
360.266104
 21
79.046962
 31
0.0
  0
LINE
  8
LC-001-002-----0
  6
CONTINUOUS
  5
2D2
 10
402.266104
 20
121.046962
 30
0.0
 11
402.266104
 21
91.046962
 31
0.0
  0
LINE
  8
LC-001-002-----0
  6
CONTINUOUS
  5
2D3
 10
360.266104
 20
133.046962
 30
0.0
 11
390.266104
 21
133.046962
 31
0.0
  0
ARC
  8
LC-001-002-----0
  6
CONTINUOUS
  5
2D4
 10
390.266104
 20
82.046962
 30
0.0
 40
3.0
 50
270.0
 51
90.0
  0
ARC
  8
LC-001-002-----0
  6
CONTINUOUS
  5
2D5
 10
399.266104
 20
121.046962
 30
0.0
 40
3.0
 50
0.0
 51
180.0
  0
ARC
  8
LC-001-002-----0
  6
CONTINUOUS
  5
2D6
 10
360.266104
 20
130.046962
 30
0.0
 40
3.0
 50
90.0
 51
270.0
  0
LINE
  8
LC-001-002-----0
  6
CONTINUOUS
  5
2D7
 10
401.266104
 20
139.046962
 30
0.0
 11
349.266104
 21
139.046962
 31
0.0
  0
ARC
  8
LC-001-002-----0
  6
CONTINUOUS
  5
2D8
 10
349.266104
 20
142.046962
 30
0.0
 40
3.0
 50
90.0
 51
270.0
  0
LINE
  8
LC-001-002-----0
  6
CONTINUOUS
  5
2D9
 10
401.266104
 20
145.046962
 30
0.0
 11
349.266104
 21
145.046962
 31
0.0
  0
ARC
  8
LC-001-002-----0
  6
CONTINUOUS
  5
2DA
 10
401.266104
 20
142.046962
 30
0.0
 40
3.0
 50
270.0
 51
90.0
  0
LINE
  8
LC-001-002-----0
  6
CONTINUOUS
  5
2DB
 10
349.266104
 20
73.046962
 30
0.0
 11
401.266104
 21
73.046962
 31
0.0
  0
ARC
  8
LC-001-002-----0
  6
CONTINUOUS
  5
2DC
 10
401.266104
 20
70.046962
 30
0.0
 40
3.0
 50
270.0
 51
90.0
  0
LINE
  8
LC-001-002-----0
  6
CONTINUOUS
  5
2DD
 10
349.266104
 20
67.046962
 30
0.0
 11
401.266104
 21
67.046962
 31
0.0
  0
ARC
  8
LC-001-002-----0
  6
CONTINUOUS
  5
2DE
 10
349.266104
 20
70.046962
 30
0.0
 40
3.0
 50
90.0
 51
270.0
  0
LINE
  8
LC-001-002-----0
  6
CONTINUOUS
  5
2DF
 10
408.266104
 20
80.046962
 30
0.0
 11
408.266104
 21
132.046962
 31
0.0
  0
ARC
  8
LC-001-002-----0
  6
CONTINUOUS
  5
2E0
 10
411.266104
 20
132.046962
 30
0.0
 40
3.0
 50
0.0
 51
180.0
  0
LINE
  8
LC-001-002-----0
  6
CONTINUOUS
  5
2E1
 10
414.266104
 20
80.046962
 30
0.0
 11
414.266104
 21
132.046962
 31
0.0
  0
ARC
  8
LC-001-002-----0
  6
CONTINUOUS
  5
2E2
 10
411.266104
 20
80.046962
 30
0.0
 40
3.0
 50
180.0
 51
0.0
  0
LINE
  8
LC-001-002-----0
  6
CONTINUOUS
  5
2E3
 10
187.288104
 20
166.046962
 30
0.0
 11
189.788104
 21
166.046962
 31
0.0
  0
LINE
  8
LC-001-002-----0
  6
CONTINUOUS
  5
2E4
 10
140.288104
 20
146.546962
 30
0.0
 11
182.52472
 21
146.546962
 31
0.0
  0
LINE
  8
LC-001-002-----0
  6
CONTINUOUS
  5
2E5
 10
186.788104
 20
160.546962
 30
0.0
 11
140.288104
 21
160.546962
 31
0.0
  0
LINE
  8
LC-001-002-----0
  6
CONTINUOUS
 62
     2
  5
2E6
 10
192.288104
 20
60.046962
 30
0.0
 11
88.288104
 21
60.046962
 31
0.0
  0
LINE
  8
LC-001-002-----0
  6
CONTINUOUS
 62
     2
  5
2E7
 10
103.900274
 20
245.414
 30
0.0
 11
118.900274
 21
245.414
 31
0.0
  0
LINE
  8
LC-001-002-----0
  6
CONTINUOUS
 62
     2
  5
2E8
 10
103.900274
 20
260.414
 30
0.0
 11
103.900274
 21
245.414
 31
0.0
  0
LINE
  8
LC-001-002-----0
  6
CONTINUOUS
 62
     2
  5
2E9
 10
118.900274
 20
260.414
 30
0.0
 11
118.900274
 21
245.414
 31
0.0
  0
LINE
  8
LC-001-002-----0
  6
CONTINUOUS
 62
     2
  5
2EA
 10
103.900274
 20
260.414
 30
0.0
 11
118.900274
 21
260.414
 31
0.0
  0
ENDSEC
  0
EOF
