  0
SECTION
  2
HEADER
  9
$ACADVER
  1
AC1009
  9
$INSBASE
 10
0.0
 20
0.0
 30
0.0
  9
$EXTMIN
 10
0.0
 20
0.0
 30
0.0
  9
$EXTMAX
 10
840.0
 20
594.0
 30
0.0
  9
$LIMMIN
 10
0.0
 20
0.0
  9
$LIMMAX
 10
840.0
 20
594.0
  9
$ORTHOMODE
 70
     0
  9
$REGENMODE
 70
     1
  9
$FILLMODE
 70
     1
  9
$QTEXTMODE
 70
     0
  9
$MIRRTEXT
 70
     1
  9
$DRAGMODE
 70
     2
  9
$LTSCALE
 40
2.0
  9
$OSMODE
 70
     0
  9
$ATTMODE
 70
     1
  9
$TEXTSIZE
 40
0.2
  9
$TRACEWID
 40
0.05
  9
$TEXTSTYLE
  7
STANDARD
  9
$CLAYER
  8
0
  9
$CELTYPE
  6
BYLAYER
  9
$CECOLOR
 62
     7
  9
$DIMSCALE
 40
2.0
  9
$DIMASZ
 40
3.5
  9
$DIMEXO
 40
0.0625
  9
$DIMDLI
 40
0.38
  9
$DIMRND
 40
0.0
  9
$DIMDLE
 40
0.0
  9
$DIMEXE
 40
0.18
  9
$DIMTP
 40
0.0
  9
$DIMTM
 40
0.0
  9
$DIMTXT
 40
3.5
  9
$DIMCEN
 40
0.09
  9
$DIMTSZ
 40
0.0
  9
$DIMTOL
 70
     0
  9
$DIMLIM
 70
     0
  9
$DIMTIH
 70
     1
  9
$DIMTOH
 70
     1
  9
$DIMSE1
 70
     0
  9
$DIMSE2
 70
     0
  9
$DIMTAD
 70
     1
  9
$DIMZIN
 70
     0
  9
$DIMBLK
  1

  9
$DIMASO
 70
     1
  9
$DIMSHO
 70
     1
  9
$DIMPOST
  1

  9
$DIMAPOST
  1

  9
$DIMALT
 70
     0
  9
$DIMALTD
 70
     2
  9
$DIMALTF
 40
25.4
  9
$DIMLFAC
 40
1.0
  9
$DIMTOFL
 70
     0
  9
$DIMTVP
 40
0.0
  9
$DIMTIX
 70
     0
  9
$DIMSOXD
 70
     0
  9
$DIMSAH
 70
     0
  9
$DIMBLK1
  1

  9
$DIMBLK2
  1

  9
$DIMSTYLE
  2
STANDARD
  9
$DIMCLRD
 70
     0
  9
$DIMCLRE
 70
     0
  9
$DIMCLRT
 70
     0
  9
$DIMTFAC
 40
1.0
  9
$DIMGAP
 40
0.09
  9
$LUNITS
 70
     2
  9
$LUPREC
 70
     2
  9
$AXISMODE
 70
     0
  9
$AXISUNIT
 10
0.0
 20
0.0
  9
$SKETCHINC
 40
0.1
  9
$FILLETRAD
 40
0.0
  9
$AUNITS
 70
     0
  9
$AUPREC
 70
     0
  9
$MENU
  1
acad
  9
$ELEVATION
 40
0.0
  9
$PELEVATION
 40
0.0
  9
$THICKNESS
 40
0.0
  9
$LIMCHECK
 70
     0
  9
$BLIPMODE
 70
     1
  9
$CHAMFERA
 40
0.0
  9
$CHAMFERB
 40
0.0
  9
$SKPOLY
 70
     0
  9
$TDCREATE
 40
0.000000000
  9
$TDUPDATE
 40
0.000000000
  9
$TDINDWG
 40
0.0000000000
  9
$TDUSRTIMER
 40
0.0000000000
  9
$USRTIMER
 70
     1
  9
$ANGBASE
 50
0.0
  9
$ANGDIR
 70
     0
  9
$PDMODE
 70
     0
  9
$PDSIZE
 40
0.0
  9
$PLINEWID
 40
0.0
  9
$COORDS
 70
     0
  9
$SPLFRAME
 70
     0
  9
$SPLINETYPE
 70
     6
  9
$SPLINESEGS
 70
     8
  9
$ATTDIA
 70
     0
  9
$ATTREQ
 70
     1
  9
$HANDLING
 70
     1
  9
$HANDSEED
  5
3B8
  9
$SURFTAB1
 70
     6
  9
$SURFTAB2
 70
     6
  9
$SURFTYPE
 70
     6
  9
$SURFU
 70
     6
  9
$SURFV
 70
     6
  9
$UCSNAME
  2

  9
$UCSORG
 10
0.0
 20
0.0
 30
0.0
  9
$UCSXDIR
 10
1.0
 20
0.0
 30
0.0
  9
$UCSYDIR
 10
0.0
 20
1.0
 30
0.0
  9
$PUCSNAME
  2

  9
$PUCSORG
 10
0.0
 20
0.0
 30
0.0
  9
$PUCSXDIR
 10
1.0
 20
0.0
 30
0.0
  9
$PUCSYDIR
 10
0.0
 20
1.0
 30
0.0
  9
$USERI1
 70
     0
  9
$USERI2
 70
     0
  9
$USERI3
 70
     0
  9
$USERI4
 70
     0
  9
$USERI5
 70
     0
  9
$USERR1
 40
0.0
  9
$USERR2
 40
0.0
  9
$USERR3
 40
0.0
  9
$USERR4
 40
0.0
  9
$USERR5
 40
0.0
  9
$WORLDVIEW
 70
     1
  9
$SHADEDGE
 70
     3
  9
$SHADEDIF
 70
    70
  9
$TILEMODE
 70
     1
  9
$MAXACTVP
 70
    16
  9
$PINSBASE
 10
0.0
 20
0.0
 30
0.0
  9
$PLIMCHECK
 70
     0
  9
$PEXTMIN
 10
1.000000E+20
 20
1.000000E+20
 30
1.000000E+20
  9
$PEXTMAX
 10
-1.000000E+20
 20
-1.000000E+20
 30
-1.000000E+20
  9
$PLIMMIN
 10
0.0
 20
0.0
  9
$PLIMMAX
 10
840.0
 20
594.0
  9
$UNITMODE
 70
     0
  9
$VISRETAIN
 70
     0
  9
$PLINEGEN
 70
     1
  9
$PSLTSCALE
 70
     0
  9
$TREEDEPTH
 70
  3020
  9
$DWGCODEPAGE
  3
dos850
  0
ENDSEC
  0
SECTION
  2
TABLES
  0
TABLE
  2
VPORT
 70
     1
  0
VPORT
  2
*ACTIVE
 70
     0
 10
0.0
 20
0.0
 11
1.0
 21
1.0
 12
420.0
 22
297.0
 13
0.0
 23
0.0
 14
1.0
 24
1.0
 15
0.0
 25
0.0
 16
0.0
 26
0.0
 36
1.0
 17
0.0
 27
0.0
 37
0.0
 40
594.0
 41
1.604229
 42
50.0
 43
0.0
 44
0.0
 50
0.0
 51
0.0
 71
     0
 72
   100
 73
     1
 74
     1
 75
     0
 76
     0
 77
     0
 78
     0
  0
ENDTAB
  0
TABLE
  2
LTYPE
 70
     4
  0
LTYPE
  2
CONTINUOUS
 70
    64
  3
Solid line
 72
    65
 73
     0
 40
0.0
  0
LTYPE
  2
DASHED
 70
    64
  3
__ __ __ __ __
 72
    65
 73
     2
 40
6.25
 49
5.0
 49
-1.25
  0
LTYPE
  2
DASHDOT
 70
    64
  3
__ . __ . __ . __ . __
 72
    65
 73
     4
 40
7.5
 49
5.0
 49
-1.25
 49
0.0
 49
-1.25
  0
LTYPE
  2
CENTER
 70
    64
  3
__ . __ . __ . __ . __
 72
    65
 73
     4
 40
7.5
 49
5.0
 49
-1.25
 49
0.0
 49
-1.25
  0
ENDTAB
  0
TABLE
  2
LAYER
 70
    15
  0
LAYER
  2
0
 70
     0
 62
     7
  6
CONTINUOUS
  0
LAYER
  2
LC-INFO-1-2-MM-A3-0
 70
     1
 62
    -1
  6
CONTINUOUS
  0
LAYER
  2
LC-003-005-----0
 70
     0
 62
     2
  6
CONTINUOUS
  0
LAYER
  2
LC-009-003-MTH-0
 70
     0
 62
     2
  6
CONTINUOUS
  0
LAYER
  2
LC-010-003-MTG-0
 70
     0
 62
     2
  6
CONTINUOUS
  0
LAYER
  2
LC-008-003-----0
 70
     0
 62
     2
  6
CONTINUOUS
  0
LAYER
  2
LC-004-000-----0
 70
     0
 62
     7
  6
CONTINUOUS
  0
LAYER
  2
LC-001-002-RND-0
 70
     0
 62
     1
  6
CONTINUOUS
  0
LAYER
  2
LC-002-002-----0
 70
     0
 62
     1
  6
CONTINUOUS
  0
LAYER
  2
LC-005-001-----0
 70
     0
 62
     1
  6
CONTINUOUS
  0
LAYER
  2
LC-006-201-----0
 70
     0
 62
     1
  6
CONTINUOUS
  0
LAYER
  2
LC-007-020-----0
 70
     0
 62
     2
  6
DASHED
  0
LAYER
  2
LC-012-006-----0
 70
     0
 62
     2
  6
CENTER
  0
LAYER
  2
LC-013-202-----0
 70
     0
 62
     1
  6
CONTINUOUS
  0
LAYER
  2
LC-000
 70
     0
 62
     7
  6
CONTINUOUS
  0
ENDTAB
  0
TABLE
  2
STYLE
 70
     5
  0
STYLE
  2
STANDARD
 70
     0
 40
0.0
 41
1.0
 50
0.0
 71
     0
 42
0.0
  3
txt
  4

  0
STYLE
  2
LC-STANDARD
 70
    64
 40
0.0
 41
1.0
 50
0.0
 71
     0
 42
3.5
  3
MONOTXT
  4

  0
STYLE
  2
LC-TXTSTYLE-150-400-0-0-D2
 70
    64
 40
0.0
 41
1.0
 50
15.0
 71
     0
 42
3.5
  3
MONOTXT
  4

  0
STYLE
  2
LC-TXTSTYLE-0-400-0-0-DIN3
 70
    64
 40
0.0
 41
1.0
 50
0.0
 71
     0
 42
3.5
  3
MONOTXT
  4

  0
STYLE
  2
LC-TXTSTYLE-150-400-0-0-D4
 70
    64
 40
0.0
 41
1.0
 50
15.0
 71
     0
 42
3.5
  3
LC-STANDARD
  4

  0
ENDTAB
  0
TABLE
  2
VIEW
 70
     0
  0
ENDTAB
  0
TABLE
  2
UCS
 70
     0
  0
ENDTAB
  0
TABLE
  2
APPID
 70
     1
  0
APPID
  2
ACAD
 70
     0
  0
ENDTAB
  0
TABLE
  2
DIMSTYLE
 70
     3
  0
DIMSTYLE
  2
STANDARD
 70
     0
  3

  4

  5

  6

  7

 40
1.0
 41
0.18
 42
0.0625
 43
0.38
 44
0.18
 45
0.0
 46
0.0
 47
0.0
 48
0.0
 71
     0
 72
     0
 73
     1
 74
     1
 75
     0
 76
     0
 77
     0
 78
     0
140
0.18
141
0.09
142
0.0
143
25.4
144
1.0
145
0.0
146
1.0
147
0.09
170
     0
171
     2
172
     0
173
     0
174
     0
175
     0
176
     0
177
     0
178
     0
  0
DIMSTYLE
  2
LC-STANDARD
 70
     0
  3

  4

  5

  6

  7

 40
1.0
 41
3.5
 42
0.0
 43
7.5
 44
1.8
 45
0.0
 46
0.0
 47
0.0
 48
0.0
 71
     0
 72
     0
 73
     0
 74
     0
 75
     0
 76
     0
 77
     1
 78
     8
140
3.5
141
0.0
142
0.0
143
25.4
144
1.0
145
0.0
146
0.71
147
1.5
170
     0
171
     2
172
     1
173
     0
174
     0
175
     0
176
     0
177
     0
178
     3
  0
DIMSTYLE
  2
LC-DIM-L-0090-02-02
 70
     0
  3

  4

  5

  6

  7

 40
2.0
 41
3.5
 42
0.0
 43
7.5
 44
1.8
 45
0.0
 46
0.0
 47
0.0
 48
0.0
 71
     0
 72
     0
 73
     0
 74
     0
 75
     0
 76
     0
 77
     1
 78
     8
140
9.0
141
0.0
142
0.0
143
25.4
144
1.0
145
0.0
146
0.71
147
1.5
170
     0
171
     2
172
     0
173
     0
174
     0
175
     0
176
     2
177
     2
178
     6
  0
ENDTAB
  0
ENDSEC
  0
SECTION
  2
BLOCKS
  0
BLOCK
  8
0
  5
24
  2
*X0
 70
    65
 10
183.806767
 20
234.752566
 30
0.0
  3
*X0
  0
LINE
  8
LC-003-005-----0
  6
CONTINUOUS
  5
26
 10
206.468294
 20
234.752566
 30
0.0
 11
206.8024
 21
235.086672
 31
0.0
  0
LINE
  8
LC-003-005-----0
  6
CONTINUOUS
  5
27
 10
205.221977
 20
236.334675
 30
0.0
 11
206.802505
 21
237.915203
 31
0.0
  0
LINE
  8
LC-003-005-----0
  6
CONTINUOUS
  5
28
 10
204.62426
 20
238.565385
 30
0.0
 11
206.802609
 21
240.743735
 31
0.0
  0
LINE
  8
LC-003-005-----0
  6
CONTINUOUS
  5
29
 10
204.306156
 20
241.075708
 30
0.0
 11
206.802713
 21
243.572266
 31
0.0
  0
LINE
  8
LC-003-005-----0
  6
CONTINUOUS
  5
2A
 10
204.306156
 20
243.904136
 30
0.0
 11
206.802818
 21
246.400797
 31
0.0
  0
LINE
  8
LC-003-005-----0
  6
CONTINUOUS
  5
2B
 10
204.306156
 20
246.732563
 30
0.0
 11
206.802922
 21
249.229329
 31
0.0
  0
LINE
  8
LC-003-005-----0
  6
CONTINUOUS
  5
2C
 10
204.306156
 20
249.56099
 30
0.0
 11
206.803026
 21
252.05786
 31
0.0
  0
LINE
  8
LC-003-005-----0
  6
CONTINUOUS
  5
2D
 10
204.306156
 20
252.389417
 30
0.0
 11
206.803131
 21
254.886392
 31
0.0
  0
LINE
  8
LC-003-005-----0
  6
CONTINUOUS
  5
2E
 10
204.306156
 20
255.217844
 30
0.0
 11
206.803235
 21
257.714923
 31
0.0
  0
LINE
  8
LC-003-005-----0
  6
CONTINUOUS
  5
2F
 10
204.306156
 20
258.046271
 30
0.0
 11
206.803339
 21
260.543455
 31
0.0
  0
LINE
  8
LC-003-005-----0
  6
CONTINUOUS
  5
30
 10
204.306156
 20
260.874698
 30
0.0
 11
206.803444
 21
263.371986
 31
0.0
  0
LINE
  8
LC-003-005-----0
  6
CONTINUOUS
  5
31
 10
204.306156
 20
263.703125
 30
0.0
 11
206.803548
 21
266.200518
 31
0.0
  0
LINE
  8
LC-003-005-----0
  6
CONTINUOUS
  5
32
 10
204.306156
 20
266.531553
 30
0.0
 11
206.803652
 21
269.029049
 31
0.0
  0
LINE
  8
LC-003-005-----0
  6
CONTINUOUS
  5
33
 10
204.306156
 20
269.35998
 30
0.0
 11
206.803757
 21
271.85758
 31
0.0
  0
LINE
  8
LC-003-005-----0
  6
CONTINUOUS
  5
34
 10
204.306156
 20
272.188407
 30
0.0
 11
206.803861
 21
274.686112
 31
0.0
  0
LINE
  8
LC-003-005-----0
  6
CONTINUOUS
  5
35
 10
204.306156
 20
275.016834
 30
0.0
 11
206.803965
 21
277.514643
 31
0.0
  0
LINE
  8
LC-003-005-----0
  6
CONTINUOUS
  5
36
 10
204.306156
 20
277.845261
 30
0.0
 11
206.80407
 21
280.343175
 31
0.0
  0
LINE
  8
LC-003-005-----0
  6
CONTINUOUS
  5
37
 10
204.306156
 20
280.673688
 30
0.0
 11
206.804174
 21
283.171706
 31
0.0
  0
LINE
  8
LC-003-005-----0
  6
CONTINUOUS
  5
38
 10
204.306156
 20
283.502115
 30
0.0
 11
206.804278
 21
286.000238
 31
0.0
  0
LINE
  8
LC-003-005-----0
  6
CONTINUOUS
  5
39
 10
204.306156
 20
286.330542
 30
0.0
 11
206.804383
 21
288.828769
 31
0.0
  0
LINE
  8
LC-003-005-----0
  6
CONTINUOUS
  5
3A
 10
204.306156
 20
289.15897
 30
0.0
 11
206.804487
 21
291.657301
 31
0.0
  0
LINE
  8
LC-003-005-----0
  6
CONTINUOUS
  5
3B
 10
204.306156
 20
291.987397
 30
0.0
 11
206.804591
 21
294.485832
 31
0.0
  0
LINE
  8
LC-003-005-----0
  6
CONTINUOUS
  5
3C
 10
204.306156
 20
294.815824
 30
0.0
 11
206.804696
 21
297.314364
 31
0.0
  0
LINE
  8
LC-003-005-----0
  6
CONTINUOUS
  5
3D
 10
204.306156
 20
297.644251
 30
0.0
 11
206.8048
 21
300.142895
 31
0.0
  0
LINE
  8
LC-003-005-----0
  6
CONTINUOUS
  5
3E
 10
204.306156
 20
300.472678
 30
0.0
 11
206.804904
 21
302.971426
 31
0.0
  0
LINE
  8
LC-003-005-----0
  6
CONTINUOUS
  5
3F
 10
202.755093
 20
301.750043
 30
0.0
 11
204.755187
 21
303.750136
 31
0.0
  0
LINE
  8
LC-003-005-----0
  6
CONTINUOUS
  5
40
 10
199.926534
 20
301.74991
 30
0.0
 11
201.926627
 21
303.750004
 31
0.0
  0
LINE
  8
LC-003-005-----0
  6
CONTINUOUS
  5
41
 10
198.083
 20
302.734804
 30
0.0
 11
201.056756
 21
305.70856
 31
0.0
  0
LINE
  8
LC-003-005-----0
  6
CONTINUOUS
  5
42
 10
197.806279
 20
305.286509
 30
0.0
 11
201.056624
 21
308.536855
 31
0.0
  0
LINE
  8
LC-003-005-----0
  6
CONTINUOUS
  5
43
 10
197.806343
 20
308.115001
 30
0.0
 11
201.056492
 21
311.36515
 31
0.0
  0
LINE
  8
LC-003-005-----0
  6
CONTINUOUS
  5
44
 10
197.806407
 20
310.943492
 30
0.0
 11
201.05636
 21
314.193444
 31
0.0
  0
LINE
  8
LC-003-005-----0
  6
CONTINUOUS
  5
45
 10
196.326232
 20
312.291744
 30
0.0
 11
201.056227
 21
317.021739
 31
0.0
  0
LINE
  8
LC-003-005-----0
  6
CONTINUOUS
  5
46
 10
194.519846
 20
313.313785
 30
0.0
 11
201.056095
 21
319.850034
 31
0.0
  0
LINE
  8
LC-003-005-----0
  6
CONTINUOUS
  5
47
 10
193.809151
 20
315.431517
 30
0.0
 11
198.430322
 21
320.052689
 31
0.0
  0
LINE
  8
LC-003-005-----0
  6
CONTINUOUS
  5
48
 10
187.301895
 20
311.752689
 30
0.0
 11
189.306767
 21
313.75756
 31
0.0
  0
LINE
  8
LC-003-005-----0
  6
CONTINUOUS
  5
49
 10
192.738989
 20
317.189783
 30
0.0
 11
197.073791
 21
321.524585
 31
0.0
  0
LINE
  8
LC-003-005-----0
  6
CONTINUOUS
  5
4A
 10
184.473468
 20
311.752689
 30
0.0
 11
194.473468
 21
321.752689
 31
0.0
  0
LINE
  8
LC-003-005-----0
  6
CONTINUOUS
  5
4B
 10
183.806767
 20
313.914415
 30
0.0
 11
185.306767
 21
315.414415
 31
0.0
  0
LINE
  8
LC-003-005-----0
  6
CONTINUOUS
  5
4C
 10
186.106767
 20
316.214415
 30
0.0
 11
191.645041
 21
321.752689
 31
0.0
  0
LINE
  8
LC-003-005-----0
  6
CONTINUOUS
  5
4D
 10
183.806767
 20
316.742842
 30
0.0
 11
183.816614
 21
316.752689
 31
0.0
  0
LINE
  8
LC-003-005-----0
  6
CONTINUOUS
  5
4E
 10
186.106767
 20
319.042842
 30
0.0
 11
190.006767
 21
322.942842
 31
0.0
  0
LINE
  8
LC-003-005-----0
  6
CONTINUOUS
  5
4F
 10
186.106767
 20
321.871269
 30
0.0
 11
189.884069
 21
325.648571
 31
0.0
  0
LINE
  8
LC-003-005-----0
  6
CONTINUOUS
  5
50
 10
186.106767
 20
324.699696
 30
0.0
 11
187.35976
 21
325.952689
 31
0.0
  0
ENDBLK
  8
0
  5
51
  0
BLOCK
  8
0
  5
53
  2
BLK1
 70
    64
 10
0.0
 20
0.0
 30
0.0
  3
BLK1
  0
ENDBLK
  8
0
  5
54
  0
BLOCK
  8
0
  5
56
  2
BLK2
 70
    64
 10
0.0
 20
0.0
 30
0.0
  3
BLK2
  0
ENDBLK
  8
0
  5
57
  0
BLOCK
  8
0
  5
59
  2
*X3
 70
    65
 10
313.806961
 20
234.750079
 30
0.0
  3
*X3
  0
LINE
  8
LC-003-005-----0
  6
CONTINUOUS
  5
5A
 10
313.946085
 20
234.750126
 30
0.0
 11
315.335937
 21
236.139977
 31
0.0
  0
LINE
  8
LC-003-005-----0
  6
CONTINUOUS
  5
5B
 10
313.806984
 20
237.439452
 30
0.0
 11
316.303429
 21
239.935897
 31
0.0
  0
LINE
  8
LC-003-005-----0
  6
CONTINUOUS
  5
5C
 10
313.807008
 20
240.267903
 30
0.0
 11
316.303558
 21
242.764452
 31
0.0
  0
LINE
  8
LC-003-005-----0
  6
CONTINUOUS
  5
5D
 10
313.807033
 20
243.096355
 30
0.0
 11
316.303686
 21
245.593008
 31
0.0
  0
LINE
  8
LC-003-005-----0
  6
CONTINUOUS
  5
5E
 10
313.807057
 20
245.924806
 30
0.0
 11
316.303815
 21
248.421564
 31
0.0
  0
LINE
  8
LC-003-005-----0
  6
CONTINUOUS
  5
5F
 10
313.807081
 20
248.753258
 30
0.0
 11
316.303944
 21
251.25012
 31
0.0
  0
LINE
  8
LC-003-005-----0
  6
CONTINUOUS
  5
60
 10
313.807106
 20
251.581709
 30
0.0
 11
316.304072
 21
254.078676
 31
0.0
  0
LINE
  8
LC-003-005-----0
  6
CONTINUOUS
  5
61
 10
313.80713
 20
254.41016
 30
0.0
 11
316.304201
 21
256.907231
 31
0.0
  0
LINE
  8
LC-003-005-----0
  6
CONTINUOUS
  5
62
 10
313.807154
 20
257.238612
 30
0.0
 11
316.30433
 21
259.735787
 31
0.0
  0
LINE
  8
LC-003-005-----0
  6
CONTINUOUS
  5
63
 10
313.807179
 20
260.067063
 30
0.0
 11
316.304458
 21
262.564343
 31
0.0
  0
LINE
  8
LC-003-005-----0
  6
CONTINUOUS
  5
64
 10
313.807203
 20
262.895515
 30
0.0
 11
316.304587
 21
265.392899
 31
0.0
  0
LINE
  8
LC-003-005-----0
  6
CONTINUOUS
  5
65
 10
313.807227
 20
265.723966
 30
0.0
 11
316.304716
 21
268.221455
 31
0.0
  0
LINE
  8
LC-003-005-----0
  6
CONTINUOUS
  5
66
 10
313.807252
 20
268.552418
 30
0.0
 11
316.304844
 21
271.05001
 31
0.0
  0
LINE
  8
LC-003-005-----0
  6
CONTINUOUS
  5
67
 10
313.807276
 20
271.380869
 30
0.0
 11
316.304973
 21
273.878566
 31
0.0
  0
LINE
  8
LC-003-005-----0
  6
CONTINUOUS
  5
68
 10
313.8073
 20
274.209321
 30
0.0
 11
316.305102
 21
276.707122
 31
0.0
  0
LINE
  8
LC-003-005-----0
  6
CONTINUOUS
  5
69
 10
313.807325
 20
277.037772
 30
0.0
 11
316.30523
 21
279.535678
 31
0.0
  0
LINE
  8
LC-003-005-----0
  6
CONTINUOUS
  5
6A
 10
313.807349
 20
279.866224
 30
0.0
 11
316.305359
 21
282.364233
 31
0.0
  0
LINE
  8
LC-003-005-----0
  6
CONTINUOUS
  5
6B
 10
313.807373
 20
282.694675
 30
0.0
 11
316.305488
 21
285.192789
 31
0.0
  0
LINE
  8
LC-003-005-----0
  6
CONTINUOUS
  5
6C
 10
313.807398
 20
285.523127
 30
0.0
 11
316.305616
 21
288.021345
 31
0.0
  0
LINE
  8
LC-003-005-----0
  6
CONTINUOUS
  5
6D
 10
313.807422
 20
288.351578
 30
0.0
 11
316.305745
 21
290.849901
 31
0.0
  0
LINE
  8
LC-003-005-----0
  6
CONTINUOUS
  5
6E
 10
313.807447
 20
291.18003
 30
0.0
 11
316.305874
 21
293.678457
 31
0.0
  0
LINE
  8
LC-003-005-----0
  6
CONTINUOUS
  5
6F
 10
334.376736
 20
311.749319
 30
0.0
 11
336.806195
 21
314.178778
 31
0.0
  0
LINE
  8
LC-003-005-----0
  6
CONTINUOUS
  5
70
 10
313.807471
 20
294.008481
 30
0.0
 11
316.306002
 21
296.507012
 31
0.0
  0
LINE
  8
LC-003-005-----0
  6
CONTINUOUS
  5
71
 10
321.82514
 20
302.02615
 30
0.0
 11
322.527247
 21
302.728257
 31
0.0
  0
LINE
  8
LC-003-005-----0
  6
CONTINUOUS
  5
72
 10
331.548438
 20
311.749448
 30
0.0
 11
334.506219
 21
314.707229
 31
0.0
  0
LINE
  8
LC-003-005-----0
  6
CONTINUOUS
  5
73
 10
335.306256
 20
315.507266
 30
0.0
 11
336.54821
 21
316.749221
 31
0.0
  0
LINE
  8
LC-003-005-----0
  6
CONTINUOUS
  5
74
 10
313.807495
 20
296.836932
 30
0.0
 11
316.306131
 21
299.335568
 31
0.0
  0
LINE
  8
LC-003-005-----0
  6
CONTINUOUS
  5
75
 10
318.717908
 20
301.747345
 30
0.0
 11
322.806291
 21
305.835728
 31
0.0
  0
LINE
  8
LC-003-005-----0
  6
CONTINUOUS
  5
76
 10
331.306202
 20
314.335639
 30
0.0
 11
334.506348
 21
317.535785
 31
0.0
  0
LINE
  8
LC-003-005-----0
  6
CONTINUOUS
  5
77
 10
313.80752
 20
299.665384
 30
0.0
 11
317.889557
 21
303.747422
 31
0.0
  0
LINE
  8
LC-003-005-----0
  6
CONTINUOUS
  5
78
 10
319.555793
 20
305.413658
 30
0.0
 11
322.806356
 21
308.66422
 31
0.0
  0
LINE
  8
LC-003-005-----0
  6
CONTINUOUS
  5
79
 10
330.908765
 20
316.766629
 30
0.0
 11
334.506476
 21
320.364341
 31
0.0
  0
LINE
  8
LC-003-005-----0
  6
CONTINUOUS
  5
7A
 10
313.807544
 20
302.493835
 30
0.0
 11
315.061391
 21
303.747683
 31
0.0
  0
LINE
  8
LC-003-005-----0
  6
CONTINUOUS
  5
7B
 10
319.556054
 20
308.242346
 30
0.0
 11
322.80642
 21
311.492711
 31
0.0
  0
LINE
  8
LC-003-005-----0
  6
CONTINUOUS
  5
7C
 10
323.563446
 20
312.249737
 30
0.0
 11
326.803871
 21
315.490163
 31
0.0
  0
LINE
  8
LC-003-005-----0
  6
CONTINUOUS
  5
7D
 10
328.563292
 20
317.249584
 30
0.0
 11
334.506605
 21
323.192897
 31
0.0
  0
LINE
  8
LC-003-005-----0
  6
CONTINUOUS
  5
7E
 10
319.556315
 20
311.071034
 30
0.0
 11
330.234789
 21
321.749508
 31
0.0
  0
LINE
  8
LC-003-005-----0
  6
CONTINUOUS
  5
7F
 10
330.606556
 20
322.121275
 30
0.0
 11
334.264324
 21
325.779043
 31
0.0
  0
LINE
  8
LC-003-005-----0
  6
CONTINUOUS
  5
80
 10
319.556576
 20
313.899722
 30
0.0
 11
327.406491
 21
321.749636
 31
0.0
  0
LINE
  8
LC-003-005-----0
  6
CONTINUOUS
  5
81
 10
330.606685
 20
324.949831
 30
0.0
 11
331.6063
 21
325.949445
 31
0.0
  0
LINE
  8
LC-003-005-----0
  6
CONTINUOUS
  5
82
 10
319.556837
 20
316.72841
 30
0.0
 11
322.878269
 21
320.049842
 31
0.0
  0
LINE
  8
LC-003-005-----0
  6
CONTINUOUS
  5
83
 10
323.356484
 20
320.528057
 30
0.0
 11
324.578192
 21
321.749765
 31
0.0
  0
LINE
  8
LC-003-005-----0
  6
CONTINUOUS
  5
84
 10
319.557098
 20
319.557098
 30
0.0
 11
320.049971
 21
320.049971
 31
0.0
  0
ENDBLK
  8
0
  5
85
  0
BLOCK
  8
0
  5
87
  2
BLK3
 70
    64
 10
0.0
 20
0.0
 30
0.0
  3
BLK3
  0
ENDBLK
  8
0
  5
88
  0
BLOCK
  8
0
  5
8A
  2
BLK4
 70
    64
 10
0.0
 20
0.0
 30
0.0
  3
BLK4
  0
ENDBLK
  8
0
  5
8B
  0
BLOCK
  8
0
  5
8D
  2
BLK5
 70
    64
 10
0.0
 20
0.0
 30
0.0
  3
BLK5
  0
ENDBLK
  8
0
  5
8E
  0
BLOCK
  8
0
  5
90
  2
*X7
 70
    65
 10
190.987246
 20
323.752689
 30
0.0
  3
*X7
  0
LINE
  8
LC-003-005-----0
  6
CONTINUOUS
  5
91
 10
260.306731
 20
325.177684
 30
0.0
 11
258.731726
 21
326.752689
 31
0.0
  0
LINE
  8
LC-003-005-----0
  6
CONTINUOUS
  5
92
 10
258.903299
 20
323.752689
 30
0.0
 11
255.903299
 21
326.752689
 31
0.0
  0
LINE
  8
LC-003-005-----0
  6
CONTINUOUS
  5
93
 10
256.074872
 20
323.752689
 30
0.0
 11
253.074872
 21
326.752689
 31
0.0
  0
LINE
  8
LC-003-005-----0
  6
CONTINUOUS
  5
94
 10
253.246445
 20
323.752689
 30
0.0
 11
250.246445
 21
326.752689
 31
0.0
  0
LINE
  8
LC-003-005-----0
  6
CONTINUOUS
  5
95
 10
250.418018
 20
323.752689
 30
0.0
 11
247.418018
 21
326.752689
 31
0.0
  0
LINE
  8
LC-003-005-----0
  6
CONTINUOUS
  5
96
 10
247.589591
 20
323.752689
 30
0.0
 11
244.589591
 21
326.752689
 31
0.0
  0
LINE
  8
LC-003-005-----0
  6
CONTINUOUS
  5
97
 10
244.761163
 20
323.752689
 30
0.0
 11
241.761163
 21
326.752689
 31
0.0
  0
LINE
  8
LC-003-005-----0
  6
CONTINUOUS
  5
98
 10
241.932736
 20
323.752689
 30
0.0
 11
238.932736
 21
326.752689
 31
0.0
  0
LINE
  8
LC-003-005-----0
  6
CONTINUOUS
  5
99
 10
239.104309
 20
323.752689
 30
0.0
 11
236.104309
 21
326.752689
 31
0.0
  0
LINE
  8
LC-003-005-----0
  6
CONTINUOUS
  5
9A
 10
236.275882
 20
323.752689
 30
0.0
 11
233.275882
 21
326.752689
 31
0.0
  0
LINE
  8
LC-003-005-----0
  6
CONTINUOUS
  5
9B
 10
233.447455
 20
323.752689
 30
0.0
 11
230.447455
 21
326.752689
 31
0.0
  0
LINE
  8
LC-003-005-----0
  6
CONTINUOUS
  5
9C
 10
230.619028
 20
323.752689
 30
0.0
 11
227.619028
 21
326.752689
 31
0.0
  0
LINE
  8
LC-003-005-----0
  6
CONTINUOUS
  5
9D
 10
227.790601
 20
323.752689
 30
0.0
 11
224.790601
 21
326.752689
 31
0.0
  0
LINE
  8
LC-003-005-----0
  6
CONTINUOUS
  5
9E
 10
224.962174
 20
323.752689
 30
0.0
 11
221.962174
 21
326.752689
 31
0.0
  0
LINE
  8
LC-003-005-----0
  6
CONTINUOUS
  5
9F
 10
222.133746
 20
323.752689
 30
0.0
 11
219.133746
 21
326.752689
 31
0.0
  0
LINE
  8
LC-003-005-----0
  6
CONTINUOUS
  5
A0
 10
219.305319
 20
323.752689
 30
0.0
 11
216.305319
 21
326.752689
 31
0.0
  0
LINE
  8
LC-003-005-----0
  6
CONTINUOUS
  5
A1
 10
216.476892
 20
323.752689
 30
0.0
 11
213.476892
 21
326.752689
 31
0.0
  0
LINE
  8
LC-003-005-----0
  6
CONTINUOUS
  5
A2
 10
213.648465
 20
323.752689
 30
0.0
 11
210.648465
 21
326.752689
 31
0.0
  0
LINE
  8
LC-003-005-----0
  6
CONTINUOUS
  5
A3
 10
210.820038
 20
323.752689
 30
0.0
 11
207.820038
 21
326.752689
 31
0.0
  0
LINE
  8
LC-003-005-----0
  6
CONTINUOUS
  5
A4
 10
207.991611
 20
323.752689
 30
0.0
 11
204.991611
 21
326.752689
 31
0.0
  0
LINE
  8
LC-003-005-----0
  6
CONTINUOUS
  5
A5
 10
205.163184
 20
323.752689
 30
0.0
 11
202.163184
 21
326.752689
 31
0.0
  0
LINE
  8
LC-003-005-----0
  6
CONTINUOUS
  5
A6
 10
202.334757
 20
323.752689
 30
0.0
 11
199.334757
 21
326.752689
 31
0.0
  0
LINE
  8
LC-003-005-----0
  6
CONTINUOUS
  5
A7
 10
199.506329
 20
323.752689
 30
0.0
 11
196.506329
 21
326.752689
 31
0.0
  0
LINE
  8
LC-003-005-----0
  6
CONTINUOUS
  5
A8
 10
196.677902
 20
323.752689
 30
0.0
 11
193.677902
 21
326.752689
 31
0.0
  0
LINE
  8
LC-003-005-----0
  6
CONTINUOUS
  5
A9
 10
193.849475
 20
323.752689
 30
0.0
 11
190.987246
 21
326.614918
 31
0.0
  0
LINE
  8
LC-003-005-----0
  6
CONTINUOUS
  5
AA
 10
191.021048
 20
323.752689
 30
0.0
 11
190.987246
 21
323.786491
 31
0.0
  0
ENDBLK
  8
0
  5
AB
  0
BLOCK
  8
0
  5
AD
  2
*X8
 70
    65
 10
260.306699
 20
323.749535
 30
0.0
  3
*X8
  0
LINE
  8
LC-003-005-----0
  6
CONTINUOUS
  5
AE
 10
329.62628
 20
326.568813
 30
0.0
 11
329.445549
 21
326.749544
 31
0.0
  0
LINE
  8
LC-003-005-----0
  6
CONTINUOUS
  5
AF
 10
329.61713
 20
323.749536
 30
0.0
 11
326.616994
 21
326.749672
 31
0.0
  0
LINE
  8
LC-003-005-----0
  6
CONTINUOUS
  5
B0
 10
326.788574
 20
323.749664
 30
0.0
 11
323.788438
 21
326.749801
 31
0.0
  0
LINE
  8
LC-003-005-----0
  6
CONTINUOUS
  5
B1
 10
323.960018
 20
323.749793
 30
0.0
 11
320.959882
 21
326.74993
 31
0.0
  0
LINE
  8
LC-003-005-----0
  6
CONTINUOUS
  5
B2
 10
321.131463
 20
323.749922
 30
0.0
 11
318.131326
 21
326.750058
 31
0.0
  0
LINE
  8
LC-003-005-----0
  6
CONTINUOUS
  5
B3
 10
318.302907
 20
323.75005
 30
0.0
 11
315.30277
 21
326.750187
 31
0.0
  0
LINE
  8
LC-003-005-----0
  6
CONTINUOUS
  5
B4
 10
315.474351
 20
323.750179
 30
0.0
 11
312.474215
 21
326.750316
 31
0.0
  0
LINE
  8
LC-003-005-----0
  6
CONTINUOUS
  5
B5
 10
312.645795
 20
323.750308
 30
0.0
 11
309.645659
 21
326.750444
 31
0.0
  0
LINE
  8
LC-003-005-----0
  6
CONTINUOUS
  5
B6
 10
309.817239
 20
323.750436
 30
0.0
 11
306.817103
 21
326.750573
 31
0.0
  0
LINE
  8
LC-003-005-----0
  6
CONTINUOUS
  5
B7
 10
306.988684
 20
323.750565
 30
0.0
 11
303.988547
 21
326.750702
 31
0.0
  0
LINE
  8
LC-003-005-----0
  6
CONTINUOUS
  5
B8
 10
304.160128
 20
323.750694
 30
0.0
 11
301.159991
 21
326.75083
 31
0.0
  0
LINE
  8
LC-003-005-----0
  6
CONTINUOUS
  5
B9
 10
301.331572
 20
323.750823
 30
0.0
 11
298.331436
 21
326.750959
 31
0.0
  0
LINE
  8
LC-003-005-----0
  6
CONTINUOUS
  5
BA
 10
298.503016
 20
323.750951
 30
0.0
 11
295.50288
 21
326.751088
 31
0.0
  0
LINE
  8
LC-003-005-----0
  6
CONTINUOUS
  5
BB
 10
295.67446
 20
323.75108
 30
0.0
 11
292.674324
 21
326.751216
 31
0.0
  0
LINE
  8
LC-003-005-----0
  6
CONTINUOUS
  5
BC
 10
292.845905
 20
323.751209
 30
0.0
 11
289.845768
 21
326.751345
 31
0.0
  0
LINE
  8
LC-003-005-----0
  6
CONTINUOUS
  5
BD
 10
290.017349
 20
323.751337
 30
0.0
 11
287.017212
 21
326.751474
 31
0.0
  0
LINE
  8
LC-003-005-----0
  6
CONTINUOUS
  5
BE
 10
287.188793
 20
323.751466
 30
0.0
 11
284.188657
 21
326.751602
 31
0.0
  0
LINE
  8
LC-003-005-----0
  6
CONTINUOUS
  5
BF
 10
284.360237
 20
323.751595
 30
0.0
 11
281.360101
 21
326.751731
 31
0.0
  0
LINE
  8
LC-003-005-----0
  6
CONTINUOUS
  5
C0
 10
281.531682
 20
323.751723
 30
0.0
 11
278.531545
 21
326.75186
 31
0.0
  0
LINE
  8
LC-003-005-----0
  6
CONTINUOUS
  5
C1
 10
278.703126
 20
323.751852
 30
0.0
 11
275.702989
 21
326.751988
 31
0.0
  0
LINE
  8
LC-003-005-----0
  6
CONTINUOUS
  5
C2
 10
275.87457
 20
323.751981
 30
0.0
 11
272.874433
 21
326.752117
 31
0.0
  0
LINE
  8
LC-003-005-----0
  6
CONTINUOUS
  5
C3
 10
273.046014
 20
323.752109
 30
0.0
 11
270.045878
 21
326.752246
 31
0.0
  0
LINE
  8
LC-003-005-----0
  6
CONTINUOUS
  5
C4
 10
270.217458
 20
323.752238
 30
0.0
 11
267.217322
 21
326.752374
 31
0.0
  0
LINE
  8
LC-003-005-----0
  6
CONTINUOUS
  5
C5
 10
267.388903
 20
323.752367
 30
0.0
 11
264.388766
 21
326.752503
 31
0.0
  0
LINE
  8
LC-003-005-----0
  6
CONTINUOUS
  5
C6
 10
264.560347
 20
323.752495
 30
0.0
 11
261.56021
 21
326.752632
 31
0.0
  0
LINE
  8
LC-003-005-----0
  6
CONTINUOUS
  5
C7
 10
261.731791
 20
323.752624
 30
0.0
 11
260.306731
 21
325.177684
 31
0.0
  0
ENDBLK
  8
0
  5
C8
  0
BLOCK
  8
0
  5
CA
  2
*D9
 70
    65
 10
0.0
 20
0.0
 30
0.0
  3
*D9
  0
LINE
  8
LC-009-003-MTH-0
  6
CONTINUOUS
  5
CC
 10
185.306767
 20
325.252689
 30
0.0
 11
185.306767
 21
430.8
 31
0.0
  0
LINE
  8
LC-009-003-MTH-0
  6
CONTINUOUS
  5
CD
 10
335.306699
 20
325.249277
 30
0.0
 11
335.306699
 21
430.8
 31
0.0
  0
LINE
  8
LC-010-003-MTG-0
  6
CONTINUOUS
  5
CF
 10
185.306767
 20
420.0
 30
0.0
 11
335.306699
 21
420.0
 31
0.0
  0
LINE
  8
LC-008-003-----0
  6
CONTINUOUS
  5
D1
 10
203.152774
 20
422.349471
 30
0.0
 11
185.306767
 21
420.0
 31
0.0
  0
LINE
  8
LC-008-003-----0
  6
CONTINUOUS
  5
D2
 10
185.306767
 20
420.0
 30
0.0
 11
203.152774
 21
417.650529
 31
0.0
  0
LINE
  8
LC-008-003-----0
  6
CONTINUOUS
  5
D3
 10
203.152774
 20
417.650529
 30
0.0
 11
203.152774
 21
422.349471
 31
0.0
  0
LINE
  8
LC-008-003-----0
  6
CONTINUOUS
  5
D4
 10
203.192813
 20
421.738609
 30
0.0
 11
189.986767
 21
420.0
 31
0.0
  0
LINE
  8
LC-008-003-----0
  6
CONTINUOUS
  5
D5
 10
189.986767
 20
420.0
 30
0.0
 11
203.192813
 21
418.261391
 31
0.0
  0
LINE
  8
LC-008-003-----0
  6
CONTINUOUS
  5
D6
 10
203.232851
 20
421.127746
 30
0.0
 11
194.666767
 21
420.0
 31
0.0
  0
LINE
  8
LC-008-003-----0
  6
CONTINUOUS
  5
D7
 10
194.666767
 20
420.0
 30
0.0
 11
203.232851
 21
418.872254
 31
0.0
  0
LINE
  8
LC-008-003-----0
  6
CONTINUOUS
  5
D8
 10
203.272889
 20
420.516884
 30
0.0
 11
199.346767
 21
420.0
 31
0.0
  0
LINE
  8
LC-008-003-----0
  6
CONTINUOUS
  5
D9
 10
199.346767
 20
420.0
 30
0.0
 11
203.272889
 21
419.483116
 31
0.0
  0
LINE
  8
LC-008-003-----0
  6
CONTINUOUS
  5
DA
 10
317.460691
 20
417.650529
 30
0.0
 11
335.306699
 21
420.0
 31
0.0
  0
LINE
  8
LC-008-003-----0
  6
CONTINUOUS
  5
DB
 10
335.306699
 20
420.0
 30
0.0
 11
317.460691
 21
422.349471
 31
0.0
  0
LINE
  8
LC-008-003-----0
  6
CONTINUOUS
  5
DC
 10
317.460691
 20
422.349471
 30
0.0
 11
317.460691
 21
417.650529
 31
0.0
  0
LINE
  8
LC-008-003-----0
  6
CONTINUOUS
  5
DD
 10
317.420653
 20
418.261391
 30
0.0
 11
330.626699
 21
420.0
 31
0.0
  0
LINE
  8
LC-008-003-----0
  6
CONTINUOUS
  5
DE
 10
330.626699
 20
420.0
 30
0.0
 11
317.420653
 21
421.738609
 31
0.0
  0
LINE
  8
LC-008-003-----0
  6
CONTINUOUS
  5
DF
 10
317.380615
 20
418.872254
 30
0.0
 11
325.946699
 21
420.0
 31
0.0
  0
LINE
  8
LC-008-003-----0
  6
CONTINUOUS
  5
E0
 10
325.946699
 20
420.0
 30
0.0
 11
317.380615
 21
421.127746
 31
0.0
  0
LINE
  8
LC-008-003-----0
  6
CONTINUOUS
  5
E1
 10
317.340577
 20
419.483116
 30
0.0
 11
321.266699
 21
420.0
 31
0.0
  0
LINE
  8
LC-008-003-----0
  6
CONTINUOUS
  5
E2
 10
321.266699
 20
420.0
 30
0.0
 11
317.340577
 21
420.516884
 31
0.0
  0
TEXT
  8
LC-008-003-----0
  6
CONTINUOUS
 62
     6
  5
E4
 10
243.96812
 20
430.431999
 30
0.0
 40
18.0
  1
150
 41
0.9
 51
15.0
  7
LC-TXTSTYLE-150-400-0-0-D0
 72
     1
 11
263.101979
 21
430.431999
 31
0.0
  0
ENDBLK
  8
0
  5
E5
  0
BLOCK
  8
0
  5
E7
  2
*D10
 70
    65
 10
0.0
 20
0.0
 30
0.0
  3
*D10
  0
LINE
  8
LC-009-003-MTH-0
  6
CONTINUOUS
  5
E8
 10
204.306156
 20
239.752566
 30
0.0
 11
204.306156
 21
171.2
 31
0.0
  0
LINE
  8
LC-009-003-MTH-0
  6
CONTINUOUS
  5
E9
 10
316.303421
 20
239.750018
 30
0.0
 11
316.303421
 21
171.2
 31
0.0
  0
LINE
  8
LC-010-003-MTG-0
  6
CONTINUOUS
  5
EA
 10
204.306156
 20
182.0
 30
0.0
 11
316.303421
 21
182.0
 31
0.0
  0
LINE
  8
LC-008-003-----0
  6
CONTINUOUS
  5
EB
 10
222.152163
 20
184.349471
 30
0.0
 11
204.306156
 21
182.0
 31
0.0
  0
LINE
  8
LC-008-003-----0
  6
CONTINUOUS
  5
EC
 10
204.306156
 20
182.0
 30
0.0
 11
222.152163
 21
179.650529
 31
0.0
  0
LINE
  8
LC-008-003-----0
  6
CONTINUOUS
  5
ED
 10
222.152163
 20
179.650529
 30
0.0
 11
222.152163
 21
184.349471
 31
0.0
  0
LINE
  8
LC-008-003-----0
  6
CONTINUOUS
  5
EE
 10
222.192201
 20
183.738609
 30
0.0
 11
208.986156
 21
182.0
 31
0.0
  0
LINE
  8
LC-008-003-----0
  6
CONTINUOUS
  5
EF
 10
208.986156
 20
182.0
 30
0.0
 11
222.192201
 21
180.261391
 31
0.0
  0
LINE
  8
LC-008-003-----0
  6
CONTINUOUS
  5
F0
 10
222.232239
 20
183.127746
 30
0.0
 11
213.666156
 21
182.0
 31
0.0
  0
LINE
  8
LC-008-003-----0
  6
CONTINUOUS
  5
F1
 10
213.666156
 20
182.0
 30
0.0
 11
222.232239
 21
180.872254
 31
0.0
  0
LINE
  8
LC-008-003-----0
  6
CONTINUOUS
  5
F2
 10
222.272278
 20
182.516884
 30
0.0
 11
218.346156
 21
182.0
 31
0.0
  0
LINE
  8
LC-008-003-----0
  6
CONTINUOUS
  5
F3
 10
218.346156
 20
182.0
 30
0.0
 11
222.272278
 21
181.483116
 31
0.0
  0
LINE
  8
LC-008-003-----0
  6
CONTINUOUS
  5
F4
 10
298.457413
 20
179.650529
 30
0.0
 11
316.303421
 21
182.0
 31
0.0
  0
LINE
  8
LC-008-003-----0
  6
CONTINUOUS
  5
F5
 10
316.303421
 20
182.0
 30
0.0
 11
298.457413
 21
184.349471
 31
0.0
  0
LINE
  8
LC-008-003-----0
  6
CONTINUOUS
  5
F6
 10
298.457413
 20
184.349471
 30
0.0
 11
298.457413
 21
179.650529
 31
0.0
  0
LINE
  8
LC-008-003-----0
  6
CONTINUOUS
  5
F7
 10
298.417375
 20
180.261391
 30
0.0
 11
311.623421
 21
182.0
 31
0.0
  0
LINE
  8
LC-008-003-----0
  6
CONTINUOUS
  5
F8
 10
311.623421
 20
182.0
 30
0.0
 11
298.417375
 21
183.738609
 31
0.0
  0
LINE
  8
LC-008-003-----0
  6
CONTINUOUS
  5
F9
 10
298.377337
 20
180.872254
 30
0.0
 11
306.943421
 21
182.0
 31
0.0
  0
LINE
  8
LC-008-003-----0
  6
CONTINUOUS
  5
FA
 10
306.943421
 20
182.0
 30
0.0
 11
298.377337
 21
183.127746
 31
0.0
  0
LINE
  8
LC-008-003-----0
  6
CONTINUOUS
  5
FB
 10
298.337299
 20
181.483116
 30
0.0
 11
302.263421
 21
182.0
 31
0.0
  0
LINE
  8
LC-008-003-----0
  6
CONTINUOUS
  5
FC
 10
302.263421
 20
182.0
 30
0.0
 11
298.337299
 21
182.516884
 31
0.0
  0
TEXT
  8
LC-008-003-----0
  6
CONTINUOUS
 62
     6
  5
FD
 10
229.424443
 20
192.431999
 30
0.0
 40
18.0
  1
DN100
 51
15.0
  7
LC-TXTSTYLE-150-400-0-0-D0
 72
     1
 11
263.100034
 21
192.431999
 31
0.0
  0
ENDBLK
  8
0
  5
FE
  0
BLOCK
  8
0
  5
100
  2
BLK6
 70
    64
 10
0.0
 20
0.0
 30
0.0
  3
BLK6
  0
ENDBLK
  8
0
  5
101
  0
BLOCK
  8
0
  5
103
  2
*D12
 70
    65
 10
0.0
 20
0.0
 30
0.0
  3
*D12
  0
LINE
  8
LC-009-003-MTH-0
  6
CONTINUOUS
  5
104
 10
206.802388
 20
234.752566
 30
0.0
 11
169.2
 21
234.752566
 31
0.0
  0
LINE
  8
LC-009-003-MTH-0
  6
CONTINUOUS
  5
105
 10
204.30494
 20
301.750115
 30
0.0
 11
169.2
 21
301.750115
 31
0.0
  0
LINE
  8
LC-010-003-MTG-0
  6
CONTINUOUS
  5
106
 10
180.0
 20
234.752566
 30
0.0
 11
180.0
 21
301.750115
 31
0.0
  0
LINE
  8
LC-008-003-----0
  6
CONTINUOUS
  5
107
 10
177.650529
 20
252.598573
 30
0.0
 11
180.0
 21
234.752566
 31
0.0
  0
LINE
  8
LC-008-003-----0
  6
CONTINUOUS
  5
108
 10
180.0
 20
234.752566
 30
0.0
 11
182.349471
 21
252.598573
 31
0.0
  0
LINE
  8
LC-008-003-----0
  6
CONTINUOUS
  5
109
 10
182.349471
 20
252.598573
 30
0.0
 11
177.650529
 21
252.598573
 31
0.0
  0
LINE
  8
LC-008-003-----0
  6
CONTINUOUS
  5
10A
 10
178.261391
 20
252.638611
 30
0.0
 11
180.0
 21
239.432566
 31
0.0
  0
LINE
  8
LC-008-003-----0
  6
CONTINUOUS
  5
10B
 10
180.0
 20
239.432566
 30
0.0
 11
181.738609
 21
252.638611
 31
0.0
  0
LINE
  8
LC-008-003-----0
  6
CONTINUOUS
  5
10C
 10
178.872254
 20
252.678649
 30
0.0
 11
180.0
 21
244.112566
 31
0.0
  0
LINE
  8
LC-008-003-----0
  6
CONTINUOUS
  5
10D
 10
180.0
 20
244.112566
 30
0.0
 11
181.127746
 21
252.678649
 31
0.0
  0
LINE
  8
LC-008-003-----0
  6
CONTINUOUS
  5
10E
 10
179.483116
 20
252.718687
 30
0.0
 11
180.0
 21
248.792566
 31
0.0
  0
LINE
  8
LC-008-003-----0
  6
CONTINUOUS
  5
10F
 10
180.0
 20
248.792566
 30
0.0
 11
180.516884
 21
252.718687
 31
0.0
  0
LINE
  8
LC-008-003-----0
  6
CONTINUOUS
  5
110
 10
182.349471
 20
283.904108
 30
0.0
 11
180.0
 21
301.750115
 31
0.0
  0
LINE
  8
LC-008-003-----0
  6
CONTINUOUS
  5
111
 10
180.0
 20
301.750115
 30
0.0
 11
177.650529
 21
283.904108
 31
0.0
  0
LINE
  8
LC-008-003-----0
  6
CONTINUOUS
  5
112
 10
177.650529
 20
283.904108
 30
0.0
 11
182.349471
 21
283.904108
 31
0.0
  0
LINE
  8
LC-008-003-----0
  6
CONTINUOUS
  5
113
 10
181.738609
 20
283.86407
 30
0.0
 11
180.0
 21
297.070115
 31
0.0
  0
LINE
  8
LC-008-003-----0
  6
CONTINUOUS
  5
114
 10
180.0
 20
297.070115
 30
0.0
 11
178.261391
 21
283.86407
 31
0.0
  0
LINE
  8
LC-008-003-----0
  6
CONTINUOUS
  5
115
 10
181.127746
 20
283.824032
 30
0.0
 11
180.0
 21
292.390115
 31
0.0
  0
LINE
  8
LC-008-003-----0
  6
CONTINUOUS
  5
116
 10
180.0
 20
292.390115
 30
0.0
 11
178.872254
 21
283.824032
 31
0.0
  0
LINE
  8
LC-008-003-----0
  6
CONTINUOUS
  5
117
 10
180.516884
 20
283.783994
 30
0.0
 11
180.0
 21
287.710115
 31
0.0
  0
LINE
  8
LC-008-003-----0
  6
CONTINUOUS
  5
118
 10
180.0
 20
287.710115
 30
0.0
 11
179.483116
 21
283.783994
 31
0.0
  0
TEXT
  8
LC-008-003-----0
  6
CONTINUOUS
 62
     6
  5
119
 10
169.568001
 20
259.420254
 30
0.0
 40
18.0
  1
65
 50
90.0
 51
15.0
  7
LC-TXTSTYLE-150-400-0-0-D0
 72
     1
 11
169.568001
 21
271.283246
 31
0.0
  0
ENDBLK
  8
0
  5
11A
  0
BLOCK
  8
0
  5
11C
  2
*D13
 70
    65
 10
0.0
 20
0.0
 30
0.0
  3
*D13
  0
LINE
  8
LC-009-003-MTH-0
  6
CONTINUOUS
  5
11D
 10
206.802388
 20
234.752566
 30
0.0
 11
129.2
 21
234.752566
 31
0.0
  0
LINE
  8
LC-009-003-MTH-0
  6
CONTINUOUS
  5
11E
 10
186.806767
 20
326.752689
 30
0.0
 11
129.2
 21
326.752689
 31
0.0
  0
LINE
  8
LC-010-003-MTG-0
  6
CONTINUOUS
  5
11F
 10
140.0
 20
234.752566
 30
0.0
 11
140.0
 21
326.752689
 31
0.0
  0
LINE
  8
LC-008-003-----0
  6
CONTINUOUS
  5
120
 10
137.650529
 20
252.598573
 30
0.0
 11
140.0
 21
234.752566
 31
0.0
  0
LINE
  8
LC-008-003-----0
  6
CONTINUOUS
  5
121
 10
140.0
 20
234.752566
 30
0.0
 11
142.349471
 21
252.598573
 31
0.0
  0
LINE
  8
LC-008-003-----0
  6
CONTINUOUS
  5
122
 10
142.349471
 20
252.598573
 30
0.0
 11
137.650529
 21
252.598573
 31
0.0
  0
LINE
  8
LC-008-003-----0
  6
CONTINUOUS
  5
123
 10
138.261391
 20
252.638611
 30
0.0
 11
140.0
 21
239.432566
 31
0.0
  0
LINE
  8
LC-008-003-----0
  6
CONTINUOUS
  5
124
 10
140.0
 20
239.432566
 30
0.0
 11
141.738609
 21
252.638611
 31
0.0
  0
LINE
  8
LC-008-003-----0
  6
CONTINUOUS
  5
125
 10
138.872254
 20
252.678649
 30
0.0
 11
140.0
 21
244.112566
 31
0.0
  0
LINE
  8
LC-008-003-----0
  6
CONTINUOUS
  5
126
 10
140.0
 20
244.112566
 30
0.0
 11
141.127746
 21
252.678649
 31
0.0
  0
LINE
  8
LC-008-003-----0
  6
CONTINUOUS
  5
127
 10
139.483116
 20
252.718687
 30
0.0
 11
140.0
 21
248.792566
 31
0.0
  0
LINE
  8
LC-008-003-----0
  6
CONTINUOUS
  5
128
 10
140.0
 20
248.792566
 30
0.0
 11
140.516884
 21
252.718687
 31
0.0
  0
LINE
  8
LC-008-003-----0
  6
CONTINUOUS
  5
129
 10
142.349471
 20
308.906681
 30
0.0
 11
140.0
 21
326.752689
 31
0.0
  0
LINE
  8
LC-008-003-----0
  6
CONTINUOUS
  5
12A
 10
140.0
 20
326.752689
 30
0.0
 11
137.650529
 21
308.906681
 31
0.0
  0
LINE
  8
LC-008-003-----0
  6
CONTINUOUS
  5
12B
 10
137.650529
 20
308.906681
 30
0.0
 11
142.349471
 21
308.906681
 31
0.0
  0
LINE
  8
LC-008-003-----0
  6
CONTINUOUS
  5
12C
 10
141.738609
 20
308.866643
 30
0.0
 11
140.0
 21
322.072689
 31
0.0
  0
LINE
  8
LC-008-003-----0
  6
CONTINUOUS
  5
12D
 10
140.0
 20
322.072689
 30
0.0
 11
138.261391
 21
308.866643
 31
0.0
  0
LINE
  8
LC-008-003-----0
  6
CONTINUOUS
  5
12E
 10
141.127746
 20
308.826605
 30
0.0
 11
140.0
 21
317.392689
 31
0.0
  0
LINE
  8
LC-008-003-----0
  6
CONTINUOUS
  5
12F
 10
140.0
 20
317.392689
 30
0.0
 11
138.872254
 21
308.826605
 31
0.0
  0
LINE
  8
LC-008-003-----0
  6
CONTINUOUS
  5
130
 10
140.516884
 20
308.786567
 30
0.0
 11
140.0
 21
312.712689
 31
0.0
  0
LINE
  8
LC-008-003-----0
  6
CONTINUOUS
  5
131
 10
140.0
 20
312.712689
 30
0.0
 11
139.483116
 21
308.786567
 31
0.0
  0
TEXT
  8
LC-008-003-----0
  6
CONTINUOUS
 62
     6
  5
132
 10
129.568001
 20
271.684881
 30
0.0
 40
18.0
  1
92
 50
90.0
 51
15.0
  7
LC-TXTSTYLE-150-400-0-0-D0
 72
     1
 11
129.568001
 21
283.547873
 31
0.0
  0
ENDBLK
  8
0
  5
133
  0
BLOCK
  8
0
  5
135
  2
BLK7
 70
    64
 10
0.0
 20
0.0
 30
0.0
  3
BLK7
  0
ENDBLK
  8
0
  5
136
  0
BLOCK
  8
0
  5
138
  2
BLK8
 70
    64
 10
0.0
 20
0.0
 30
0.0
  3
BLK8
  0
ENDBLK
  8
0
  5
139
  0
BLOCK
  8
0
  5
13B
  2
BLK9
 70
    64
 10
0.0
 20
0.0
 30
0.0
  3
BLK9
  0
ENDBLK
  8
0
  5
13C
  0
BLOCK
  8
0
  5
13E
  2
BLK10
 70
    64
 10
0.0
 20
0.0
 30
0.0
  3
BLK10
  0
ENDBLK
  8
0
  5
13F
  0
BLOCK
  8
0
  5
141
  2
BLK11
 70
    64
 10
0.0
 20
0.0
 30
0.0
  3
BLK11
  0
ENDBLK
  8
0
  5
142
  0
BLOCK
  8
0
  5
144
  2
BLK12
 70
    64
 10
0.0
 20
0.0
 30
0.0
  3
BLK12
  0
ENDBLK
  8
0
  5
145
  0
BLOCK
  8
0
  5
147
  2
BLK13
 70
    64
 10
0.0
 20
0.0
 30
0.0
  3
BLK13
  0
ENDBLK
  8
0
  5
148
  0
BLOCK
  8
0
  5
14A
  2
BLK14
 70
    64
 10
0.0
 20
0.0
 30
0.0
  3
BLK14
  0
ENDBLK
  8
0
  5
14B
  0
BLOCK
  8
0
  5
14D
  2
BLK15
 70
    64
 10
0.0
 20
0.0
 30
0.0
  3
BLK15
  0
ENDBLK
  8
0
  5
14E
  0
BLOCK
  8
0
  5
150
  2
BLK16
 70
    64
 10
0.0
 20
0.0
 30
0.0
  3
BLK16
  0
ENDBLK
  8
0
  5
151
  0
BLOCK
  8
0
  5
153
  2
BLK17
 70
    64
 10
0.0
 20
0.0
 30
0.0
  3
BLK17
  0
ENDBLK
  8
0
  5
154
  0
BLOCK
  8
0
  5
156
  2
BLK18
 70
    64
 10
0.0
 20
0.0
 30
0.0
  3
BLK18
  0
ENDBLK
  8
0
  5
157
  0
BLOCK
  8
0
  5
159
  2
BLK19
 70
    64
 10
0.0
 20
0.0
 30
0.0
  3
BLK19
  0
ENDBLK
  8
0
  5
15A
  0
BLOCK
  8
0
  5
15C
  2
BLK20
 70
    64
 10
0.0
 20
0.0
 30
0.0
  3
BLK20
  0
ENDBLK
  8
0
  5
15D
  0
BLOCK
  8
0
  5
15F
  2
BLK21
 70
    64
 10
0.0
 20
0.0
 30
0.0
  3
BLK21
  0
ENDBLK
  8
0
  5
160
  0
BLOCK
  8
0
  5
162
  2
BLK22
 70
    64
 10
0.0
 20
0.0
 30
0.0
  3
BLK22
  0
ENDBLK
  8
0
  5
163
  0
BLOCK
  8
0
  5
165
  2
BLK23
 70
    64
 10
0.0
 20
0.0
 30
0.0
  3
BLK23
  0
ENDBLK
  8
0
  5
166
  0
BLOCK
  8
0
  5
168
  2
BLK24
 70
    64
 10
0.0
 20
0.0
 30
0.0
  3
BLK24
  0
ENDBLK
  8
0
  5
169
  0
BLOCK
  8
0
  5
16B
  2
BLK25
 70
    64
 10
0.0
 20
0.0
 30
0.0
  3
BLK25
  0
ENDBLK
  8
0
  5
16C
  0
BLOCK
  8
0
  5
16E
  2
BLK26
 70
    64
 10
0.0
 20
0.0
 30
0.0
  3
BLK26
  0
ENDBLK
  8
0
  5
16F
  0
BLOCK
  8
0
  5
171
  2
BLK27
 70
    64
 10
0.0
 20
0.0
 30
0.0
  3
BLK27
  0
ENDBLK
  8
0
  5
172
  0
BLOCK
  8
0
  5
174
  2
BLK28
 70
    64
 10
0.0
 20
0.0
 30
0.0
  3
BLK28
  0
ENDBLK
  8
0
  5
175
  0
BLOCK
  8
0
  5
177
  2
BLK29
 70
    64
 10
0.0
 20
0.0
 30
0.0
  3
BLK29
  0
ENDBLK
  8
0
  5
178
  0
BLOCK
  8
0
  5
17A
  2
BLK30
 70
    64
 10
0.0
 20
0.0
 30
0.0
  3
BLK30
  0
ENDBLK
  8
0
  5
17B
  0
BLOCK
  8
0
  5
17D
  2
BLK31
 70
    64
 10
0.0
 20
0.0
 30
0.0
  3
BLK31
  0
ENDBLK
  8
0
  5
17E
  0
BLOCK
  8
0
  5
180
  2
BLK32
 70
    64
 10
0.0
 20
0.0
 30
0.0
  3
BLK32
  0
ENDBLK
  8
0
  5
181
  0
BLOCK
  8
0
  5
183
  2
BLK33
 70
    64
 10
0.0
 20
0.0
 30
0.0
  3
BLK33
  0
ENDBLK
  8
0
  5
184
  0
BLOCK
  8
0
  5
186
  2
BLK34
 70
    64
 10
0.0
 20
0.0
 30
0.0
  3
BLK34
  0
ENDBLK
  8
0
  5
187
  0
BLOCK
  8
0
  5
189
  2
*X42
 70
    65
 10
307.702525
 20
293.248331
 30
0.0
  3
*X42
  0
LINE
  8
LC-003-005-----0
  6
CONTINUOUS
  5
18A
 10
312.782288
 20
293.831827
 30
0.0
 11
313.414195
 21
294.463733
 31
0.0
  0
LINE
  8
LC-003-005-----0
  6
CONTINUOUS
  5
18B
 10
312.158322
 20
293.490703
 30
0.0
 11
313.688008
 21
295.020389
 31
0.0
  0
LINE
  8
LC-003-005-----0
  6
CONTINUOUS
  5
18C
 10
311.734749
 20
293.349973
 30
0.0
 11
313.778746
 21
295.393969
 31
0.0
  0
LINE
  8
LC-003-005-----0
  6
CONTINUOUS
  5
18D
 10
311.381903
 20
293.27997
 30
0.0
 11
313.805768
 21
295.703834
 31
0.0
  0
LINE
  8
LC-003-005-----0
  6
CONTINUOUS
  5
18E
 10
311.070433
 20
293.251342
 30
0.0
 11
313.806198
 21
295.987107
 31
0.0
  0
LINE
  8
LC-003-005-----0
  6
CONTINUOUS
  5
18F
 10
310.78776
 20
293.251512
 30
0.0
 11
313.806198
 21
296.26995
 31
0.0
  0
LINE
  8
LC-003-005-----0
  6
CONTINUOUS
  5
190
 10
310.527104
 20
293.273699
 30
0.0
 11
313.806198
 21
296.552792
 31
0.0
  0
LINE
  8
LC-003-005-----0
  6
CONTINUOUS
  5
191
 10
310.284327
 20
293.313765
 30
0.0
 11
313.806198
 21
296.835635
 31
0.0
  0
LINE
  8
LC-003-005-----0
  6
CONTINUOUS
  5
192
 10
310.056697
 20
293.368977
 30
0.0
 11
313.806198
 21
297.118478
 31
0.0
  0
LINE
  8
LC-003-005-----0
  6
CONTINUOUS
  5
193
 10
309.842314
 20
293.437437
 30
0.0
 11
313.806198
 21
297.40132
 31
0.0
  0
LINE
  8
LC-003-005-----0
  6
CONTINUOUS
  5
194
 10
309.639815
 20
293.51778
 30
0.0
 11
313.806198
 21
297.684163
 31
0.0
  0
LINE
  8
LC-003-005-----0
  6
CONTINUOUS
  5
195
 10
309.448197
 20
293.609005
 30
0.0
 11
313.796672
 21
297.95748
 31
0.0
  0
LINE
  8
LC-003-005-----0
  6
CONTINUOUS
  5
196
 10
309.266721
 20
293.710372
 30
0.0
 11
313.760579
 21
298.20423
 31
0.0
  0
LINE
  8
LC-003-005-----0
  6
CONTINUOUS
  5
197
 10
309.094844
 20
293.821338
 30
0.0
 11
313.703043
 21
298.429537
 31
0.0
  0
LINE
  8
LC-003-005-----0
  6
CONTINUOUS
  5
198
 10
308.93218
 20
293.941516
 30
0.0
 11
313.627655
 21
298.636991
 31
0.0
  0
LINE
  8
LC-003-005-----0
  6
CONTINUOUS
  5
199
 10
308.78025
 20
294.072429
 30
0.0
 11
313.536687
 21
298.828866
 31
0.0
  0
LINE
  8
LC-003-005-----0
  6
CONTINUOUS
  5
19A
 10
308.640653
 20
294.215675
 30
0.0
 11
313.431623
 21
299.006645
 31
0.0
  0
LINE
  8
LC-003-005-----0
  6
CONTINUOUS
  5
19B
 10
308.513433
 20
294.371297
 30
0.0
 11
313.313414
 21
299.171279
 31
0.0
  0
LINE
  8
LC-003-005-----0
  6
CONTINUOUS
  5
19C
 10
308.398921
 20
294.539628
 30
0.0
 11
313.182623
 21
299.32333
 31
0.0
  0
LINE
  8
LC-003-005-----0
  6
CONTINUOUS
  5
19D
 10
308.297783
 20
294.721333
 30
0.0
 11
313.039498
 21
299.463047
 31
0.0
  0
LINE
  8
LC-003-005-----0
  6
CONTINUOUS
  5
19E
 10
308.211104
 20
294.917496
 30
0.0
 11
312.884147
 21
299.590539
 31
0.0
  0
LINE
  8
LC-003-005-----0
  6
CONTINUOUS
  5
19F
 10
308.140558
 20
295.129793
 30
0.0
 11
312.718872
 21
299.708107
 31
0.0
  0
LINE
  8
LC-003-005-----0
  6
CONTINUOUS
  5
1A0
 10
308.088727
 20
295.360805
 30
0.0
 11
312.544288
 21
299.816366
 31
0.0
  0
LINE
  8
LC-003-005-----0
  6
CONTINUOUS
  5
1A1
 10
308.059743
 20
295.614664
 30
0.0
 11
312.359966
 21
299.914887
 31
0.0
  0
LINE
  8
LC-003-005-----0
  6
CONTINUOUS
  5
1A2
 10
308.055857
 20
295.893621
 30
0.0
 11
312.165313
 21
300.003077
 31
0.0
  0
LINE
  8
LC-003-005-----0
  6
CONTINUOUS
  5
1A3
 10
308.055857
 20
296.176463
 30
0.0
 11
311.959522
 21
300.080128
 31
0.0
  0
LINE
  8
LC-003-005-----0
  6
CONTINUOUS
  5
1A4
 10
308.055857
 20
296.459306
 30
0.0
 11
311.741498
 21
300.144947
 31
0.0
  0
LINE
  8
LC-003-005-----0
  6
CONTINUOUS
  5
1A5
 10
308.055857
 20
296.742149
 30
0.0
 11
311.509748
 21
300.196039
 31
0.0
  0
LINE
  8
LC-003-005-----0
  6
CONTINUOUS
  5
1A6
 10
308.055857
 20
297.024991
 30
0.0
 11
311.26217
 21
300.231304
 31
0.0
  0
LINE
  8
LC-003-005-----0
  6
CONTINUOUS
  5
1A7
 10
308.055857
 20
297.307834
 30
0.0
 11
310.995706
 21
300.247683
 31
0.0
  0
LINE
  8
LC-003-005-----0
  6
CONTINUOUS
  5
1A8
 10
308.055857
 20
297.590677
 30
0.0
 11
310.705634
 21
300.240454
 31
0.0
  0
LINE
  8
LC-003-005-----0
  6
CONTINUOUS
  5
1A9
 10
308.059465
 20
297.877127
 30
0.0
 11
310.383986
 21
300.201648
 31
0.0
  0
LINE
  8
LC-003-005-----0
  6
CONTINUOUS
  5
1AA
 10
308.100909
 20
298.201415
 30
0.0
 11
310.015209
 21
300.115714
 31
0.0
  0
LINE
  8
LC-003-005-----0
  6
CONTINUOUS
  5
1AB
 10
308.221042
 20
298.60439
 30
0.0
 11
309.558887
 21
299.942235
 31
0.0
  0
ENDBLK
  8
0
  5
1AC
  0
BLOCK
  8
0
  5
1AE
  2
*X43
 70
    65
 10
206.453478
 20
293.248331
 30
0.0
  3
*X43
  0
LINE
  8
LC-003-005-----0
  6
CONTINUOUS
  5
1AF
 10
211.50517
 20
293.812399
 30
0.0
 11
212.182177
 21
294.489407
 31
0.0
  0
LINE
  8
LC-003-005-----0
  6
CONTINUOUS
  5
1B0
 10
210.89467
 20
293.484742
 30
0.0
 11
212.443224
 21
295.033296
 31
0.0
  0
LINE
  8
LC-003-005-----0
  6
CONTINUOUS
  5
1B1
 10
210.474098
 20
293.347013
 30
0.0
 11
212.531268
 21
295.404182
 31
0.0
  0
LINE
  8
LC-003-005-----0
  6
CONTINUOUS
  5
1B2
 10
210.122812
 20
293.278569
 30
0.0
 11
212.556875
 21
295.712632
 31
0.0
  0
LINE
  8
LC-003-005-----0
  6
CONTINUOUS
  5
1B3
 10
209.812365
 20
293.250965
 30
0.0
 11
212.557152
 21
295.995752
 31
0.0
  0
LINE
  8
LC-003-005-----0
  6
CONTINUOUS
  5
1B4
 10
209.530447
 20
293.251889
 30
0.0
 11
212.557152
 21
296.278594
 31
0.0
  0
LINE
  8
LC-003-005-----0
  6
CONTINUOUS
  5
1B5
 10
209.270389
 20
293.274675
 30
0.0
 11
212.557152
 21
296.561437
 31
0.0
  0
LINE
  8
LC-003-005-----0
  6
CONTINUOUS
  5
1B6
 10
209.028111
 20
293.315239
 30
0.0
 11
212.557152
 21
296.84428
 31
0.0
  0
LINE
  8
LC-003-005-----0
  6
CONTINUOUS
  5
1B7
 10
208.80091
 20
293.370881
 30
0.0
 11
212.557152
 21
297.127123
 31
0.0
  0
LINE
  8
LC-003-005-----0
  6
CONTINUOUS
  5
1B8
 10
208.586909
 20
293.439722
 30
0.0
 11
212.557152
 21
297.409965
 31
0.0
  0
LINE
  8
LC-003-005-----0
  6
CONTINUOUS
  5
1B9
 10
208.384755
 20
293.520411
 30
0.0
 11
212.557152
 21
297.692808
 31
0.0
  0
LINE
  8
LC-003-005-----0
  6
CONTINUOUS
  5
1BA
 10
208.193457
 20
293.611956
 30
0.0
 11
212.54689
 21
297.965389
 31
0.0
  0
LINE
  8
LC-003-005-----0
  6
CONTINUOUS
  5
1BB
 10
208.012281
 20
293.713623
 30
0.0
 11
212.510069
 21
298.21141
 31
0.0
  0
LINE
  8
LC-003-005-----0
  6
CONTINUOUS
  5
1BC
 10
207.840691
 20
293.824876
 30
0.0
 11
212.451943
 21
298.436127
 31
0.0
  0
LINE
  8
LC-003-005-----0
  6
CONTINUOUS
  5
1BD
 10
207.678305
 20
293.945333
 30
0.0
 11
212.376049
 21
298.643077
 31
0.0
  0
LINE
  8
LC-003-005-----0
  6
CONTINUOUS
  5
1BE
 10
207.526754
 20
294.076624
 30
0.0
 11
212.284633
 21
298.834503
 31
0.0
  0
LINE
  8
LC-003-005-----0
  6
CONTINUOUS
  5
1BF
 10
207.387534
 20
294.220247
 30
0.0
 11
212.179155
 21
299.011868
 31
0.0
  0
LINE
  8
LC-003-005-----0
  6
CONTINUOUS
  5
1C0
 10
207.260696
 20
294.376251
 30
0.0
 11
212.060555
 21
299.17611
 31
0.0
  0
LINE
  8
LC-003-005-----0
  6
CONTINUOUS
  5
1C1
 10
207.146581
 20
294.544979
 30
0.0
 11
211.929385
 21
299.327783
 31
0.0
  0
LINE
  8
LC-003-005-----0
  6
CONTINUOUS
  5
1C2
 10
207.045866
 20
294.727107
 30
0.0
 11
211.785883
 21
299.467124
 31
0.0
  0
LINE
  8
LC-003-005-----0
  6
CONTINUOUS
  5
1C3
 10
206.959652
 20
294.923735
 30
0.0
 11
211.630184
 21
299.594267
 31
0.0
  0
LINE
  8
LC-003-005-----0
  6
CONTINUOUS
  5
1C4
 10
206.889634
 20
295.13656
 30
0.0
 11
211.464629
 21
299.711556
 31
0.0
  0
LINE
  8
LC-003-005-----0
  6
CONTINUOUS
  5
1C5
 10
206.83843
 20
295.368199
 30
0.0
 11
211.289755
 21
299.819524
 31
0.0
  0
LINE
  8
LC-003-005-----0
  6
CONTINUOUS
  5
1C6
 10
206.810235
 20
295.622847
 30
0.0
 11
211.105127
 21
299.917739
 31
0.0
  0
LINE
  8
LC-003-005-----0
  6
CONTINUOUS
  5
1C7
 10
206.806811
 20
295.902265
 30
0.0
 11
210.910147
 21
300.005601
 31
0.0
  0
LINE
  8
LC-003-005-----0
  6
CONTINUOUS
  5
1C8
 10
206.806811
 20
296.185108
 30
0.0
 11
210.703999
 21
300.082296
 31
0.0
  0
LINE
  8
LC-003-005-----0
  6
CONTINUOUS
  5
1C9
 10
206.806811
 20
296.467951
 30
0.0
 11
210.485581
 21
300.146721
 31
0.0
  0
LINE
  8
LC-003-005-----0
  6
CONTINUOUS
  5
1CA
 10
206.806811
 20
296.750793
 30
0.0
 11
210.253381
 21
300.197364
 31
0.0
  0
LINE
  8
LC-003-005-----0
  6
CONTINUOUS
  5
1CB
 10
206.806811
 20
297.033636
 30
0.0
 11
210.005278
 21
300.232103
 31
0.0
  0
LINE
  8
LC-003-005-----0
  6
CONTINUOUS
  5
1CC
 10
206.806811
 20
297.316479
 30
0.0
 11
209.738174
 21
300.247842
 31
0.0
  0
LINE
  8
LC-003-005-----0
  6
CONTINUOUS
  5
1CD
 10
206.806811
 20
297.599322
 30
0.0
 11
209.447278
 21
300.239789
 31
0.0
  0
LINE
  8
LC-003-005-----0
  6
CONTINUOUS
  5
1CE
 10
206.810951
 20
297.886305
 30
0.0
 11
209.124478
 21
300.199832
 31
0.0
  0
LINE
  8
LC-003-005-----0
  6
CONTINUOUS
  5
1CF
 10
206.854069
 20
298.212266
 30
0.0
 11
208.753848
 21
300.112044
 31
0.0
  0
LINE
  8
LC-003-005-----0
  6
CONTINUOUS
  5
1D0
 10
206.977875
 20
298.618914
 30
0.0
 11
208.293439
 21
299.934478
 31
0.0
  0
ENDBLK
  8
0
  5
1D1
  0
BLOCK
  8
0
  5
1D3
  2
*X44
 70
    65
 10
275.806667
 20
316.748331
 30
0.0
  3
*X44
  0
LINE
  8
LC-003-005-----0
  6
CONTINUOUS
  5
1D4
 10
277.257992
 20
316.855972
 30
0.0
 11
277.699026
 21
317.297006
 31
0.0
  0
LINE
  8
LC-003-005-----0
  6
CONTINUOUS
  5
1D5
 10
276.869484
 20
316.750306
 30
0.0
 11
277.804692
 21
317.685514
 31
0.0
  0
LINE
  8
LC-003-005-----0
  6
CONTINUOUS
  5
1D6
 10
276.605176
 20
316.768841
 30
0.0
 11
277.786157
 21
317.949822
 31
0.0
  0
LINE
  8
LC-003-005-----0
  6
CONTINUOUS
  5
1D7
 10
276.391897
 20
316.838405
 30
0.0
 11
277.716593
 21
318.163101
 31
0.0
  0
LINE
  8
LC-003-005-----0
  6
CONTINUOUS
  5
1D8
 10
276.213731
 20
316.943081
 30
0.0
 11
277.611916
 21
318.341267
 31
0.0
  0
LINE
  8
LC-003-005-----0
  6
CONTINUOUS
  5
1D9
 10
276.065175
 20
317.077369
 30
0.0
 11
277.477629
 21
318.489823
 31
0.0
  0
LINE
  8
LC-003-005-----0
  6
CONTINUOUS
  5
1DA
 10
275.945304
 20
317.24034
 30
0.0
 11
277.314658
 21
318.609694
 31
0.0
  0
LINE
  8
LC-003-005-----0
  6
CONTINUOUS
  5
1DB
 10
275.857047
 20
317.434926
 30
0.0
 11
277.120072
 21
318.697951
 31
0.0
  0
LINE
  8
LC-003-005-----0
  6
CONTINUOUS
  5
1DC
 10
275.809706
 20
317.670427
 30
0.0
 11
276.884571
 21
318.745292
 31
0.0
  0
LINE
  8
LC-003-005-----0
  6
CONTINUOUS
  5
1DD
 10
275.833079
 20
317.976643
 30
0.0
 11
276.578355
 21
318.721919
 31
0.0
  0
ENDBLK
  8
0
  5
1DE
  0
BLOCK
  8
0
  5
1E0
  2
*X45
 70
    65
 10
201.306504
 20
291.748331
 30
0.0
  3
*X45
  0
LINE
  8
LC-003-005-----0
  6
CONTINUOUS
  5
1E1
 10
308.718894
 20
291.748331
 30
0.0
 11
310.218894
 21
293.248331
 31
0.0
  0
LINE
  8
LC-003-005-----0
  6
CONTINUOUS
  5
1E2
 10
306.306504
 20
292.164369
 30
0.0
 11
308.056028
 21
293.913892
 31
0.0
  0
LINE
  8
LC-003-005-----0
  6
CONTINUOUS
  5
1E3
 10
318.390467
 20
304.248331
 30
0.0
 11
318.967419
 21
304.825284
 31
0.0
  0
LINE
  8
LC-003-005-----0
  6
CONTINUOUS
  5
1E4
 10
306.306504
 20
294.992796
 30
0.0
 11
308.056028
 21
296.742319
 31
0.0
  0
LINE
  8
LC-003-005-----0
  6
CONTINUOUS
  5
1E5
 10
315.56204
 20
304.248331
 30
0.0
 11
318.06204
 21
306.748331
 31
0.0
  0
LINE
  8
LC-003-005-----0
  6
CONTINUOUS
  5
1E6
 10
306.306504
 20
297.821223
 30
0.0
 11
308.056028
 21
299.570746
 31
0.0
  0
LINE
  8
LC-003-005-----0
  6
CONTINUOUS
  5
1E7
 10
308.733613
 20
300.248331
 30
0.0
 11
310.556504
 21
302.071223
 31
0.0
  0
LINE
  8
LC-003-005-----0
  6
CONTINUOUS
  5
1E8
 10
312.733613
 20
304.248331
 30
0.0
 11
315.233613
 21
306.748331
 31
0.0
  0
LINE
  8
LC-003-005-----0
  6
CONTINUOUS
  5
1E9
 10
306.306504
 20
300.64965
 30
0.0
 11
312.405185
 21
306.748331
 31
0.0
  0
LINE
  8
LC-003-005-----0
  6
CONTINUOUS
  5
1EA
 10
306.306504
 20
303.478077
 30
0.0
 11
309.576758
 21
306.748331
 31
0.0
  0
LINE
  8
LC-003-005-----0
  6
CONTINUOUS
  5
1EB
 10
306.306504
 20
306.306504
 30
0.0
 11
308.306504
 21
308.306504
 31
0.0
  0
LINE
  8
LC-003-005-----0
  6
CONTINUOUS
  5
1EC
 10
306.306504
 20
309.134932
 30
0.0
 11
308.306504
 21
311.134932
 31
0.0
  0
LINE
  8
LC-003-005-----0
  6
CONTINUOUS
  5
1ED
 10
306.299297
 20
311.956152
 30
0.0
 11
307.948757
 21
313.605611
 31
0.0
  0
LINE
  8
LC-003-005-----0
  6
CONTINUOUS
  5
1EE
 10
305.405986
 20
313.891268
 30
0.0
 11
306.820244
 21
315.305526
 31
0.0
  0
LINE
  8
LC-003-005-----0
  6
CONTINUOUS
  5
1EF
 10
303.431997
 20
314.745705
 30
0.0
 11
305.101364
 21
316.415073
 31
0.0
  0
LINE
  8
LC-003-005-----0
  6
CONTINUOUS
  5
1F0
 10
300.606196
 20
314.748331
 30
0.0
 11
302.606196
 21
316.748331
 31
0.0
  0
LINE
  8
LC-003-005-----0
  6
CONTINUOUS
  5
1F1
 10
297.777768
 20
314.748331
 30
0.0
 11
299.777768
 21
316.748331
 31
0.0
  0
LINE
  8
LC-003-005-----0
  6
CONTINUOUS
  5
1F2
 10
294.949341
 20
314.748331
 30
0.0
 11
296.949341
 21
316.748331
 31
0.0
  0
LINE
  8
LC-003-005-----0
  6
CONTINUOUS
  5
1F3
 10
292.120914
 20
314.748331
 30
0.0
 11
294.120914
 21
316.748331
 31
0.0
  0
LINE
  8
LC-003-005-----0
  6
CONTINUOUS
  5
1F4
 10
289.292487
 20
314.748331
 30
0.0
 11
291.292487
 21
316.748331
 31
0.0
  0
LINE
  8
LC-003-005-----0
  6
CONTINUOUS
  5
1F5
 10
286.46406
 20
314.748331
 30
0.0
 11
288.46406
 21
316.748331
 31
0.0
  0
LINE
  8
LC-003-005-----0
  6
CONTINUOUS
  5
1F6
 10
283.635633
 20
314.748331
 30
0.0
 11
285.635633
 21
316.748331
 31
0.0
  0
LINE
  8
LC-003-005-----0
  6
CONTINUOUS
  5
1F7
 10
280.807206
 20
314.748331
 30
0.0
 11
282.807206
 21
316.748331
 31
0.0
  0
LINE
  8
LC-003-005-----0
  6
CONTINUOUS
  5
1F8
 10
277.978779
 20
314.748331
 30
0.0
 11
279.978779
 21
316.748331
 31
0.0
  0
LINE
  8
LC-003-005-----0
  6
CONTINUOUS
  5
1F9
 10
275.150351
 20
314.748331
 30
0.0
 11
277.150351
 21
316.748331
 31
0.0
  0
LINE
  8
LC-003-005-----0
  6
CONTINUOUS
  5
1FA
 10
272.321924
 20
314.748331
 30
0.0
 11
274.321924
 21
316.748331
 31
0.0
  0
LINE
  8
LC-003-005-----0
  6
CONTINUOUS
  5
1FB
 10
269.493497
 20
314.748331
 30
0.0
 11
271.493497
 21
316.748331
 31
0.0
  0
LINE
  8
LC-003-005-----0
  6
CONTINUOUS
  5
1FC
 10
266.66507
 20
314.748331
 30
0.0
 11
268.66507
 21
316.748331
 31
0.0
  0
LINE
  8
LC-003-005-----0
  6
CONTINUOUS
  5
1FD
 10
268.806667
 20
316.889928
 30
0.0
 11
271.306667
 21
319.389928
 31
0.0
  0
LINE
  8
LC-003-005-----0
  6
CONTINUOUS
  5
1FE
 10
263.836643
 20
314.748331
 30
0.0
 11
265.836643
 21
316.748331
 31
0.0
  0
LINE
  8
LC-003-005-----0
  6
CONTINUOUS
  5
1FF
 10
268.806667
 20
319.718355
 30
0.0
 11
271.306667
 21
322.218355
 31
0.0
  0
LINE
  8
LC-003-005-----0
  6
CONTINUOUS
  5
200
 10
261.008216
 20
314.748331
 30
0.0
 11
263.008216
 21
316.748331
 31
0.0
  0
LINE
  8
LC-003-005-----0
  6
CONTINUOUS
  5
201
 10
268.806667
 20
322.546782
 30
0.0
 11
269.508216
 21
323.248331
 31
0.0
  0
LINE
  8
LC-003-005-----0
  6
CONTINUOUS
  5
202
 10
258.179789
 20
314.748331
 30
0.0
 11
260.179789
 21
316.748331
 31
0.0
  0
LINE
  8
LC-003-005-----0
  6
CONTINUOUS
  5
203
 10
255.351362
 20
314.748331
 30
0.0
 11
257.351362
 21
316.748331
 31
0.0
  0
LINE
  8
LC-003-005-----0
  6
CONTINUOUS
  5
204
 10
252.522935
 20
314.748331
 30
0.0
 11
254.522935
 21
316.748331
 31
0.0
  0
LINE
  8
LC-003-005-----0
  6
CONTINUOUS
  5
205
 10
249.694507
 20
314.748331
 30
0.0
 11
251.694507
 21
316.748331
 31
0.0
  0
LINE
  8
LC-003-005-----0
  6
CONTINUOUS
  5
206
 10
246.86608
 20
314.748331
 30
0.0
 11
248.86608
 21
316.748331
 31
0.0
  0
LINE
  8
LC-003-005-----0
  6
CONTINUOUS
  5
207
 10
244.037653
 20
314.748331
 30
0.0
 11
246.037653
 21
316.748331
 31
0.0
  0
LINE
  8
LC-003-005-----0
  6
CONTINUOUS
  5
208
 10
241.209226
 20
314.748331
 30
0.0
 11
243.209226
 21
316.748331
 31
0.0
  0
LINE
  8
LC-003-005-----0
  6
CONTINUOUS
  5
209
 10
238.380799
 20
314.748331
 30
0.0
 11
240.380799
 21
316.748331
 31
0.0
  0
LINE
  8
LC-003-005-----0
  6
CONTINUOUS
  5
20A
 10
212.552372
 20
291.748331
 30
0.0
 11
214.306504
 21
293.502464
 31
0.0
  0
LINE
  8
LC-003-005-----0
  6
CONTINUOUS
  5
20B
 10
235.552372
 20
314.748331
 30
0.0
 11
237.552372
 21
316.748331
 31
0.0
  0
LINE
  8
LC-003-005-----0
  6
CONTINUOUS
  5
20C
 10
210.056504
 20
292.080891
 30
0.0
 11
211.223945
 21
293.248331
 31
0.0
  0
LINE
  8
LC-003-005-----0
  6
CONTINUOUS
  5
20D
 10
212.556981
 20
294.581368
 30
0.0
 11
214.306504
 21
296.330891
 31
0.0
  0
LINE
  8
LC-003-005-----0
  6
CONTINUOUS
  5
20E
 10
232.723945
 20
314.748331
 30
0.0
 11
234.723945
 21
316.748331
 31
0.0
  0
LINE
  8
LC-003-005-----0
  6
CONTINUOUS
  5
20F
 10
212.556981
 20
297.409795
 30
0.0
 11
214.306504
 21
299.159318
 31
0.0
  0
LINE
  8
LC-003-005-----0
  6
CONTINUOUS
  5
210
 10
229.895518
 20
314.748331
 30
0.0
 11
231.895518
 21
316.748331
 31
0.0
  0
LINE
  8
LC-003-005-----0
  6
CONTINUOUS
  5
211
 10
212.556981
 20
300.238222
 30
0.0
 11
214.306504
 21
301.987745
 31
0.0
  0
LINE
  8
LC-003-005-----0
  6
CONTINUOUS
  5
212
 10
227.06709
 20
314.748331
 30
0.0
 11
229.06709
 21
316.748331
 31
0.0
  0
LINE
  8
LC-003-005-----0
  6
CONTINUOUS
  5
213
 10
210.056504
 20
300.566172
 30
0.0
 11
214.306504
 21
304.816172
 31
0.0
  0
LINE
  8
LC-003-005-----0
  6
CONTINUOUS
  5
214
 10
224.238663
 20
314.748331
 30
0.0
 11
226.238663
 21
316.748331
 31
0.0
  0
LINE
  8
LC-003-005-----0
  6
CONTINUOUS
  5
215
 10
226.306667
 20
316.816335
 30
0.0
 11
228.806667
 21
319.316335
 31
0.0
  0
LINE
  8
LC-003-005-----0
  6
CONTINUOUS
  5
216
 10
210.056504
 20
303.394599
 30
0.0
 11
214.306504
 21
307.644599
 31
0.0
  0
LINE
  8
LC-003-005-----0
  6
CONTINUOUS
  5
217
 10
221.410236
 20
314.748331
 30
0.0
 11
223.410236
 21
316.748331
 31
0.0
  0
LINE
  8
LC-003-005-----0
  6
CONTINUOUS
  5
218
 10
226.306667
 20
319.644762
 30
0.0
 11
228.806667
 21
322.144762
 31
0.0
  0
LINE
  8
LC-003-005-----0
  6
CONTINUOUS
  5
219
 10
208.081809
 20
304.248331
 30
0.0
 11
210.581809
 21
306.748331
 31
0.0
  0
LINE
  8
LC-003-005-----0
  6
CONTINUOUS
  5
21A
 10
212.306504
 20
308.473027
 30
0.0
 11
214.306504
 21
310.473027
 31
0.0
  0
LINE
  8
LC-003-005-----0
  6
CONTINUOUS
  5
21B
 10
218.581809
 20
314.748331
 30
0.0
 11
220.581809
 21
316.748331
 31
0.0
  0
LINE
  8
LC-003-005-----0
  6
CONTINUOUS
  5
21C
 10
226.306667
 20
322.473189
 30
0.0
 11
227.081809
 21
323.248331
 31
0.0
  0
LINE
  8
LC-003-005-----0
  6
CONTINUOUS
  5
21D
 10
205.253382
 20
304.248331
 30
0.0
 11
207.753382
 21
306.748331
 31
0.0
  0
LINE
  8
LC-003-005-----0
  6
CONTINUOUS
  5
21E
 10
212.306504
 20
311.301454
 30
0.0
 11
217.753382
 21
316.748331
 31
0.0
  0
LINE
  8
LC-003-005-----0
  6
CONTINUOUS
  5
21F
 10
202.424955
 20
304.248331
 30
0.0
 11
204.924955
 21
306.748331
 31
0.0
  0
LINE
  8
LC-003-005-----0
  6
CONTINUOUS
  5
220
 10
201.424926
 20
306.07673
 30
0.0
 11
202.096528
 21
306.748331
 31
0.0
  0
ENDBLK
  8
0
  5
221
  0
ENDSEC
  0
SECTION
  2
ENTITIES
  0
VIEWPORT
  8
LC-000
  5
392
 67
     1
 68
     1
 10
420.0
 20
297.0
 30
0.0
 40
840.0
 41
594.0
 69
     1
1001
ACAD
1000
MVIEW
1002
{
1070
    16
1010
0.0
1020
0.0
1030
0.0
1010
0.0
1020
0.0
1030
1.0
1040
0.0
1040
594.0
1040
420.0
1040
297.0
1040
50.0
1040
0.0
1040
0.0
1070
     0
1070
   100
1070
     1
1070
     1
1070
     0
1070
     0
1070
     0
1070
     0
1040
0.0
1040
0.0
1040
0.0
1040
1.0
1040
1.0
1040
0.0
1040
0.0
1070
     0
1002
{
1002
}
1002
}
  0
VIEWPORT
  8
0
  5
393
 67
     1
 68
     1
 10
0.0
 20
0.0
 30
0.0
 40
0.0
 41
0.0
 69
     1
1001
ACAD
1000
MVIEW
1002
{
1070
    16
1010
0.0
1020
0.0
1030
0.0
1010
0.0
1020
0.0
1030
1.0
1040
0.0
1040
594.0
1040
0.0
1040
0.0
1040
50.0
1040
0.0
1040
0.0
1070
     0
1070
   100
1070
     0
1070
     1
1070
     0
1070
     0
1070
     0
1070
     0
1040
0.0
1040
0.0
1040
0.0
1040
0.5
1040
0.5
1040
0.5
1040
0.5
1070
     0
1002
{
1002
}
1002
}
  0
INSERT
  8
0
  5
222
  2
*X0
 10
183.806767
 20
234.752566
 30
0.0
  0
INSERT
  8
0
  5
224
  2
BLK1
 10
0.0
 20
0.0
 30
0.0
  0
INSERT
  8
0
  5
225
  2
BLK2
 10
0.0
 20
0.0
 30
0.0
  0
INSERT
  8
0
  5
226
  2
*X3
 10
313.806961
 20
234.750079
 30
0.0
  0
INSERT
  8
0
  5
227
  2
BLK3
 10
0.0
 20
0.0
 30
0.0
  0
INSERT
  8
0
  5
228
  2
BLK4
 10
0.0
 20
0.0
 30
0.0
  0
INSERT
  8
0
  5
229
  2
BLK5
 10
0.0
 20
0.0
 30
0.0
  0
INSERT
  8
0
  5
22A
  2
*X7
 10
190.987246
 20
323.752689
 30
0.0
  0
INSERT
  8
0
  5
22B
  2
*X8
 10
260.306699
 20
323.749535
 30
0.0
  0
DIMENSION
  8
0
  5
22C
  2
*D9
 10
260.306733
 20
420.0
 30
0.0
 11
260.306733
 21
420.0
 31
0.0
 13
185.306767
 23
325.252689
 33
0.0
 14
335.306699
 24
325.249277
 34
0.0
  3
LC-DIM-L-0090-02-02
  0
DIMENSION
  8
0
  5
22D
  2
*D10
 10
260.304788
 20
182.0
 30
0.0
 11
260.304788
 21
182.0
 31
0.0
  1
DN100
 13
204.306156
 23
239.752566
 33
0.0
 14
316.303421
 24
239.750018
 34
0.0
  3
LC-DIM-L-0090-02-02
  0
INSERT
  8
0
  5
22E
  2
BLK6
 10
0.0
 20
0.0
 30
0.0
  0
DIMENSION
  8
0
  5
22F
  2
*D12
 10
180.0
 20
268.488
 30
0.0
 11
180.0
 21
268.488
 31
0.0
  1
65
 13
204.30494
 23
301.750115
 33
0.0
 14
206.802388
 24
234.752566
 34
0.0
 50
90.0
  3
LC-DIM-L-0090-02-02
  0
DIMENSION
  8
0
  5
230
  2
*D13
 10
140.0
 20
280.752627
 30
0.0
 11
140.0
 21
280.752627
 31
0.0
 13
186.806767
 23
326.752689
 33
0.0
 14
206.802388
 24
234.752566
 34
0.0
 50
90.0
  3
LC-DIM-L-0090-02-02
  0
INSERT
  8
0
  5
231
  2
BLK7
 10
0.0
 20
0.0
 30
0.0
  0
INSERT
  8
0
  5
232
  2
BLK8
 10
0.0
 20
0.0
 30
0.0
  0
INSERT
  8
0
  5
233
  2
BLK9
 10
0.0
 20
0.0
 30
0.0
  0
INSERT
  8
0
  5
234
  2
BLK10
 10
0.0
 20
0.0
 30
0.0
  0
INSERT
  8
0
  5
235
  2
BLK11
 10
0.0
 20
0.0
 30
0.0
  0
INSERT
  8
0
  5
236
  2
BLK12
 10
0.0
 20
0.0
 30
0.0
  0
INSERT
  8
0
  5
237
  2
BLK13
 10
0.0
 20
0.0
 30
0.0
  0
INSERT
  8
0
  5
238
  2
BLK14
 10
0.0
 20
0.0
 30
0.0
  0
INSERT
  8
0
  5
239
  2
BLK15
 10
0.0
 20
0.0
 30
0.0
  0
INSERT
  8
0
  5
23A
  2
BLK16
 10
0.0
 20
0.0
 30
0.0
  0
INSERT
  8
0
  5
23B
  2
BLK17
 10
0.0
 20
0.0
 30
0.0
  0
INSERT
  8
0
  5
23C
  2
BLK18
 10
0.0
 20
0.0
 30
0.0
  0
INSERT
  8
0
  5
23D
  2
BLK19
 10
0.0
 20
0.0
 30
0.0
  0
INSERT
  8
0
  5
23E
  2
BLK20
 10
0.0
 20
0.0
 30
0.0
  0
INSERT
  8
0
  5
23F
  2
BLK21
 10
0.0
 20
0.0
 30
0.0
  0
INSERT
  8
0
  5
240
  2
BLK22
 10
0.0
 20
0.0
 30
0.0
  0
INSERT
  8
0
  5
241
  2
BLK23
 10
0.0
 20
0.0
 30
0.0
  0
INSERT
  8
0
  5
242
  2
BLK24
 10
0.0
 20
0.0
 30
0.0
  0
INSERT
  8
0
  5
243
  2
BLK25
 10
0.0
 20
0.0
 30
0.0
  0
INSERT
  8
0
  5
244
  2
BLK26
 10
0.0
 20
0.0
 30
0.0
  0
INSERT
  8
0
  5
245
  2
BLK27
 10
0.0
 20
0.0
 30
0.0
  0
INSERT
  8
0
  5
246
  2
BLK28
 10
0.0
 20
0.0
 30
0.0
  0
INSERT
  8
0
  5
247
  2
BLK29
 10
0.0
 20
0.0
 30
0.0
  0
INSERT
  8
0
  5
248
  2
BLK30
 10
0.0
 20
0.0
 30
0.0
  0
INSERT
  8
0
  5
249
  2
BLK31
 10
0.0
 20
0.0
 30
0.0
  0
INSERT
  8
0
  5
24A
  2
BLK32
 10
0.0
 20
0.0
 30
0.0
  0
INSERT
  8
0
  5
24B
  2
BLK33
 10
0.0
 20
0.0
 30
0.0
  0
INSERT
  8
0
  5
24C
  2
BLK34
 10
0.0
 20
0.0
 30
0.0
  0
INSERT
  8
0
  5
24D
  2
*X42
 10
307.702525
 20
293.248331
 30
0.0
  0
INSERT
  8
0
  5
24E
  2
*X43
 10
206.453478
 20
293.248331
 30
0.0
  0
INSERT
  8
0
  5
24F
  2
*X44
 10
275.806667
 20
316.748331
 30
0.0
  0
INSERT
  8
0
  5
250
  2
*X45
 10
201.306504
 20
291.748331
 30
0.0
  0
ARC
  8
LC-001-002-RND-0
  6
CONTINUOUS
  5
252
 10
196.809151
 20
315.25262
 30
0.0
 40
3.0
 50
180.0
 51
269.998697
  0
LINE
  8
LC-002-002-----0
  6
CONTINUOUS
  5
254
 10
193.809151
 20
315.752655
 30
0.0
 11
193.809151
 21
315.25262
 31
0.0
  0
LINE
  8
LC-002-002-----0
  6
CONTINUOUS
  5
255
 10
197.806244
 20
303.74995
 30
0.0
 11
197.806437
 21
312.252598
 31
0.0
  0
LINE
  8
LC-002-002-----0
  6
CONTINUOUS
  5
256
 10
196.809082
 20
312.25262
 30
0.0
 11
197.806437
 21
312.252598
 31
0.0
  0
ARC
  8
LC-001-002-RND-0
  6
CONTINUOUS
  5
257
 10
199.806244
 20
303.749905
 30
0.0
 40
2.0
 50
179.998697
 51
270.002681
  0
LINE
  8
LC-002-002-----0
  6
CONTINUOUS
  5
258
 10
190.987246
 20
326.752689
 30
0.0
 11
330.107776
 21
326.752689
 31
0.0
  0
LINE
  8
LC-002-002-----0
  6
CONTINUOUS
  5
259
 10
314.555553
 20
323.752534
 30
0.0
 11
260.306156
 21
323.752425
 31
0.0
  0
LINE
  8
LC-003-005-----0
  6
CONTINUOUS
  5
25A
 10
272.216149
 20
323.75245
 30
0.0
 11
272.304132
 21
323.840432
 31
0.0
  0
LINE
  8
LC-005-001-----0
  6
CONTINUOUS
  5
25C
 10
313.807555
 20
303.822478
 30
0.0
 11
313.806961
 21
234.75224
 31
0.0
  0
LINE
  8
LC-002-002-----0
  6
CONTINUOUS
  5
25D
 10
316.306241
 20
301.747568
 30
0.0
 11
316.303421
 21
239.750018
 31
0.0
  0
LINE
  8
LC-002-002-----0
  6
CONTINUOUS
  5
25E
 10
316.303421
 20
239.750018
 30
0.0
 11
314.963447
 21
234.750079
 31
0.0
  0
LINE
  8
LC-002-002-----0
  6
CONTINUOUS
  5
25F
 10
316.307456
 20
301.747568
 30
0.0
 11
320.806059
 21
301.747153
 31
0.0
  0
ARC
  8
LC-001-002-RND-0
  6
CONTINUOUS
  5
260
 10
320.806244
 20
303.747153
 30
0.0
 40
2.0
 50
269.994713
 51
359.998697
  0
LINE
  8
LC-002-002-----0
  6
CONTINUOUS
  5
261
 10
322.806244
 20
303.747107
 30
0.0
 11
322.806437
 21
312.249755
 31
0.0
  0
ARC
  8
LC-001-002-RND-0
  6
CONTINUOUS
  5
262
 10
323.80386
 20
315.249732
 30
0.0
 40
3.0
 50
269.998697
 51
359.997394
  0
ARC
  8
LC-001-002-RND-0
  6
CONTINUOUS
  5
263
 10
328.303883
 20
315.749596
 30
0.0
 40
1.5
 50
89.997394
 51
179.998697
  0
LINE
  8
LC-002-002-----0
  6
CONTINUOUS
  5
264
 10
329.806335
 20
317.249527
 30
0.0
 11
328.303951
 21
317.249596
 31
0.0
  0
LINE
  8
LC-002-002-----0
  6
CONTINUOUS
  5
265
 10
331.306267
 20
315.749459
 30
0.0
 11
331.306085
 21
311.749459
 31
0.0
  0
LINE
  8
LC-002-002-----0
  6
CONTINUOUS
  5
266
 10
336.806085
 20
311.749209
 30
0.0
 11
331.306085
 21
311.749459
 31
0.0
  0
LINE
  8
LC-002-002-----0
  6
CONTINUOUS
  5
267
 10
336.806312
 20
316.749209
 30
0.0
 11
336.806085
 21
311.749209
 31
0.0
  0
LINE
  8
LC-002-002-----0
  6
CONTINUOUS
  5
268
 10
335.306312
 20
316.749277
 30
0.0
 11
336.806312
 21
316.749209
 31
0.0
  0
LINE
  8
LC-002-002-----0
  6
CONTINUOUS
  5
269
 10
335.306699
 20
325.249277
 30
0.0
 11
335.306196
 21
314.189093
 31
0.0
  0
LINE
  8
LC-005-001-----0
  6
CONTINUOUS
  5
26A
 10
334.506699
 20
325.249313
 30
0.0
 11
334.506196
 21
314.18913
 31
0.0
  0
LINE
  8
LC-002-002-----0
  6
CONTINUOUS
  5
26B
 10
335.306196
 20
314.189093
 30
0.0
 11
334.506196
 21
314.18913
 31
0.0
  0
ARC
  8
LC-002-002-----0
  6
CONTINUOUS
  5
26C
 10
333.806699
 20
325.249345
 30
0.0
 40
1.5
 50
359.997394
 51
89.997412
  0
LINE
  8
LC-005-001-----0
  6
CONTINUOUS
  5
26D
 10
333.806767
 20
326.749345
 30
0.0
 11
331.306767
 21
326.749459
 31
0.0
  0
LINE
  8
LC-002-002-----0
  6
CONTINUOUS
  5
26E
 10
329.626288
 20
326.749535
 30
0.0
 11
329.626152
 21
323.749535
 31
0.0
  0
LINE
  8
LC-002-002-----0
  6
CONTINUOUS
  5
26F
 10
323.803792
 20
312.249732
 30
0.0
 11
322.806437
 21
312.249755
 31
0.0
  0
ARC
  8
LC-001-002-RND-0
  6
CONTINUOUS
  5
270
 10
323.80386
 20
315.249732
 30
0.0
 40
3.0
 50
269.998697
 51
359.997394
  0
ARC
  8
LC-001-002-RND-0
  6
CONTINUOUS
  5
271
 10
324.056508
 20
321.049789
 30
0.0
 40
1.5
 50
89.997394
 51
179.997394
  0
LINE
  8
LC-002-002-----0
  6
CONTINUOUS
  5
272
 10
322.556508
 20
321.049857
 30
0.0
 11
322.556462
 21
320.049857
 31
0.0
  0
LINE
  8
LC-006-201-----0
  6
CONTINUOUS
  5
274
 10
330.107776
 20
323.752566
 30
0.0
 11
330.107776
 21
326.752566
 31
0.0
  0
LINE
  8
LC-002-002-----0
  6
CONTINUOUS
  5
275
 10
194.056667
 20
323.752566
 30
0.0
 11
203.306667
 21
323.752566
 31
0.0
  0
LINE
  8
LC-002-002-----0
  6
CONTINUOUS
  5
276
 10
323.356508
 20
321.049821
 30
0.0
 11
323.356462
 21
320.049821
 31
0.0
  0
ARC
  8
LC-001-002-RND-0
  6
CONTINUOUS
  5
277
 10
324.056508
 20
321.049789
 30
0.0
 40
0.7
 50
89.997394
 51
179.997394
  0
LINE
  8
LC-002-002-----0
  6
CONTINUOUS
  5
278
 10
330.606539
 20
321.749491
 30
0.0
 11
324.056539
 21
321.749789
 31
0.0
  0
ARC
  8
LC-002-002-----0
  6
CONTINUOUS
  5
279
 10
331.306699
 20
325.249459
 30
0.0
 40
1.5
 50
89.997412
 51
179.997394
  0
ARC
  8
LC-005-001-----0
  6
CONTINUOUS
  5
27A
 10
331.306699
 20
325.249459
 30
0.0
 40
0.7
 50
89.997394
 51
179.997394
  0
LINE
  8
LC-002-002-----0
  6
CONTINUOUS
  5
27B
 10
329.806699
 20
325.249527
 30
0.0
 11
329.806576
 21
322.549527
 31
0.0
  0
LINE
  8
LC-005-001-----0
  6
CONTINUOUS
  5
27C
 10
330.606699
 20
325.249491
 30
0.0
 11
330.606539
 21
321.749491
 31
0.0
  0
LINE
  8
LC-002-002-----0
  6
CONTINUOUS
  5
27D
 10
329.806576
 20
322.549527
 30
0.0
 11
324.056576
 21
322.549789
 31
0.0
  0
LINE
  8
LC-002-002-----0
  6
CONTINUOUS
  5
27E
 10
323.356462
 20
320.049821
 30
0.0
 11
271.306667
 21
320.052188
 31
0.0
  0
ARC
  8
LC-001-002-RND-0
  6
CONTINUOUS
  5
27F
 10
329.806267
 20
315.749527
 30
0.0
 40
1.5
 50
359.997394
 51
89.997394
  0
LINE
  8
LC-002-002-----0
  6
CONTINUOUS
  5
280
 10
190.987246
 20
323.752689
 30
0.0
 11
260.306667
 21
323.752689
 31
0.0
  0
LINE
  8
LC-002-002-----0
  6
CONTINUOUS
  5
281
 10
326.803883
 20
315.74963
 30
0.0
 11
326.80386
 21
315.249596
 31
0.0
  0
LINE
  8
LC-002-002-----0
  6
CONTINUOUS
  5
282
 10
205.645902
 20
234.752566
 30
0.0
 11
314.963447
 21
234.752566
 31
0.0
  0
LINE
  8
LC-005-001-----0
  6
CONTINUOUS
  5
283
 10
333.806731
 20
325.949345
 30
0.0
 11
331.306731
 21
325.949459
 31
0.0
  0
ARC
  8
LC-002-002-----0
  6
CONTINUOUS
  5
284
 10
333.806699
 20
325.249345
 30
0.0
 40
1.5
 50
359.997394
 51
89.997412
  0
ARC
  8
LC-005-001-----0
  6
CONTINUOUS
  5
285
 10
333.806699
 20
325.249345
 30
0.0
 40
0.7
 50
359.997546
 51
89.997394
  0
LINE
  8
LC-002-002-----0
  6
DASHED
 62
     2
  5
287
 10
190.786284
 20
327.100765
 30
0.0
 11
309.969159
 21
395.91103
 31
0.0
  0
LINE
  8
LC-007-020-----0
  5
289
 10
190.987246
 20
323.752689
 30
0.0
 11
311.052061
 21
393.072142
 31
0.0
  0
LINE
  8
LC-002-002-----0
  6
DASHED
 62
     2
  5
28A
 10
309.553755
 20
395.667556
 30
0.0
 11
311.053637
 21
393.069411
 31
0.0
  0
LINE
  8
LC-002-002-----0
  6
CONTINUOUS
 62
     2
  5
28B
 10
222.272583
 20
431.746751
 30
0.0
 11
237.272583
 21
431.746751
 31
0.0
  0
LINE
  8
LC-007-020-----0
  6
CONTINUOUS
 62
     1
  5
28C
 10
204.306667
 20
323.752689
 30
0.0
 11
260.306667
 21
323.752689
 31
0.0
  0
LINE
  8
LC-002-002-----0
  6
CONTINUOUS
 62
     2
  5
28D
 10
222.272583
 20
446.746751
 30
0.0
 11
222.272583
 21
431.746751
 31
0.0
  0
LINE
  8
LC-002-002-----0
  6
CONTINUOUS
 62
     2
  5
28E
 10
222.272583
 20
446.746751
 30
0.0
 11
237.272583
 21
446.746751
 31
0.0
  0
LINE
  8
LC-002-002-----0
  6
CONTINUOUS
 62
     2
  5
28F
 10
237.272583
 20
446.746751
 30
0.0
 11
237.272583
 21
431.746751
 31
0.0
  0
LINE
  8
LC-002-002-----0
  6
CONTINUOUS
  5
290
 10
441.917832
 20
472.496829
 30
0.0
 11
441.917832
 21
341.496829
 31
0.0
  0
ARC
  8
LC-002-002-----0
  6
CONTINUOUS
  5
291
 10
445.417832
 20
341.496829
 30
0.0
 40
3.5
 50
180.0
 51
270.000058
  0
LINE
  8
LC-002-002-----0
  6
CONTINUOUS
  5
292
 10
445.417832
 20
337.996829
 30
0.0
 11
510.917832
 21
337.996829
 31
0.0
  0
LINE
  8
LC-002-002-----0
  6
CONTINUOUS
  5
293
 10
441.917832
 20
371.246829
 30
0.0
 11
451.417832
 21
371.246829
 31
0.0
  0
LINE
  8
LC-002-002-----0
  6
CONTINUOUS
  5
294
 10
451.417832
 20
371.246829
 30
0.0
 11
451.417832
 21
355.746829
 31
0.0
  0
LINE
  8
LC-002-002-----0
  6
CONTINUOUS
  5
295
 10
451.417832
 20
355.746829
 30
0.0
 11
441.917832
 21
355.746829
 31
0.0
  0
LINE
  8
LC-002-002-----0
  6
DASHED
 62
     2
  5
296
 10
449.417832
 20
355.746829
 30
0.0
 11
449.417832
 21
371.246829
 31
0.0
  0
LINE
  8
LC-002-002-----0
  6
CONTINUOUS
  5
297
 10
576.417861
 20
337.996899
 30
0.0
 11
510.917862
 21
337.996942
 31
0.0
  0
ARC
  8
LC-002-002-----0
  6
CONTINUOUS
  5
298
 10
576.417864
 20
341.496899
 30
0.0
 40
3.5
 50
269.999963
 51
0.000021
  0
LINE
  8
LC-002-002-----0
  6
CONTINUOUS
  5
299
 10
579.917949
 20
472.496895
 30
0.0
 11
579.917864
 21
341.496897
 31
0.0
  0
LINE
  8
LC-002-002-----0
  6
CONTINUOUS
  5
29A
 10
576.416646
 20
475.992463
 30
0.0
 11
510.916647
 21
475.992704
 31
0.0
  0
LINE
  8
LC-002-002-----0
  6
CONTINUOUS
  5
29B
 10
445.416616
 20
475.993101
 30
0.0
 11
510.916616
 21
475.992817
 31
0.0
  0
ARC
  8
LC-002-002-----0
  6
CONTINUOUS
  5
29C
 10
576.416633
 20
472.492463
 30
0.0
 40
3.5
 50
359.999579
 51
89.999789
  0
LINE
  8
LC-002-002-----0
  6
CONTINUOUS
  5
29D
 10
451.416509
 20
442.743075
 30
0.0
 11
451.416576
 21
458.243075
 31
0.0
  0
LINE
  8
LC-002-002-----0
  6
DASHED
 62
     2
  5
29E
 10
449.416576
 20
458.243084
 30
0.0
 11
449.416509
 21
442.743084
 31
0.0
  0
CIRCLE
  8
LC-002-002-----0
  6
CONTINUOUS
  5
29F
 10
570.416481
 20
466.492455
 30
0.0
 40
3.5
  0
CIRCLE
  8
LC-002-002-----0
  6
CONTINUOUS
  5
2A0
 10
570.416481
 20
466.492455
 30
0.0
 40
5.0
  0
LINE
  8
LC-002-002-----0
  6
CONTINUOUS
  5
2A1
 10
225.503303
 20
-31.834007
 30
0.0
 11
225.503303
 21
-26.834007
 31
0.0
  0
ARC
  8
LC-002-002-----0
  6
CONTINUOUS
  5
2A2
 10
438.917832
 20
478.996829
 30
0.0
 40
3.0
 50
90.0
 51
179.999848
  0
LINE
  8
LC-002-002-----0
  6
CONTINUOUS
  5
2A3
 10
582.917832
 20
481.996829
 30
0.0
 11
438.917832
 21
481.996829
 31
0.0
  0
ARC
  8
LC-002-002-----0
  6
CONTINUOUS
  5
2A4
 10
582.917832
 20
478.996829
 30
0.0
 40
3.0
 50
0.0
 51
90.0
  0
ARC
  8
LC-002-002-----0
  6
CONTINUOUS
  5
2A5
 10
582.917832
 20
334.996829
 30
0.0
 40
3.0
 50
270.0
 51
0.0
  0
LINE
  8
LC-002-002-----0
  6
CONTINUOUS
  5
2A6
 10
585.917832
 20
334.996829
 30
0.0
 11
585.917832
 21
478.996829
 31
0.0
  0
LINE
  8
LC-002-002-----0
  6
CONTINUOUS
  5
2A7
 10
435.917832
 20
478.996829
 30
0.0
 11
435.917832
 21
334.996829
 31
0.0
  0
ARC
  8
LC-002-002-----0
  6
CONTINUOUS
  5
2A8
 10
438.917832
 20
334.996829
 30
0.0
 40
3.0
 50
180.0
 51
270.000058
  0
LINE
  8
LC-002-002-----0
  6
CONTINUOUS
  5
2A9
 10
438.917832
 20
331.996829
 30
0.0
 11
582.917832
 21
331.996829
 31
0.0
  0
ARC
  8
LC-002-002-----0
  6
CONTINUOUS
  5
2AA
 10
438.917832
 20
334.996829
 30
0.0
 40
4.5
 50
179.999848
 51
270.0
  0
ARC
  8
LC-002-002-----0
  6
CONTINUOUS
  5
2AB
 10
438.917832
 20
478.996829
 30
0.0
 40
4.5
 50
90.0
 51
179.999848
  0
LINE
  8
LC-002-002-----0
  6
CONTINUOUS
  5
2AC
 10
434.417832
 20
478.996829
 30
0.0
 11
434.417832
 21
334.996829
 31
0.0
  0
ARC
  8
LC-002-002-----0
  6
CONTINUOUS
  5
2AD
 10
582.917832
 20
478.996829
 30
0.0
 40
4.5
 50
0.0
 51
90.0
  0
LINE
  8
LC-002-002-----0
  6
CONTINUOUS
  5
2AE
 10
438.917832
 20
330.496829
 30
0.0
 11
582.917832
 21
330.496829
 31
0.0
  0
ARC
  8
LC-002-002-----0
  6
CONTINUOUS
  5
2AF
 10
582.917832
 20
334.996829
 30
0.0
 40
4.5
 50
270.0
 51
0.0
  0
LINE
  8
LC-002-002-----0
  6
CONTINUOUS
  5
2B0
 10
587.417832
 20
334.996829
 30
0.0
 11
587.417832
 21
478.996829
 31
0.0
  0
LINE
  8
LC-002-002-----0
  6
CONTINUOUS
  5
2B1
 10
204.306156
 20
239.752566
 30
0.0
 11
205.645902
 21
234.752566
 31
0.0
  0
ARC
  8
LC-002-002-----0
  6
CONTINUOUS
  5
2B2
 10
445.416601
 20
472.493101
 30
0.0
 40
3.5
 50
89.999522
 51
179.999752
  0
ARC
  8
LC-005-001-----0
  6
CONTINUOUS
  5
2B3
 10
445.417832
 20
472.493101
 30
0.0
 40
4.0
 50
89.999752
 51
180.0
  0
LINE
  8
LC-005-001-----0
  6
CONTINUOUS
  5
2B4
 10
445.417849
 20
476.493101
 30
0.0
 11
510.916618
 21
476.492817
 31
0.0
  0
LINE
  8
LC-005-001-----0
  6
CONTINUOUS
  5
2B5
 10
576.417964
 20
476.492463
 30
0.0
 11
510.916649
 21
476.492704
 31
0.0
  0
ARC
  8
LC-005-001-----0
  6
CONTINUOUS
  5
2B6
 10
576.417949
 20
472.492463
 30
0.0
 40
4.0
 50
0.000021
 51
89.999789
  0
LINE
  8
LC-005-001-----0
  6
CONTINUOUS
  5
2B7
 10
576.417861
 20
337.496899
 30
0.0
 11
510.917862
 21
337.496942
 31
0.0
  0
ARC
  8
LC-005-001-----0
  6
CONTINUOUS
  5
2B8
 10
576.417864
 20
341.496899
 30
0.0
 40
4.0
 50
269.999963
 51
0.000021
  0
LINE
  8
LC-005-001-----0
  6
CONTINUOUS
  5
2B9
 10
580.417949
 20
472.492461
 30
0.0
 11
580.417864
 21
341.496896
 31
0.0
  0
LINE
  8
LC-005-001-----0
  6
CONTINUOUS
  5
2BA
 10
441.417832
 20
472.493101
 30
0.0
 11
441.417832
 21
341.496829
 31
0.0
  0
ARC
  8
LC-005-001-----0
  6
CONTINUOUS
  5
2BB
 10
445.417832
 20
341.496829
 30
0.0
 40
4.0
 50
180.0
 51
270.000058
  0
LINE
  8
LC-005-001-----0
  6
CONTINUOUS
  5
2BC
 10
445.417832
 20
337.496829
 30
0.0
 11
510.917832
 21
337.496829
 31
0.0
  0
CIRCLE
  8
LC-002-002-----0
  6
CONTINUOUS
  5
2BD
 10
457.417832
 20
363.496829
 30
0.0
 40
6.0
  0
ARC
  8
LC-002-002-----0
  6
CONTINUOUS
  5
2BE
 10
462.91783
 20
370.746779
 30
0.0
 40
0.5
 50
359.99981
 51
89.999752
  0
LINE
  8
LC-002-002-----0
  6
CONTINUOUS
  5
2BF
 10
451.417832
 20
355.746829
 30
0.0
 11
462.917765
 21
355.746779
 31
0.0
  0
ARC
  8
LC-002-002-----0
  6
CONTINUOUS
  5
2C0
 10
462.917767
 20
356.246779
 30
0.0
 40
0.5
 50
269.999752
 51
359.99981
  0
LINE
  8
LC-005-001-----0
  6
CONTINUOUS
  5
2C1
 10
463.417767
 20
356.246777
 30
0.0
 11
463.41783
 21
370.746777
 31
0.0
  0
CIRCLE
  8
LC-002-002-----0
  6
CONTINUOUS
  5
2C2
 10
457.417832
 20
363.496829
 30
0.0
 40
3.25
  0
ARC
  8
LC-002-002-----0
  6
CONTINUOUS
  5
2C3
 10
462.916511
 20
443.243025
 30
0.0
 40
0.5
 50
269.999752
 51
359.99981
  0
LINE
  8
LC-002-002-----0
  6
CONTINUOUS
  5
2C4
 10
462.917832
 20
371.246779
 30
0.0
 11
451.417832
 21
371.246829
 31
0.0
  0
LINE
  8
LC-002-002-----0
  6
CONTINUOUS
  5
2C5
 10
441.916509
 20
442.743116
 30
0.0
 11
462.916509
 21
442.743025
 31
0.0
  0
LINE
  8
LC-002-002-----0
  6
CONTINUOUS
  5
2C6
 10
462.916576
 20
458.243025
 30
0.0
 11
441.916576
 21
458.243116
 31
0.0
  0
ARC
  8
LC-002-002-----0
  6
CONTINUOUS
  5
2C7
 10
462.916574
 20
457.743025
 30
0.0
 40
0.5
 50
359.99981
 51
89.999752
  0
LINE
  8
LC-005-001-----0
  6
CONTINUOUS
  5
2C8
 10
463.416511
 20
443.243023
 30
0.0
 11
463.416574
 21
457.743023
 31
0.0
  0
LINE
  8
LC-012-006-----0
  6
DASHDOT
  5
2CC
 10
260.304653
 20
233.808853
 30
0.0
 11
260.306872
 21
331.353988
 31
0.0
  0
LINE
  8
LC-005-001-----0
  6
CONTINUOUS
  5
2CD
 10
313.807448
 20
303.748331
 30
0.0
 11
319.555652
 21
303.747854
 31
0.0
  0
LINE
  8
LC-002-002-----0
  6
CONTINUOUS
  5
2CE
 10
319.555652
 20
303.747854
 30
0.0
 11
319.557005
 21
320.049993
 31
0.0
  0
LINE
  8
LC-002-002-----0
  6
CONTINUOUS
  5
2CF
 10
201.056848
 20
303.749963
 30
0.0
 11
201.056085
 21
320.052689
 31
0.0
  0
LINE
  8
LC-002-002-----0
  6
CONTINUOUS
  5
2D0
 10
204.30494
 20
301.750115
 30
0.0
 11
199.806337
 21
301.749905
 31
0.0
  0
LINE
  8
LC-005-001-----0
  6
CONTINUOUS
  5
2D1
 10
206.805142
 20
303.750232
 30
0.0
 11
201.056848
 21
303.749963
 31
0.0
  0
LINE
  8
LC-002-002-----0
  6
CONTINUOUS
  5
2D2
 10
204.306156
 20
301.750115
 30
0.0
 11
204.306156
 21
239.752566
 31
0.0
  0
CIRCLE
  8
LC-002-002-----0
  6
CONTINUOUS
  5
2D3
 10
570.416481
 20
348.492455
 30
0.0
 40
3.5
  0
CIRCLE
  8
LC-002-002-----0
  6
CONTINUOUS
  5
2D4
 10
570.416481
 20
348.492455
 30
0.0
 40
5.0
  0
CIRCLE
  8
LC-002-002-----0
  6
CONTINUOUS
  5
2D5
 10
457.417832
 20
450.493116
 30
0.0
 40
6.0
  0
CIRCLE
  8
LC-002-002-----0
  6
CONTINUOUS
  5
2D6
 10
457.417832
 20
450.493116
 30
0.0
 40
3.25
  0
LINE
  8
LC-005-001-----0
  6
CONTINUOUS
  5
2D7
 10
444.417832
 20
488.496829
 30
0.0
 11
444.417832
 21
483.496829
 31
0.0
  0
LINE
  8
LC-005-001-----0
  6
CONTINUOUS
  5
2D8
 10
574.417832
 20
488.496829
 30
0.0
 11
574.417832
 21
483.496829
 31
0.0
  0
LINE
  8
LC-005-001-----0
  6
CONTINUOUS
  5
2D9
 10
454.417832
 20
488.496829
 30
0.0
 11
454.417832
 21
483.496829
 31
0.0
  0
LINE
  8
LC-005-001-----0
  6
CONTINUOUS
  5
2DA
 10
564.417832
 20
488.496829
 30
0.0
 11
564.417832
 21
483.496829
 31
0.0
  0
ARC
  8
LC-002-002-----0
  6
CONTINUOUS
  5
2DB
 10
449.417832
 20
488.496829
 30
0.0
 40
5.0
 50
0.0
 51
179.999848
  0
ARC
  8
LC-002-002-----0
  6
CONTINUOUS
  5
2DC
 10
569.417832
 20
488.496829
 30
0.0
 40
5.0
 50
0.0
 51
179.999848
  0
CIRCLE
  8
LC-002-002-----0
  6
CONTINUOUS
  5
2DD
 10
569.417832
 20
488.496829
 30
0.0
 40
1.4
  0
CIRCLE
  8
LC-002-002-----0
  6
CONTINUOUS
  5
2DE
 10
449.417832
 20
488.496829
 30
0.0
 40
1.4
  0
CIRCLE
  8
LC-002-002-----0
  6
CONTINUOUS
  5
2DF
 10
449.416311
 20
325.495155
 30
0.0
 40
1.4
  0
ARC
  8
LC-002-002-----0
  6
CONTINUOUS
  5
2E0
 10
449.416311
 20
325.495155
 30
0.0
 40
5.0
 50
179.999906
 51
359.999696
  0
LINE
  8
LC-005-001-----0
  6
CONTINUOUS
  5
2E1
 10
454.416311
 20
325.495128
 30
0.0
 11
454.416338
 21
330.495128
 31
0.0
  0
LINE
  8
LC-005-001-----0
  6
CONTINUOUS
  5
2E2
 10
444.416311
 20
325.495182
 30
0.0
 11
444.416338
 21
330.495182
 31
0.0
  0
CIRCLE
  8
LC-002-002-----0
  6
CONTINUOUS
  5
2E3
 10
569.416311
 20
325.494518
 30
0.0
 40
1.4
  0
ARC
  8
LC-002-002-----0
  6
CONTINUOUS
  5
2E4
 10
569.416311
 20
325.494518
 30
0.0
 40
5.0
 50
179.999906
 51
359.999696
  0
LINE
  8
LC-005-001-----0
  6
CONTINUOUS
  5
2E5
 10
564.416311
 20
325.494545
 30
0.0
 11
564.416338
 21
330.494545
 31
0.0
  0
LINE
  8
LC-005-001-----0
  6
CONTINUOUS
  5
2E6
 10
574.416311
 20
325.494492
 30
0.0
 11
574.416338
 21
330.494492
 31
0.0
  0
LINE
  8
LC-013-202-----0
  6
CONTINUOUS
  5
2E8
 10
326.556556
 20
323.745799
 30
0.0
 11
317.306556
 21
323.746758
 31
0.0
  0
LINE
  8
LC-002-002-----0
  6
CONTINUOUS
  5
2E9
 10
438.917832
 20
483.496829
 30
0.0
 11
582.917832
 21
483.496829
 31
0.0
  0
LINE
  8
LC-002-002-----0
  6
CONTINUOUS
  5
2EA
 10
183.806767
 20
316.752689
 30
0.0
 11
183.806767
 21
311.752689
 31
0.0
  0
LINE
  8
LC-002-002-----0
  6
CONTINUOUS
  5
2EB
 10
183.806767
 20
311.752689
 30
0.0
 11
189.306767
 21
311.752689
 31
0.0
  0
LINE
  8
LC-005-001-----0
  6
CONTINUOUS
  5
2EC
 10
444.417832
 20
298.496829
 30
0.0
 11
444.417832
 21
293.496829
 31
0.0
  0
LINE
  8
LC-005-001-----0
  6
CONTINUOUS
  5
2ED
 10
574.417832
 20
298.496829
 30
0.0
 11
574.417832
 21
293.496829
 31
0.0
  0
LINE
  8
LC-005-001-----0
  6
CONTINUOUS
  5
2EE
 10
454.417832
 20
298.496829
 30
0.0
 11
454.417832
 21
293.496829
 31
0.0
  0
LINE
  8
LC-005-001-----0
  6
CONTINUOUS
  5
2EF
 10
564.417832
 20
298.496829
 30
0.0
 11
564.417832
 21
293.496829
 31
0.0
  0
ARC
  8
LC-002-002-----0
  6
CONTINUOUS
  5
2F0
 10
449.417832
 20
298.496829
 30
0.0
 40
5.0
 50
0.0
 51
179.999848
  0
ARC
  8
LC-002-002-----0
  6
CONTINUOUS
  5
2F1
 10
569.417832
 20
298.496829
 30
0.0
 40
5.0
 50
0.0
 51
179.999848
  0
CIRCLE
  8
LC-002-002-----0
  6
CONTINUOUS
  5
2F2
 10
569.417832
 20
298.496829
 30
0.0
 40
1.4
  0
CIRCLE
  8
LC-002-002-----0
  6
CONTINUOUS
  5
2F3
 10
449.417832
 20
298.496829
 30
0.0
 40
1.4
  0
CIRCLE
  8
LC-002-002-----0
  6
CONTINUOUS
  5
2F4
 10
449.416311
 20
135.495155
 30
0.0
 40
1.4
  0
ARC
  8
LC-002-002-----0
  6
CONTINUOUS
  5
2F5
 10
449.416311
 20
135.495155
 30
0.0
 40
5.0
 50
179.999906
 51
359.999696
  0
LINE
  8
LC-005-001-----0
  6
CONTINUOUS
  5
2F6
 10
454.416311
 20
135.495128
 30
0.0
 11
454.416338
 21
140.495128
 31
0.0
  0
LINE
  8
LC-005-001-----0
  6
CONTINUOUS
  5
2F7
 10
444.416311
 20
135.495182
 30
0.0
 11
444.416338
 21
140.495182
 31
0.0
  0
CIRCLE
  8
LC-002-002-----0
  6
CONTINUOUS
  5
2F8
 10
569.416311
 20
135.494518
 30
0.0
 40
1.4
  0
ARC
  8
LC-002-002-----0
  6
CONTINUOUS
  5
2F9
 10
569.416311
 20
135.494518
 30
0.0
 40
5.0
 50
179.999906
 51
359.999696
  0
LINE
  8
LC-005-001-----0
  6
CONTINUOUS
  5
2FA
 10
564.416311
 20
135.494545
 30
0.0
 11
564.416338
 21
140.494545
 31
0.0
  0
LINE
  8
LC-005-001-----0
  6
CONTINUOUS
  5
2FB
 10
574.416311
 20
135.494492
 30
0.0
 11
574.416338
 21
140.494492
 31
0.0
  0
LINE
  8
LC-005-001-----0
  6
CONTINUOUS
  5
2FC
 10
445.417849
 20
286.493101
 30
0.0
 11
510.916618
 21
286.492817
 31
0.0
  0
LINE
  8
LC-005-001-----0
  6
CONTINUOUS
  5
2FD
 10
576.417964
 20
286.492463
 30
0.0
 11
510.916649
 21
286.492704
 31
0.0
  0
LINE
  8
LC-002-002-----0
  6
CONTINUOUS
  5
2FE
 10
582.917832
 20
291.996829
 30
0.0
 11
438.917832
 21
291.996829
 31
0.0
  0
LINE
  8
LC-002-002-----0
  6
CONTINUOUS
  5
2FF
 10
438.917832
 20
293.496829
 30
0.0
 11
582.917832
 21
293.496829
 31
0.0
  0
LINE
  8
LC-002-002-----0
  6
CONTINUOUS
  5
300
 10
434.417832
 20
288.996829
 30
0.0
 11
434.417832
 21
144.996829
 31
0.0
  0
LINE
  8
LC-002-002-----0
  6
CONTINUOUS
  5
301
 10
435.917832
 20
288.996829
 30
0.0
 11
435.917832
 21
144.996829
 31
0.0
  0
LINE
  8
LC-002-002-----0
  6
CONTINUOUS
  5
302
 10
438.917832
 20
140.496829
 30
0.0
 11
582.917832
 21
140.496829
 31
0.0
  0
LINE
  8
LC-002-002-----0
  6
CONTINUOUS
  5
303
 10
438.917832
 20
141.996829
 30
0.0
 11
582.917832
 21
141.996829
 31
0.0
  0
LINE
  8
LC-005-001-----0
  6
CONTINUOUS
  5
304
 10
445.417832
 20
147.496829
 30
0.0
 11
510.917832
 21
147.496829
 31
0.0
  0
LINE
  8
LC-002-002-----0
  6
CONTINUOUS
  5
305
 10
585.917832
 20
144.996829
 30
0.0
 11
585.917832
 21
288.996829
 31
0.0
  0
LINE
  8
LC-002-002-----0
  6
CONTINUOUS
  5
306
 10
587.417832
 20
144.996829
 30
0.0
 11
587.417832
 21
288.996829
 31
0.0
  0
ARC
  8
LC-002-002-----0
  6
CONTINUOUS
  5
307
 10
438.917832
 20
288.996829
 30
0.0
 40
4.5
 50
90.0
 51
179.999848
  0
ARC
  8
LC-002-002-----0
  6
CONTINUOUS
  5
308
 10
438.917832
 20
288.996829
 30
0.0
 40
3.0
 50
90.0
 51
179.999848
  0
ARC
  8
LC-002-002-----0
  6
CONTINUOUS
  5
309
 10
582.917832
 20
288.996829
 30
0.0
 40
3.0
 50
0.0
 51
90.0
  0
ARC
  8
LC-002-002-----0
  6
CONTINUOUS
  5
30A
 10
582.917832
 20
288.996829
 30
0.0
 40
4.5
 50
0.0
 51
90.0
  0
ARC
  8
LC-005-001-----0
  6
CONTINUOUS
  5
30B
 10
445.417832
 20
282.493101
 30
0.0
 40
4.0
 50
89.999752
 51
180.0
  0
ARC
  8
LC-005-001-----0
  6
CONTINUOUS
  5
30C
 10
576.417949
 20
282.492463
 30
0.0
 40
4.0
 50
0.000021
 51
89.999789
  0
ARC
  8
LC-002-002-----0
  6
CONTINUOUS
  5
30D
 10
438.917832
 20
144.996829
 30
0.0
 40
3.0
 50
180.0
 51
270.000058
  0
ARC
  8
LC-002-002-----0
  6
CONTINUOUS
  5
30E
 10
438.917832
 20
144.996829
 30
0.0
 40
4.5
 50
179.999848
 51
270.0
  0
ARC
  8
LC-005-001-----0
  6
CONTINUOUS
  5
30F
 10
445.417832
 20
151.496829
 30
0.0
 40
4.0
 50
180.0
 51
270.000058
  0
ARC
  8
LC-005-001-----0
  6
CONTINUOUS
  5
310
 10
576.417864
 20
151.496899
 30
0.0
 40
4.0
 50
269.999963
 51
0.000021
  0
ARC
  8
LC-002-002-----0
  6
CONTINUOUS
  5
311
 10
582.917832
 20
144.996829
 30
0.0
 40
4.5
 50
270.0
 51
0.0
  0
ARC
  8
LC-002-002-----0
  6
CONTINUOUS
  5
312
 10
582.917832
 20
144.996829
 30
0.0
 40
3.0
 50
270.0
 51
0.0
  0
LINE
  8
LC-005-001-----0
  6
CONTINUOUS
  5
313
 10
441.417832
 20
282.493101
 30
0.0
 11
441.417832
 21
151.496829
 31
0.0
  0
LINE
  8
LC-005-001-----0
  6
CONTINUOUS
  5
314
 10
445.417832
 20
147.496829
 30
0.0
 11
510.917832
 21
147.496829
 31
0.0
  0
LINE
  8
LC-005-001-----0
  6
CONTINUOUS
  5
315
 10
576.417861
 20
147.496899
 30
0.0
 11
510.917862
 21
147.496942
 31
0.0
  0
LINE
  8
LC-005-001-----0
  6
CONTINUOUS
  5
316
 10
580.417949
 20
282.492461
 30
0.0
 11
580.417913
 21
226.536307
 31
0.0
  0
ARC
  8
LC-002-002-----0
  6
CONTINUOUS
  5
317
 10
583.417861
 20
216.996899
 30
0.0
 40
10.0
 50
107.457293
 51
252.542632
  0
LINE
  8
LC-005-001-----0
  6
CONTINUOUS
  5
318
 10
580.4179
 20
207.457495
 30
0.0
 11
580.417864
 21
151.496896
 31
0.0
  0
LINE
  8
LC-013-202-----0
  6
CONTINUOUS
  5
319
 10
330.107775
 20
323.745553
 30
0.0
 11
260.306556
 21
323.752689
 31
0.0
  0
LINE
  8
LC-002-002-----0
  6
CONTINUOUS
  5
31A
 10
451.417832
 20
268.243075
 30
0.0
 11
441.417832
 21
268.243118
 31
0.0
  0
LINE
  8
LC-002-002-----0
  6
CONTINUOUS
  5
31B
 10
441.417832
 20
252.743118
 30
0.0
 11
451.417832
 21
252.743075
 31
0.0
  0
LINE
  8
LC-002-002-----0
  6
CONTINUOUS
  5
31C
 10
441.417832
 20
181.246829
 30
0.0
 11
451.417832
 21
181.246829
 31
0.0
  0
LINE
  8
LC-002-002-----0
  6
CONTINUOUS
  5
31D
 10
451.417832
 20
165.746829
 30
0.0
 11
441.417832
 21
165.746829
 31
0.0
  0
LINE
  8
LC-002-002-----0
  6
CONTINUOUS
  5
31E
 10
451.417832
 20
268.243075
 30
0.0
 11
451.417832
 21
252.743118
 31
0.0
  0
LINE
  8
LC-002-002-----0
  6
CONTINUOUS
  5
31F
 10
451.417832
 20
181.246829
 30
0.0
 11
451.417832
 21
165.746829
 31
0.0
  0
CIRCLE
  8
LC-002-002-----0
  6
CONTINUOUS
  5
320
 10
570.416481
 20
276.492455
 30
0.0
 40
5.0
  0
CIRCLE
  8
LC-002-002-----0
  6
CONTINUOUS
  5
321
 10
570.416481
 20
158.492455
 30
0.0
 40
5.0
  0
LINE
  8
LC-002-002-----0
  6
CONTINUOUS
  5
322
 10
566.390618
 20
155.527252
 30
0.0
 11
573.381683
 21
162.518318
 31
0.0
  0
LINE
  8
LC-002-002-----0
  6
CONTINUOUS
  5
323
 10
567.411277
 20
154.426591
 30
0.0
 11
574.482345
 21
161.497659
 31
0.0
  0
LINE
  8
LC-002-002-----0
  6
CONTINUOUS
  5
324
 10
566.390618
 20
273.527252
 30
0.0
 11
573.381683
 21
280.518318
 31
0.0
  0
LINE
  8
LC-002-002-----0
  6
CONTINUOUS
  5
325
 10
567.451278
 20
272.466592
 30
0.0
 11
574.442344
 21
279.457658
 31
0.0
  0
LINE
  8
LC-005-001-----0
  6
CONTINUOUS
  5
326
 10
206.804936
 20
303.824912
 30
0.0
 11
206.802388
 21
234.754674
 31
0.0
  0
LINE
  8
LC-002-002-----0
  6
CONTINUOUS
  5
327
 10
310.556504
 20
304.248331
 30
0.0
 11
318.865687
 21
304.248331
 31
0.0
  0
LINE
  8
LC-002-002-----0
  6
CONTINUOUS
  5
328
 10
319.306504
 20
306.748331
 30
0.0
 11
308.306504
 21
306.748331
 31
0.0
  0
LINE
  8
LC-002-002-----0
  6
CONTINUOUS
  5
329
 10
310.556504
 20
304.248331
 30
0.0
 11
310.556504
 21
300.248331
 31
0.0
  0
LINE
  8
LC-002-002-----0
  6
CONTINUOUS
  5
32A
 10
310.556504
 20
291.748331
 30
0.0
 11
260.306504
 21
291.748331
 31
0.0
  0
LINE
  8
LC-002-002-----0
  6
CONTINUOUS
  5
32B
 10
308.306504
 20
311.748331
 30
0.0
 11
308.306504
 21
306.748331
 31
0.0
  0
LINE
  8
LC-002-002-----0
  6
CONTINUOUS
  5
32C
 10
303.306504
 20
316.748331
 30
0.0
 11
271.306667
 21
316.748331
 31
0.0
  0
ARC
  8
LC-001-002-RND-0
  6
CONTINUOUS
  5
32D
 10
303.306504
 20
311.748331
 30
0.0
 40
5.0
 50
0.0
 51
90.0
  0
LINE
  8
LC-002-002-----0
  6
CONTINUOUS
  5
32E
 10
303.306504
 20
314.748331
 30
0.0
 11
260.306504
 21
314.748331
 31
0.0
  0
ARC
  8
LC-001-002-RND-0
  6
CONTINUOUS
  5
32F
 10
303.306504
 20
311.748331
 30
0.0
 40
3.0
 50
0.0
 51
90.0
  0
LINE
  8
LC-002-002-----0
  6
CONTINUOUS
  5
330
 10
306.306504
 20
291.748331
 30
0.0
 11
306.306504
 21
311.748331
 31
0.0
  0
LINE
  8
LC-002-002-----0
  6
CONTINUOUS
  5
331
 10
308.056028
 20
293.248331
 30
0.0
 11
308.056028
 21
295.748331
 31
0.0
  0
LINE
  8
LC-002-002-----0
  6
CONTINUOUS
  5
332
 10
308.056028
 20
300.248331
 30
0.0
 11
310.556504
 21
300.248331
 31
0.0
  0
LINE
  8
LC-002-002-----0
  6
CONTINUOUS
  5
333
 10
308.056028
 20
293.248331
 30
0.0
 11
310.556504
 21
293.248331
 31
0.0
  0
LINE
  8
LC-002-002-----0
  6
CONTINUOUS
  5
334
 10
310.556504
 20
293.248331
 30
0.0
 11
310.556504
 21
291.748331
 31
0.0
  0
LINE
  8
LC-002-002-----0
  6
CONTINUOUS
  5
335
 10
319.306504
 20
306.748331
 30
0.0
 11
318.865687
 21
304.248331
 31
0.0
  0
ARC
  8
LC-002-002-----0
  6
CONTINUOUS
  5
336
 10
310.931028
 20
297.019828
 30
0.0
 40
3.228503
 50
51.747848
 51
128.252152
  0
ARC
  8
LC-002-002-----0
  6
CONTINUOUS
  5
337
 10
310.356678
 20
297.748331
 30
0.0
 40
2.300821
 50
128.252152
 51
180.0
  0
ARC
  8
LC-002-002-----0
  6
CONTINUOUS
  5
338
 10
311.505377
 20
297.748331
 30
0.0
 40
2.300821
 50
0.0
 51
51.747848
  0
ARC
  8
LC-002-002-----0
  6
CONTINUOUS
  5
339
 10
310.356678
 20
295.748331
 30
0.0
 40
2.300821
 50
180.0
 51
231.747848
  0
ARC
  8
LC-002-002-----0
  6
CONTINUOUS
  5
33A
 10
310.931028
 20
296.476834
 30
0.0
 40
3.228503
 50
231.747848
 51
308.252152
  0
ARC
  8
LC-002-002-----0
  6
CONTINUOUS
  5
33B
 10
311.505377
 20
295.748331
 30
0.0
 40
2.300821
 50
308.252152
 51
0.0
  0
LINE
  8
LC-002-002-----0
  6
CONTINUOUS
  5
33C
 10
308.056028
 20
297.748331
 30
0.0
 11
308.056028
 21
300.248331
 31
0.0
  0
LINE
  8
LC-002-002-----0
  6
CONTINUOUS
  5
33D
 10
308.056028
 20
297.748331
 30
0.0
 11
308.056028
 21
295.748331
 31
0.0
  0
LINE
  8
LC-002-002-----0
  6
CONTINUOUS
  5
33E
 10
271.306667
 20
316.748331
 30
0.0
 11
271.306667
 21
323.248331
 31
0.0
  0
LINE
  8
LC-002-002-----0
  6
CONTINUOUS
  5
33F
 10
271.306667
 20
323.248331
 30
0.0
 11
226.306667
 21
323.248331
 31
0.0
  0
LINE
  8
LC-002-002-----0
  6
CONTINUOUS
  5
340
 10
268.806667
 20
316.748331
 30
0.0
 11
268.806667
 21
323.248331
 31
0.0
  0
LINE
  8
LC-002-002-----0
  6
CONTINUOUS
  5
341
 10
268.806667
 20
316.748331
 30
0.0
 11
260.306504
 21
316.748331
 31
0.0
  0
LINE
  8
LC-002-002-----0
  6
CONTINUOUS
  5
342
 10
228.806667
 20
316.748331
 30
0.0
 11
228.806667
 21
323.248331
 31
0.0
  0
LINE
  8
LC-002-002-----0
  6
CONTINUOUS
  5
343
 10
226.306667
 20
316.748331
 30
0.0
 11
226.306667
 21
323.248331
 31
0.0
  0
LINE
  8
LC-002-002-----0
  6
CONTINUOUS
  5
344
 10
217.306504
 20
314.748331
 30
0.0
 11
260.306504
 21
314.748331
 31
0.0
  0
LINE
  8
LC-002-002-----0
  6
CONTINUOUS
  5
345
 10
217.306504
 20
316.748331
 30
0.0
 11
226.306667
 21
316.748331
 31
0.0
  0
ARC
  8
LC-001-002-RND-0
  6
CONTINUOUS
  5
346
 10
217.306504
 20
311.748331
 30
0.0
 40
3.0
 50
90.0
 51
180.0
  0
ARC
  8
LC-001-002-RND-0
  6
CONTINUOUS
  5
347
 10
217.306504
 20
311.748331
 30
0.0
 40
5.0
 50
90.0
 51
180.0
  0
LINE
  8
LC-002-002-----0
  6
CONTINUOUS
  5
348
 10
212.306504
 20
311.748331
 30
0.0
 11
212.306504
 21
306.748331
 31
0.0
  0
LINE
  8
LC-002-002-----0
  6
CONTINUOUS
  5
349
 10
214.306504
 20
291.748331
 30
0.0
 11
214.306504
 21
311.748331
 31
0.0
  0
LINE
  8
LC-002-002-----0
  6
CONTINUOUS
  5
34A
 10
210.056504
 20
291.748331
 30
0.0
 11
260.306504
 21
291.748331
 31
0.0
  0
LINE
  8
LC-002-002-----0
  6
CONTINUOUS
  5
34B
 10
201.306504
 20
306.748331
 30
0.0
 11
212.306504
 21
306.748331
 31
0.0
  0
LINE
  8
LC-002-002-----0
  6
CONTINUOUS
  5
34C
 10
201.306504
 20
306.748331
 30
0.0
 11
201.747322
 21
304.248331
 31
0.0
  0
LINE
  8
LC-002-002-----0
  6
CONTINUOUS
  5
34D
 10
210.056504
 20
304.248331
 30
0.0
 11
201.747322
 21
304.248331
 31
0.0
  0
LINE
  8
LC-002-002-----0
  6
CONTINUOUS
  5
34E
 10
210.056504
 20
304.248331
 30
0.0
 11
210.056504
 21
300.248331
 31
0.0
  0
LINE
  8
LC-002-002-----0
  6
CONTINUOUS
  5
34F
 10
212.556981
 20
300.248331
 30
0.0
 11
210.056504
 21
300.248331
 31
0.0
  0
LINE
  8
LC-002-002-----0
  6
CONTINUOUS
  5
350
 10
212.556981
 20
293.248331
 30
0.0
 11
212.556981
 21
298.248331
 31
0.0
  0
LINE
  8
LC-002-002-----0
  6
CONTINUOUS
  5
351
 10
212.556981
 20
293.248331
 30
0.0
 11
210.056504
 21
293.248331
 31
0.0
  0
LINE
  8
LC-002-002-----0
  6
CONTINUOUS
  5
352
 10
210.056504
 20
293.248331
 30
0.0
 11
210.056504
 21
291.748331
 31
0.0
  0
ARC
  8
LC-002-002-----0
  6
CONTINUOUS
  5
353
 10
209.681981
 20
297.019828
 30
0.0
 40
3.228503
 50
51.747848
 51
128.252152
  0
ARC
  8
LC-002-002-----0
  6
CONTINUOUS
  5
354
 10
210.256331
 20
297.748331
 30
0.0
 40
2.300821
 50
0.0
 51
51.747848
  0
ARC
  8
LC-002-002-----0
  6
CONTINUOUS
  5
355
 10
209.107631
 20
297.748331
 30
0.0
 40
2.300821
 50
128.252152
 51
180.0
  0
ARC
  8
LC-002-002-----0
  6
CONTINUOUS
  5
356
 10
210.256331
 20
295.748331
 30
0.0
 40
2.300821
 50
308.252152
 51
0.0
  0
ARC
  8
LC-002-002-----0
  6
CONTINUOUS
  5
357
 10
209.681981
 20
296.476834
 30
0.0
 40
3.228503
 50
231.747848
 51
308.252152
  0
ARC
  8
LC-002-002-----0
  6
CONTINUOUS
  5
358
 10
209.107631
 20
295.748331
 30
0.0
 40
2.300821
 50
180.0
 51
231.747848
  0
LINE
  8
LC-002-002-----0
  6
CONTINUOUS
  5
359
 10
212.556981
 20
300.248331
 30
0.0
 11
212.556981
 21
298.248331
 31
0.0
  0
LINE
  8
LC-002-002-----0
  6
CONTINUOUS
  5
35A
 10
228.806667
 20
316.748331
 30
0.0
 11
260.306504
 21
316.748331
 31
0.0
  0
CIRCLE
  8
LC-002-002-----0
  6
CONTINUOUS
  5
35B
 10
276.806667
 20
317.748331
 30
0.0
 40
1.0
  0
LINE
  8
LC-002-002-----0
  6
CONTINUOUS
  5
35C
 10
271.306667
 20
318.94476
 30
0.0
 11
276.806667
 21
318.748331
 31
0.0
  0
LINE
  8
LC-002-002-----0
  6
CONTINUOUS
  5
35D
 10
271.306667
 20
316.94476
 30
0.0
 11
276.806667
 21
316.748331
 31
0.0
  0
CIRCLE
  8
LC-002-002-----0
  6
CONTINUOUS
  5
35E
 10
510.917832
 20
406.996829
 30
0.0
 40
59.0
  0
CIRCLE
  8
LC-002-002-----0
  6
CONTINUOUS
  5
35F
 10
510.917832
 20
406.996829
 30
0.0
 40
48.0
  0
CIRCLE
  8
LC-002-002-----0
  6
CONTINUOUS
  5
360
 10
499.417832
 20
406.996829
 30
0.0
 40
20.0
  0
CIRCLE
  8
LC-002-002-----0
  6
CONTINUOUS
  5
361
 10
499.417832
 20
406.996829
 30
0.0
 40
22.5
  0
LINE
  8
LC-002-002-----0
  6
CONTINUOUS
  5
362
 10
500.417832
 20
424.496829
 30
0.0
 11
500.417832
 21
426.971813
 31
0.0
  0
LINE
  8
LC-002-002-----0
  6
CONTINUOUS
  5
363
 10
498.417832
 20
424.496829
 30
0.0
 11
498.417832
 21
426.971813
 31
0.0
  0
LINE
  8
LC-002-002-----0
  6
CONTINUOUS
  5
364
 10
498.417832
 20
424.496829
 30
0.0
 11
500.417832
 21
424.496829
 31
0.0
  0
LINE
  8
LC-002-002-----0
  6
DASHED
 62
     2
  5
365
 10
498.417832
 20
429.474596
 30
0.0
 11
498.417832
 21
426.971813
 31
0.0
  0
LINE
  8
LC-002-002-----0
  6
DASHED
 62
     2
  5
366
 10
500.417832
 20
429.474596
 30
0.0
 11
500.417832
 21
426.971813
 31
0.0
  0
LINE
  8
LC-002-002-----0
  6
CONTINUOUS
  5
367
 10
498.417832
 20
389.496829
 30
0.0
 11
500.417832
 21
389.496829
 31
0.0
  0
LINE
  8
LC-002-002-----0
  6
CONTINUOUS
  5
368
 10
498.417832
 20
389.496829
 30
0.0
 11
498.417832
 21
387.021845
 31
0.0
  0
LINE
  8
LC-002-002-----0
  6
CONTINUOUS
  5
369
 10
500.417832
 20
389.496829
 30
0.0
 11
500.417832
 21
387.021845
 31
0.0
  0
LINE
  8
LC-002-002-----0
  6
DASHED
 62
     2
  5
36A
 10
500.417832
 20
384.519062
 30
0.0
 11
500.417832
 21
387.021845
 31
0.0
  0
LINE
  8
LC-002-002-----0
  6
DASHED
 62
     2
  5
36B
 10
498.417832
 20
384.519062
 30
0.0
 11
498.417832
 21
387.021845
 31
0.0
  0
ARC
  8
LC-001-002-RND-0
  6
CONTINUOUS
  5
36C
 10
501.417832
 20
431.916701
 30
0.0
 40
3.0
 50
85.411434
 51
180.0
  0
LINE
  8
LC-002-002-----0
  6
CONTINUOUS
  5
36D
 10
498.417832
 20
429.474596
 30
0.0
 11
498.417832
 21
431.916701
 31
0.0
  0
LINE
  8
LC-002-002-----0
  6
CONTINUOUS
  5
36E
 10
498.417832
 20
384.519062
 30
0.0
 11
498.417832
 21
382.076958
 31
0.0
  0
ARC
  8
LC-002-002-----0
  6
CONTINUOUS
  5
36F
 10
499.417832
 20
406.996829
 30
0.0
 40
28.0
 50
274.588566
 51
85.411434
  0
ARC
  8
LC-001-002-RND-0
  6
CONTINUOUS
  5
370
 10
501.417832
 20
382.076958
 30
0.0
 40
3.0
 50
180.0
 51
274.588566
  0
LINE
  8
LC-002-002-----0
  6
CONTINUOUS
  5
371
 10
500.417832
 20
384.519062
 30
0.0
 11
500.417832
 21
382.076958
 31
0.0
  0
ARC
  8
LC-001-002-RND-0
  6
CONTINUOUS
  5
372
 10
501.417832
 20
382.076958
 30
0.0
 40
1.0
 50
180.0
 51
274.588566
  0
ARC
  8
LC-002-002-----0
  6
CONTINUOUS
  5
373
 10
499.417832
 20
406.996829
 30
0.0
 40
26.0
 50
274.588566
 51
85.411434
  0
ARC
  8
LC-001-002-RND-0
  6
CONTINUOUS
  5
374
 10
501.417832
 20
431.916701
 30
0.0
 40
1.0
 50
85.411434
 51
180.0
  0
LINE
  8
LC-002-002-----0
  6
CONTINUOUS
  5
375
 10
500.417832
 20
429.474596
 30
0.0
 11
500.417832
 21
431.916701
 31
0.0
  0
CIRCLE
  8
LC-002-002-----0
  6
CONTINUOUS
  5
376
 10
248.806667
 20
318.748331
 30
0.0
 40
1.0
  0
LINE
  8
LC-002-002-----0
  6
CONTINUOUS
  5
377
 10
189.306767
 20
315.752689
 30
0.0
 11
189.306767
 21
311.752689
 31
0.0
  0
LINE
  8
LC-002-002-----0
  6
CONTINUOUS
  5
378
 10
190.806767
 20
317.252689
 30
0.0
 11
192.309151
 21
317.252689
 31
0.0
  0
LINE
  8
LC-002-002-----0
  6
CONTINUOUS
  5
379
 10
190.006767
 20
321.752689
 30
0.0
 11
196.556767
 21
321.752689
 31
0.0
  0
LINE
  8
LC-002-002-----0
  6
CONTINUOUS
  5
37A
 10
190.806767
 20
322.552689
 30
0.0
 11
196.556767
 21
322.552689
 31
0.0
  0
ARC
  8
LC-001-002-RND-0
  6
CONTINUOUS
  5
37B
 10
192.309151
 20
315.752689
 30
0.0
 40
1.5
 50
359.998697
 51
90.0
  0
ARC
  8
LC-001-002-RND-0
  6
CONTINUOUS
  5
37C
 10
190.806767
 20
315.752689
 30
0.0
 40
1.5
 50
90.0
 51
180.0
  0
LINE
  8
LC-002-002-----0
  6
CONTINUOUS
  5
37D
 10
198.056767
 20
321.052689
 30
0.0
 11
198.056767
 21
320.052689
 31
0.0
  0
ARC
  8
LC-001-002-RND-0
  6
CONTINUOUS
  5
37E
 10
196.556767
 20
321.052689
 30
0.0
 40
1.5
 50
0.0
 51
90.0
  0
LINE
  8
LC-002-002-----0
  6
CONTINUOUS
  5
37F
 10
197.256767
 20
320.052689
 30
0.0
 11
226.308759
 21
320.052689
 31
0.0
  0
LINE
  8
LC-002-002-----0
  6
CONTINUOUS
  5
380
 10
197.256767
 20
321.052689
 30
0.0
 11
197.256767
 21
320.052689
 31
0.0
  0
LINE
  8
LC-002-002-----0
  6
CONTINUOUS
  5
381
 10
201.058941
 20
303.750086
 30
0.0
 11
201.058941
 21
320.052689
 31
0.0
  0
ARC
  8
LC-001-002-RND-0
  6
CONTINUOUS
  5
382
 10
196.556767
 20
321.052689
 30
0.0
 40
0.7
 50
0.0
 51
90.0
  0
LINE
  8
LC-002-002-----0
  6
CONTINUOUS
  5
383
 10
190.806767
 20
325.252689
 30
0.0
 11
190.806767
 21
322.552689
 31
0.0
  0
LINE
  8
LC-002-002-----0
  6
CONTINUOUS
  5
384
 10
185.306767
 20
325.252689
 30
0.0
 11
185.306767
 21
314.192505
 31
0.0
  0
LINE
  8
LC-005-001-----0
  6
CONTINUOUS
  5
385
 10
186.806767
 20
326.752689
 30
0.0
 11
189.306767
 21
326.752689
 31
0.0
  0
ARC
  8
LC-002-002-----0
  6
CONTINUOUS
  5
386
 10
186.806767
 20
325.252689
 30
0.0
 40
1.5
 50
89.999981
 51
180.0
  0
ARC
  8
LC-005-001-----0
  6
CONTINUOUS
  5
387
 10
186.806767
 20
325.252689
 30
0.0
 40
0.7
 50
90.0
 51
179.999848
  0
LINE
  8
LC-005-001-----0
  6
CONTINUOUS
  5
388
 10
186.106767
 20
325.252689
 30
0.0
 11
186.106767
 21
314.192505
 31
0.0
  0
ARC
  8
LC-002-002-----0
  6
CONTINUOUS
  5
389
 10
189.306767
 20
325.252689
 30
0.0
 40
1.5
 50
0.0
 51
89.999981
  0
LINE
  8
LC-005-001-----0
  6
CONTINUOUS
  5
38A
 10
186.806767
 20
325.952689
 30
0.0
 11
189.306767
 21
325.952689
 31
0.0
  0
ARC
  8
LC-005-001-----0
  6
CONTINUOUS
  5
38B
 10
189.306767
 20
325.252689
 30
0.0
 40
0.7
 50
0.0
 51
90.0
  0
LINE
  8
LC-002-002-----0
  6
CONTINUOUS
  5
38C
 10
185.306767
 20
314.192505
 30
0.0
 11
186.106767
 21
314.192505
 31
0.0
  0
LINE
  8
LC-002-002-----0
  6
CONTINUOUS
  5
38D
 10
190.987246
 20
326.752689
 30
0.0
 11
190.987246
 21
323.752689
 31
0.0
  0
LINE
  8
LC-005-001-----0
  6
CONTINUOUS
  5
38E
 10
206.807235
 20
303.750355
 30
0.0
 11
201.058941
 21
303.750086
 31
0.0
  0
LINE
  8
LC-002-002-----0
  6
CONTINUOUS
  5
38F
 10
185.306767
 20
316.752689
 30
0.0
 11
183.806767
 21
316.752689
 31
0.0
  0
LINE
  8
LC-005-001-----0
  6
CONTINUOUS
  5
390
 10
190.006767
 20
325.252689
 30
0.0
 11
190.006767
 21
321.752689
 31
0.0
  0
ENDSEC
  0
EOF
