  0
SECTION
  2
HEADER
  9
$ACADVER
  1
AC1009
  9
$DWGCODEPAGE
  3
dos850
  9
$INSBASE
 10
289.000785
 20
218.501614
 30
0.0
  9
$EXTMIN
 10
289.000785
 20
218.501614
 30
0.0
  9
$EXTMAX
 10
1129.000785
 20
812.501614
 30
0.0
  9
$LIMMIN
 10
289.000785
 20
218.501614
  9
$LIMMAX
 10
1129.000785
 20
812.501614
  9
$ORTHOMODE
 70
     0
  9
$REGENMODE
 70
     1
  9
$FILLMODE
 70
     1
  9
$QTEXTMODE
 70
     0
  9
$MIRRTEXT
 70
     1
  9
$DRAGMODE
 70
     2
  9
$LTSCALE
 40
2.0
  9
$OSMODE
 70
     0
  9
$ATTMODE
 70
     1
  9
$TEXTSIZE
 40
0.2
  9
$TRACEWID
 40
0.05
  9
$TEXTSTYLE
  7
STANDARD
  9
$CLAYER
  8
0
  9
$CELTYPE
  6
BYBLOCK
  9
$CECOLOR
 62
     7
  9
$DIMSCALE
 40
2.0
  9
$DIMASZ
 40
3.5
  9
$DIMEXO
 40
0.0625
  9
$DIMDLI
 40
0.38
  9
$DIMRND
 40
0.0
  9
$DIMDLE
 40
0.0
  9
$DIMEXE
 40
0.18
  9
$DIMTP
 40
0.0
  9
$DIMTM
 40
0.0
  9
$DIMTXT
 40
3.5
  9
$DIMCEN
 40
0.09
  9
$DIMTSZ
 40
0.0
  9
$DIMTOL
 70
     0
  9
$DIMLIM
 70
     0
  9
$DIMTIH
 70
     1
  9
$DIMTOH
 70
     1
  9
$DIMSE1
 70
     0
  9
$DIMSE2
 70
     0
  9
$DIMTAD
 70
     1
  9
$DIMZIN
 70
     0
  9
$DIMBLK
  1

  9
$DIMASO
 70
     1
  9
$DIMSHO
 70
     1
  9
$DIMPOST
  1

  9
$DIMAPOST
  1

  9
$DIMALT
 70
     0
  9
$DIMALTD
 70
     2
  9
$DIMALTF
 40
25.4
  9
$DIMLFAC
 40
1.0
  9
$DIMTOFL
 70
     0
  9
$DIMTVP
 40
0.0
  9
$DIMTIX
 70
     0
  9
$DIMSOXD
 70
     0
  9
$DIMSAH
 70
     0
  9
$DIMBLK1
  1

  9
$DIMBLK2
  1

  9
$DIMSTYLE
  2
STANDARD
  9
$DIMCLRD
 70
     0
  9
$DIMCLRE
 70
     0
  9
$DIMCLRT
 70
     0
  9
$DIMTFAC
 40
1.0
  9
$DIMGAP
 40
0.09
  9
$LUNITS
 70
     2
  9
$LUPREC
 70
     6
  9
$AXISMODE
 70
     0
  9
$AXISUNIT
 10
0.0
 20
0.0
  9
$SKETCHINC
 40
0.1
  9
$FILLETRAD
 40
0.0
  9
$AUNITS
 70
     0
  9
$AUPREC
 70
     0
  9
$MENU
  1
acad
  9
$ELEVATION
 40
0.0
  9
$PELEVATION
 40
0.0
  9
$THICKNESS
 40
0.0
  9
$LIMCHECK
 70
     0
  9
$BLIPMODE
 70
     1
  9
$CHAMFERA
 40
0.0
  9
$CHAMFERB
 40
0.0
  9
$SKPOLY
 70
     0
  9
$TDCREATE
 40
0.000000000
  9
$TDUPDATE
 40
0.000000000
  9
$TDINDWG
 40
0.0000000000
  9
$TDUSRTIMER
 40
0.0000000000
  9
$USRTIMER
 70
     1
  9
$ANGBASE
 50
0.0
  9
$ANGDIR
 70
     0
  9
$PDMODE
 70
     0
  9
$PDSIZE
 40
0.0
  9
$PLINEWID
 40
0.0
  9
$COORDS
 70
     0
  9
$SPLFRAME
 70
     0
  9
$SPLINETYPE
 70
     6
  9
$SPLINESEGS
 70
     8
  9
$ATTDIA
 70
     0
  9
$ATTREQ
 70
     1
  9
$HANDLING
 70
     1
  9
$HANDSEED
  5
329
  9
$SURFTAB1
 70
     6
  9
$SURFTAB2
 70
     6
  9
$SURFTYPE
 70
     6
  9
$SURFU
 70
     6
  9
$SURFV
 70
     6
  9
$UCSNAME
  2

  9
$UCSORG
 10
0.0
 20
0.0
 30
0.0
  9
$UCSXDIR
 10
1.0
 20
0.0
 30
0.0
  9
$UCSYDIR
 10
0.0
 20
1.0
 30
0.0
  9
$PUCSNAME
  2

  9
$PUCSORG
 10
0.0
 20
0.0
 30
0.0
  9
$PUCSXDIR
 10
1.0
 20
0.0
 30
0.0
  9
$PUCSYDIR
 10
0.0
 20
1.0
 30
0.0
  9
$USERI1
 70
     0
  9
$USERI2
 70
     0
  9
$USERI3
 70
     0
  9
$USERI4
 70
     0
  9
$USERI5
 70
     0
  9
$USERR1
 40
0.0
  9
$USERR2
 40
0.0
  9
$USERR3
 40
0.0
  9
$USERR4
 40
0.0
  9
$USERR5
 40
0.0
  9
$WORLDVIEW
 70
     1
  9
$SHADEDGE
 70
     3
  9
$SHADEDIF
 70
    70
  9
$TILEMODE
 70
     1
  9
$MAXACTVP
 70
    16
  9
$PINSBASE
 10
0.0
 20
0.0
 30
0.0
  9
$PLIMCHECK
 70
     0
  9
$PEXTMIN
 10
289.000785
 20
218.501614
 30
0.0
  9
$PEXTMAX
 10
1129.000785
 20
812.501614
 30
0.0
  9
$PLIMMIN
 10
289.000785
 20
218.501614
  9
$PLIMMAX
 10
1129.000785
 20
812.501614
  9
$UNITMODE
 70
     0
  9
$VISRETAIN
 70
     0
  9
$PLINEGEN
 70
     1
  9
$PSLTSCALE
 70
     0
  9
$TREEDEPTH
 70
  3020
  0
ENDSEC
  0
SECTION
  2
TABLES
  0
TABLE
  2
VPORT
 70
     1
  0
VPORT
  2
*ACTIVE
 70
     0
 10
0.0
 20
0.0
 11
1.0
 21
1.0
 12
420.0
 22
297.0
 13
0.0
 23
0.0
 14
1.0
 24
1.0
 15
0.0
 25
0.0
 16
0.0
 26
0.0
 36
1.0
 17
289.000785
 27
218.501614
 37
0.0
 40
594.0
 41
1.604229
 42
50.0
 43
0.0
 44
0.0
 50
0.0
 51
0.0
 71
     0
 72
   100
 73
     1
 74
     1
 75
     0
 76
     0
 77
     0
 78
     0
  0
ENDTAB
  0
TABLE
  2
LTYPE
 70
     4
  0
LTYPE
  2
CONTINUOUS
 70
    64
  3
Solid line
 72
    65
 73
     0
 40
0.0
  0
LTYPE
  2
DASHED
 70
    64
  3
__ __ __ __ __
 72
    65
 73
     2
 40
6.25
 49
5.0
 49
-1.25
  0
LTYPE
  2
CENTER
 70
    64
  3
__ . __ . __ . __ . __
 72
    65
 73
     4
 40
7.5
 49
5.0
 49
-1.25
 49
0.0
 49
-1.25
  0
LTYPE
  2
DASHDOT
 70
    64
  3
__ . __ . __ . __ . __
 72
    65
 73
     4
 40
7.5
 49
5.0
 49
-1.25
 49
0.0
 49
-1.25
  0
ENDTAB
  0
TABLE
  2
LAYER
 70
    13
  0
LAYER
  2
0
 70
     0
 62
     7
  6
CONTINUOUS
  0
LAYER
  2
LC-INFO-1-2-MM-A3-0
 70
     1
 62
   255
  6
BYBLOCK
  0
LAYER
  2
LC-3D-HIDDEN
 70
     0
 62
     9
  6
DASHED
  0
LAYER
  2
LC-CUT-HIDDEN
 70
     0
 62
     9
  6
DASHED
  0
LAYER
  2
LC-VIEWPORT
 70
     0
 62
     7
  6
BYBLOCK
  0
LAYER
  2
LC-001-006-MLN-0
 70
     0
 62
     2
  6
CENTER
  0
LAYER
  2
LC-002-002-RND-0
 70
     0
 62
     1
  6
BYBLOCK
  0
LAYER
  2
LC-003-002-----0
 70
     0
 62
     1
  6
BYBLOCK
  0
LAYER
  2
LC-004-005-----0
 70
     0
 62
     2
  6
BYBLOCK
  0
LAYER
  2
LC-005-003-----0
 70
     0
 62
     2
  6
BYBLOCK
  0
LAYER
  2
LC-006-003-MTH-0
 70
     0
 62
     2
  6
BYBLOCK
  0
LAYER
  2
LC-007-003-MTG-0
 70
     0
 62
     2
  6
BYBLOCK
  0
LAYER
  2
LC-008-002-----0
 70
     0
 62
     2
  6
BYBLOCK
  0
ENDTAB
  0
TABLE
  2
STYLE
 70
     3
  0
STYLE
  2
STANDARD
 70
     0
 40
0.0
 41
1.0
 50
0.0
 71
     0
 42
0.0
  3
txt
  4

  0
STYLE
  2
LCTX15-400-0-0-ARIAL
 70
    64
 40
3.5
 41
1.0
 50
0.0
 71
     0
 42
0.0
  3
Arial
  4

  0
STYLE
  2
LCTX15-400-0-0-DIN-SCHRIFTP
 70
    64
 40
0.0
 41
1.0
 50
1.5
 71
     0
 42
3.5
  3
STANDARD
  4

  0
ENDTAB
  0
TABLE
  2
VIEW
 70
     0
  0
ENDTAB
  0
TABLE
  2
UCS
 70
     0
  0
ENDTAB
  0
TABLE
  2
APPID
 70
     1
  0
APPID
  2
ACAD
 70
     0
  0
ENDTAB
  0
TABLE
  2
DIMSTYLE
 70
     3
  0
DIMSTYLE
  2
STANDARD
 70
     0
  3

  4

  5

  6

  7

 40
1.0
 41
0.18
 42
0.0625
 43
0.38
 44
0.18
 45
0.0
 46
0.0
 47
0.0
 48
0.0
 71
     0
 72
     0
 73
     1
 74
     1
 75
     0
 76
     0
 77
     0
 78
     0
140
0.18
141
0.09
142
0.0
143
25.4
144
1.0
145
0.0
146
1.0
147
0.09
170
     0
171
     2
172
     0
173
     0
174
     0
175
     0
176
     0
177
     0
178
     0
  0
DIMSTYLE
  2
LC-DIM-L-0140-01-02
 70
     0
  3

  4

  5

  6

  7

 40
2.0
 41
3.5
 42
0.0
 43
7.5
 44
1.8
 45
0.0
 46
0.0
 47
0.0
 48
0.0
 71
     0
 72
     0
 73
     0
 74
     0
 75
     0
 76
     0
 77
     1
 78
     8
140
14.0
141
0.0
142
0.0
143
25.4
144
1.0
145
0.0
146
0.71
147
1.5
170
     0
171
     2
172
     0
173
     0
174
     0
175
     0
176
     2
177
     2
178
     2
  0
DIMSTYLE
  2
LC-DIM-L-0140-02-02
 70
     0
  3

  4

  5

  6

  7

 40
2.0
 41
3.5
 42
0.0
 43
7.5
 44
1.8
 45
0.0
 46
0.0
 47
0.0
 48
0.0
 71
     0
 72
     0
 73
     0
 74
     0
 75
     0
 76
     0
 77
     1
 78
     8
140
14.0
141
0.0
142
0.0
143
25.4
144
1.0
145
0.0
146
0.71
147
1.5
170
     0
171
     2
172
     0
173
     0
174
     0
175
     0
176
     2
177
     2
178
     2
  0
ENDTAB
  0
ENDSEC
  0
SECTION
  2
BLOCKS
  0
BLOCK
  8
0
  5
51
  2
*X0
 70
    65
 10
0.0
 20
0.0
 30
0.0
  3
*X0
  0
LINE
  8
LC-004-005-----0
 62
     2
  5
53
 10
583.017923
 20
461.395557
 30
0.0
 11
582.71833
 21
461.095964
 31
0.0
  0
LINE
  8
LC-004-005-----0
 62
     2
  5
54
 10
592.85528
 20
468.404487
 30
0.0
 11
592.431016
 21
467.980223
 31
0.0
  0
LINE
  8
LC-004-005-----0
 62
     2
  5
55
 10
589.961994
 20
465.5112
 30
0.0
 11
589.451838
 21
465.001044
 31
0.0
  0
LINE
  8
LC-004-005-----0
 62
     2
  5
56
 10
586.345452
 20
461.894658
 30
0.0
 11
585.835296
 21
461.384502
 31
0.0
  0
LINE
  8
LC-004-005-----0
 62
     2
  5
57
 10
596.718983
 20
469.439763
 30
0.0
 11
596.294719
 21
469.015499
 31
0.0
  0
LINE
  8
LC-004-005-----0
 62
     2
  5
58
 10
600.582687
 20
470.475039
 30
0.0
 11
600.158423
 21
470.050775
 31
0.0
  0
LINE
  8
LC-004-005-----0
 62
     2
  5
59
 10
604.44639
 20
471.510315
 30
0.0
 11
604.022126
 21
471.086051
 31
0.0
  0
ENDBLK
  8
0
  5
5A
  0
BLOCK
  8
0
  5
6B
  2
*X1
 70
    65
 10
0.0
 20
0.0
 30
0.0
  3
*X1
  0
LINE
  8
LC-004-005-----0
 62
     2
  5
6C
 10
380.779607
 20
471.289275
 30
0.0
 11
380.534658
 21
471.044326
 31
0.0
  0
LINE
  8
LC-004-005-----0
 62
     2
  5
6D
 10
383.010317
 20
470.691558
 30
0.0
 11
382.765368
 21
470.446609
 31
0.0
  0
LINE
  8
LC-004-005-----0
 62
     2
  5
6E
 10
385.241027
 20
470.093841
 30
0.0
 11
384.996078
 21
469.848892
 31
0.0
  0
LINE
  8
LC-004-005-----0
 62
     2
  5
6F
 10
387.471738
 20
469.496124
 30
0.0
 11
387.226789
 21
469.251175
 31
0.0
  0
LINE
  8
LC-004-005-----0
 62
     2
  5
70
 10
389.702448
 20
468.898407
 30
0.0
 11
389.457499
 21
468.653458
 31
0.0
  0
LINE
  8
LC-004-005-----0
 62
     2
  5
71
 10
391.933158
 20
468.30069
 30
0.0
 11
391.688209
 21
468.055741
 31
0.0
  0
LINE
  8
LC-004-005-----0
 62
     2
  5
72
 10
394.163868
 20
467.702973
 30
0.0
 11
393.918919
 21
467.458024
 31
0.0
  0
LINE
  8
LC-004-005-----0
 62
     2
  5
73
 10
394.76584
 20
465.476518
 30
0.0
 11
394.530493
 21
465.241171
 31
0.0
  0
LINE
  8
LC-004-005-----0
 62
     2
  5
74
 10
395.765419
 20
463.64767
 30
0.0
 11
395.552044
 21
463.434295
 31
0.0
  0
LINE
  8
LC-004-005-----0
 62
     2
  5
75
 10
397.260462
 20
462.314286
 30
0.0
 11
397.043124
 21
462.096948
 31
0.0
  0
LINE
  8
LC-004-005-----0
 62
     2
  5
76
 10
399.284884
 20
461.510281
 30
0.0
 11
399.03228
 21
461.257677
 31
0.0
  0
LINE
  8
LC-004-005-----0
 62
     2
  5
77
 10
401.998994
 20
461.395964
 30
0.0
 11
401.698994
 21
461.095964
 31
0.0
  0
ENDBLK
  8
0
  5
78
  0
BLOCK
  8
0
  5
7B
  2
*X2
 70
    65
 10
0.0
 20
0.0
 30
0.0
  3
*X2
  0
LINE
  8
LC-004-005-----0
 62
     2
  5
7C
 10
424.096407
 20
394.397922
 30
0.0
 11
424.681931
 21
394.983446
 31
0.0
  0
LINE
  8
LC-004-005-----0
 62
     2
  5
7D
 10
419.853766
 20
394.397922
 30
0.0
 11
420.553359
 21
395.097515
 31
0.0
  0
LINE
  8
LC-004-005-----0
 62
     2
  5
7E
 10
416.015785
 20
394.802581
 30
0.0
 11
416.564087
 21
395.350883
 31
0.0
  0
LINE
  8
LC-004-005-----0
 62
     2
  5
7F
 10
413.552104
 20
396.581541
 30
0.0
 11
414.049674
 21
397.079111
 31
0.0
  0
LINE
  8
LC-004-005-----0
 62
     2
  5
80
 10
412.246684
 20
399.518762
 30
0.0
 11
412.887296
 21
400.159374
 31
0.0
  0
LINE
  8
LC-004-005-----0
 62
     2
  5
81
 10
412.181925
 20
403.696643
 30
0.0
 11
412.881925
 21
404.396643
 31
0.0
  0
LINE
  8
LC-004-005-----0
 62
     2
  5
82
 10
412.181925
 20
407.939284
 30
0.0
 11
412.881925
 21
408.639284
 31
0.0
  0
LINE
  8
LC-004-005-----0
 62
     2
  5
83
 10
412.181925
 20
412.181925
 30
0.0
 11
412.881925
 21
412.881925
 31
0.0
  0
LINE
  8
LC-004-005-----0
 62
     2
  5
84
 10
412.181925
 20
416.424565
 30
0.0
 11
412.881925
 21
417.124565
 31
0.0
  0
LINE
  8
LC-004-005-----0
 62
     2
  5
85
 10
412.181925
 20
420.667206
 30
0.0
 11
412.881925
 21
421.367206
 31
0.0
  0
LINE
  8
LC-004-005-----0
 62
     2
  5
86
 10
412.181925
 20
424.909847
 30
0.0
 11
412.881925
 21
425.609847
 31
0.0
  0
LINE
  8
LC-004-005-----0
 62
     2
  5
87
 10
412.181925
 20
429.152488
 30
0.0
 11
412.881925
 21
429.852488
 31
0.0
  0
LINE
  8
LC-004-005-----0
 62
     2
  5
88
 10
412.181925
 20
433.395128
 30
0.0
 11
412.881925
 21
434.095128
 31
0.0
  0
LINE
  8
LC-004-005-----0
 62
     2
  5
89
 10
412.181925
 20
437.637769
 30
0.0
 11
412.881925
 21
438.337769
 31
0.0
  0
LINE
  8
LC-004-005-----0
 62
     2
  5
8A
 10
412.181925
 20
441.88041
 30
0.0
 11
412.881925
 21
442.58041
 31
0.0
  0
LINE
  8
LC-004-005-----0
 62
     2
  5
8B
 10
412.181925
 20
446.12305
 30
0.0
 11
412.881925
 21
446.82305
 31
0.0
  0
LINE
  8
LC-004-005-----0
 62
     2
  5
8C
 10
412.181925
 20
450.365691
 30
0.0
 11
412.881925
 21
451.065691
 31
0.0
  0
LINE
  8
LC-004-005-----0
 62
     2
  5
8D
 10
412.181925
 20
454.608332
 30
0.0
 11
412.881925
 21
455.308332
 31
0.0
  0
LINE
  8
LC-004-005-----0
 62
     2
  5
8E
 10
411.406265
 20
458.075313
 30
0.0
 11
411.831107
 21
458.500155
 31
0.0
  0
LINE
  8
LC-004-005-----0
 62
     2
  5
8F
 10
409.10439
 20
460.016078
 30
0.0
 11
409.595067
 21
460.506755
 31
0.0
  0
LINE
  8
LC-004-005-----0
 62
     2
  5
90
 10
405.24611
 20
460.400439
 30
0.0
 11
405.941228
 21
461.095557
 31
0.0
  0
LINE
  8
LC-004-005-----0
 62
     2
  5
91
 10
401.003469
 20
460.400439
 30
0.0
 11
401.698994
 21
461.095964
 31
0.0
  0
LINE
  8
LC-004-005-----0
 62
     2
  5
92
 10
397.440753
 20
461.080363
 30
0.0
 11
397.966564
 21
461.606174
 31
0.0
  0
LINE
  8
LC-004-005-----0
 62
     2
  5
93
 10
395.05642
 20
462.938671
 30
0.0
 11
395.551849
 21
463.4341
 31
0.0
  0
LINE
  8
LC-004-005-----0
 62
     2
  5
94
 10
393.643171
 20
465.768062
 30
0.0
 11
394.23582
 21
466.360711
 31
0.0
  0
ENDBLK
  8
0
  5
95
  0
BLOCK
  8
0
  5
A7
  2
*X3
 70
    65
 10
0.0
 20
0.0
 30
0.0
  3
*X3
  0
LINE
  8
LC-004-005-----0
 62
     2
  5
A8
 10
569.063339
 20
395.115071
 30
0.0
 11
571.501637
 21
397.553368
 31
0.0
  0
LINE
  8
LC-004-005-----0
 62
     2
  5
A9
 10
564.10355
 20
394.397922
 30
0.0
 11
564.803142
 21
395.097515
 31
0.0
  0
LINE
  8
LC-004-005-----0
 62
     2
  5
AA
 10
571.518786
 20
401.813158
 30
0.0
 11
572.218786
 21
402.513158
 31
0.0
  0
LINE
  8
LC-004-005-----0
 62
     2
  5
AB
 10
559.860909
 20
394.397922
 30
0.0
 11
560.560502
 21
395.097515
 31
0.0
  0
LINE
  8
LC-004-005-----0
 62
     2
  5
AC
 10
571.518786
 20
406.055799
 30
0.0
 11
572.218786
 21
406.755799
 31
0.0
  0
LINE
  8
LC-004-005-----0
 62
     2
  5
AD
 10
571.518786
 20
410.298439
 30
0.0
 11
572.218786
 21
410.998439
 31
0.0
  0
LINE
  8
LC-004-005-----0
 62
     2
  5
AE
 10
571.518786
 20
414.54108
 30
0.0
 11
572.218786
 21
415.24108
 31
0.0
  0
LINE
  8
LC-004-005-----0
 62
     2
  5
AF
 10
571.518786
 20
418.783721
 30
0.0
 11
572.218786
 21
419.483721
 31
0.0
  0
LINE
  8
LC-004-005-----0
 62
     2
  5
B0
 10
571.518786
 20
423.026362
 30
0.0
 11
572.218786
 21
423.726362
 31
0.0
  0
LINE
  8
LC-004-005-----0
 62
     2
  5
B1
 10
571.518786
 20
427.269002
 30
0.0
 11
572.218786
 21
427.969002
 31
0.0
  0
LINE
  8
LC-004-005-----0
 62
     2
  5
B2
 10
571.518786
 20
431.511643
 30
0.0
 11
572.218786
 21
432.211643
 31
0.0
  0
LINE
  8
LC-004-005-----0
 62
     2
  5
B3
 10
571.518786
 20
435.754284
 30
0.0
 11
572.218786
 21
436.454284
 31
0.0
  0
LINE
  8
LC-004-005-----0
 62
     2
  5
B4
 10
571.518786
 20
439.996924
 30
0.0
 11
572.218786
 21
440.696924
 31
0.0
  0
LINE
  8
LC-004-005-----0
 62
     2
  5
B5
 10
571.518786
 20
444.239565
 30
0.0
 11
572.218786
 21
444.939565
 31
0.0
  0
LINE
  8
LC-004-005-----0
 62
     2
  5
B6
 10
571.518786
 20
448.482206
 30
0.0
 11
572.218786
 21
449.182206
 31
0.0
  0
LINE
  8
LC-004-005-----0
 62
     2
  5
B7
 10
583.437019
 20
460.400439
 30
0.0
 11
584.135252
 21
461.098672
 31
0.0
  0
LINE
  8
LC-004-005-----0
 62
     2
  5
B8
 10
590.247824
 20
467.211244
 30
0.0
 11
590.437019
 21
467.400439
 31
0.0
  0
LINE
  8
LC-004-005-----0
 62
     2
  5
B9
 10
571.518786
 20
452.724846
 30
0.0
 11
572.218786
 21
453.424846
 31
0.0
  0
LINE
  8
LC-004-005-----0
 62
     2
  5
BA
 10
579.194378
 20
460.400439
 30
0.0
 11
579.889496
 21
461.095557
 31
0.0
  0
LINE
  8
LC-004-005-----0
 62
     2
  5
BB
 10
571.9091
 20
457.357802
 30
0.0
 11
575.25654
 21
460.705242
 31
0.0
  0
ENDBLK
  8
0
  5
BC
  0
BLOCK
  8
0
  5
CB
  2
*X4
 70
    65
 10
0.0
 20
0.0
 30
0.0
  3
*X4
  0
LINE
  8
LC-004-005-----0
 62
     2
  5
CC
 10
421.797984
 20
461.395964
 30
0.0
 11
422.797577
 21
462.395557
 31
0.0
  0
LINE
  8
LC-004-005-----0
 62
     2
  5
CD
 10
418.969557
 20
461.395964
 30
0.0
 11
419.96915
 21
462.395557
 31
0.0
  0
LINE
  8
LC-004-005-----0
 62
     2
  5
CE
 10
416.14113
 20
461.395964
 30
0.0
 11
417.140723
 21
462.395557
 31
0.0
  0
LINE
  8
LC-004-005-----0
 62
     2
  5
CF
 10
413.312703
 20
461.395964
 30
0.0
 11
414.312295
 21
462.395557
 31
0.0
  0
LINE
  8
LC-004-005-----0
 62
     2
  5
D0
 10
410.484275
 20
461.395964
 30
0.0
 11
411.483868
 21
462.395557
 31
0.0
  0
LINE
  8
LC-004-005-----0
 62
     2
  5
D1
 10
407.655848
 20
461.395964
 30
0.0
 11
408.655441
 21
462.395557
 31
0.0
  0
LINE
  8
LC-004-005-----0
 62
     2
  5
D2
 10
404.827421
 20
461.395964
 30
0.0
 11
405.827014
 21
462.395557
 31
0.0
  0
LINE
  8
LC-004-005-----0
 62
     2
  5
D3
 10
401.998994
 20
461.395964
 30
0.0
 11
402.998587
 21
462.395557
 31
0.0
  0
LINE
  8
LC-004-005-----0
 62
     2
  5
D4
 10
399.303835
 20
461.529231
 30
0.0
 11
400.179743
 21
462.40514
 31
0.0
  0
LINE
  8
LC-004-005-----0
 62
     2
  5
D5
 10
397.389021
 20
462.442845
 30
0.0
 11
398.103263
 21
463.157087
 31
0.0
  0
LINE
  8
LC-004-005-----0
 62
     2
  5
D6
 10
396.081802
 20
463.964053
 30
0.0
 11
396.824646
 21
464.706897
 31
0.0
  0
LINE
  8
LC-004-005-----0
 62
     2
  5
D7
 10
395.361034
 20
466.071712
 30
0.0
 11
396.177445
 21
466.888123
 31
0.0
  0
LINE
  8
LC-004-005-----0
 62
     2
  5
D8
 10
394.763317
 20
468.302423
 30
0.0
 11
395.579814
 21
469.118919
 31
0.0
  0
LINE
  8
LC-004-005-----0
 62
     2
  5
D9
 10
394.1656
 20
470.533133
 30
0.0
 11
394.982097
 21
471.349629
 31
0.0
  0
LINE
  8
LC-004-005-----0
 62
     2
  5
DA
 10
393.567883
 20
472.763843
 30
0.0
 11
394.38438
 21
473.580339
 31
0.0
  0
LINE
  8
LC-004-005-----0
 62
     2
  5
DB
 10
392.970166
 20
474.994553
 30
0.0
 11
393.786663
 21
475.81105
 31
0.0
  0
LINE
  8
LC-004-005-----0
 62
     2
  5
DC
 10
392.372449
 20
477.225263
 30
0.0
 11
393.188946
 21
478.04176
 31
0.0
  0
LINE
  8
LC-004-005-----0
 62
     2
  5
DD
 10
391.774732
 20
479.455973
 30
0.0
 11
392.591229
 21
480.27247
 31
0.0
  0
LINE
  8
LC-004-005-----0
 62
     2
  5
DE
 10
391.177015
 20
481.686683
 30
0.0
 11
391.993512
 21
482.50318
 31
0.0
  0
LINE
  8
LC-004-005-----0
 62
     2
  5
DF
 10
390.579298
 20
483.917394
 30
0.0
 11
391.395795
 21
484.73389
 31
0.0
  0
LINE
  8
LC-004-005-----0
 62
     2
  5
E0
 10
389.981581
 20
486.148104
 30
0.0
 11
390.798078
 21
486.9646
 31
0.0
  0
LINE
  8
LC-004-005-----0
 62
     2
  5
E1
 10
389.383864
 20
488.378814
 30
0.0
 11
390.200361
 21
489.19531
 31
0.0
  0
LINE
  8
LC-004-005-----0
 62
     2
  5
E2
 10
388.786147
 20
490.609524
 30
0.0
 11
389.602644
 21
491.426021
 31
0.0
  0
LINE
  8
LC-004-005-----0
 62
     2
  5
E3
 10
388.18843
 20
492.840234
 30
0.0
 11
389.004927
 21
493.656731
 31
0.0
  0
LINE
  8
LC-004-005-----0
 62
     2
  5
E4
 10
387.590714
 20
495.070944
 30
0.0
 11
388.40721
 21
495.887441
 31
0.0
  0
LINE
  8
LC-004-005-----0
 62
     2
  5
E5
 10
386.992997
 20
497.301654
 30
0.0
 11
387.809493
 21
498.118151
 31
0.0
  0
LINE
  8
LC-004-005-----0
 62
     2
  5
E6
 10
386.39528
 20
499.532365
 30
0.0
 11
387.211776
 21
500.348861
 31
0.0
  0
LINE
  8
LC-004-005-----0
 62
     2
  5
E7
 10
385.797563
 20
501.763075
 30
0.0
 11
386.614059
 21
502.579571
 31
0.0
  0
LINE
  8
LC-004-005-----0
 62
     2
  5
E8
 10
385.199846
 20
503.993785
 30
0.0
 11
386.016342
 21
504.810281
 31
0.0
  0
LINE
  8
LC-004-005-----0
 62
     2
  5
E9
 10
384.602129
 20
506.224495
 30
0.0
 11
385.418625
 21
507.040992
 31
0.0
  0
LINE
  8
LC-004-005-----0
 62
     2
  5
EA
 10
384.004412
 20
508.455205
 30
0.0
 11
384.820908
 21
509.271702
 31
0.0
  0
LINE
  8
LC-004-005-----0
 62
     2
  5
EB
 10
383.406695
 20
510.685915
 30
0.0
 11
384.223191
 21
511.502412
 31
0.0
  0
LINE
  8
LC-004-005-----0
 62
     2
  5
EC
 10
382.808978
 20
512.916625
 30
0.0
 11
383.625474
 21
513.733122
 31
0.0
  0
LINE
  8
LC-004-005-----0
 62
     2
  5
ED
 10
382.211261
 20
515.147336
 30
0.0
 11
383.027757
 21
515.963832
 31
0.0
  0
LINE
  8
LC-004-005-----0
 62
     2
  5
EE
 10
381.613544
 20
517.378046
 30
0.0
 11
382.43004
 21
518.194542
 31
0.0
  0
LINE
  8
LC-004-005-----0
 62
     2
  5
EF
 10
381.015827
 20
519.608756
 30
0.0
 11
381.832323
 21
520.425252
 31
0.0
  0
LINE
  8
LC-004-005-----0
 62
     2
  5
F0
 10
380.41811
 20
521.839466
 30
0.0
 11
381.234606
 21
522.655963
 31
0.0
  0
LINE
  8
LC-004-005-----0
 62
     2
  5
F1
 10
379.820393
 20
524.070176
 30
0.0
 11
380.636889
 21
524.886673
 31
0.0
  0
LINE
  8
LC-004-005-----0
 62
     2
  5
F2
 10
379.222676
 20
526.300886
 30
0.0
 11
380.039172
 21
527.117383
 31
0.0
  0
LINE
  8
LC-004-005-----0
 62
     2
  5
F3
 10
378.624959
 20
528.531596
 30
0.0
 11
379.441455
 21
529.348093
 31
0.0
  0
LINE
  8
LC-004-005-----0
 62
     2
  5
F4
 10
378.027242
 20
530.762307
 30
0.0
 11
378.843738
 21
531.578803
 31
0.0
  0
LINE
  8
LC-004-005-----0
 62
     2
  5
F5
 10
377.429525
 20
532.993017
 30
0.0
 11
378.246021
 21
533.809513
 31
0.0
  0
LINE
  8
LC-004-005-----0
 62
     2
  5
F6
 10
376.831808
 20
535.223727
 30
0.0
 11
377.648304
 21
536.040223
 31
0.0
  0
LINE
  8
LC-004-005-----0
 62
     2
  5
F7
 10
376.234091
 20
537.454437
 30
0.0
 11
377.050587
 21
538.270934
 31
0.0
  0
LINE
  8
LC-004-005-----0
 62
     2
  5
F8
 10
375.636374
 20
539.685147
 30
0.0
 11
376.45287
 21
540.501644
 31
0.0
  0
LINE
  8
LC-004-005-----0
 62
     2
  5
F9
 10
375.038657
 20
541.915857
 30
0.0
 11
375.855153
 21
542.732354
 31
0.0
  0
LINE
  8
LC-004-005-----0
 62
     2
  5
FA
 10
374.44094
 20
544.146567
 30
0.0
 11
375.257437
 21
544.963064
 31
0.0
  0
LINE
  8
LC-004-005-----0
 62
     2
  5
FB
 10
373.843223
 20
546.377278
 30
0.0
 11
374.65972
 21
547.193774
 31
0.0
  0
LINE
  8
LC-004-005-----0
 62
     2
  5
FC
 10
373.245506
 20
548.607988
 30
0.0
 11
374.062003
 21
549.424484
 31
0.0
  0
LINE
  8
LC-004-005-----0
 62
     2
  5
FD
 10
372.647789
 20
550.838698
 30
0.0
 11
373.464286
 21
551.655194
 31
0.0
  0
LINE
  8
LC-004-005-----0
 62
     2
  5
FE
 10
372.050072
 20
553.069408
 30
0.0
 11
372.866569
 21
553.885905
 31
0.0
  0
LINE
  8
LC-004-005-----0
 62
     2
  5
FF
 10
371.452355
 20
555.300118
 30
0.0
 11
372.268852
 21
556.116615
 31
0.0
  0
LINE
  8
LC-004-005-----0
 62
     2
  5
100
 10
370.854638
 20
557.530828
 30
0.0
 11
371.671135
 21
558.347325
 31
0.0
  0
LINE
  8
LC-004-005-----0
 62
     2
  5
101
 10
370.256921
 20
559.761538
 30
0.0
 11
371.073418
 21
560.578035
 31
0.0
  0
LINE
  8
LC-004-005-----0
 62
     2
  5
102
 10
369.659204
 20
561.992249
 30
0.0
 11
370.475701
 21
562.808745
 31
0.0
  0
LINE
  8
LC-004-005-----0
 62
     2
  5
103
 10
369.061487
 20
564.222959
 30
0.0
 11
369.877984
 21
565.039455
 31
0.0
  0
LINE
  8
LC-004-005-----0
 62
     2
  5
104
 10
368.46377
 20
566.453669
 30
0.0
 11
369.280267
 21
567.270165
 31
0.0
  0
LINE
  8
LC-004-005-----0
 62
     2
  5
105
 10
367.866053
 20
568.684379
 30
0.0
 11
368.68255
 21
569.500876
 31
0.0
  0
LINE
  8
LC-004-005-----0
 62
     2
  5
106
 10
367.268336
 20
570.915089
 30
0.0
 11
368.084833
 21
571.731586
 31
0.0
  0
LINE
  8
LC-004-005-----0
 62
     2
  5
107
 10
366.670619
 20
573.145799
 30
0.0
 11
367.487116
 21
573.962296
 31
0.0
  0
LINE
  8
LC-004-005-----0
 62
     2
  5
108
 10
366.072902
 20
575.376509
 30
0.0
 11
366.889399
 21
576.193006
 31
0.0
  0
LINE
  8
LC-004-005-----0
 62
     2
  5
109
 10
365.475185
 20
577.60722
 30
0.0
 11
366.291682
 21
578.423716
 31
0.0
  0
LINE
  8
LC-004-005-----0
 62
     2
  5
10A
 10
364.877468
 20
579.83793
 30
0.0
 11
365.693965
 21
580.654426
 31
0.0
  0
LINE
  8
LC-004-005-----0
 62
     2
  5
10B
 10
364.279751
 20
582.06864
 30
0.0
 11
365.096248
 21
582.885136
 31
0.0
  0
LINE
  8
LC-004-005-----0
 62
     2
  5
10C
 10
363.443844
 20
584.061159
 30
0.0
 11
364.162998
 21
584.780313
 31
0.0
  0
LINE
  8
LC-004-005-----0
 62
     2
  5
10D
 10
360.750221
 20
584.195964
 30
0.0
 11
361.750221
 21
585.195964
 31
0.0
  0
LINE
  8
LC-004-005-----0
 62
     2
  5
10E
 10
357.921794
 20
584.195964
 30
0.0
 11
358.921794
 21
585.195964
 31
0.0
  0
LINE
  8
LC-004-005-----0
 62
     2
  5
10F
 10
355.093367
 20
584.195964
 30
0.0
 11
356.093367
 21
585.195964
 31
0.0
  0
LINE
  8
LC-004-005-----0
 62
     2
  5
110
 10
352.264939
 20
584.195964
 30
0.0
 11
353.264939
 21
585.195964
 31
0.0
  0
LINE
  8
LC-004-005-----0
 62
     2
  5
111
 10
349.436512
 20
584.195964
 30
0.0
 11
350.436512
 21
585.195964
 31
0.0
  0
LINE
  8
LC-004-005-----0
 62
     2
  5
112
 10
346.608085
 20
584.195964
 30
0.0
 11
347.608085
 21
585.195964
 31
0.0
  0
LINE
  8
LC-004-005-----0
 62
     2
  5
113
 10
343.779658
 20
584.195964
 30
0.0
 11
344.779658
 21
585.195964
 31
0.0
  0
LINE
  8
LC-004-005-----0
 62
     2
  5
114
 10
340.951231
 20
584.195964
 30
0.0
 11
341.951231
 21
585.195964
 31
0.0
  0
LINE
  8
LC-004-005-----0
 62
     2
  5
115
 10
338.122804
 20
584.195964
 30
0.0
 11
339.122804
 21
585.195964
 31
0.0
  0
LINE
  8
LC-004-005-----0
 62
     2
  5
116
 10
335.294377
 20
584.195964
 30
0.0
 11
336.294377
 21
585.195964
 31
0.0
  0
LINE
  8
LC-004-005-----0
 62
     2
  5
117
 10
332.46595
 20
584.195964
 30
0.0
 11
333.46595
 21
585.195964
 31
0.0
  0
LINE
  8
LC-004-005-----0
 62
     2
  5
118
 10
329.637522
 20
584.195964
 30
0.0
 11
330.637522
 21
585.195964
 31
0.0
  0
LINE
  8
LC-004-005-----0
 62
     2
  5
119
 10
326.809095
 20
584.195964
 30
0.0
 11
327.809095
 21
585.195964
 31
0.0
  0
LINE
  8
LC-004-005-----0
 62
     2
  5
11A
 10
323.980668
 20
584.195964
 30
0.0
 11
324.980668
 21
585.195964
 31
0.0
  0
LINE
  8
LC-004-005-----0
 62
     2
  5
11B
 10
321.152241
 20
584.195964
 30
0.0
 11
322.152241
 21
585.195964
 31
0.0
  0
LINE
  8
LC-004-005-----0
 62
     2
  5
11C
 10
318.323814
 20
584.195964
 30
0.0
 11
319.323814
 21
585.195964
 31
0.0
  0
LINE
  8
LC-004-005-----0
 62
     2
  5
11D
 10
315.495387
 20
584.195964
 30
0.0
 11
316.495387
 21
585.195964
 31
0.0
  0
LINE
  8
LC-004-005-----0
 62
     2
  5
11E
 10
312.66696
 20
584.195964
 30
0.0
 11
313.66696
 21
585.195964
 31
0.0
  0
LINE
  8
LC-004-005-----0
 62
     2
  5
11F
 10
309.838533
 20
584.195964
 30
0.0
 11
310.838533
 21
585.195964
 31
0.0
  0
LINE
  8
LC-004-005-----0
 62
     2
  5
120
 10
307.477064
 20
584.662922
 30
0.0
 11
308.010105
 21
585.195964
 31
0.0
  0
ENDBLK
  8
0
  5
121
  0
BLOCK
  8
0
  5
141
  2
*X5
 70
    65
 10
0.0
 20
0.0
 30
0.0
  3
*X5
  0
LINE
  8
LC-004-005-----0
 62
     2
  5
142
 10
564.803142
 20
395.097515
 30
0.0
 11
571.518786
 21
401.813158
 31
0.0
  0
LINE
  8
LC-004-005-----0
 62
     2
  5
143
 10
559.718779
 20
398.498433
 30
0.0
 11
571.518786
 21
410.298439
 31
0.0
  0
LINE
  8
LC-004-005-----0
 62
     2
  5
144
 10
559.718779
 20
406.983715
 30
0.0
 11
571.518786
 21
418.783721
 31
0.0
  0
LINE
  8
LC-004-005-----0
 62
     2
  5
145
 10
559.718779
 20
415.468996
 30
0.0
 11
571.518786
 21
427.269002
 31
0.0
  0
LINE
  8
LC-004-005-----0
 62
     2
  5
146
 10
559.718779
 20
423.954277
 30
0.0
 11
571.518786
 21
435.754284
 31
0.0
  0
LINE
  8
LC-004-005-----0
 62
     2
  5
147
 10
559.718779
 20
432.439559
 30
0.0
 11
571.518786
 21
444.239565
 31
0.0
  0
LINE
  8
LC-004-005-----0
 62
     2
  5
148
 10
559.718779
 20
440.92484
 30
0.0
 11
571.518786
 21
452.724846
 31
0.0
  0
LINE
  8
LC-004-005-----0
 62
     2
  5
149
 10
579.889496
 20
461.095557
 30
0.0
 11
586.418522
 21
467.624583
 31
0.0
  0
LINE
  8
LC-004-005-----0
 62
     2
  5
14A
 10
559.718779
 20
449.410122
 30
0.0
 11
572.95053
 21
462.641872
 31
0.0
  0
LINE
  8
LC-004-005-----0
 62
     2
  5
14B
 10
576.950532
 20
466.641874
 30
0.0
 11
577.933241
 21
467.624583
 31
0.0
  0
LINE
  8
LC-004-005-----0
 62
     2
  5
14C
 10
559.718779
 20
457.895403
 30
0.0
 11
569.21934
 21
467.395964
 31
0.0
  0
LINE
  8
LC-004-005-----0
 62
     2
  5
14D
 10
559.718779
 20
466.380684
 30
0.0
 11
560.734059
 21
467.395964
 31
0.0
  0
LINE
  8
LC-004-005-----0
 62
     2
  5
14E
 10
420.553359
 20
395.097515
 30
0.0
 11
424.681931
 21
399.226087
 31
0.0
  0
LINE
  8
LC-004-005-----0
 62
     2
  5
14F
 10
414.049493
 20
397.07893
 30
0.0
 11
424.681931
 21
407.711368
 31
0.0
  0
LINE
  8
LC-004-005-----0
 62
     2
  5
150
 10
412.881925
 20
404.396643
 30
0.0
 11
424.681931
 21
416.19665
 31
0.0
  0
LINE
  8
LC-004-005-----0
 62
     2
  5
151
 10
412.881925
 20
412.881925
 30
0.0
 11
424.681931
 21
424.681931
 31
0.0
  0
LINE
  8
LC-004-005-----0
 62
     2
  5
152
 10
412.881925
 20
421.367206
 30
0.0
 11
424.681931
 21
433.167212
 31
0.0
  0
LINE
  8
LC-004-005-----0
 62
     2
  5
153
 10
412.881925
 20
429.852488
 30
0.0
 11
424.681931
 21
441.652494
 31
0.0
  0
LINE
  8
LC-004-005-----0
 62
     2
  5
154
 10
412.881925
 20
438.337769
 30
0.0
 11
424.681931
 21
450.137775
 31
0.0
  0
LINE
  8
LC-004-005-----0
 62
     2
  5
155
 10
412.881925
 20
446.82305
 30
0.0
 11
424.681931
 21
458.623056
 31
0.0
  0
LINE
  8
LC-004-005-----0
 62
     2
  5
156
 10
412.881925
 20
455.308332
 30
0.0
 11
418.96915
 21
461.395557
 31
0.0
  0
LINE
  8
LC-004-005-----0
 62
     2
  5
157
 10
419.96915
 20
462.395557
 30
0.0
 11
424.681931
 21
467.108338
 31
0.0
  0
LINE
  8
LC-004-005-----0
 62
     2
  5
158
 10
409.630939
 20
460.542627
 30
0.0
 11
410.483868
 21
461.395557
 31
0.0
  0
LINE
  8
LC-004-005-----0
 62
     2
  5
159
 10
411.483868
 20
462.395557
 30
0.0
 11
416.484275
 21
467.395964
 31
0.0
  0
LINE
  8
LC-004-005-----0
 62
     2
  5
15A
 10
402.998587
 20
462.395557
 30
0.0
 11
407.450532
 21
466.847502
 31
0.0
  0
LINE
  8
LC-004-005-----0
 62
     2
  5
15B
 10
396.824516
 20
464.706767
 30
0.0
 11
399.742332
 21
467.624583
 31
0.0
  0
LINE
  8
LC-004-005-----0
 62
     2
  5
15C
 10
588.587287
 20
463.587603
 30
0.0
 11
584.550307
 21
467.624583
 31
0.0
  0
LINE
  8
LC-004-005-----0
 62
     2
  5
15D
 10
582.294052
 20
461.395557
 30
0.0
 11
576.950532
 21
466.739077
 31
0.0
  0
LINE
  8
LC-004-005-----0
 62
     2
  5
15E
 10
574.696974
 20
460.507353
 30
0.0
 11
567.808364
 21
467.395964
 31
0.0
  0
LINE
  8
LC-004-005-----0
 62
     2
  5
15F
 10
571.518786
 20
455.200261
 30
0.0
 11
559.718779
 21
467.000267
 31
0.0
  0
LINE
  8
LC-004-005-----0
 62
     2
  5
160
 10
571.518786
 20
446.714979
 30
0.0
 11
559.718779
 21
458.514985
 31
0.0
  0
LINE
  8
LC-004-005-----0
 62
     2
  5
161
 10
571.518786
 20
438.229698
 30
0.0
 11
559.718779
 21
450.029704
 31
0.0
  0
LINE
  8
LC-004-005-----0
 62
     2
  5
162
 10
571.518786
 20
429.744417
 30
0.0
 11
559.718779
 21
441.544423
 31
0.0
  0
LINE
  8
LC-004-005-----0
 62
     2
  5
163
 10
571.518786
 20
421.259135
 30
0.0
 11
559.718779
 21
433.059141
 31
0.0
  0
LINE
  8
LC-004-005-----0
 62
     2
  5
164
 10
571.518786
 20
412.773854
 30
0.0
 11
559.718779
 21
424.57386
 31
0.0
  0
LINE
  8
LC-004-005-----0
 62
     2
  5
165
 10
571.518786
 20
404.288572
 30
0.0
 11
559.718779
 21
416.088579
 31
0.0
  0
LINE
  8
LC-004-005-----0
 62
     2
  5
166
 10
570.302688
 20
397.019388
 30
0.0
 11
559.718779
 21
407.603297
 31
0.0
  0
LINE
  8
LC-004-005-----0
 62
     2
  5
167
 10
563.73928
 20
395.097515
 30
0.0
 11
559.718779
 21
399.118016
 31
0.0
  0
LINE
  8
LC-004-005-----0
 62
     2
  5
168
 10
424.681931
 20
466.272613
 30
0.0
 11
423.558581
 21
467.395964
 31
0.0
  0
LINE
  8
LC-004-005-----0
 62
     2
  5
169
 10
424.681931
 20
457.787332
 30
0.0
 11
421.073706
 21
461.395557
 31
0.0
  0
LINE
  8
LC-004-005-----0
 62
     2
  5
16A
 10
420.073706
 20
462.395557
 30
0.0
 11
415.073299
 21
467.395964
 31
0.0
  0
LINE
  8
LC-004-005-----0
 62
     2
  5
16B
 10
424.681931
 20
449.302051
 30
0.0
 11
412.588425
 21
461.395557
 31
0.0
  0
LINE
  8
LC-004-005-----0
 62
     2
  5
16C
 10
411.588425
 20
462.395557
 30
0.0
 11
411.450534
 21
462.533447
 31
0.0
  0
LINE
  8
LC-004-005-----0
 62
     2
  5
16D
 10
407.450532
 20
466.533449
 30
0.0
 11
406.359399
 21
467.624583
 31
0.0
  0
LINE
  8
LC-004-005-----0
 62
     2
  5
16E
 10
424.681931
 20
440.816769
 30
0.0
 11
412.881925
 21
452.616775
 31
0.0
  0
LINE
  8
LC-004-005-----0
 62
     2
  5
16F
 10
404.403144
 20
461.095557
 30
0.0
 11
404.103144
 21
461.395557
 31
0.0
  0
LINE
  8
LC-004-005-----0
 62
     2
  5
170
 10
403.103144
 20
462.395557
 30
0.0
 11
397.874117
 21
467.624583
 31
0.0
  0
LINE
  8
LC-004-005-----0
 62
     2
  5
171
 10
424.681931
 20
432.331488
 30
0.0
 11
412.881925
 21
444.131494
 31
0.0
  0
LINE
  8
LC-004-005-----0
 62
     2
  5
172
 10
424.681931
 20
423.846206
 30
0.0
 11
412.881925
 21
435.646213
 31
0.0
  0
LINE
  8
LC-004-005-----0
 62
     2
  5
173
 10
424.681931
 20
415.360925
 30
0.0
 11
412.881925
 21
427.160931
 31
0.0
  0
LINE
  8
LC-004-005-----0
 62
     2
  5
174
 10
424.681931
 20
406.875644
 30
0.0
 11
412.881925
 21
418.67565
 31
0.0
  0
LINE
  8
LC-004-005-----0
 62
     2
  5
175
 10
424.681931
 20
398.390362
 30
0.0
 11
412.881925
 21
410.190368
 31
0.0
  0
LINE
  8
LC-004-005-----0
 62
     2
  5
176
 10
419.489497
 20
395.097515
 30
0.0
 11
412.881925
 21
401.705087
 31
0.0
  0
ENDBLK
  8
0
  5
177
  0
BLOCK
  8
0
  5
19B
  2
*X6
 70
    65
 10
0.0
 20
0.0
 30
0.0
  3
*X6
  0
LINE
  8
LC-004-005-----0
 62
     2
  5
19C
 10
575.533049
 20
462.395964
 30
0.0
 11
576.950532
 21
463.813447
 31
0.0
  0
LINE
  8
LC-004-005-----0
 62
     2
  5
19D
 10
572.95053
 20
462.641872
 30
0.0
 11
576.950532
 21
466.641874
 31
0.0
  0
LINE
  8
LC-004-005-----0
 62
     2
  5
19E
 10
572.95053
 20
465.4703
 30
0.0
 11
576.950532
 21
469.470302
 31
0.0
  0
LINE
  8
LC-004-005-----0
 62
     2
  5
19F
 10
572.95053
 20
468.298727
 30
0.0
 11
576.950532
 21
472.298729
 31
0.0
  0
LINE
  8
LC-004-005-----0
 62
     2
  5
1A0
 10
572.950531
 20
471.127154
 30
0.0
 11
576.950532
 21
475.127156
 31
0.0
  0
LINE
  8
LC-004-005-----0
 62
     2
  5
1A1
 10
572.950531
 20
473.955581
 30
0.0
 11
576.950532
 21
477.955583
 31
0.0
  0
LINE
  8
LC-004-005-----0
 62
     2
  5
1A2
 10
572.950531
 20
476.784008
 30
0.0
 11
576.950532
 21
480.78401
 31
0.0
  0
LINE
  8
LC-004-005-----0
 62
     2
  5
1A3
 10
572.950531
 20
479.612436
 30
0.0
 11
576.950532
 21
483.612437
 31
0.0
  0
LINE
  8
LC-004-005-----0
 62
     2
  5
1A4
 10
572.950531
 20
482.440863
 30
0.0
 11
576.950532
 21
486.440864
 31
0.0
  0
LINE
  8
LC-004-005-----0
 62
     2
  5
1A5
 10
572.950531
 20
485.26929
 30
0.0
 11
576.950532
 21
489.269291
 31
0.0
  0
LINE
  8
LC-004-005-----0
 62
     2
  5
1A6
 10
572.950531
 20
488.097717
 30
0.0
 11
576.950532
 21
492.097719
 31
0.0
  0
LINE
  8
LC-004-005-----0
 62
     2
  5
1A7
 10
572.950531
 20
490.926145
 30
0.0
 11
576.950532
 21
494.926146
 31
0.0
  0
LINE
  8
LC-004-005-----0
 62
     2
  5
1A8
 10
572.950531
 20
493.754572
 30
0.0
 11
576.950532
 21
497.754573
 31
0.0
  0
LINE
  8
LC-004-005-----0
 62
     2
  5
1A9
 10
572.950531
 20
496.582999
 30
0.0
 11
576.950532
 21
500.583
 31
0.0
  0
LINE
  8
LC-004-005-----0
 62
     2
  5
1AA
 10
572.950531
 20
499.411426
 30
0.0
 11
576.950532
 21
503.411427
 31
0.0
  0
LINE
  8
LC-004-005-----0
 62
     2
  5
1AB
 10
572.950532
 20
502.239853
 30
0.0
 11
576.950532
 21
506.239854
 31
0.0
  0
LINE
  8
LC-004-005-----0
 62
     2
  5
1AC
 10
572.950532
 20
505.068281
 30
0.0
 11
576.950532
 21
509.068281
 31
0.0
  0
LINE
  8
LC-004-005-----0
 62
     2
  5
1AD
 10
572.950532
 20
507.896708
 30
0.0
 11
576.950532
 21
511.896708
 31
0.0
  0
LINE
  8
LC-004-005-----0
 62
     2
  5
1AE
 10
572.950532
 20
510.725135
 30
0.0
 11
576.950532
 21
514.725136
 31
0.0
  0
LINE
  8
LC-004-005-----0
 62
     2
  5
1AF
 10
572.950532
 20
513.553562
 30
0.0
 11
576.950532
 21
517.553563
 31
0.0
  0
LINE
  8
LC-004-005-----0
 62
     2
  5
1B0
 10
572.950532
 20
516.381989
 30
0.0
 11
576.950532
 21
520.38199
 31
0.0
  0
LINE
  8
LC-004-005-----0
 62
     2
  5
1B1
 10
581.16914
 20
524.600598
 30
0.0
 11
585.700532
 21
529.13199
 31
0.0
  0
LINE
  8
LC-004-005-----0
 62
     2
  5
1B2
 10
572.950532
 20
519.210417
 30
0.0
 11
576.950532
 21
523.210417
 31
0.0
  0
LINE
  8
LC-004-005-----0
 62
     2
  5
1B3
 10
578.340713
 20
524.600598
 30
0.0
 11
585.700532
 21
531.960417
 31
0.0
  0
LINE
  8
LC-004-005-----0
 62
     2
  5
1B4
 10
572.950532
 20
522.038844
 30
0.0
 11
579.512286
 21
528.600598
 31
0.0
  0
LINE
  8
LC-004-005-----0
 62
     2
  5
1B5
 10
581.856409
 20
530.944721
 30
0.0
 11
585.700532
 21
534.788844
 31
0.0
  0
LINE
  8
LC-004-005-----0
 62
     2
  5
1B6
 10
572.950532
 20
524.867271
 30
0.0
 11
576.683859
 21
528.600598
 31
0.0
  0
LINE
  8
LC-004-005-----0
 62
     2
  5
1B7
 10
581.700532
 20
533.617271
 30
0.0
 11
585.700532
 21
537.617271
 31
0.0
  0
LINE
  8
LC-004-005-----0
 62
     2
  5
1B8
 10
572.950532
 20
527.695698
 30
0.0
 11
573.855432
 21
528.600598
 31
0.0
  0
LINE
  8
LC-004-005-----0
 62
     2
  5
1B9
 10
581.700532
 20
536.445698
 30
0.0
 11
585.700532
 21
540.445698
 31
0.0
  0
LINE
  8
LC-004-005-----0
 62
     2
  5
1BA
 10
581.745512
 20
539.319105
 30
0.0
 11
585.113335
 21
542.686928
 31
0.0
  0
LINE
  8
LC-004-005-----0
 62
     2
  5
1BB
 10
580.147901
 20
540.549921
 30
0.0
 11
583.676464
 21
544.078484
 31
0.0
  0
LINE
  8
LC-004-005-----0
 62
     2
  5
1BC
 10
577.37015
 20
540.600598
 30
0.0
 11
581.37015
 21
544.600598
 31
0.0
  0
LINE
  8
LC-004-005-----0
 62
     2
  5
1BD
 10
574.541723
 20
540.600598
 30
0.0
 11
578.541723
 21
544.600598
 31
0.0
  0
LINE
  8
LC-004-005-----0
 62
     2
  5
1BE
 10
573.200532
 20
542.087834
 30
0.0
 11
577.200532
 21
546.087834
 31
0.0
  0
LINE
  8
LC-004-005-----0
 62
     2
  5
1BF
 10
573.200532
 20
544.916261
 30
0.0
 11
577.200532
 21
548.916261
 31
0.0
  0
LINE
  8
LC-004-005-----0
 62
     2
  5
1C0
 10
573.200532
 20
547.744688
 30
0.0
 11
577.200532
 21
551.744688
 31
0.0
  0
LINE
  8
LC-004-005-----0
 62
     2
  5
1C1
 10
573.200532
 20
550.573115
 30
0.0
 11
576.228015
 21
553.600598
 31
0.0
  0
LINE
  8
LC-004-005-----0
 62
     2
  5
1C2
 10
573.200532
 20
553.401542
 30
0.0
 11
573.399588
 21
553.600598
 31
0.0
  0
LINE
  8
LC-004-005-----0
 62
     2
  5
1C3
 10
408.655848
 20
462.395964
 30
0.0
 11
411.450534
 21
465.19065
 31
0.0
  0
LINE
  8
LC-004-005-----0
 62
     2
  5
1C4
 10
407.450532
 20
464.019075
 30
0.0
 11
411.450534
 21
468.019077
 31
0.0
  0
LINE
  8
LC-004-005-----0
 62
     2
  5
1C5
 10
407.450532
 20
466.847502
 30
0.0
 11
411.450534
 21
470.847504
 31
0.0
  0
LINE
  8
LC-004-005-----0
 62
     2
  5
1C6
 10
407.450532
 20
469.675929
 30
0.0
 11
411.450534
 21
473.675931
 31
0.0
  0
LINE
  8
LC-004-005-----0
 62
     2
  5
1C7
 10
407.450532
 20
472.504356
 30
0.0
 11
411.450534
 21
476.504358
 31
0.0
  0
LINE
  8
LC-004-005-----0
 62
     2
  5
1C8
 10
407.450532
 20
475.332783
 30
0.0
 11
411.450534
 21
479.332785
 31
0.0
  0
LINE
  8
LC-004-005-----0
 62
     2
  5
1C9
 10
407.450532
 20
478.16121
 30
0.0
 11
411.450534
 21
482.161212
 31
0.0
  0
LINE
  8
LC-004-005-----0
 62
     2
  5
1CA
 10
407.450532
 20
480.989638
 30
0.0
 11
411.450534
 21
484.989639
 31
0.0
  0
LINE
  8
LC-004-005-----0
 62
     2
  5
1CB
 10
407.450532
 20
483.818065
 30
0.0
 11
411.450534
 21
487.818066
 31
0.0
  0
LINE
  8
LC-004-005-----0
 62
     2
  5
1CC
 10
407.450532
 20
486.646492
 30
0.0
 11
411.450533
 21
490.646493
 31
0.0
  0
LINE
  8
LC-004-005-----0
 62
     2
  5
1CD
 10
407.450532
 20
489.474919
 30
0.0
 11
411.450533
 21
493.47492
 31
0.0
  0
LINE
  8
LC-004-005-----0
 62
     2
  5
1CE
 10
407.450532
 20
492.303346
 30
0.0
 11
411.450533
 21
496.303347
 31
0.0
  0
LINE
  8
LC-004-005-----0
 62
     2
  5
1CF
 10
407.450532
 20
495.131773
 30
0.0
 11
411.450533
 21
499.131774
 31
0.0
  0
LINE
  8
LC-004-005-----0
 62
     2
  5
1D0
 10
407.450532
 20
497.9602
 30
0.0
 11
411.450533
 21
501.960201
 31
0.0
  0
LINE
  8
LC-004-005-----0
 62
     2
  5
1D1
 10
407.450532
 20
500.788627
 30
0.0
 11
411.450533
 21
504.788628
 31
0.0
  0
LINE
  8
LC-004-005-----0
 62
     2
  5
1D2
 10
407.450532
 20
503.617055
 30
0.0
 11
411.450533
 21
507.617055
 31
0.0
  0
LINE
  8
LC-004-005-----0
 62
     2
  5
1D3
 10
407.450532
 20
506.445482
 30
0.0
 11
411.450533
 21
510.445482
 31
0.0
  0
LINE
  8
LC-004-005-----0
 62
     2
  5
1D4
 10
407.450532
 20
509.273909
 30
0.0
 11
411.450533
 21
513.273909
 31
0.0
  0
LINE
  8
LC-004-005-----0
 62
     2
  5
1D5
 10
407.450532
 20
512.102336
 30
0.0
 11
411.450533
 21
516.102336
 31
0.0
  0
LINE
  8
LC-004-005-----0
 62
     2
  5
1D6
 10
407.450532
 20
514.930763
 30
0.0
 11
411.450533
 21
518.930763
 31
0.0
  0
LINE
  8
LC-004-005-----0
 62
     2
  5
1D7
 10
407.450532
 20
517.75919
 30
0.0
 11
411.450533
 21
521.75919
 31
0.0
  0
LINE
  8
LC-004-005-----0
 62
     2
  5
1D8
 10
407.450532
 20
520.587617
 30
0.0
 11
411.450532
 21
524.587617
 31
0.0
  0
LINE
  8
LC-004-005-----0
 62
     2
  5
1D9
 10
407.450532
 20
523.416044
 30
0.0
 11
411.450532
 21
527.416044
 31
0.0
  0
LINE
  8
LC-004-005-----0
 62
     2
  5
1DA
 10
405.806658
 20
524.600598
 30
0.0
 11
409.806658
 21
528.600598
 31
0.0
  0
LINE
  8
LC-004-005-----0
 62
     2
  5
1DB
 10
402.978231
 20
524.600598
 30
0.0
 11
406.978231
 21
528.600598
 31
0.0
  0
LINE
  8
LC-004-005-----0
 62
     2
  5
1DC
 10
400.691141
 20
525.141935
 30
0.0
 11
404.158221
 21
528.609014
 31
0.0
  0
LINE
  8
LC-004-005-----0
 62
     2
  5
1DD
 10
399.267876
 20
526.547096
 30
0.0
 11
402.434179
 21
529.7134
 31
0.0
  0
LINE
  8
LC-004-005-----0
 62
     2
  5
1DE
 10
398.700532
 20
528.80818
 30
0.0
 11
402.596741
 21
532.704389
 31
0.0
  0
LINE
  8
LC-004-005-----0
 62
     2
  5
1DF
 10
410.49295
 20
540.600598
 30
0.0
 11
411.200532
 21
541.30818
 31
0.0
  0
LINE
  8
LC-004-005-----0
 62
     2
  5
1E0
 10
398.700532
 20
531.636607
 30
0.0
 11
402.432528
 21
535.368603
 31
0.0
  0
LINE
  8
LC-004-005-----0
 62
     2
  5
1E1
 10
407.664523
 20
540.600598
 30
0.0
 11
411.200532
 21
544.136607
 31
0.0
  0
LINE
  8
LC-004-005-----0
 62
     2
  5
1E2
 10
398.700532
 20
534.465034
 30
0.0
 11
402.268314
 21
538.032816
 31
0.0
  0
LINE
  8
LC-004-005-----0
 62
     2
  5
1E3
 10
404.836096
 20
540.600598
 30
0.0
 11
411.200532
 21
546.965034
 31
0.0
  0
LINE
  8
LC-004-005-----0
 62
     2
  5
1E4
 10
398.700532
 20
537.293461
 30
0.0
 11
406.007669
 21
544.600598
 31
0.0
  0
LINE
  8
LC-004-005-----0
 62
     2
  5
1E5
 10
407.200532
 20
545.793461
 30
0.0
 11
411.200532
 21
549.793461
 31
0.0
  0
LINE
  8
LC-004-005-----0
 62
     2
  5
1E6
 10
398.700532
 20
540.121889
 30
0.0
 11
403.179241
 21
544.600598
 31
0.0
  0
LINE
  8
LC-004-005-----0
 62
     2
  5
1E7
 10
407.200532
 20
548.621889
 30
0.0
 11
411.200532
 21
552.621889
 31
0.0
  0
LINE
  8
LC-004-005-----0
 62
     2
  5
1E8
 10
407.200532
 20
551.450316
 30
0.0
 11
409.350814
 21
553.600598
 31
0.0
  0
ENDBLK
  8
0
  5
1E9
  0
BLOCK
  8
0
  5
203
  2
*X7
 70
    65
 10
0.0
 20
0.0
 30
0.0
  3
*X7
  0
LINE
  8
LC-004-005-----0
 62
     2
  5
204
 10
411.803014
 20
532.891646
 30
0.0
 11
404.594062
 21
540.100598
 31
0.0
  0
LINE
  8
LC-004-005-----0
 62
     2
  5
205
 10
408.906661
 20
532.959572
 30
0.0
 11
402.585688
 21
539.280545
 31
0.0
  0
LINE
  8
LC-004-005-----0
 62
     2
  5
206
 10
407.608781
 20
528.600598
 30
0.0
 11
402.654657
 21
533.554722
 31
0.0
  0
LINE
  8
LC-004-005-----0
 62
     2
  5
207
 10
404.780353
 20
528.600598
 30
0.0
 11
402.490443
 21
530.890508
 31
0.0
  0
ENDBLK
  8
0
  5
208
  0
BLOCK
  8
0
  5
222
  2
*X8
 70
    65
 10
0.0
 20
0.0
 30
0.0
  3
*X8
  0
LINE
  8
LC-004-005-----0
 62
     2
  5
223
 10
582.164324
 20
535.06439
 30
0.0
 11
577.128117
 21
540.100598
 31
0.0
  0
LINE
  8
LC-004-005-----0
 62
     2
  5
224
 10
582.000111
 20
532.400176
 30
0.0
 11
574.894891
 21
539.505396
 31
0.0
  0
LINE
  8
LC-004-005-----0
 62
     2
  5
225
 10
580.142835
 20
528.600598
 30
0.0
 11
575.517691
 21
533.225742
 31
0.0
  0
LINE
  8
LC-004-005-----0
 62
     2
  5
226
 10
574.951835
 20
533.791598
 30
0.0
 11
572.586173
 21
536.15726
 31
0.0
  0
LINE
  8
LC-004-005-----0
 62
     2
  5
227
 10
577.314408
 20
528.600598
 30
0.0
 11
575.290143
 21
530.624863
 31
0.0
  0
LINE
  8
LC-004-005-----0
 62
     2
  5
228
 10
572.907627
 20
533.007379
 30
0.0
 11
571.431814
 21
534.483192
 31
0.0
  0
ENDBLK
  8
0
  5
229
  0
BLOCK
  8
0
  5
22E
  2
*D9
 70
    65
 10
0.0
 20
0.0
 30
0.0
  3
*D9
  0
LINE
  8
LC-006-003-MTH-0
 62
     2
  5
230
 10
424.681931
 20
394.397922
 30
0.0
 11
424.681931
 21
313.967614
 31
0.0
  0
LINE
  8
LC-006-003-MTH-0
 62
     2
  5
231
 10
559.718779
 20
394.397922
 30
0.0
 11
559.718779
 21
313.967614
 31
0.0
  0
LINE
  8
LC-007-003-MTG-0
 62
     2
  5
233
 10
424.681931
 20
330.767614
 30
0.0
 11
559.718779
 21
330.767614
 31
0.0
  0
LINE
  8
LC-005-003-----0
 62
     2
  5
234
 10
452.442387
 20
334.422348
 30
0.0
 11
424.681931
 21
330.767614
 31
0.0
  0
LINE
  8
LC-005-003-----0
 62
     2
  5
235
 10
424.681931
 20
330.767614
 30
0.0
 11
452.442387
 21
327.112881
 31
0.0
  0
LINE
  8
LC-005-003-----0
 62
     2
  5
236
 10
452.442387
 20
327.112881
 30
0.0
 11
452.442387
 21
334.422348
 31
0.0
  0
LINE
  8
LC-005-003-----0
 62
     2
  5
237
 10
452.504668
 20
333.472117
 30
0.0
 11
431.961931
 21
330.767614
 31
0.0
  0
LINE
  8
LC-005-003-----0
 62
     2
  5
238
 10
431.961931
 20
330.767614
 30
0.0
 11
452.504668
 21
328.063112
 31
0.0
  0
LINE
  8
LC-005-003-----0
 62
     2
  5
239
 10
452.56695
 20
332.521886
 30
0.0
 11
439.241931
 21
330.767614
 31
0.0
  0
LINE
  8
LC-005-003-----0
 62
     2
  5
23A
 10
439.241931
 20
330.767614
 30
0.0
 11
452.56695
 21
329.013342
 31
0.0
  0
LINE
  8
LC-005-003-----0
 62
     2
  5
23B
 10
452.629231
 20
331.571656
 30
0.0
 11
446.521931
 21
330.767614
 31
0.0
  0
LINE
  8
LC-005-003-----0
 62
     2
  5
23C
 10
446.521931
 20
330.767614
 30
0.0
 11
452.629231
 21
329.963573
 31
0.0
  0
LINE
  8
LC-005-003-----0
 62
     2
  5
23D
 10
531.958323
 20
327.112881
 30
0.0
 11
559.718779
 21
330.767614
 31
0.0
  0
LINE
  8
LC-005-003-----0
 62
     2
  5
23E
 10
559.718779
 20
330.767614
 30
0.0
 11
531.958323
 21
334.422348
 31
0.0
  0
LINE
  8
LC-005-003-----0
 62
     2
  5
23F
 10
531.958323
 20
334.422348
 30
0.0
 11
531.958323
 21
327.112881
 31
0.0
  0
LINE
  8
LC-005-003-----0
 62
     2
  5
240
 10
531.896042
 20
328.063112
 30
0.0
 11
552.438779
 21
330.767614
 31
0.0
  0
LINE
  8
LC-005-003-----0
 62
     2
  5
241
 10
552.438779
 20
330.767614
 30
0.0
 11
531.896042
 21
333.472117
 31
0.0
  0
LINE
  8
LC-005-003-----0
 62
     2
  5
242
 10
531.833761
 20
329.013342
 30
0.0
 11
545.158779
 21
330.767614
 31
0.0
  0
LINE
  8
LC-005-003-----0
 62
     2
  5
243
 10
545.158779
 20
330.767614
 30
0.0
 11
531.833761
 21
332.521886
 31
0.0
  0
LINE
  8
LC-005-003-----0
 62
     2
  5
244
 10
531.771479
 20
329.963573
 30
0.0
 11
537.878779
 21
330.767614
 31
0.0
  0
LINE
  8
LC-005-003-----0
 62
     2
  5
245
 10
537.878779
 20
330.767614
 30
0.0
 11
531.771479
 21
331.571656
 31
0.0
  0
TEXT
  8
LC-005-003-----0
 62
     7
  5
246
 10
440.492515
 20
338.595168
 30
0.0
 40
28.0
  1
%%c137
 41
0.8
 51
15.0
  7
LCTX15-400-0-0-ARIAL
 72
     1
 11
496.548515
 21
338.595168
 31
0.0
  0
ENDBLK
  8
0
  5
247
  0
BLOCK
  8
0
  5
24A
  2
*D10
 70
    65
 10
0.0
 20
0.0
 30
0.0
  3
*D10
  0
LINE
  8
LC-006-003-MTH-0
 62
     2
  5
24B
 10
591.105271
 20
467.62499
 30
0.0
 11
672.287297
 21
467.62499
 31
0.0
  0
LINE
  8
LC-006-003-MTH-0
 62
     2
  5
24C
 10
577.200532
 20
553.600598
 30
0.0
 11
677.28171
 21
553.600598
 31
0.0
  0
LINE
  8
LC-007-003-MTG-0
 62
     2
  5
24D
 10
660.48171
 20
467.62499
 30
0.0
 11
660.48171
 21
487.244261
 31
0.0
  0
LINE
  8
LC-007-003-MTG-0
 62
     2
  5
24E
 10
660.48171
 20
548.475194
 30
0.0
 11
660.48171
 21
553.600598
 31
0.0
  0
LINE
  8
LC-005-003-----0
 62
     2
  5
24F
 10
657.898784
 20
487.244261
 30
0.0
 11
660.48171
 21
467.62499
 31
0.0
  0
LINE
  8
LC-005-003-----0
 62
     2
  5
250
 10
660.48171
 20
467.62499
 30
0.0
 11
663.064636
 21
487.244261
 31
0.0
  0
LINE
  8
LC-005-003-----0
 62
     2
  5
251
 10
658.857215
 20
487.244261
 30
0.0
 11
660.48171
 21
474.90499
 31
0.0
  0
LINE
  8
LC-005-003-----0
 62
     2
  5
252
 10
660.48171
 20
474.90499
 30
0.0
 11
662.106206
 21
487.244261
 31
0.0
  0
LINE
  8
LC-005-003-----0
 62
     2
  5
253
 10
659.815645
 20
487.244261
 30
0.0
 11
660.48171
 21
482.18499
 31
0.0
  0
LINE
  8
LC-005-003-----0
 62
     2
  5
254
 10
660.48171
 20
482.18499
 30
0.0
 11
661.147776
 21
487.244261
 31
0.0
  0
LINE
  8
LC-005-003-----0
 62
     2
  5
255
 10
661.156483
 20
548.475194
 30
0.0
 11
660.48171
 21
553.600598
 31
0.0
  0
LINE
  8
LC-005-003-----0
 62
     2
  5
256
 10
660.48171
 20
553.600598
 30
0.0
 11
659.806938
 21
548.475194
 31
0.0
  0
TEXT
  8
LC-005-003-----0
 62
     7
  5
257
 10
652.654156
 20
499.168954
 30
0.0
 40
28.0
  1
86
 50
90.0
 41
0.8
 51
15.0
  7
LCTX15-400-0-0-ARIAL
 72
     1
 11
652.654156
 21
514.960954
 31
0.0
  0
ENDBLK
  8
0
  5
258
  0
BLOCK
  8
0
  5
25B
  2
*D11
 70
    65
 10
0.0
 20
0.0
 30
0.0
  3
*D11
  0
LINE
  8
LC-006-003-MTH-0
 62
     2
  5
25C
 10
411.200532
 20
553.600598
 30
0.0
 11
411.200532
 21
611.459614
 31
0.0
  0
LINE
  8
LC-006-003-MTH-0
 62
     2
  5
25D
 10
573.200532
 20
553.600598
 30
0.0
 11
573.200532
 21
584.195964
 31
0.0
  0
LINE
  8
LC-006-003-MTH-0
 62
     2
  5
25E
 10
573.200532
 20
585.195964
 30
0.0
 11
573.200532
 21
611.459614
 31
0.0
  0
LINE
  8
LC-007-003-MTG-0
 62
     2
  5
25F
 10
411.200532
 20
594.659614
 30
0.0
 11
449.903999
 21
594.659614
 31
0.0
  0
LINE
  8
LC-007-003-MTG-0
 62
     2
  5
260
 10
548.990932
 20
594.659614
 30
0.0
 11
573.200532
 21
594.659614
 31
0.0
  0
LINE
  8
LC-005-003-----0
 62
     2
  5
261
 10
438.960988
 20
598.314348
 30
0.0
 11
411.200532
 21
594.659614
 31
0.0
  0
LINE
  8
LC-005-003-----0
 62
     2
  5
262
 10
411.200532
 20
594.659614
 30
0.0
 11
438.960988
 21
591.004881
 31
0.0
  0
LINE
  8
LC-005-003-----0
 62
     2
  5
263
 10
438.960988
 20
591.004881
 30
0.0
 11
438.960988
 21
598.314348
 31
0.0
  0
LINE
  8
LC-005-003-----0
 62
     2
  5
264
 10
439.02327
 20
597.364117
 30
0.0
 11
418.480532
 21
594.659614
 31
0.0
  0
LINE
  8
LC-005-003-----0
 62
     2
  5
265
 10
418.480532
 20
594.659614
 30
0.0
 11
439.02327
 21
591.955112
 31
0.0
  0
LINE
  8
LC-005-003-----0
 62
     2
  5
266
 10
439.085551
 20
596.413886
 30
0.0
 11
425.760532
 21
594.659614
 31
0.0
  0
LINE
  8
LC-005-003-----0
 62
     2
  5
267
 10
425.760532
 20
594.659614
 30
0.0
 11
439.085551
 21
592.905342
 31
0.0
  0
LINE
  8
LC-005-003-----0
 62
     2
  5
268
 10
439.147833
 20
595.463656
 30
0.0
 11
433.040532
 21
594.659614
 31
0.0
  0
LINE
  8
LC-005-003-----0
 62
     2
  5
269
 10
433.040532
 20
594.659614
 30
0.0
 11
439.147833
 21
593.855573
 31
0.0
  0
LINE
  8
LC-005-003-----0
 62
     2
  5
26A
 10
548.990932
 20
591.47236
 30
0.0
 11
573.200532
 21
594.659614
 31
0.0
  0
LINE
  8
LC-005-003-----0
 62
     2
  5
26B
 10
573.200532
 20
594.659614
 30
0.0
 11
548.990932
 21
597.846869
 31
0.0
  0
LINE
  8
LC-005-003-----0
 62
     2
  5
26C
 10
548.990932
 20
592.43079
 30
0.0
 11
565.920532
 21
594.659614
 31
0.0
  0
LINE
  8
LC-005-003-----0
 62
     2
  5
26D
 10
565.920532
 20
594.659614
 30
0.0
 11
548.990932
 21
596.888438
 31
0.0
  0
LINE
  8
LC-005-003-----0
 62
     2
  5
26E
 10
548.990932
 20
593.38922
 30
0.0
 11
558.640532
 21
594.659614
 31
0.0
  0
LINE
  8
LC-005-003-----0
 62
     2
  5
26F
 10
558.640532
 20
594.659614
 30
0.0
 11
548.990932
 21
595.930008
 31
0.0
  0
LINE
  8
LC-005-003-----0
 62
     2
  5
270
 10
548.990932
 20
594.347651
 30
0.0
 11
551.360532
 21
594.659614
 31
0.0
  0
LINE
  8
LC-005-003-----0
 62
     2
  5
271
 10
551.360532
 20
594.659614
 30
0.0
 11
548.990932
 21
594.971578
 31
0.0
  0
TEXT
  8
LC-005-003-----0
 62
     7
  5
272
 10
440.492692
 20
602.487168
 30
0.0
 40
28.0
  1
%%c162
 41
0.8
 51
15.0
  7
LCTX15-400-0-0-ARIAL
 72
     1
 11
496.548692
 21
602.487168
 31
0.0
  0
ENDBLK
  8
0
  5
273
  0
BLOCK
  8
0
  5
277
  2
*D12
 70
    65
 10
0.0
 20
0.0
 30
0.0
  3
*D12
  0
LINE
  8
LC-006-003-MTH-0
 62
     2
  5
278
 10
559.718779
 20
394.397922
 30
0.0
 11
733.887297
 21
394.397922
 31
0.0
  0
LINE
  8
LC-006-003-MTH-0
 62
     2
  5
279
 10
577.200532
 20
553.600598
 30
0.0
 11
733.887297
 21
553.600598
 31
0.0
  0
LINE
  8
LC-007-003-MTG-0
 62
     2
  5
27A
 10
717.087297
 20
394.397922
 30
0.0
 11
717.087297
 21
439.794727
 31
0.0
  0
LINE
  8
LC-007-003-MTG-0
 62
     2
  5
27B
 10
717.087297
 20
522.69766
 30
0.0
 11
717.087297
 21
553.600598
 31
0.0
  0
LINE
  8
LC-005-003-----0
 62
     2
  5
27C
 10
713.432564
 20
422.158378
 30
0.0
 11
717.087297
 21
394.397922
 31
0.0
  0
LINE
  8
LC-005-003-----0
 62
     2
  5
27D
 10
717.087297
 20
394.397922
 30
0.0
 11
720.74203
 21
422.158378
 31
0.0
  0
LINE
  8
LC-005-003-----0
 62
     2
  5
27E
 10
720.74203
 20
422.158378
 30
0.0
 11
713.432564
 21
422.158378
 31
0.0
  0
LINE
  8
LC-005-003-----0
 62
     2
  5
27F
 10
714.382794
 20
422.22066
 30
0.0
 11
717.087297
 21
401.677922
 31
0.0
  0
LINE
  8
LC-005-003-----0
 62
     2
  5
280
 10
717.087297
 20
401.677922
 30
0.0
 11
719.7918
 21
422.22066
 31
0.0
  0
LINE
  8
LC-005-003-----0
 62
     2
  5
281
 10
715.333025
 20
422.282941
 30
0.0
 11
717.087297
 21
408.957922
 31
0.0
  0
LINE
  8
LC-005-003-----0
 62
     2
  5
282
 10
717.087297
 20
408.957922
 30
0.0
 11
718.841569
 21
422.282941
 31
0.0
  0
LINE
  8
LC-005-003-----0
 62
     2
  5
283
 10
716.283256
 20
422.345222
 30
0.0
 11
717.087297
 21
416.237922
 31
0.0
  0
LINE
  8
LC-005-003-----0
 62
     2
  5
284
 10
717.087297
 20
416.237922
 30
0.0
 11
717.891338
 21
422.345222
 31
0.0
  0
LINE
  8
LC-005-003-----0
 62
     2
  5
285
 10
720.74203
 20
525.840142
 30
0.0
 11
717.087297
 21
553.600598
 31
0.0
  0
LINE
  8
LC-005-003-----0
 62
     2
  5
286
 10
717.087297
 20
553.600598
 30
0.0
 11
713.432564
 21
525.840142
 31
0.0
  0
LINE
  8
LC-005-003-----0
 62
     2
  5
287
 10
713.432564
 20
525.840142
 30
0.0
 11
720.74203
 21
525.840142
 31
0.0
  0
LINE
  8
LC-005-003-----0
 62
     2
  5
288
 10
719.7918
 20
525.77786
 30
0.0
 11
717.087297
 21
546.320598
 31
0.0
  0
LINE
  8
LC-005-003-----0
 62
     2
  5
289
 10
717.087297
 20
546.320598
 30
0.0
 11
714.382794
 21
525.77786
 31
0.0
  0
LINE
  8
LC-005-003-----0
 62
     2
  5
28A
 10
718.841569
 20
525.715579
 30
0.0
 11
717.087297
 21
539.040598
 31
0.0
  0
LINE
  8
LC-005-003-----0
 62
     2
  5
28B
 10
717.087297
 20
539.040598
 30
0.0
 11
715.333025
 21
525.715579
 31
0.0
  0
LINE
  8
LC-005-003-----0
 62
     2
  5
28C
 10
717.891338
 20
525.653297
 30
0.0
 11
717.087297
 21
531.760598
 31
0.0
  0
LINE
  8
LC-005-003-----0
 62
     2
  5
28D
 10
717.087297
 20
531.760598
 30
0.0
 11
716.283256
 21
525.653297
 31
0.0
  0
TEXT
  8
LC-005-003-----0
 62
     7
  5
28E
 10
709.259743
 20
451.71942
 30
0.0
 40
28.0
  1
159
 50
90.0
 41
0.9
 51
15.0
  7
LCTX15-400-0-0-ARIAL
 72
     1
 11
709.259743
 21
478.34742
 31
0.0
  0
ENDBLK
  8
0
  5
28F
  0
BLOCK
  8
0
  5
292
  2
*D13
 70
    65
 10
0.0
 20
0.0
 30
0.0
  3
*D13
  0
LINE
  8
LC-006-003-MTH-0
 62
     2
  5
293
 10
577.200532
 20
553.600598
 30
0.0
 11
620.676124
 21
553.600598
 31
0.0
  0
LINE
  8
LC-006-003-MTH-0
 62
     2
  5
294
 10
595.604091
 20
584.195964
 30
0.0
 11
620.676124
 21
584.195964
 31
0.0
  0
LINE
  8
LC-005-003-----0
 62
     2
  5
295
 10
607.530857
 20
525.840142
 30
0.0
 11
603.876124
 21
553.600598
 31
0.0
  0
LINE
  8
LC-005-003-----0
 62
     2
  5
296
 10
603.876124
 20
553.600598
 30
0.0
 11
600.22139
 21
525.840142
 31
0.0
  0
LINE
  8
LC-005-003-----0
 62
     2
  5
297
 10
600.22139
 20
525.840142
 30
0.0
 11
607.530857
 21
525.840142
 31
0.0
  0
LINE
  8
LC-005-003-----0
 62
     2
  5
298
 10
606.580626
 20
525.77786
 30
0.0
 11
603.876124
 21
546.320598
 31
0.0
  0
LINE
  8
LC-005-003-----0
 62
     2
  5
299
 10
603.876124
 20
546.320598
 30
0.0
 11
601.171621
 21
525.77786
 31
0.0
  0
LINE
  8
LC-005-003-----0
 62
     2
  5
29A
 10
605.630396
 20
525.715579
 30
0.0
 11
603.876124
 21
539.040598
 31
0.0
  0
LINE
  8
LC-005-003-----0
 62
     2
  5
29B
 10
603.876124
 20
539.040598
 30
0.0
 11
602.121852
 21
525.715579
 31
0.0
  0
LINE
  8
LC-005-003-----0
 62
     2
  5
29C
 10
604.680165
 20
525.653297
 30
0.0
 11
603.876124
 21
531.760598
 31
0.0
  0
LINE
  8
LC-005-003-----0
 62
     2
  5
29D
 10
603.876124
 20
531.760598
 30
0.0
 11
603.072082
 21
525.653297
 31
0.0
  0
LINE
  8
LC-005-003-----0
 62
     2
  5
29E
 10
600.22139
 20
611.95642
 30
0.0
 11
603.876124
 21
584.195964
 31
0.0
  0
LINE
  8
LC-005-003-----0
 62
     2
  5
29F
 10
603.876124
 20
584.195964
 30
0.0
 11
607.530857
 21
611.95642
 31
0.0
  0
LINE
  8
LC-005-003-----0
 62
     2
  5
2A0
 10
607.530857
 20
611.95642
 30
0.0
 11
600.22139
 21
611.95642
 31
0.0
  0
LINE
  8
LC-005-003-----0
 62
     2
  5
2A1
 10
601.171621
 20
612.018701
 30
0.0
 11
603.876124
 21
591.475964
 31
0.0
  0
LINE
  8
LC-005-003-----0
 62
     2
  5
2A2
 10
603.876124
 20
591.475964
 30
0.0
 11
606.580626
 21
612.018701
 31
0.0
  0
LINE
  8
LC-005-003-----0
 62
     2
  5
2A3
 10
602.121852
 20
612.080983
 30
0.0
 11
603.876124
 21
598.755964
 31
0.0
  0
LINE
  8
LC-005-003-----0
 62
     2
  5
2A4
 10
603.876124
 20
598.755964
 30
0.0
 11
605.630396
 21
612.080983
 31
0.0
  0
LINE
  8
LC-005-003-----0
 62
     2
  5
2A5
 10
603.072082
 20
612.143264
 30
0.0
 11
603.876124
 21
606.035964
 31
0.0
  0
LINE
  8
LC-005-003-----0
 62
     2
  5
2A6
 10
603.876124
 20
606.035964
 30
0.0
 11
604.680165
 21
612.143264
 31
0.0
  0
LINE
  8
LC-007-003-MTG-0
 62
     2
  5
2A7
 10
603.876124
 20
514.400598
 30
0.0
 11
603.876124
 21
615.81943
 31
0.0
  0
TEXT
  8
LC-005-003-----0
 62
     7
  5
2A8
 10
596.04857
 20
627.744124
 30
0.0
 40
28.0
  1
30
 50
90.0
 41
0.9
 51
15.0
  7
LCTX15-400-0-0-ARIAL
  0
ENDBLK
  8
0
  5
2A9
  0
BLOCK
  8
0
  5
309
  2
*D14
 70
    65
 10
0.0
 20
0.0
 30
0.0
  3
*D14
  0
LINE
  8
LC-006-003-MTH-0
 62
     2
  5
30A
 10
412.181925
 20
400.397922
 30
0.0
 11
412.181925
 21
253.379614
 31
0.0
  0
LINE
  8
LC-006-003-MTH-0
 62
     2
  5
30B
 10
572.218786
 20
400.397922
 30
0.0
 11
572.218786
 21
253.379614
 31
0.0
  0
LINE
  8
LC-007-003-MTG-0
 62
     2
  5
30C
 10
412.181925
 20
270.179614
 30
0.0
 11
445.563822
 21
270.179614
 31
0.0
  0
LINE
  8
LC-007-003-MTG-0
 62
     2
  5
30D
 10
553.330755
 20
270.179614
 30
0.0
 11
572.218786
 21
270.179614
 31
0.0
  0
LINE
  8
LC-005-003-----0
 62
     2
  5
30E
 10
439.942381
 20
273.834348
 30
0.0
 11
412.181925
 21
270.179614
 31
0.0
  0
LINE
  8
LC-005-003-----0
 62
     2
  5
30F
 10
412.181925
 20
270.179614
 30
0.0
 11
439.942381
 21
266.524881
 31
0.0
  0
LINE
  8
LC-005-003-----0
 62
     2
  5
310
 10
439.942381
 20
266.524881
 30
0.0
 11
439.942381
 21
273.834348
 31
0.0
  0
LINE
  8
LC-005-003-----0
 62
     2
  5
311
 10
440.004662
 20
272.884117
 30
0.0
 11
419.461925
 21
270.179614
 31
0.0
  0
LINE
  8
LC-005-003-----0
 62
     2
  5
312
 10
419.461925
 20
270.179614
 30
0.0
 11
440.004662
 21
267.475112
 31
0.0
  0
LINE
  8
LC-005-003-----0
 62
     2
  5
313
 10
440.066944
 20
271.933886
 30
0.0
 11
426.741925
 21
270.179614
 31
0.0
  0
LINE
  8
LC-005-003-----0
 62
     2
  5
314
 10
426.741925
 20
270.179614
 30
0.0
 11
440.066944
 21
268.425342
 31
0.0
  0
LINE
  8
LC-005-003-----0
 62
     2
  5
315
 10
440.129225
 20
270.983656
 30
0.0
 11
434.021925
 21
270.179614
 31
0.0
  0
LINE
  8
LC-005-003-----0
 62
     2
  5
316
 10
434.021925
 20
270.179614
 30
0.0
 11
440.129225
 21
269.375573
 31
0.0
  0
LINE
  8
LC-005-003-----0
 62
     2
  5
317
 10
553.330755
 20
267.692958
 30
0.0
 11
572.218786
 21
270.179614
 31
0.0
  0
LINE
  8
LC-005-003-----0
 62
     2
  5
318
 10
572.218786
 20
270.179614
 30
0.0
 11
553.330755
 21
272.666271
 31
0.0
  0
LINE
  8
LC-005-003-----0
 62
     2
  5
319
 10
553.330755
 20
268.651388
 30
0.0
 11
564.938786
 21
270.179614
 31
0.0
  0
LINE
  8
LC-005-003-----0
 62
     2
  5
31A
 10
564.938786
 20
270.179614
 30
0.0
 11
553.330755
 21
271.707841
 31
0.0
  0
LINE
  8
LC-005-003-----0
 62
     2
  5
31B
 10
553.330755
 20
269.609818
 30
0.0
 11
557.658786
 21
270.179614
 31
0.0
  0
LINE
  8
LC-005-003-----0
 62
     2
  5
31C
 10
557.658786
 20
270.179614
 30
0.0
 11
553.330755
 21
270.74941
 31
0.0
  0
TEXT
  8
LC-005-003-----0
 62
     7
  5
31D
 10
433.548515
 20
278.007168
 30
0.0
 40
28.0
  1
%%c160
 41
0.9
 51
15.0
  7
LCTX15-400-0-0-ARIAL
 72
     1
 11
496.548515
 21
278.007168
 31
0.0
  0
ENDBLK
  8
0
  5
31E
  0
ENDSEC
  0
SECTION
  2
ENTITIES
  0
VIEWPORT
  8
LC-VIEWPORT
  5
320
 67
     1
 68
     1
 10
420.0
 20
297.0
 30
0.0
 40
840.0
 41
594.0
 69
     1
1001
ACAD
1000
MVIEW
1002
{
1070
    16
1010
0.0
1020
0.0
1030
0.0
1010
0.0
1020
0.0
1030
1.0
1040
0.0
1040
594.0
1040
420.0
1040
297.0
1040
50.0
1040
0.0
1040
0.0
1070
     0
1070
   100
1070
     1
1070
     1
1070
     0
1070
     0
1070
     0
1070
     0
1040
0.0
1040
0.0
1040
0.0
1040
1.0
1040
1.0
1040
0.0
1040
0.0
1070
     0
1002
{
1002
}
1002
}
  0
LINE
  8
LC-001-006-MLN-0
 62
     2
  5
26
 10
492.200355
 20
477.395964
 30
0.0
 11
492.200355
 21
384.397922
 31
0.0
  0
ARC
  8
LC-002-002-RND-0
 62
     1
  5
28
 10
407.181925
 20
455.400439
 30
0.0
 40
5.0
 50
0.0
 51
90.0
  0
LINE
  8
LC-001-006-MLN-0
 62
     2
  5
29
 10
492.200532
 20
563.600598
 30
0.0
 11
492.200532
 21
451.095964
 31
0.0
  0
LINE
  8
LC-003-002-----0
 62
     1
  5
2B
 10
393.450178
 20
467.400439
 30
0.0
 11
393.450178
 21
467.400439
 31
0.0
  0
LINE
  8
LC-003-002-----0
 62
     1
  5
2C
 10
394.150178
 20
467.396059
 30
0.0
 11
394.150178
 21
467.395964
 31
0.0
  0
ARC
  8
LC-002-002-RND-0
 62
     1
  5
2D
 10
400.450178
 20
467.395964
 30
0.0
 40
6.3
 50
180.0
 51
270.0
  0
ARC
  8
LC-003-002-----0
 62
     1
  5
2E
 10
418.181925
 20
400.397922
 30
0.0
 40
5.3
 50
180.004402
 51
202.495598
  0
ARC
  8
LC-003-002-----0
 62
     1
  5
2F
 10
418.181925
 20
400.397922
 30
0.0
 40
5.3
 50
202.51254
 51
224.98746
  0
ARC
  8
LC-003-002-----0
 62
     1
  5
30
 10
418.181925
 20
400.397922
 30
0.0
 40
5.3
 50
225.018772
 51
247.481228
  0
ARC
  8
LC-003-002-----0
 62
     1
  5
31
 10
418.181925
 20
400.397922
 30
0.0
 40
5.3
 50
247.522147
 51
269.977853
  0
ARC
  8
LC-002-002-RND-0
 62
     1
  5
32
 10
400.450178
 20
467.400439
 30
0.0
 40
7.0
 50
180.0
 51
270.0
  0
LINE
  8
LC-003-002-----0
 62
     1
  5
33
 10
400.450178
 20
461.095964
 30
0.0
 11
400.450532
 21
461.095964
 31
0.0
  0
LINE
  8
LC-003-002-----0
 62
     1
  5
34
 10
394.150532
 20
467.395964
 30
0.0
 11
394.150178
 21
467.395964
 31
0.0
  0
LINE
  8
LC-003-002-----0
 62
     1
  5
35
 10
407.181925
 20
461.095557
 30
0.0
 11
403.450532
 21
461.095557
 31
0.0
  0
ARC
  8
LC-002-002-RND-0
 62
     1
  5
36
 10
552.918083
 20
583.195964
 30
0.0
 40
2.0
 50
90.0
 51
169.399743
  0
ARC
  8
LC-002-002-RND-0
 62
     1
  5
37
 10
567.895249
 20
583.195964
 30
0.0
 40
1.0
 50
90.0
 51
169.311221
  0
ARC
  8
LC-002-002-RND-0
 62
     1
  5
38
 10
568.200546
 20
583.195964
 30
0.0
 40
2.0
 50
90.0
 51
169.311221
  0
CIRCLE
  8
LC-003-002-----0
 62
     1
  5
39
 10
911.046201
 20
489.797922
 30
0.0
 40
81.0
  0
CIRCLE
  8
LC-003-002-----0
 62
     1
  5
3A
 10
911.046201
 20
489.797922
 30
0.0
 40
85.0
  0
CIRCLE
  8
LC-003-002-----0
 62
     1
  5
3B
 10
911.046201
 20
489.797922
 30
0.0
 40
93.5
  0
CIRCLE
  8
LC-003-002-----0
 62
     1
  5
3C
 10
911.046201
 20
489.797922
 30
0.0
 40
67.5
  0
LINE
  8
LC-003-002-----0
 62
     1
  5
3D
 10
393.450178
 20
467.400439
 30
0.0
 11
394.133831
 21
467.400439
 31
0.0
  0
LINE
  8
LC-003-002-----0
 62
     1
  5
3E
 10
400.450178
 20
460.400439
 30
0.0
 11
407.181925
 21
460.400439
 31
0.0
  0
LINE
  8
LC-003-002-----0
 62
     1
  5
3F
 10
418.181925
 20
394.397922
 30
0.0
 11
492.200355
 21
394.397922
 31
0.0
  0
LINE
  8
LC-003-002-----0
 62
     1
  5
40
 10
412.181925
 20
455.400439
 30
0.0
 11
412.181925
 21
400.397922
 31
0.0
  0
ARC
  8
LC-002-002-RND-0
 62
     1
  5
41
 10
418.181925
 20
400.397922
 30
0.0
 40
6.0
 50
180.0
 51
270.0
  0
LINE
  8
LC-003-002-----0
 62
     1
  5
42
 10
424.681931
 20
395.097515
 30
0.0
 11
424.681931
 21
394.397922
 31
0.0
  0
LINE
  8
LC-003-002-----0
 62
     1
  5
43
 10
412.881925
 20
455.395557
 30
0.0
 11
412.881925
 21
400.397922
 31
0.0
  0
LINE
  8
LC-003-002-----0
 62
     1
  5
44
 10
590.250532
 20
467.395964
 30
0.0
 11
605.88882
 21
471.58623
 31
0.0
  0
LINE
  8
LC-003-002-----0
 62
     1
  5
45
 10
605.811174
 20
471.876008
 30
0.0
 11
605.88882
 21
471.58623
 31
0.0
  0
LINE
  8
LC-003-002-----0
 62
     1
  5
46
 10
590.172887
 20
467.685741
 30
0.0
 11
605.811174
 21
471.876008
 31
0.0
  0
LINE
  8
LC-003-002-----0
 62
     1
  5
47
 10
583.950532
 20
461.095964
 30
0.0
 11
580.950178
 21
461.095964
 31
0.0
  0
LINE
  8
LC-003-002-----0
 62
     1
  5
48
 10
580.950532
 20
461.095964
 30
0.0
 11
580.950532
 21
461.395557
 31
0.0
  0
LINE
  8
LC-003-002-----0
 62
     1
  5
49
 10
576.950532
 20
471.876008
 30
0.0
 11
605.811174
 21
471.876008
 31
0.0
  0
ARC
  8
LC-003-002-----0
 62
     1
  5
4A
 10
583.950532
 20
467.395964
 30
0.0
 40
6.0
 50
270.019084
 51
293.02781
  0
ARC
  8
LC-003-002-----0
 62
     1
  5
4B
 10
583.950532
 20
467.395964
 30
0.0
 40
6.0
 50
293.062928
 51
316.077751
  0
ARC
  8
LC-003-002-----0
 62
     1
  5
4C
 10
583.950532
 20
467.395964
 30
0.0
 40
6.0
 50
316.104213
 51
339.130253
  0
ARC
  8
LC-003-002-----0
 62
     1
  5
4D
 10
583.950532
 20
467.395964
 30
0.0
 40
6.0
 50
339.143837
 51
0.0
  0
ARC
  8
LC-003-002-----0
 62
     1
  5
4E
 10
583.950532
 20
467.395964
 30
0.0
 40
6.3
 50
270.0
 51
0.0
  0
ARC
  8
LC-002-002-RND-0
 62
     1
  5
4F
 10
590.250532
 20
467.395964
 30
0.0
 40
0.3
 50
105.0
 51
180.0
  0
INSERT
  8
LC-004-005-----0
 62
     2
  5
5B
  2
*X0
 10
0.0
 20
0.0
 30
0.0
  0
LINE
  8
LC-003-002-----0
 62
     1
  5
5C
 10
394.150532
 20
467.395964
 30
0.0
 11
378.512245
 21
471.58623
 31
0.0
  0
LINE
  8
LC-003-002-----0
 62
     1
  5
5D
 10
378.589891
 20
471.876008
 30
0.0
 11
378.512245
 21
471.58623
 31
0.0
  0
LINE
  8
LC-003-002-----0
 62
     1
  5
5E
 10
394.228178
 20
467.685741
 30
0.0
 11
378.589891
 21
471.876008
 31
0.0
  0
LINE
  8
LC-003-002-----0
 62
     1
  5
5F
 10
400.450532
 20
461.095964
 30
0.0
 11
403.450532
 21
461.095964
 31
0.0
  0
LINE
  8
LC-003-002-----0
 62
     1
  5
60
 10
403.450532
 20
461.395557
 30
0.0
 11
403.450532
 21
461.395964
 31
0.0
  0
LINE
  8
LC-005-003-----0
 62
     2
  5
62
 10
394.454905
 20
467.62499
 30
0.0
 11
394.944835
 21
467.62499
 31
0.0
  0
LINE
  8
LC-005-003-----0
 62
     2
  5
63
 10
395.980111
 20
467.62499
 30
0.0
 11
407.450532
 21
467.62499
 31
0.0
  0
LINE
  8
LC-005-003-----0
 62
     2
  5
64
 10
576.950532
 20
467.62499
 30
0.0
 11
589.94616
 21
467.62499
 31
0.0
  0
LINE
  8
LC-003-002-----0
 62
     1
  5
65
 10
407.450532
 20
471.876008
 30
0.0
 11
394.841054
 21
471.876008
 31
0.0
  0
LINE
  8
LC-003-002-----0
 62
     1
  5
66
 10
393.805778
 20
471.876008
 30
0.0
 11
378.589891
 21
471.876008
 31
0.0
  0
ARC
  8
LC-003-002-----0
 62
     1
  5
67
 10
400.450532
 20
467.395964
 30
0.0
 40
6.0
 50
180.0
 51
270.0
  0
ARC
  8
LC-003-002-----0
 62
     1
  5
68
 10
400.450532
 20
467.395964
 30
0.0
 40
6.3
 50
180.0
 51
270.0
  0
ARC
  8
LC-002-002-RND-0
 62
     1
  5
69
 10
394.150532
 20
467.395964
 30
0.0
 40
0.3
 50
0.0
 51
75.0
  0
INSERT
  8
LC-004-005-----0
 62
     2
  5
79
  2
*X1
 10
0.0
 20
0.0
 30
0.0
  0
INSERT
  8
LC-004-005-----0
 62
     2
  5
96
  2
*X2
 10
0.0
 20
0.0
 30
0.0
  0
LINE
  8
LC-001-006-MLN-0
 62
     2
  5
97
 10
492.200355
 20
477.395964
 30
0.0
 11
492.200355
 21
384.397922
 31
0.0
  0
ARC
  8
LC-002-002-RND-0
 62
     1
  5
98
 10
577.218786
 20
455.400439
 30
0.0
 40
5.0
 50
90.0
 51
180.0
  0
LINE
  8
LC-003-002-----0
 62
     1
  5
99
 10
590.950532
 20
467.400439
 30
0.0
 11
590.950532
 21
467.400439
 31
0.0
  0
ARC
  8
LC-002-002-RND-0
 62
     1
  5
9A
 10
583.950532
 20
467.395964
 30
0.0
 40
6.3
 50
270.0
 51
0.0
  0
ARC
  8
LC-003-002-----0
 62
     1
  5
9B
 10
566.218786
 20
400.397922
 30
0.0
 40
5.3
 50
270.022147
 51
292.477853
  0
ARC
  8
LC-003-002-----0
 62
     1
  5
9C
 10
566.218786
 20
400.397922
 30
0.0
 40
5.3
 50
292.518772
 51
314.981228
  0
ARC
  8
LC-003-002-----0
 62
     1
  5
9D
 10
566.218786
 20
400.397922
 30
0.0
 40
5.3
 50
315.01254
 51
337.48746
  0
ARC
  8
LC-003-002-----0
 62
     1
  5
9E
 10
566.218786
 20
400.397922
 30
0.0
 40
5.3
 50
337.504402
 51
359.995598
  0
ARC
  8
LC-002-002-RND-0
 62
     1
  5
9F
 10
583.950532
 20
467.400439
 30
0.0
 40
7.0
 50
270.0
 51
0.0
  0
LINE
  8
LC-003-002-----0
 62
     1
  5
A0
 10
590.950532
 20
467.400439
 30
0.0
 11
590.267233
 21
467.400439
 31
0.0
  0
LINE
  8
LC-003-002-----0
 62
     1
  5
A1
 10
583.950532
 20
460.400439
 30
0.0
 11
577.218786
 21
460.400439
 31
0.0
  0
LINE
  8
LC-003-002-----0
 62
     1
  5
A2
 10
566.218786
 20
394.397922
 30
0.0
 11
492.200355
 21
394.397922
 31
0.0
  0
LINE
  8
LC-003-002-----0
 62
     1
  5
A3
 10
572.218786
 20
455.400439
 30
0.0
 11
572.218786
 21
400.397922
 31
0.0
  0
ARC
  8
LC-002-002-RND-0
 62
     1
  5
A4
 10
566.218786
 20
400.397922
 30
0.0
 40
6.0
 50
270.0
 51
0.0
  0
LINE
  8
LC-003-002-----0
 62
     1
  5
A5
 10
559.718779
 20
395.097515
 30
0.0
 11
559.718779
 21
394.397922
 31
0.0
  0
INSERT
  8
LC-004-005-----0
 62
     2
  5
BD
  2
*X3
 10
0.0
 20
0.0
 30
0.0
  0
LINE
  8
LC-003-002-----0
 62
     1
  5
BE
 10
423.480532
 20
462.395557
 30
0.0
 11
423.480532
 21
461.395964
 31
0.0
  0
ARC
  8
LC-003-002-----0
 62
     1
  5
BF
 10
400.450532
 20
466.395964
 30
0.0
 40
4.0
 50
195.012447
 51
219.987553
  0
ARC
  8
LC-003-002-----0
 62
     1
  5
C0
 10
400.450532
 20
466.395964
 30
0.0
 40
4.0
 50
220.021393
 51
244.978607
  0
ARC
  8
LC-003-002-----0
 62
     1
  5
C1
 10
400.450532
 20
466.395964
 30
0.0
 40
4.0
 50
245.026331
 51
269.973669
  0
ARC
  8
LC-003-002-----0
 62
     1
  5
C2
 10
400.450532
 20
466.395964
 30
0.0
 40
5.0
 50
195.0
 51
270.0
  0
LINE
  8
LC-003-002-----0
 62
     1
  5
C3
 10
362.94241
 20
584.195964
 30
0.0
 11
307.477064
 21
584.195964
 31
0.0
  0
LINE
  8
LC-003-002-----0
 62
     1
  5
C4
 10
395.98022
 20
467.624583
 30
0.0
 11
364.874261
 21
583.713602
 31
0.0
  0
LINE
  8
LC-003-002-----0
 62
     1
  5
C5
 10
362.94241
 20
585.195964
 30
0.0
 11
307.477064
 21
585.195964
 31
0.0
  0
LINE
  8
LC-003-002-----0
 62
     1
  5
C6
 10
400.450532
 20
461.395964
 30
0.0
 11
423.480532
 21
461.395964
 31
0.0
  0
LINE
  8
LC-003-002-----0
 62
     1
  5
C7
 10
307.477064
 20
584.195964
 30
0.0
 11
307.477064
 21
585.195964
 31
0.0
  0
ARC
  8
LC-002-002-RND-0
 62
     1
  5
C8
 10
362.94241
 20
583.195964
 30
0.0
 40
1.0
 50
15.0
 51
90.0
  0
ARC
  8
LC-002-002-RND-0
 62
     1
  5
C9
 10
362.94241
 20
583.195964
 30
0.0
 40
2.0
 50
15.0
 51
90.0
  0
INSERT
  8
LC-004-005-----0
 62
     2
  5
122
  2
*X4
 10
0.0
 20
0.0
 30
0.0
  0
LINE
  8
LC-003-002-----0
 62
     1
  5
123
 10
567.895249
 20
584.195964
 30
0.0
 11
595.604091
 21
584.195964
 31
0.0
  0
LINE
  8
LC-003-002-----0
 62
     1
  5
124
 10
595.604091
 20
584.195964
 30
0.0
 11
595.604091
 21
585.195964
 31
0.0
  0
LINE
  8
LC-003-002-----0
 62
     1
  5
125
 10
545.3446
 20
553.600598
 30
0.0
 11
550.952214
 21
583.563875
 31
0.0
  0
LINE
  8
LC-003-002-----0
 62
     1
  5
126
 10
561.291492
 20
553.600598
 30
0.0
 11
566.9126
 21
583.381438
 31
0.0
  0
LINE
  8
LC-003-002-----0
 62
     1
  5
127
 10
560.579132
 20
553.600598
 30
0.0
 11
566.235248
 21
583.566912
 31
0.0
  0
LINE
  8
LC-003-002-----0
 62
     1
  5
128
 10
552.918083
 20
585.195964
 30
0.0
 11
595.604091
 21
585.195964
 31
0.0
  0
LINE
  8
LC-003-002-----0
 62
     1
  5
129
 10
395.620903
 20
465.101868
 30
0.0
 11
363.908335
 21
583.454783
 31
0.0
  0
LINE
  8
LC-003-002-----0
 62
     1
  5
12A
 10
418.181925
 20
395.097515
 30
0.0
 11
492.200355
 21
395.097515
 31
0.0
  0
ARC
  8
LC-003-002-----0
 62
     1
  5
12B
 10
418.181925
 20
400.397515
 30
0.0
 40
5.3
 50
180.0
 51
270.0
  0
LINE
  8
LC-003-002-----0
 62
     1
  5
12C
 10
412.881925
 20
455.395557
 30
0.0
 11
412.881925
 21
400.397515
 31
0.0
  0
ARC
  8
LC-002-002-RND-0
 62
     1
  5
12D
 10
407.181925
 20
455.395557
 30
0.0
 40
5.7
 50
0.0
 51
90.0
  0
LINE
  8
LC-003-002-----0
 62
     1
  5
12E
 10
403.450532
 20
461.395557
 30
0.0
 11
423.480532
 21
461.395557
 31
0.0
  0
LINE
  8
LC-003-002-----0
 62
     1
  5
12F
 10
423.480532
 20
462.395557
 30
0.0
 11
423.480532
 21
461.395557
 31
0.0
  0
LINE
  8
LC-003-002-----0
 62
     1
  5
130
 10
400.450532
 20
462.395557
 30
0.0
 11
423.480532
 21
462.395557
 31
0.0
  0
ARC
  8
LC-003-002-----0
 62
     1
  5
131
 10
400.450532
 20
466.395557
 30
0.0
 40
4.0
 50
195.0
 51
270.0
  0
LINE
  8
LC-003-002-----0
 62
     1
  5
132
 10
395.980111
 20
467.624583
 30
0.0
 11
407.450532
 21
467.624583
 31
0.0
  0
LINE
  8
LC-003-002-----0
 62
     1
  5
133
 10
576.950532
 20
467.624583
 30
0.0
 11
589.94616
 21
467.624583
 31
0.0
  0
LINE
  8
LC-003-002-----0
 62
     1
  5
134
 10
403.450532
 20
461.095557
 30
0.0
 11
403.450532
 21
461.395557
 31
0.0
  0
LINE
  8
LC-003-002-----0
 62
     1
  5
135
 10
424.681931
 20
467.395964
 30
0.0
 11
424.681931
 21
395.097515
 31
0.0
  0
LINE
  8
LC-003-002-----0
 62
     1
  5
136
 10
396.586829
 20
465.36028
 30
0.0
 11
395.980111
 21
467.624583
 31
0.0
  0
LINE
  8
LC-003-002-----0
 62
     1
  5
137
 10
577.218786
 20
461.095557
 30
0.0
 11
580.950178
 21
461.095557
 31
0.0
  0
LINE
  8
LC-003-002-----0
 62
     1
  5
138
 10
566.218786
 20
395.097515
 30
0.0
 11
492.200355
 21
395.097515
 31
0.0
  0
ARC
  8
LC-003-002-----0
 62
     1
  5
139
 10
566.218786
 20
400.397515
 30
0.0
 40
5.3
 50
270.0
 51
360.0
  0
LINE
  8
LC-003-002-----0
 62
     1
  5
13A
 10
571.518786
 20
455.395557
 30
0.0
 11
571.518786
 21
400.397515
 31
0.0
  0
ARC
  8
LC-002-002-RND-0
 62
     1
  5
13B
 10
577.218786
 20
455.395557
 30
0.0
 40
5.7
 50
90.0
 51
180.0
  0
LINE
  8
LC-003-002-----0
 62
     1
  5
13C
 10
583.950532
 20
461.395557
 30
0.0
 11
580.950178
 21
461.395557
 31
0.0
  0
LINE
  8
LC-003-002-----0
 62
     1
  5
13D
 10
580.950178
 20
461.095557
 30
0.0
 11
580.950178
 21
461.395557
 31
0.0
  0
LINE
  8
LC-003-002-----0
 62
     1
  5
13E
 10
559.718779
 20
467.395964
 30
0.0
 11
559.718779
 21
395.097515
 31
0.0
  0
ARC
  8
LC-003-002-----0
 62
     1
  5
13F
 10
583.950532
 20
467.395557
 30
0.0
 40
6.0
 50
270.0
 51
2.187573
  0
INSERT
  8
LC-004-005-----0
 62
     2
  5
178
  2
*X5
 10
0.0
 20
0.0
 30
0.0
  0
LINE
  8
LC-003-002-----0
 62
     1
  5
179
 10
404.700532
 20
540.600598
 30
0.0
 11
492.20053
 21
540.600598
 31
0.0
  0
LINE
  8
LC-003-002-----0
 62
     1
  5
17A
 10
576.950532
 20
462.395964
 30
0.0
 11
576.950532
 21
524.600598
 31
0.0
  0
LINE
  8
LC-003-002-----0
 62
     1
  5
17B
 10
572.95053
 20
462.395964
 30
0.0
 11
572.950532
 21
528.600598
 31
0.0
  0
LINE
  8
LC-003-002-----0
 62
     1
  5
17C
 10
402.700532
 20
544.600598
 30
0.0
 11
407.200532
 21
544.600598
 31
0.0
  0
LINE
  8
LC-003-002-----0
 62
     1
  5
17D
 10
581.700532
 20
544.600598
 30
0.0
 11
577.200532
 21
544.600598
 31
0.0
  0
ARC
  8
LC-002-002-RND-0
 62
     1
  5
17E
 10
579.700532
 20
538.600598
 30
0.0
 40
2.0
 50
32.006728
 51
90.0
  0
LINE
  8
LC-003-002-----0
 62
     1
  5
17F
 10
407.450532
 20
524.600598
 30
0.0
 11
402.700532
 21
524.600598
 31
0.0
  0
LINE
  8
LC-003-002-----0
 62
     1
  5
180
 10
576.950532
 20
524.600598
 30
0.0
 11
581.700532
 21
524.600598
 31
0.0
  0
LINE
  8
LC-003-002-----0
 62
     1
  5
181
 10
581.700532
 20
531.100597
 30
0.0
 11
581.700532
 21
532.100598
 31
0.0
  0
LINE
  8
LC-003-002-----0
 62
     1
  5
182
 10
581.700532
 20
533.100597
 30
0.0
 11
581.700532
 21
534.600598
 31
0.0
  0
LINE
  8
LC-003-002-----0
 62
     1
  5
183
 10
581.700532
 20
535.600597
 30
0.0
 11
581.700532
 21
537.600598
 31
0.0
  0
LINE
  8
LC-003-002-----0
 62
     1
  5
184
 10
577.200532
 20
553.600598
 30
0.0
 11
492.20053
 21
553.600598
 31
0.0
  0
LINE
  8
LC-003-002-----0
 62
     1
  5
185
 10
585.700532
 20
528.600598
 30
0.0
 11
585.700532
 21
540.600598
 31
0.0
  0
LINE
  8
LC-003-002-----0
 62
     1
  5
186
 10
573.200532
 20
540.600598
 30
0.0
 11
573.200532
 21
553.600598
 31
0.0
  0
ARC
  8
LC-002-002-RND-0
 62
     1
  5
187
 10
404.700532
 20
538.600598
 30
0.0
 40
2.0
 50
90.0
 51
147.993278
  0
LINE
  8
LC-003-002-----0
 62
     1
  5
188
 10
398.700532
 20
528.600598
 30
0.0
 11
398.700532
 21
540.600598
 31
0.0
  0
LINE
  8
LC-003-002-----0
 62
     1
  5
189
 10
407.450532
 20
462.395964
 30
0.0
 11
411.450534
 21
462.395964
 31
0.0
  0
LINE
  8
LC-003-002-----0
 62
     1
  5
18A
 10
407.450532
 20
462.395964
 30
0.0
 11
407.450532
 21
524.600598
 31
0.0
  0
LINE
  8
LC-003-002-----0
 62
     1
  5
18B
 10
577.200532
 20
544.600598
 30
0.0
 11
577.200532
 21
553.600598
 31
0.0
  0
LINE
  8
LC-003-002-----0
 62
     1
  5
18C
 10
411.450534
 20
462.395964
 30
0.0
 11
411.450532
 21
528.600598
 31
0.0
  0
ARC
  8
LC-002-002-RND-0
 62
     1
  5
18D
 10
402.700532
 20
528.600598
 30
0.0
 40
4.0
 50
180.0
 51
270.0
  0
ARC
  8
LC-002-002-RND-0
 62
     1
  5
18E
 10
402.700532
 20
540.600598
 30
0.0
 40
4.0
 50
90.0
 51
180.0
  0
ARC
  8
LC-002-002-RND-0
 62
     1
  5
18F
 10
581.700532
 20
528.600598
 30
0.0
 40
4.0
 50
270.0
 51
0.0
  0
ARC
  8
LC-002-002-RND-0
 62
     1
  5
190
 10
581.700532
 20
540.600598
 30
0.0
 40
4.0
 50
0.0
 51
90.0
  0
LINE
  8
LC-003-002-----0
 62
     1
  5
191
 10
402.700532
 20
531.100597
 30
0.0
 11
402.700532
 21
532.600598
 31
0.0
  0
LINE
  8
LC-003-002-----0
 62
     1
  5
192
 10
402.700532
 20
533.600597
 30
0.0
 11
402.700532
 21
535.100598
 31
0.0
  0
LINE
  8
LC-003-002-----0
 62
     1
  5
193
 10
402.700532
 20
536.100597
 30
0.0
 11
402.700532
 21
537.600598
 31
0.0
  0
LINE
  8
LC-003-002-----0
 62
     1
  5
194
 10
407.200532
 20
553.600598
 30
0.0
 11
492.20053
 21
553.600598
 31
0.0
  0
LINE
  8
LC-003-002-----0
 62
     1
  5
195
 10
411.200532
 20
540.600598
 30
0.0
 11
411.200532
 21
553.600598
 31
0.0
  0
LINE
  8
LC-003-002-----0
 62
     1
  5
196
 10
407.200532
 20
544.600598
 30
0.0
 11
407.200532
 21
553.600598
 31
0.0
  0
LINE
  8
LC-003-002-----0
 62
     1
  5
197
 10
492.20053
 20
540.600598
 30
0.0
 11
579.700532
 21
540.600598
 31
0.0
  0
LINE
  8
LC-003-002-----0
 62
     1
  5
198
 10
411.450534
 20
467.395964
 30
0.0
 11
572.95053
 21
467.395964
 31
0.0
  0
LINE
  8
LC-003-002-----0
 62
     1
  5
199
 10
572.95053
 20
462.395964
 30
0.0
 11
576.950532
 21
462.395964
 31
0.0
  0
INSERT
  8
LC-004-005-----0
 62
     2
  5
1EA
  2
*X6
 10
0.0
 20
0.0
 30
0.0
  0
LINE
  8
LC-003-002-----0
 62
     1
  5
1EB
 10
402.200533
 20
538.100598
 30
0.0
 11
402.700533
 21
537.600598
 31
0.0
  0
LINE
  8
LC-003-002-----0
 62
     1
  5
1EC
 10
402.700533
 20
531.100598
 30
0.0
 11
402.200533
 21
530.600598
 31
0.0
  0
LINE
  8
LC-003-002-----0
 62
     1
  5
1ED
 10
402.200533
 20
533.100598
 30
0.0
 11
402.700533
 21
532.600598
 31
0.0
  0
LINE
  8
LC-003-002-----0
 62
     1
  5
1EE
 10
402.700533
 20
536.100598
 30
0.0
 11
402.200533
 21
535.600598
 31
0.0
  0
LINE
  8
LC-003-002-----0
 62
     1
  5
1EF
 10
402.700533
 20
533.600598
 30
0.0
 11
402.200533
 21
533.100598
 31
0.0
  0
LINE
  8
LC-003-002-----0
 62
     1
  5
1F0
 10
402.200533
 20
535.600598
 30
0.0
 11
402.700533
 21
535.100598
 31
0.0
  0
ARC
  8
LC-002-002-RND-0
 62
     1
  5
1F1
 10
404.200533
 20
538.100598
 30
0.0
 40
2.0
 50
90.0
 51
180.0
  0
LINE
  8
LC-003-002-----0
 62
     1
  5
1F2
 10
404.200533
 20
528.600598
 30
0.0
 11
408.200533
 21
528.600598
 31
0.0
  0
LINE
  8
LC-003-002-----0
 62
     1
  5
1F3
 10
409.200533
 20
529.600598
 30
0.0
 11
408.880992
 21
533.252965
 31
0.0
  0
LINE
  8
LC-003-002-----0
 62
     1
  5
1F4
 10
409.704485
 20
533.676171
 30
0.0
 11
413.251545
 21
532.350119
 31
0.0
  0
LINE
  8
LC-003-002-----0
 62
     1
  5
1F5
 10
414.024155
 20
532.953354
 30
0.0
 11
409.476926
 21
539.547811
 31
0.0
  0
LINE
  8
LC-003-002-----0
 62
     1
  5
1F6
 10
408.582499
 20
540.100598
 30
0.0
 11
404.200533
 21
540.100598
 31
0.0
  0
LINE
  8
LC-003-002-----0
 62
     1
  5
1F7
 10
408.200533
 20
528.600598
 30
0.0
 11
492.200532
 21
528.600598
 31
0.0
  0
ARC
  8
LC-002-002-RND-0
 62
     1
  5
1F8
 10
408.200533
 20
529.600598
 30
0.0
 40
1.0
 50
270.0
 51
0.0
  0
ARC
  8
LC-002-002-RND-0
 62
     1
  5
1F9
 10
404.200533
 20
530.600598
 30
0.0
 40
2.0
 50
180.0
 51
270.0
  0
LINE
  8
LC-003-002-----0
 62
     1
  5
1FA
 10
402.700533
 20
537.600598
 30
0.0
 11
402.700533
 21
536.100598
 31
0.0
  0
ARC
  8
LC-002-002-RND-0
 62
     1
  5
1FB
 10
408.582499
 20
539.100598
 30
0.0
 40
1.0
 50
26.565051
 51
90.0
  0
LINE
  8
LC-003-002-----0
 62
     1
  5
1FC
 10
408.582499
 20
540.100598
 30
0.0
 11
492.200532
 21
540.100598
 31
0.0
  0
LINE
  8
LC-003-002-----0
 62
     1
  5
1FD
 10
402.700533
 20
535.100597
 30
0.0
 11
402.700533
 21
533.600598
 31
0.0
  0
LINE
  8
LC-003-002-----0
 62
     1
  5
1FE
 10
402.700533
 20
532.600597
 30
0.0
 11
402.700533
 21
531.100598
 31
0.0
  0
ARC
  8
LC-002-002-RND-0
 62
     1
  5
1FF
 10
413.576941
 20
532.729748
 30
0.0
 40
0.5
 50
229.398705
 51
26.565051
  0
ARC
  8
LC-002-002-RND-0
 62
     1
  5
200
 10
409.37909
 20
533.296542
 30
0.0
 40
0.5
 50
49.398705
 51
185.0
  0
LINE
  8
LC-003-002-----0
 62
     1
  5
201
 10
413.576941
 20
532.229748
 30
0.0
 11
492.200532
 21
532.229748
 31
0.0
  0
INSERT
  8
LC-004-005-----0
 62
     2
  5
209
  2
*X7
 10
0.0
 20
0.0
 30
0.0
  0
LINE
  8
LC-003-002-----0
 62
     1
  5
20A
 10
582.200532
 20
538.100598
 30
0.0
 11
581.700532
 21
537.600598
 31
0.0
  0
LINE
  8
LC-003-002-----0
 62
     1
  5
20B
 10
581.700532
 20
531.100598
 30
0.0
 11
582.200532
 21
530.600598
 31
0.0
  0
LINE
  8
LC-003-002-----0
 62
     1
  5
20C
 10
582.200532
 20
532.600598
 30
0.0
 11
581.700532
 21
532.100598
 31
0.0
  0
LINE
  8
LC-003-002-----0
 62
     1
  5
20D
 10
581.700532
 20
535.600598
 30
0.0
 11
582.200532
 21
535.100598
 31
0.0
  0
LINE
  8
LC-003-002-----0
 62
     1
  5
20E
 10
581.700532
 20
533.100598
 30
0.0
 11
582.200532
 21
532.600598
 31
0.0
  0
LINE
  8
LC-003-002-----0
 62
     1
  5
20F
 10
582.200532
 20
535.100598
 30
0.0
 11
581.700532
 21
534.600598
 31
0.0
  0
ARC
  8
LC-002-002-RND-0
 62
     1
  5
210
 10
580.200532
 20
538.100598
 30
0.0
 40
2.0
 50
0.0
 51
90.0
  0
LINE
  8
LC-003-002-----0
 62
     1
  5
211
 10
580.200532
 20
528.600598
 30
0.0
 11
576.200532
 21
528.600598
 31
0.0
  0
LINE
  8
LC-003-002-----0
 62
     1
  5
212
 10
575.200532
 20
529.600598
 30
0.0
 11
575.520072
 21
533.252965
 31
0.0
  0
LINE
  8
LC-003-002-----0
 62
     1
  5
213
 10
574.696579
 20
533.676171
 30
0.0
 11
571.149519
 21
532.350119
 31
0.0
  0
LINE
  8
LC-003-002-----0
 62
     1
  5
214
 10
570.37691
 20
532.953354
 30
0.0
 11
574.924139
 21
539.547811
 31
0.0
  0
LINE
  8
LC-003-002-----0
 62
     1
  5
215
 10
575.818566
 20
540.100598
 30
0.0
 11
580.200532
 21
540.100598
 31
0.0
  0
LINE
  8
LC-003-002-----0
 62
     1
  5
216
 10
576.200532
 20
528.600598
 30
0.0
 11
492.200532
 21
528.600598
 31
0.0
  0
ARC
  8
LC-002-002-RND-0
 62
     1
  5
217
 10
576.200532
 20
529.600598
 30
0.0
 40
1.0
 50
180.0
 51
270.0
  0
ARC
  8
LC-002-002-RND-0
 62
     1
  5
218
 10
580.200532
 20
530.600598
 30
0.0
 40
2.0
 50
270.0
 51
0.0
  0
LINE
  8
LC-003-002-----0
 62
     1
  5
219
 10
581.700532
 20
537.600598
 30
0.0
 11
581.700532
 21
535.600598
 31
0.0
  0
ARC
  8
LC-002-002-RND-0
 62
     1
  5
21A
 10
575.818566
 20
539.100598
 30
0.0
 40
1.0
 50
90.0
 51
153.434949
  0
LINE
  8
LC-003-002-----0
 62
     1
  5
21B
 10
575.818566
 20
540.100598
 30
0.0
 11
492.200532
 21
540.100598
 31
0.0
  0
LINE
  8
LC-003-002-----0
 62
     1
  5
21C
 10
581.700532
 20
534.600597
 30
0.0
 11
581.700532
 21
533.100598
 31
0.0
  0
LINE
  8
LC-003-002-----0
 62
     1
  5
21D
 10
581.700532
 20
532.100597
 30
0.0
 11
581.700532
 21
531.100598
 31
0.0
  0
ARC
  8
LC-002-002-RND-0
 62
     1
  5
21E
 10
570.824124
 20
532.729748
 30
0.0
 40
0.5
 50
153.434949
 51
310.601295
  0
ARC
  8
LC-002-002-RND-0
 62
     1
  5
21F
 10
575.021975
 20
533.296542
 30
0.0
 40
0.5
 50
355.0
 51
130.601295
  0
LINE
  8
LC-003-002-----0
 62
     1
  5
220
 10
570.824124
 20
532.229748
 30
0.0
 11
492.200532
 21
532.229748
 31
0.0
  0
INSERT
  8
LC-004-005-----0
 62
     2
  5
22A
  2
*X8
 10
0.0
 20
0.0
 30
0.0
  0
DIMENSION
  8
LC-005-003-----0
 62
     2
  5
248
  2
*D9
 10
492.200355
 20
330.767614
 30
0.0
 11
492.200355
 21
330.767614
 31
0.0
  1
%%c137
 13
559.718779
 23
394.397922
 33
0.0
 14
424.681931
 24
394.397922
 34
0.0
  3
LC-DIM-L-0140-01-02
  0
DIMENSION
  8
LC-005-003-----0
 62
     2
  5
259
  2
*D10
 10
660.48171
 20
510.612794
 30
0.0
 11
660.48171
 21
510.612794
 31
0.0
 13
577.200532
 23
553.600598
 33
0.0
 14
589.94616
 24
467.62499
 34
0.0
 50
90.0
  3
LC-DIM-L-0140-01-02
  0
DIMENSION
  8
LC-005-003-----0
 62
     2
  5
274
  2
*D11
 10
492.200532
 20
594.659614
 30
0.0
 11
492.200532
 21
594.659614
 31
0.0
  1
%%c<>
 13
411.200532
 23
553.600598
 33
0.0
 14
573.200532
 24
553.600598
 34
0.0
  3
LC-DIM-L-0140-01-02
  0
DIMENSION
  8
LC-005-003-----0
 62
     2
  5
290
  2
*D12
 10
717.087297
 20
473.99926
 30
0.0
 11
717.087297
 21
473.99926
 31
0.0
  1
159
 13
577.200532
 23
553.600598
 33
0.0
 14
559.718779
 24
394.397922
 34
0.0
 50
90.0
  3
LC-DIM-L-0140-02-02
  0
DIMENSION
  8
LC-005-003-----0
 62
     2
  5
2AA
  2
*D13
 10
603.876124
 20
568.898281
 30
0.0
 11
603.876124
 21
568.898281
 31
0.0
  1
30
 13
577.200532
 23
553.600598
 33
0.0
 14
595.604091
 24
584.195964
 34
0.0
 50
90.0
  3
LC-DIM-L-0140-02-02
  0
ARC
  8
LC-003-002-----0
 62
     1
  5
2AB
 10
911.046201
 20
489.797922
 30
0.0
 40
97.75
 50
187.346943
 51
292.653057
  0
ARC
  8
LC-003-002-----0
 62
     1
  5
2AC
 10
911.046201
 20
489.797922
 30
0.0
 40
98.75
 50
187.27214
 51
292.72786
  0
LINE
  8
LC-003-002-----0
 62
     1
  5
2AD
 10
726.322732
 20
477.297922
 30
0.0
 11
726.322732
 21
502.297922
 31
0.0
  0
LINE
  8
LC-003-002-----0
 62
     1
  5
2AE
 10
726.322732
 20
502.297922
 30
0.0
 11
818.38553
 21
502.297922
 31
0.0
  0
LINE
  8
LC-003-002-----0
 62
     1
  5
2AF
 10
726.322732
 20
477.297922
 30
0.0
 11
818.38553
 21
477.297922
 31
0.0
  0
LINE
  8
LC-008-002-----0
 62
     2
  5
2B1
 10
783.322732
 20
477.297922
 30
0.0
 11
783.322732
 21
502.297922
 31
0.0
  0
ARC
  8
LC-003-002-----0
 62
     1
  5
2B2
 10
911.046201
 20
489.797922
 30
0.0
 40
98.75
 50
67.27214
 51
172.72786
  0
ARC
  8
LC-003-002-----0
 62
     1
  5
2B3
 10
911.046201
 20
489.797922
 30
0.0
 40
97.75
 50
67.346943
 51
172.653057
  0
ARC
  8
LC-003-002-----0
 62
     1
  5
2B4
 10
911.046201
 20
489.797922
 30
0.0
 40
98.75
 50
307.27214
 51
52.72786
  0
ARC
  8
LC-003-002-----0
 62
     1
  5
2B5
 10
911.046201
 20
489.797922
 30
0.0
 40
97.75
 50
307.346943
 51
52.653057
  0
LINE
  8
LC-003-002-----0
 62
     1
  5
2B6
 10
1009.796201
 20
489.547922
 30
0.0
 11
1024.733702
 21
489.547922
 31
0.0
  0
LINE
  8
LC-003-002-----0
 62
     1
  5
2B7
 10
1006.496081
 20
464.481023
 30
0.0
 11
1020.924599
 21
460.614913
 31
0.0
  0
ARC
  8
LC-003-002-----0
 62
     1
  5
2B8
 10
911.046201
 20
489.797922
 30
0.0
 40
113.687776
 50
345.125374
 51
359.874626
  0
LINE
  8
LC-003-002-----0
 62
     1
  5
2B9
 10
1009.796201
 20
490.047922
 30
0.0
 11
1024.733702
 21
490.047922
 31
0.0
  0
LINE
  8
LC-003-002-----0
 62
     1
  5
2BA
 10
1006.366671
 20
515.597784
 30
0.0
 11
1020.79519
 21
519.463894
 31
0.0
  0
LINE
  8
LC-003-002-----0
 62
     1
  5
2BB
 10
996.441209
 20
539.389428
 30
0.0
 11
1009.377465
 21
546.858179
 31
0.0
  0
LINE
  8
LC-003-002-----0
 62
     1
  5
2BC
 10
980.696219
 20
559.801493
 30
0.0
 11
991.258627
 21
570.363902
 31
0.0
  0
LINE
  8
LC-003-002-----0
 62
     1
  5
2BD
 10
936.3631
 20
585.247802
 30
0.0
 11
940.22921
 21
599.67632
 31
0.0
  0
LINE
  8
LC-003-002-----0
 62
     1
  5
2BE
 10
910.796201
 20
588.547922
 30
0.0
 11
910.796201
 21
603.485423
 31
0.0
  0
LINE
  8
LC-003-002-----0
 62
     1
  5
2BF
 10
885.246339
 20
585.118393
 30
0.0
 11
881.380229
 21
599.546911
 31
0.0
  0
LINE
  8
LC-003-002-----0
 62
     1
  5
2C0
 10
861.454695
 20
575.192931
 30
0.0
 11
853.985944
 21
588.129186
 31
0.0
  0
LINE
  8
LC-003-002-----0
 62
     1
  5
2C1
 10
841.04263
 20
559.44794
 30
0.0
 11
830.480221
 21
570.010348
 31
0.0
  0
LINE
  8
LC-003-002-----0
 62
     1
  5
2C2
 10
825.401192
 20
538.956416
 30
0.0
 11
812.464937
 21
546.425166
 31
0.0
  0
LINE
  8
LC-003-002-----0
 62
     1
  5
2C3
 10
815.596321
 20
515.114821
 30
0.0
 11
801.167803
 21
518.980931
 31
0.0
  0
LINE
  8
LC-003-002-----0
 62
     1
  5
2C4
 10
815.72573
 20
463.99806
 30
0.0
 11
801.297212
 21
460.13195
 31
0.0
  0
LINE
  8
LC-003-002-----0
 62
     1
  5
2C5
 10
825.651192
 20
440.206416
 30
0.0
 11
812.714937
 21
432.737665
 31
0.0
  0
LINE
  8
LC-003-002-----0
 62
     1
  5
2C6
 10
841.396183
 20
419.794351
 30
0.0
 11
830.833774
 21
409.231942
 31
0.0
  0
LINE
  8
LC-003-002-----0
 62
     1
  5
2C7
 10
861.887707
 20
404.152913
 30
0.0
 11
854.418957
 21
391.216658
 31
0.0
  0
LINE
  8
LC-003-002-----0
 62
     1
  5
2C8
 10
885.729302
 20
394.348042
 30
0.0
 11
881.863192
 21
379.919524
 31
0.0
  0
LINE
  8
LC-003-002-----0
 62
     1
  5
2C9
 10
911.296201
 20
391.047922
 30
0.0
 11
911.296201
 21
376.110421
 31
0.0
  0
LINE
  8
LC-003-002-----0
 62
     1
  5
2CA
 10
936.846063
 20
394.477451
 30
0.0
 11
940.712173
 21
380.048933
 31
0.0
  0
LINE
  8
LC-003-002-----0
 62
     1
  5
2CB
 10
981.049772
 20
420.147904
 30
0.0
 11
991.612181
 21
409.585496
 31
0.0
  0
LINE
  8
LC-003-002-----0
 62
     1
  5
2CC
 10
996.691209
 20
440.639428
 30
0.0
 11
1009.627465
 21
433.170678
 31
0.0
  0
LINE
  8
LC-003-002-----0
 62
     1
  5
2CD
 10
1006.496081
 20
515.114821
 30
0.0
 11
1020.924599
 21
518.980931
 31
0.0
  0
LINE
  8
LC-003-002-----0
 62
     1
  5
2CE
 10
996.691209
 20
538.956416
 30
0.0
 11
1009.627465
 21
546.425166
 31
0.0
  0
LINE
  8
LC-003-002-----0
 62
     1
  5
2CF
 10
981.049772
 20
559.44794
 30
0.0
 11
991.612181
 21
570.010348
 31
0.0
  0
LINE
  8
LC-003-002-----0
 62
     1
  5
2D0
 10
936.846063
 20
585.118393
 30
0.0
 11
940.712173
 21
599.546911
 31
0.0
  0
LINE
  8
LC-003-002-----0
 62
     1
  5
2D1
 10
911.296201
 20
588.547922
 30
0.0
 11
911.296201
 21
603.485423
 31
0.0
  0
LINE
  8
LC-003-002-----0
 62
     1
  5
2D2
 10
885.729302
 20
585.247802
 30
0.0
 11
881.863192
 21
599.67632
 31
0.0
  0
LINE
  8
LC-003-002-----0
 62
     1
  5
2D3
 10
861.887707
 20
575.442931
 30
0.0
 11
854.418957
 21
588.379186
 31
0.0
  0
LINE
  8
LC-003-002-----0
 62
     1
  5
2D4
 10
841.396183
 20
559.801493
 30
0.0
 11
830.833774
 21
570.363902
 31
0.0
  0
LINE
  8
LC-003-002-----0
 62
     1
  5
2D5
 10
825.651192
 20
539.389428
 30
0.0
 11
812.714937
 21
546.858179
 31
0.0
  0
LINE
  8
LC-003-002-----0
 62
     1
  5
2D6
 10
815.72573
 20
515.597784
 30
0.0
 11
801.297212
 21
519.463894
 31
0.0
  0
LINE
  8
LC-003-002-----0
 62
     1
  5
2D7
 10
815.596321
 20
464.481023
 30
0.0
 11
801.167803
 21
460.614913
 31
0.0
  0
LINE
  8
LC-003-002-----0
 62
     1
  5
2D8
 10
825.401192
 20
440.639428
 30
0.0
 11
812.464937
 21
433.170678
 31
0.0
  0
LINE
  8
LC-003-002-----0
 62
     1
  5
2D9
 10
841.04263
 20
420.147904
 30
0.0
 11
830.480221
 21
409.585496
 31
0.0
  0
LINE
  8
LC-003-002-----0
 62
     1
  5
2DA
 10
861.454695
 20
404.402913
 30
0.0
 11
853.985944
 21
391.466658
 31
0.0
  0
LINE
  8
LC-003-002-----0
 62
     1
  5
2DB
 10
885.246339
 20
394.477451
 30
0.0
 11
881.380229
 21
380.048933
 31
0.0
  0
LINE
  8
LC-003-002-----0
 62
     1
  5
2DC
 10
910.796201
 20
391.047922
 30
0.0
 11
910.796201
 21
376.110421
 31
0.0
  0
LINE
  8
LC-003-002-----0
 62
     1
  5
2DD
 10
936.3631
 20
394.348042
 30
0.0
 11
940.22921
 21
379.919524
 31
0.0
  0
LINE
  8
LC-003-002-----0
 62
     1
  5
2DE
 10
980.696219
 20
419.794351
 30
0.0
 11
991.258627
 21
409.231942
 31
0.0
  0
LINE
  8
LC-003-002-----0
 62
     1
  5
2DF
 10
996.441209
 20
440.206416
 30
0.0
 11
1009.377465
 21
432.737665
 31
0.0
  0
LINE
  8
LC-003-002-----0
 62
     1
  5
2E0
 10
1006.366671
 20
463.99806
 30
0.0
 11
1020.79519
 21
460.13195
 31
0.0
  0
ARC
  8
LC-003-002-----0
 62
     1
  5
2E1
 10
911.046201
 20
489.797922
 30
0.0
 40
113.687776
 50
0.125374
 51
14.874626
  0
ARC
  8
LC-003-002-----0
 62
     1
  5
2E2
 10
911.046201
 20
489.797922
 30
0.0
 40
113.687776
 50
15.125374
 51
29.874626
  0
ARC
  8
LC-003-002-----0
 62
     1
  5
2E3
 10
911.046201
 20
489.797922
 30
0.0
 40
113.687776
 50
30.125374
 51
44.874626
  0
ARC
  8
LC-003-002-----0
 62
     1
  5
2E4
 10
911.046201
 20
489.797922
 30
0.0
 40
113.687776
 50
45.125374
 51
53.687552
  0
ARC
  8
LC-003-002-----0
 62
     1
  5
2E5
 10
911.046201
 20
489.797922
 30
0.0
 40
113.687776
 50
66.312448
 51
74.874626
  0
ARC
  8
LC-003-002-----0
 62
     1
  5
2E6
 10
911.046201
 20
489.797922
 30
0.0
 40
113.687776
 50
75.125374
 51
89.874626
  0
ARC
  8
LC-003-002-----0
 62
     1
  5
2E7
 10
911.046201
 20
489.797922
 30
0.0
 40
113.687776
 50
90.125374
 51
104.874626
  0
ARC
  8
LC-003-002-----0
 62
     1
  5
2E8
 10
911.046201
 20
489.797922
 30
0.0
 40
113.687776
 50
105.125374
 51
119.874626
  0
ARC
  8
LC-003-002-----0
 62
     1
  5
2E9
 10
911.046201
 20
489.797922
 30
0.0
 40
113.687776
 50
120.125374
 51
134.874626
  0
ARC
  8
LC-003-002-----0
 62
     1
  5
2EA
 10
911.046201
 20
489.797922
 30
0.0
 40
113.687776
 50
135.125374
 51
149.874626
  0
ARC
  8
LC-003-002-----0
 62
     1
  5
2EB
 10
911.046201
 20
489.797922
 30
0.0
 40
113.687776
 50
150.125374
 51
164.874626
  0
ARC
  8
LC-003-002-----0
 62
     1
  5
2EC
 10
911.046201
 20
489.797922
 30
0.0
 40
113.687776
 50
165.125374
 51
173.687552
  0
ARC
  8
LC-003-002-----0
 62
     1
  5
2ED
 10
911.046201
 20
489.797922
 30
0.0
 40
113.687776
 50
186.312448
 51
194.874626
  0
ARC
  8
LC-003-002-----0
 62
     1
  5
2EE
 10
911.046201
 20
489.797922
 30
0.0
 40
113.687776
 50
195.125374
 51
209.874626
  0
ARC
  8
LC-003-002-----0
 62
     1
  5
2EF
 10
911.046201
 20
489.797922
 30
0.0
 40
113.687776
 50
210.125374
 51
224.874626
  0
ARC
  8
LC-003-002-----0
 62
     1
  5
2F0
 10
911.046201
 20
489.797922
 30
0.0
 40
113.687776
 50
225.125374
 51
239.874626
  0
ARC
  8
LC-003-002-----0
 62
     1
  5
2F1
 10
911.046201
 20
489.797922
 30
0.0
 40
113.687776
 50
240.125374
 51
254.874626
  0
ARC
  8
LC-003-002-----0
 62
     1
  5
2F2
 10
911.046201
 20
489.797922
 30
0.0
 40
113.687776
 50
255.125374
 51
269.874626
  0
ARC
  8
LC-003-002-----0
 62
     1
  5
2F3
 10
911.046201
 20
489.797922
 30
0.0
 40
113.687776
 50
270.125374
 51
284.874626
  0
ARC
  8
LC-003-002-----0
 62
     1
  5
2F4
 10
911.046201
 20
489.797922
 30
0.0
 40
113.687776
 50
285.125374
 51
293.687552
  0
ARC
  8
LC-003-002-----0
 62
     1
  5
2F5
 10
911.046201
 20
489.797922
 30
0.0
 40
113.687776
 50
306.312448
 51
314.874626
  0
ARC
  8
LC-003-002-----0
 62
     1
  5
2F6
 10
911.046201
 20
489.797922
 30
0.0
 40
113.687776
 50
315.125374
 51
329.874626
  0
ARC
  8
LC-003-002-----0
 62
     1
  5
2F7
 10
911.046201
 20
489.797922
 30
0.0
 40
113.687776
 50
330.125374
 51
344.874626
  0
LINE
  8
LC-003-002-----0
 62
     1
  5
2F8
 10
1014.233253
 20
336.072705
 30
0.0
 11
992.582618
 21
323.572705
 31
0.0
  0
LINE
  8
LC-003-002-----0
 62
     1
  5
2F9
 10
992.582618
 20
323.572705
 30
0.0
 11
946.551219
 21
403.301427
 31
0.0
  0
LINE
  8
LC-003-002-----0
 62
     1
  5
2FA
 10
1014.233253
 20
336.072705
 30
0.0
 11
968.201854
 21
415.801427
 31
0.0
  0
LINE
  8
LC-008-002-----0
 62
     2
  5
2FB
 10
985.733253
 20
385.436153
 30
0.0
 11
964.082618
 21
372.936153
 31
0.0
  0
LINE
  8
LC-003-002-----0
 62
     1
  5
2FC
 10
992.582618
 20
656.023139
 30
0.0
 11
1014.233253
 21
643.523139
 31
0.0
  0
LINE
  8
LC-003-002-----0
 62
     1
  5
2FD
 10
1014.233253
 20
643.523139
 30
0.0
 11
968.201854
 21
563.794417
 31
0.0
  0
LINE
  8
LC-003-002-----0
 62
     1
  5
2FE
 10
992.582618
 20
656.023139
 30
0.0
 11
946.551219
 21
576.294417
 31
0.0
  0
LINE
  8
LC-008-002-----0
 62
     2
  5
2FF
 10
964.082618
 20
606.659691
 30
0.0
 11
985.733253
 21
594.159691
 31
0.0
  0
LINE
  8
LC-008-002-----0
 62
     2
  5
300
 10
816.208955
 20
502.297922
 30
0.0
 11
816.208955
 21
477.297922
 31
0.0
  0
LINE
  8
LC-008-002-----0
 62
     2
  5
301
 10
947.639506
 20
401.416458
 30
0.0
 11
969.290141
 21
413.916458
 31
0.0
  0
LINE
  8
LC-008-002-----0
 62
     2
  5
302
 10
969.290141
 20
565.679386
 30
0.0
 11
947.639506
 21
578.179386
 31
0.0
  0
LINE
  8
LC-003-002-----0
  6
DASHDOT
 62
     2
  5
304
 10
726.322732
 20
489.797922
 30
0.0
 11
1025.296201
 21
489.797922
 31
0.0
  0
LINE
  8
LC-003-002-----0
  6
DASHDOT
 62
     2
  5
305
 10
1003.407935
 20
649.773139
 30
0.0
 11
911.046201
 21
489.797922
 31
0.0
  0
LINE
  8
LC-003-002-----0
  6
DASHDOT
 62
     2
  5
306
 10
1003.407935
 20
329.822705
 30
0.0
 11
911.046201
 21
489.797922
 31
0.0
  0
LINE
  8
LC-003-002-----0
  6
DASHDOT
 62
     2
  5
307
 10
911.046201
 20
604.047922
 30
0.0
 11
911.046201
 21
375.547922
 31
0.0
  0
DIMENSION
  8
LC-005-003-----0
 62
     2
  5
31F
  2
*D14
 10
492.200355
 20
270.179614
 30
0.0
 11
492.200355
 21
270.179614
 31
0.0
  1
%%c160
 13
412.181925
 23
400.397922
 33
0.0
 14
572.218786
 24
400.397922
 34
0.0
  3
LC-DIM-L-0140-02-02
  0
ENDSEC
  0
EOF
