  0
SECTION
  2
HEADER
  9
$ACADVER
  1
AC1015
  9
$ACADMAINTVER
 70
     6
  9
$DWGCODEPAGE
  3
ANSI_1252
  9
$INSBASE
 10
0.0
 20
0.0
 30
0.0
  9
$EXTMIN
 10
-210.0
 20
-148.5
 30
0.0
  9
$EXTMAX
 10
630.0
 20
445.5
 30
0.0
  9
$LIMMIN
 10
-210.0
 20
-148.5
  9
$LIMMAX
 10
630.0
 20
445.5
  9
$ORTHOMODE
 70
     0
  9
$REGENMODE
 70
     1
  9
$FILLMODE
 70
     1
  9
$QTEXTMODE
 70
     0
  9
$MIRRTEXT
 70
     1
  9
$LTSCALE
 40
2.0
  9
$ATTMODE
 70
     1
  9
$TEXTSIZE
 40
2.5
  9
$TRACEWID
 40
1.0
  9
$TEXTSTYLE
  7
Standard
  9
$CLAYER
  8
0
  9
$CELTYPE
  6
ByLayer
  9
$CECOLOR
 62
     7
  9
$CELTSCALE
 40
1.0
  9
$DISPSILH
 70
     0
  9
$DIMSCALE
 40
2.0
  9
$DIMASZ
 40
3.5
  9
$DIMEXO
 40
0.625
  9
$DIMDLI
 40
3.75
  9
$DIMRND
 40
0.0
  9
$DIMDLE
 40
0.0
  9
$DIMEXE
 40
1.25
  9
$DIMTP
 40
0.0
  9
$DIMTM
 40
0.0
  9
$DIMTXT
 40
3.5
  9
$DIMCEN
 40
2.5
  9
$DIMTSZ
 40
0.0
  9
$DIMTOL
 70
     0
  9
$DIMLIM
 70
     0
  9
$DIMTIH
 70
     0
  9
$DIMTOH
 70
     0
  9
$DIMSE1
 70
     0
  9
$DIMSE2
 70
     0
  9
$DIMTAD
 70
     1
  9
$DIMZIN
 70
     8
  9
$DIMBLK
  1

  9
$DIMASO
 70
     1
  9
$DIMSHO
 70
     1
  9
$DIMPOST
  1

  9
$DIMAPOST
  1

  9
$DIMALT
 70
     0
  9
$DIMALTD
 70
     3
  9
$DIMALTF
 40
0.03937
  9
$DIMLFAC
 40
1.0
  9
$DIMTOFL
 70
     1
  9
$DIMTVP
 40
0.0
  9
$DIMTIX
 70
     0
  9
$DIMSOXD
 70
     0
  9
$DIMSAH
 70
     0
  9
$DIMBLK1
  1

  9
$DIMBLK2
  1

  9
$DIMSTYLE
  2
ISO-25
  9
$DIMCLRD
 70
     0
  9
$DIMCLRE
 70
     0
  9
$DIMCLRT
 70
     0
  9
$DIMTFAC
 40
1.0
  9
$DIMGAP
 40
0.625
  9
$DIMJUST
 70
     0
  9
$DIMSD1
 70
     0
  9
$DIMSD2
 70
     0
  9
$DIMTOLJ
 70
     0
  9
$DIMTZIN
 70
     8
  9
$DIMALTZ
 70
     0
  9
$DIMALTTZ
 70
     0
  9
$DIMUPT
 70
     0
  9
$DIMDEC
 70
     2
  9
$DIMTDEC
 70
     2
  9
$DIMALTU
 70
     2
  9
$DIMALTTD
 70
     3
  9
$DIMTXSTY
  7
Standard
  9
$DIMAUNIT
 70
     0
  9
$DIMADEC
 70
     0
  9
$DIMALTRND
 40
0.0
  9
$DIMAZIN
 70
     0
  9
$DIMDSEP
 70
    44
  9
$DIMATFIT
 70
     3
  9
$DIMFRAC
 70
     0
  9
$DIMLDRBLK
  1

  9
$DIMLUNIT
 70
     2
  9
$DIMLWD
 70
    -2
  9
$DIMLWE
 70
    -2
  9
$DIMTMOVE
 70
     0
  9
$LUNITS
 70
     2
  9
$LUPREC
 70
     4
  9
$SKETCHINC
 40
1.0
  9
$FILLETRAD
 40
10.0
  9
$AUNITS
 70
     0
  9
$AUPREC
 70
     0
  9
$MENU
  1
.
  9
$ELEVATION
 40
0.0
  9
$PELEVATION
 40
0.0
  9
$THICKNESS
 40
0.0
  9
$LIMCHECK
 70
     0
  9
$CHAMFERA
 40
10.0
  9
$CHAMFERB
 40
10.0
  9
$CHAMFERC
 40
20.0
  9
$CHAMFERD
 40
0.0
  9
$SKPOLY
 70
     0
  9
$TDCREATE
 40
2455300.585241563
  9
$TDUCREATE
 40
2455300.501908229
  9
$TDUPDATE
 40
2455300.585241574
  9
$TDUUPDATE
 40
2455300.501908241
  9
$TDINDWG
 40
0.0000000116
  9
$TDUSRTIMER
 40
0.0000000116
  9
$USRTIMER
 70
     1
  9
$ANGBASE
 50
0.0
  9
$ANGDIR
 70
     0
  9
$PDMODE
 70
     0
  9
$PDSIZE
 40
0.0
  9
$PLINEWID
 40
0.0
  9
$SPLFRAME
 70
     0
  9
$SPLINETYPE
 70
     6
  9
$SPLINESEGS
 70
     8
  9
$HANDSEED
  5
237
  9
$SURFTAB1
 70
     6
  9
$SURFTAB2
 70
     6
  9
$SURFTYPE
 70
     6
  9
$SURFU
 70
     6
  9
$SURFV
 70
     6
  9
$UCSBASE
  2

  9
$UCSNAME
  2

  9
$UCSORG
 10
0.0
 20
0.0
 30
0.0
  9
$UCSXDIR
 10
1.0
 20
0.0
 30
0.0
  9
$UCSYDIR
 10
0.0
 20
1.0
 30
0.0
  9
$UCSORTHOREF
  2

  9
$UCSORTHOVIEW
 70
     0
  9
$UCSORGTOP
 10
0.0
 20
0.0
 30
0.0
  9
$UCSORGBOTTOM
 10
0.0
 20
0.0
 30
0.0
  9
$UCSORGLEFT
 10
0.0
 20
0.0
 30
0.0
  9
$UCSORGRIGHT
 10
0.0
 20
0.0
 30
0.0
  9
$UCSORGFRONT
 10
0.0
 20
0.0
 30
0.0
  9
$UCSORGBACK
 10
0.0
 20
0.0
 30
0.0
  9
$PUCSBASE
  2

  9
$PUCSNAME
  2

  9
$PUCSORG
 10
0.0
 20
0.0
 30
0.0
  9
$PUCSXDIR
 10
1.0
 20
0.0
 30
0.0
  9
$PUCSYDIR
 10
0.0
 20
1.0
 30
0.0
  9
$PUCSORTHOREF
  2

  9
$PUCSORTHOVIEW
 70
     0
  9
$PUCSORGTOP
 10
0.0
 20
0.0
 30
0.0
  9
$PUCSORGBOTTOM
 10
0.0
 20
0.0
 30
0.0
  9
$PUCSORGLEFT
 10
0.0
 20
0.0
 30
0.0
  9
$PUCSORGRIGHT
 10
0.0
 20
0.0
 30
0.0
  9
$PUCSORGFRONT
 10
0.0
 20
0.0
 30
0.0
  9
$PUCSORGBACK
 10
0.0
 20
0.0
 30
0.0
  9
$USERI1
 70
     0
  9
$USERI2
 70
     0
  9
$USERI3
 70
     0
  9
$USERI4
 70
     0
  9
$USERI5
 70
     0
  9
$USERR1
 40
0.0
  9
$USERR2
 40
0.0
  9
$USERR3
 40
0.0
  9
$USERR4
 40
0.0
  9
$USERR5
 40
0.0
  9
$WORLDVIEW
 70
     1
  9
$SHADEDGE
 70
     3
  9
$SHADEDIF
 70
    70
  9
$TILEMODE
 70
     1
  9
$MAXACTVP
 70
    64
  9
$PINSBASE
 10
0.0
 20
0.0
 30
0.0
  9
$PLIMCHECK
 70
     0
  9
$PEXTMIN
 10
-210.0
 20
-148.5
 30
0.0
  9
$PEXTMAX
 10
630.0
 20
445.5
 30
0.0
  9
$PLIMMIN
 10
-210.0
 20
-148.5
  9
$PLIMMAX
 10
630.0
 20
445.5
  9
$UNITMODE
 70
     0
  9
$VISRETAIN
 70
     1
  9
$PLINEGEN
 70
     0
  9
$PSLTSCALE
 70
     1
  9
$TREEDEPTH
 70
  3020
  9
$CMLSTYLE
  2
Standard
  9
$CMLJUST
 70
     0
  9
$CMLSCALE
 40
20.0
  9
$PROXYGRAPHICS
 70
     1
  9
$MEASUREMENT
 70
     1
  9
$CELWEIGHT
370
    -1
  9
$ENDCAPS
280
     0
  9
$JOINSTYLE
280
     0
  9
$LWDISPLAY
290
     0
  9
$INSUNITS
 70
     4
  9
$HYPERLINKBASE
  1

  9
$STYLESHEET
  1

  9
$XEDIT
290
     1
  9
$CEPSNTYPE
380
     0
  9
$PSTYLEMODE
290
     1
  9
$FINGERPRINTGUID
  2
{FAEB1C30-E019-11D5-929B-00C0DF256EC4}
  9
$VERSIONGUID
  2
{FAEB1C32-E019-11D5-929B-00C0DF256EC4}
  9
$EXTNAMES
290
     1
  9
$PSVPSCALE
 40
0.0
  9
$OLESTARTUP
290
     0
  0
ENDSEC
  0
SECTION
  2
CLASSES
  0
CLASS
  1
ACDBDICTIONARYWDFLT
  2
AcDbDictionaryWithDefault
  3
ObjectDBX Classes
 90
        0
280
     0
281
     0
  0
CLASS
  1
ACDBPLACEHOLDER
  2
AcDbPlaceHolder
  3
ObjectDBX Classes
 90
        0
280
     0
281
     0
  0
CLASS
  1
LAYOUT
  2
AcDbLayout
  3
ObjectDBX Classes
 90
        0
280
     0
281
     0
  0
ENDSEC
  0
SECTION
  2
TABLES
  0
TABLE
  2
VPORT
  5
8
330
0
100
AcDbSymbolTable
 70
     2
  0
VPORT
  5
29
330
8
100
AcDbSymbolTableRecord
100
AcDbViewportTableRecord
  2
*ACTIVE
 70
     0
 10
0.0
 20
0.0
 11
1.0
 21
1.0
 12
210.0
 22
148.5
 13
0.0
 23
0.0
 14
1.0
 24
1.0
 15
0.0
 25
0.0
 16
0.0
 26
0.0
 36
1.0
 17
0.0
 27
0.0
 37
0.0
 40
594.0
 41
1.414141
 42
50.0
 43
0.0
 44
0.0
 50
0.0
 51
0.0
 71
    16
 72
   100
 73
     1
 74
     0
 75
     0
 76
     0
 77
     0
 78
     0
281
     0
 65
     0
110
0.0
120
0.0
130
0.0
111
1.0
121
0.0
131
0.0
112
0.0
122
1.0
132
0.0
 79
     0
146
0.0
  0
ENDTAB
  0
TABLE
  2
LTYPE
  5
5
330
0
100
AcDbSymbolTable
 70
     3
  0
LTYPE
  5
14
330
5
100
AcDbSymbolTableRecord
100
AcDbLinetypeTableRecord
  2
ByBlock
 70
     0
  3

 72
    65
 73
     0
 40
0.0
  0
LTYPE
  5
15
330
5
100
AcDbSymbolTableRecord
100
AcDbLinetypeTableRecord
  2
ByLayer
 70
     0
  3

 72
    65
 73
     0
 40
0.0
  0
LTYPE
  5
16
330
5
100
AcDbSymbolTableRecord
100
AcDbLinetypeTableRecord
  2
Continuous
 70
     0
  3
Solid line
 72
    65
 73
     0
 40
0.0
  0
LTYPE
  5
2A
330
5
100
AcDbSymbolTableRecord
100
AcDbLinetypeTableRecord
  2
DASHED
 70
     0
  3
__ __ __ __ __
 72
    65
 73
     2
 40
6.25
 49
5.0
 74
     4
 75
     0
340
0
 46
1.0
 50
0.0
 44
0.0
 45
0.0
 49
-1.25
 74
     4
 75
     0
340
0
 46
1.0
 50
0.0
 44
0.0
 45
0.0
  0
LTYPE
  5
1E5
330
5
100
AcDbSymbolTableRecord
100
AcDbLinetypeTableRecord
  2
DASHDOT
 70
     0
  3
__ . __ . __ . __ . __
 72
    65
 73
     4
 40
7.5
 49
5.0
 74
     4
 75
     0
340
0
 46
1.0
 50
0.0
 44
0.0
 45
0.0
 49
-1.25
 74
     4
 75
     0
340
0
 46
1.0
 50
0.0
 44
0.0
 45
0.0
 49
0.0
 74
     4
 75
     0
340
0
 46
1.0
 50
0.0
 44
0.0
 45
0.0
 49
-1.25
 74
     4
 75
     0
340
0
 46
1.0
 50
0.0
 44
0.0
 45
0.0
  0
ENDTAB
  0
TABLE
  2
LAYER
  5
2
330
0
100
AcDbSymbolTable
 70
    11
  0
LAYER
  5
10
330
2
100
AcDbSymbolTableRecord
100
AcDbLayerTableRecord
  2
0
 70
     0
 62
     7
  6
Continuous
370
    -3
390
F
  0
LAYER
  5
2B
330
2
100
AcDbSymbolTableRecord
100
AcDbLayerTableRecord
  2
LC-INFO-1-2-mm-A3-0
 70
     1
 62
     7
  6
ByBlock
370
    -3
390
F
  0
LAYER
  5
2C
330
2
100
AcDbSymbolTableRecord
100
AcDbLayerTableRecord
  2
LC-CUT-HIDDEN
 70
     0
 62
     7
  6
DASHED
370
    -3
390
F
  0
LAYER
  5
2D
330
2
100
AcDbSymbolTableRecord
100
AcDbLayerTableRecord
  2
LC-VIEWPORT
 70
     0
 62
     7
  6
ByBlock
370
    -3
390
F
  0
LAYER
  5
2E
330
2
100
AcDbSymbolTableRecord
100
AcDbLayerTableRecord
  2
LC-3D-HIDDEN
 70
     0
 62
     9
  6
DASHED
370
    -3
390
F
  0
LAYER
  5
30
330
2
100
AcDbSymbolTableRecord
100
AcDbLayerTableRecord
  2
LC-001-002-----0
 70
     0
 62
     1
  6
ByBlock
370
    -3
390
F
  0
LAYER
  5
4C
330
2
100
AcDbSymbolTableRecord
100
AcDbLayerTableRecord
  2
LC-002-003-----0
 70
     0
 62
     2
  6
ByBlock
370
    -3
390
F
  0
LAYER
  5
4E
330
2
100
AcDbSymbolTableRecord
100
AcDbLayerTableRecord
  2
Defpoints
 70
     0
 62
     7
  6
Continuous
290
     0
370
    -3
390
F
  0
LAYER
  5
D8
330
2
100
AcDbSymbolTableRecord
100
AcDbLayerTableRecord
  2
LC-003-002-RND-0
 70
     0
 62
     1
  6
ByBlock
370
    -3
390
F
  0
LAYER
  5
11F
330
2
100
AcDbSymbolTableRecord
100
AcDbLayerTableRecord
  2
LC-004-005-----0
 70
     0
 62
     2
  6
ByBlock
370
    -3
390
F
  0
LAYER
  5
1D5
330
2
100
AcDbSymbolTableRecord
100
AcDbLayerTableRecord
  2
LC-005-002-___-0
 70
     0
 62
     2
  6
DASHED
370
    -3
390
F
  0
ENDTAB
  0
TABLE
  2
STYLE
  5
3
330
0
100
AcDbSymbolTable
 70
     3
  0
STYLE
  5
11
330
3
100
AcDbSymbolTableRecord
100
AcDbTextStyleTableRecord
  2
Standard
 70
     0
 40
0.0
 41
1.0
 50
0.0
 71
     0
 42
2.5
  3
txt
  4

  0
STYLE
  5
2F
330
3
100
AcDbSymbolTableRecord
100
AcDbTextStyleTableRecord
  2
LCTX15-400-0-0-Arial
 70
     0
 40
0.0
 41
0.9
 50
0.0
 71
     0
 42
3.5
  3

  4

1001
ACAD
1000
Arial
1071
 16777218
  0
STYLE
  5
4A
330
3
100
AcDbSymbolTableRecord
100
AcDbTextStyleTableRecord
  2
LCTX15-400-0-0pDIN-Schrift
 70
     0
 40
2.5
 41
0.8
 50
15.0
 71
     0
 42
3.5
  3
STANDARD
  4

  0
ENDTAB
  0
TABLE
  2
VIEW
  5
6
330
0
100
AcDbSymbolTable
 70
     0
  0
ENDTAB
  0
TABLE
  2
UCS
  5
7
330
0
100
AcDbSymbolTable
 70
     0
  0
ENDTAB
  0
TABLE
  2
APPID
  5
9
330
0
100
AcDbSymbolTable
 70
     1
  0
APPID
  5
12
330
9
100
AcDbSymbolTableRecord
100
AcDbRegAppTableRecord
  2
ACAD
 70
     0
  0
ENDTAB
  0
TABLE
  2
DIMSTYLE
  5
A
330
0
100
AcDbSymbolTable
 70
     3
100
AcDbDimStyleTable
  0
DIMSTYLE
105
27
330
A
100
AcDbSymbolTableRecord
100
AcDbDimStyleTableRecord
  2
ISO-25
 70
     0
 41
2.5
 42
0.625
 43
3.75
 44
1.25
 73
     0
 74
     0
 77
     1
 78
     8
140
2.5
141
2.5
143
0.03937
147
0.625
171
     3
172
     1
271
     2
272
     2
274
     3
278
    44
283
     0
284
     8
340
11
  0
DIMSTYLE
105
4B
102
{ACAD_REACTORS
330
4D
330
21A
330
228
102
}
330
A
100
AcDbSymbolTableRecord
100
AcDbDimStyleTableRecord
  2
LC-DIM-L-0140-02-02
 70
     0
 40
2.0
 41
14.0
 42
0.0
 43
7.5
 44
1.8
 73
     0
 74
     0
 77
     1
 78
     8
 79
     2
140
14.0
141
0.0
146
0.71
147
1.5
176
     2
177
     2
178
     2
179
     2
271
     2
278
    44
289
     1
340
4A
  0
DIMSTYLE
105
1A6
102
{ACAD_REACTORS
330
1A7
102
}
330
A
100
AcDbSymbolTableRecord
100
AcDbDimStyleTableRecord
  2
LC-DIM-L-0140-01-02
 70
     0
 40
2.0
 41
14.0
 42
0.0
 43
7.5
 44
1.8
 73
     0
 74
     0
 77
     1
 78
     8
 79
     2
140
14.0
141
0.0
146
0.71
147
1.5
176
     2
177
     2
178
     2
179
     1
271
     1
278
    44
289
     1
340
4A
  0
ENDTAB
  0
TABLE
  2
BLOCK_RECORD
  5
1
330
0
100
AcDbSymbolTable
 70
     6
  0
BLOCK_RECORD
  5
1F
330
1
100
AcDbSymbolTableRecord
100
AcDbBlockTableRecord
  2
*Model_Space
340
22
  0
BLOCK_RECORD
  5
1B
330
1
100
AcDbSymbolTableRecord
100
AcDbBlockTableRecord
  2
*Paper_Space
340
1E
  0
BLOCK_RECORD
  5
23
330
1
100
AcDbSymbolTableRecord
100
AcDbBlockTableRecord
  2
*Paper_Space0
340
26
  0
BLOCK_RECORD
  5
4F
330
1
100
AcDbSymbolTableRecord
100
AcDbBlockTableRecord
  2
*D1
340
0
  0
BLOCK_RECORD
  5
11C
330
1
100
AcDbSymbolTableRecord
100
AcDbBlockTableRecord
  2
*X12
340
0
102
{BLKREFS
331
154
102
}
  0
BLOCK_RECORD
  5
1A8
330
1
100
AcDbSymbolTableRecord
100
AcDbBlockTableRecord
  2
*D3
340
0
  0
BLOCK_RECORD
  5
21B
330
1
100
AcDbSymbolTableRecord
100
AcDbBlockTableRecord
  2
*D4
340
0
  0
BLOCK_RECORD
  5
229
330
1
100
AcDbSymbolTableRecord
100
AcDbBlockTableRecord
  2
*D5
340
0
  0
ENDTAB
  0
ENDSEC
  0
SECTION
  2
BLOCKS
  0
BLOCK
  5
20
330
1F
100
AcDbEntity
  8
0
100
AcDbBlockBegin
  2
*Model_Space
 70
     0
 71
     0
 10
0.0
 20
0.0
 30
0.0
  3
*Model_Space
  1

  0
ENDBLK
  5
21
330
1F
100
AcDbEntity
  8
0
100
AcDbBlockEnd
  0
BLOCK
  5
1C
330
1B
100
AcDbEntity
 67
     1
  8
0
100
AcDbBlockBegin
  2
*Paper_Space
 70
     0
 71
     0
 10
0.0
 20
0.0
 30
0.0
  3
*Paper_Space
  1

  0
ENDBLK
  5
1D
330
1B
100
AcDbEntity
 67
     1
  8
0
100
AcDbBlockEnd
  0
BLOCK
  5
24
330
23
100
AcDbEntity
  8
0
100
AcDbBlockBegin
  2
*Paper_Space0
 70
     0
 71
     0
 10
0.0
 20
0.0
 30
0.0
  3
*Paper_Space0
  1

  0
ENDBLK
  5
25
330
23
100
AcDbEntity
  8
0
100
AcDbBlockEnd
  0
BLOCK
  5
5A
330
4F
100
AcDbEntity
  8
0
100
AcDbBlockBegin
  2
*D1
 70
     1
 71
     0
 10
0.0
 20
0.0
 30
0.0
  3
*D1
  1

  0
LINE
  5
50
330
4F
100
AcDbEntity
  8
LC-002-003-----0
 62
     2
370
    -2
100
AcDbLine
 10
119.774219
 20
148.980096
 30
0.0
 11
202.987307
 21
148.980096
 31
0.0
  0
LINE
  5
51
330
4F
100
AcDbEntity
  8
LC-002-003-----0
 62
     2
370
    -2
100
AcDbLine
 10
104.274176
 20
180.980119
 30
0.0
 11
202.987307
 21
180.980119
 31
0.0
  0
LINE
  5
52
330
4F
100
AcDbEntity
  8
LC-002-003-----0
 62
     2
370
    -2
100
AcDbLine
 10
199.387307
 20
120.980096
 30
0.0
 11
199.387307
 21
92.980096
 31
0.0
  0
LINE
  5
53
330
4F
100
AcDbEntity
  8
LC-002-003-----0
 62
     2
370
    -2
100
AcDbLine
 10
199.387307
 20
208.980119
 30
0.0
 11
199.387307
 21
220.130226
 31
0.0
  0
SOLID
  5
54
330
4F
100
AcDbEntity
  8
LC-002-003-----0
 62
     2
100
AcDbTrace
 10
204.053974
 20
120.980096
 30
0.0
 11
194.72064
 21
120.980096
 31
0.0
 12
199.387307
 22
148.980096
 32
0.0
 13
199.387307
 23
148.980096
 33
0.0
  0
SOLID
  5
55
330
4F
100
AcDbEntity
  8
LC-002-003-----0
 62
     2
100
AcDbTrace
 10
194.72064
 20
208.980119
 30
0.0
 11
204.053974
 21
208.980119
 31
0.0
 12
199.387307
 22
180.980119
 32
0.0
 13
199.387307
 23
180.980119
 33
0.0
  0
MTEXT
  5
56
330
4F
100
AcDbEntity
  8
LC-002-003-----0
 62
     2
100
AcDbMText
 10
168.587307
 20
197.208
 30
0.0
 40
28.0
 41
0.0
 71
     5
 72
     1
  1
\A1;32
  7
LCTX15-400-0-0pDIN-Schrift
 11
6.123031769111886E-17
 21
1.0
 31
0.0
 73
     1
 44
1.0
  0
POINT
  5
57
330
4F
100
AcDbEntity
  8
Defpoints
 62
     0
100
AcDbPoint
 10
119.774219
 20
148.980096
 30
0.0
  0
POINT
  5
58
330
4F
100
AcDbEntity
  8
Defpoints
 62
     0
100
AcDbPoint
 10
104.274176
 20
180.980119
 30
0.0
  0
POINT
  5
59
330
4F
100
AcDbEntity
  8
Defpoints
 62
     0
100
AcDbPoint
 10
199.387307
 20
180.980119
 30
0.0
  0
ENDBLK
  5
5B
330
4F
100
AcDbEntity
  8
0
100
AcDbBlockEnd
  0
BLOCK
  5
11D
330
11C
100
AcDbEntity
  8
0
100
AcDbBlockBegin
  2
*X12
 70
     1
 71
     0
 10
0.0
 20
0.0
 30
0.0
  3
*X12
  1

  4
*X1
  0
LINE
  5
120
330
11C
100
AcDbEntity
  8
LC-004-005-----0
 62
     7
370
    25
100
AcDbLine
 10
111.495148
 20
119.98043
 30
0.0
 11
113.327917
 21
121.813198
 31
0.0
  0
LINE
  5
121
330
11C
100
AcDbEntity
  8
LC-004-005-----0
 62
     7
370
    25
100
AcDbLine
 10
108.772352
 20
120.08606
 30
0.0
 11
111.774516
 21
123.088224
 31
0.0
  0
LINE
  5
122
330
11C
100
AcDbEntity
  8
LC-004-005-----0
 62
     7
370
    25
100
AcDbLine
 10
108.772568
 20
122.914704
 30
0.0
 11
111.774512
 21
125.916647
 31
0.0
  0
LINE
  5
123
330
11C
100
AcDbEntity
  8
LC-004-005-----0
 62
     7
370
    25
100
AcDbLine
 10
108.772785
 20
125.743348
 30
0.0
 11
111.774508
 21
128.745071
 31
0.0
  0
LINE
  5
124
330
11C
100
AcDbEntity
  8
LC-004-005-----0
 62
     7
370
    25
100
AcDbLine
 10
108.773001
 20
128.571991
 30
0.0
 11
111.774504
 21
131.573494
 31
0.0
  0
LINE
  5
125
330
11C
100
AcDbEntity
  8
LC-004-005-----0
 62
     7
370
    25
100
AcDbLine
 10
108.773218
 20
131.400635
 30
0.0
 11
111.7745
 21
134.401917
 31
0.0
  0
LINE
  5
126
330
11C
100
AcDbEntity
  8
LC-004-005-----0
 62
     7
370
    25
100
AcDbLine
 10
108.773435
 20
134.229279
 30
0.0
 11
111.774496
 21
137.23034
 31
0.0
  0
LINE
  5
127
330
11C
100
AcDbEntity
  8
LC-004-005-----0
 62
     7
370
    25
100
AcDbLine
 10
108.773651
 20
137.057922
 30
0.0
 11
111.774492
 21
140.058764
 31
0.0
  0
LINE
  5
128
330
11C
100
AcDbEntity
  8
LC-004-005-----0
 62
     7
370
    25
100
AcDbLine
 10
121.954761
 20
150.239033
 30
0.0
 11
122.77419
 21
151.058461
 31
0.0
  0
LINE
  5
129
330
11C
100
AcDbEntity
  8
LC-004-005-----0
 62
     7
370
    25
100
AcDbLine
 10
108.773868
 20
139.886566
 30
0.0
 11
111.774488
 21
142.887187
 31
0.0
  0
LINE
  5
12A
330
11C
100
AcDbEntity
  8
LC-004-005-----0
 62
     7
370
    25
100
AcDbLine
 10
117.867408
 20
148.980106
 30
0.0
 11
122.774189
 21
153.886888
 31
0.0
  0
LINE
  5
12B
330
11C
100
AcDbEntity
  8
LC-004-005-----0
 62
     7
370
    25
100
AcDbLine
 10
108.774084
 20
142.71521
 30
0.0
 11
111.774485
 21
145.71561
 31
0.0
  0
LINE
  5
12C
330
11C
100
AcDbEntity
  8
LC-004-005-----0
 62
     7
370
    25
100
AcDbLine
 10
115.038981
 20
148.980106
 30
0.0
 11
122.536635
 21
156.477761
 31
0.0
  0
LINE
  5
12D
330
11C
100
AcDbEntity
  8
LC-004-005-----0
 62
     7
370
    25
100
AcDbLine
 10
108.774301
 20
145.543853
 30
0.0
 11
121.50932
 21
158.278872
 31
0.0
  0
LINE
  5
12E
330
11C
100
AcDbEntity
  8
LC-004-005-----0
 62
     7
370
    25
100
AcDbLine
 10
108.353101
 20
147.951081
 30
0.0
 11
119.888083
 21
159.486063
 31
0.0
  0
LINE
  5
12F
330
11C
100
AcDbEntity
  8
LC-004-005-----0
 62
     7
370
    25
100
AcDbLine
 10
107.262092
 20
149.688498
 30
0.0
 11
117.565821
 21
159.992228
 31
0.0
  0
LINE
  5
130
330
11C
100
AcDbEntity
  8
LC-004-005-----0
 62
     7
370
    25
100
AcDbLine
 10
107.034544
 20
152.289378
 30
0.0
 11
114.964941
 21
160.219775
 31
0.0
  0
LINE
  5
131
330
11C
100
AcDbEntity
  8
LC-004-005-----0
 62
     7
370
    25
100
AcDbLine
 10
106.806997
 20
154.890258
 30
0.0
 11
112.364061
 21
160.447322
 31
0.0
  0
LINE
  5
132
330
11C
100
AcDbEntity
  8
LC-004-005-----0
 62
     7
370
    25
100
AcDbLine
 10
106.579449
 20
157.491137
 30
0.0
 11
109.763182
 21
160.67487
 31
0.0
  0
LINE
  5
133
330
11C
100
AcDbEntity
  8
LC-004-005-----0
 62
     7
370
    25
100
AcDbLine
 10
105.312745
 20
159.052861
 30
0.0
 11
107.162302
 21
160.902417
 31
0.0
  0
LINE
  5
134
330
11C
100
AcDbEntity
  8
LC-004-005-----0
 62
     7
370
    25
100
AcDbLine
 10
104.274203
 20
160.842746
 30
0.0
 11
106.2742
 21
162.842743
 31
0.0
  0
LINE
  5
135
330
11C
100
AcDbEntity
  8
LC-004-005-----0
 62
     7
370
    25
100
AcDbLine
 10
104.274199
 20
163.671169
 30
0.0
 11
106.274197
 21
165.671166
 31
0.0
  0
LINE
  5
136
330
11C
100
AcDbEntity
  8
LC-004-005-----0
 62
     7
370
    25
100
AcDbLine
 10
104.274195
 20
166.499592
 30
0.0
 11
106.274193
 21
168.499589
 31
0.0
  0
LINE
  5
137
330
11C
100
AcDbEntity
  8
LC-004-005-----0
 62
     7
370
    25
100
AcDbLine
 10
104.274192
 20
169.328015
 30
0.0
 11
106.274189
 21
171.328013
 31
0.0
  0
LINE
  5
138
330
11C
100
AcDbEntity
  8
LC-004-005-----0
 62
     7
370
    25
100
AcDbLine
 10
104.274188
 20
172.156439
 30
0.0
 11
106.274185
 21
174.156436
 31
0.0
  0
LINE
  5
139
330
11C
100
AcDbEntity
  8
LC-004-005-----0
 62
     7
370
    25
100
AcDbLine
 10
104.274184
 20
174.984862
 30
0.0
 11
106.274181
 21
176.984859
 31
0.0
  0
LINE
  5
13A
330
11C
100
AcDbEntity
  8
LC-004-005-----0
 62
     7
370
    25
100
AcDbLine
 10
104.27418
 20
177.813285
 30
0.0
 11
106.274177
 21
179.813282
 31
0.0
  0
LINE
  5
13B
330
11C
100
AcDbEntity
  8
LC-004-005-----0
 62
     7
370
    25
100
AcDbLine
 10
104.274176
 20
180.641708
 30
0.0
 11
104.612585
 21
180.980118
 31
0.0
  0
LINE
  5
13C
330
11C
100
AcDbEntity
  8
LC-004-005-----0
 62
     7
370
    25
100
AcDbLine
 10
-35.583496
 20
119.979996
 30
0.0
 11
-34.225974
 21
121.337518
 31
0.0
  0
LINE
  5
13D
330
11C
100
AcDbEntity
  8
LC-004-005-----0
 62
     7
370
    25
100
AcDbLine
 10
-38.397053
 20
119.994866
 30
0.0
 11
-34.225978
 21
124.165941
 31
0.0
  0
LINE
  5
13E
330
11C
100
AcDbEntity
  8
LC-004-005-----0
 62
     7
370
    25
100
AcDbLine
 10
-37.226007
 20
123.994339
 30
0.0
 11
-34.225982
 21
126.994364
 31
0.0
  0
LINE
  5
13F
330
11C
100
AcDbEntity
  8
LC-004-005-----0
 62
     7
370
    25
100
AcDbLine
 10
-37.226011
 20
126.822762
 30
0.0
 11
-34.225986
 21
129.822788
 31
0.0
  0
LINE
  5
140
330
11C
100
AcDbEntity
  8
LC-004-005-----0
 62
     7
370
    25
100
AcDbLine
 10
-37.226015
 20
129.651186
 30
0.0
 11
-34.225989
 21
132.651211
 31
0.0
  0
LINE
  5
141
330
11C
100
AcDbEntity
  8
LC-004-005-----0
 62
     7
370
    25
100
AcDbLine
 10
-37.226019
 20
132.479609
 30
0.0
 11
-34.225993
 21
135.479634
 31
0.0
  0
LINE
  5
142
330
11C
100
AcDbEntity
  8
LC-004-005-----0
 62
     7
370
    25
100
AcDbLine
 10
-37.226022
 20
135.308032
 30
0.0
 11
-34.225997
 21
138.308057
 31
0.0
  0
LINE
  5
143
330
11C
100
AcDbEntity
  8
LC-004-005-----0
 62
     7
370
    25
100
AcDbLine
 10
-37.226026
 20
138.136455
 30
0.0
 11
-34.226001
 21
141.136481
 31
0.0
  0
LINE
  5
144
330
11C
100
AcDbEntity
  8
LC-004-005-----0
 62
     7
370
    25
100
AcDbLine
 10
-37.22603
 20
140.964879
 30
0.0
 11
-34.226005
 21
143.964904
 31
0.0
  0
LINE
  5
145
330
11C
100
AcDbEntity
  8
LC-004-005-----0
 62
     7
370
    25
100
AcDbLine
 10
-37.226034
 20
143.793302
 30
0.0
 11
-34.226009
 21
146.793327
 31
0.0
  0
LINE
  5
146
330
11C
100
AcDbEntity
  8
LC-004-005-----0
 62
     7
370
    25
100
AcDbLine
 10
-37.226038
 20
146.621725
 30
0.0
 11
-32.57504
 21
151.272723
 31
0.0
  0
LINE
  5
147
330
11C
100
AcDbEntity
  8
LC-004-005-----0
 62
     7
370
    25
100
AcDbLine
 10
-37.794005
 20
148.882186
 30
0.0
 11
-32.303869
 21
154.372321
 31
0.0
  0
LINE
  5
148
330
11C
100
AcDbEntity
  8
LC-004-005-----0
 62
     7
370
    25
100
AcDbLine
 10
-40.524285
 20
148.980332
 30
0.0
 11
-32.032698
 21
157.471919
 31
0.0
  0
LINE
  5
149
330
11C
100
AcDbEntity
  8
LC-004-005-----0
 62
     7
370
    25
100
AcDbLine
 10
-43.352708
 20
148.980336
 30
0.0
 11
-29.725799
 21
162.607245
 31
0.0
  0
LINE
  5
14A
330
11C
100
AcDbEntity
  8
LC-004-005-----0
 62
     7
370
    25
100
AcDbLine
 10
-45.831449
 20
149.330022
 30
0.0
 11
-34.417002
 21
160.744469
 31
0.0
  0
LINE
  5
14B
330
11C
100
AcDbEntity
  8
LC-004-005-----0
 62
     7
370
    25
100
AcDbLine
 10
-31.7258
 20
163.435671
 30
0.0
 11
-29.725803
 21
165.435668
 31
0.0
  0
LINE
  5
14C
330
11C
100
AcDbEntity
  8
LC-004-005-----0
 62
     7
370
    25
100
AcDbLine
 10
-47.6246
 20
150.365298
 30
0.0
 11
-37.516619
 21
160.473279
 31
0.0
  0
LINE
  5
14D
330
11C
100
AcDbEntity
  8
LC-004-005-----0
 62
     7
370
    25
100
AcDbLine
 10
-31.725804
 20
166.264094
 30
0.0
 11
-29.725807
 21
168.264092
 31
0.0
  0
LINE
  5
14E
330
11C
100
AcDbEntity
  8
LC-004-005-----0
 62
     7
370
    25
100
AcDbLine
 10
-48.22581
 20
152.592516
 30
0.0
 11
-40.616236
 21
160.20209
 31
0.0
  0
LINE
  5
14F
330
11C
100
AcDbEntity
  8
LC-004-005-----0
 62
     7
370
    25
100
AcDbLine
 10
-31.725808
 20
169.092518
 30
0.0
 11
-29.725811
 21
171.092515
 31
0.0
  0
LINE
  5
150
330
11C
100
AcDbEntity
  8
LC-004-005-----0
 62
     7
370
    25
100
AcDbLine
 10
-48.201706
 20
155.445047
 30
0.0
 11
-43.716184
 21
159.930569
 31
0.0
  0
LINE
  5
151
330
11C
100
AcDbEntity
  8
LC-004-005-----0
 62
     7
370
    25
100
AcDbLine
 10
-31.725812
 20
171.920941
 30
0.0
 11
-29.725815
 21
173.920938
 31
0.0
  0
LINE
  5
152
330
11C
100
AcDbEntity
  8
LC-004-005-----0
 62
     7
370
    25
100
AcDbLine
 10
-31.725816
 20
174.749364
 30
0.0
 11
-29.725819
 21
176.749361
 31
0.0
  0
LINE
  5
153
330
11C
100
AcDbEntity
  8
LC-004-005-----0
 62
     7
370
    25
100
AcDbLine
 10
-31.72582
 20
177.577787
 30
0.0
 11
-29.725823
 21
179.577785
 31
0.0
  0
ENDBLK
  5
11E
330
11C
100
AcDbEntity
  8
0
100
AcDbBlockEnd
  0
BLOCK
  5
1B2
330
1A8
100
AcDbEntity
  8
0
100
AcDbBlockBegin
  2
*D3
 70
     1
 71
     0
 10
0.0
 20
0.0
 30
0.0
  3
*D3
  1

  0
LINE
  5
1A9
330
1A8
100
AcDbEntity
  8
LC-002-003-----0
 62
     2
370
    -2
100
AcDbLine
 10
-48.22581
 20
150.712407
 30
0.0
 11
-48.22581
 21
46.296
 31
0.0
  0
LINE
  5
1AA
330
1A8
100
AcDbEntity
  8
LC-002-003-----0
 62
     2
370
    -2
100
AcDbLine
 10
122.77419
 20
150.71213
 30
0.0
 11
122.77419
 21
46.296
 31
0.0
  0
LINE
  5
1AB
330
1A8
100
AcDbEntity
  8
LC-002-003-----0
 62
     2
370
    -2
100
AcDbLine
 10
-20.22581
 20
49.896
 30
0.0
 11
94.77419
 21
49.896
 31
0.0
  0
SOLID
  5
1AC
330
1A8
100
AcDbEntity
  8
LC-002-003-----0
 62
     2
100
AcDbTrace
 10
-20.22581
 20
54.562667
 30
0.0
 11
-20.22581
 21
45.229333
 31
0.0
 12
-48.22581
 22
49.896
 32
0.0
 13
-48.22581
 23
49.896
 33
0.0
  0
SOLID
  5
1AD
330
1A8
100
AcDbEntity
  8
LC-002-003-----0
 62
     2
100
AcDbTrace
 10
94.77419
 20
45.229333
 30
0.0
 11
94.77419
 21
54.562667
 31
0.0
 12
122.77419
 22
49.896
 32
0.0
 13
122.77419
 23
49.896
 33
0.0
  0
MTEXT
  5
1AE
330
1A8
100
AcDbEntity
  8
LC-002-003-----0
 62
     2
100
AcDbMText
 10
20.152031
 20
80.696
 30
0.0
 40
28.0
 41
0.0
 71
     5
 72
     1
  1
\A1;%%c170
  7
LCTX15-400-0-0pDIN-Schrift
 73
     1
 44
1.0
  0
POINT
  5
1AF
330
1A8
100
AcDbEntity
  8
Defpoints
 62
     0
100
AcDbPoint
 10
-48.22581
 20
150.712407
 30
0.0
  0
POINT
  5
1B0
330
1A8
100
AcDbEntity
  8
Defpoints
 62
     0
100
AcDbPoint
 10
122.77419
 20
150.71213
 30
0.0
  0
POINT
  5
1B1
330
1A8
100
AcDbEntity
  8
Defpoints
 62
     0
100
AcDbPoint
 10
122.77419
 20
49.896
 30
0.0
  0
ENDBLK
  5
1B3
330
1A8
100
AcDbEntity
  8
0
100
AcDbBlockEnd
  0
BLOCK
  5
226
330
21B
100
AcDbEntity
  8
0
100
AcDbBlockBegin
  2
*D4
 70
     1
 71
     0
 10
0.0
 20
0.0
 30
0.0
  3
*D4
  1

  0
LINE
  5
21C
330
21B
100
AcDbEntity
  8
LC-002-003-----0
 62
     2
370
    -2
100
AcDbLine
 10
105.274173
 20
180.980118
 30
0.0
 11
142.85019
 21
180.980118
 31
0.0
  0
LINE
  5
21D
330
21B
100
AcDbEntity
  8
LC-002-003-----0
 62
     2
370
    -2
100
AcDbLine
 10
106.274203
 20
160.980116
 30
0.0
 11
142.85019
 21
160.980116
 31
0.0
  0
LINE
  5
21E
330
21B
100
AcDbEntity
  8
LC-002-003-----0
 62
     2
370
    -2
100
AcDbLine
 10
139.25019
 20
132.980116
 30
0.0
 11
139.25019
 21
104.980116
 31
0.0
  0
LINE
  5
21F
330
21B
100
AcDbEntity
  8
LC-002-003-----0
 62
     2
370
    -2
100
AcDbLine
 10
139.25019
 20
208.980118
 30
0.0
 11
139.25019
 21
232.981755
 31
0.0
  0
SOLID
  5
220
330
21B
100
AcDbEntity
  8
LC-002-003-----0
 62
     2
100
AcDbTrace
 10
134.583524
 20
208.980118
 30
0.0
 11
143.916857
 21
208.980118
 31
0.0
 12
139.25019
 22
180.980118
 32
0.0
 13
139.25019
 23
180.980118
 33
0.0
  0
SOLID
  5
221
330
21B
100
AcDbEntity
  8
LC-002-003-----0
 62
     2
100
AcDbTrace
 10
143.916857
 20
132.980116
 30
0.0
 11
134.583524
 21
132.980116
 31
0.0
 12
139.25019
 22
160.980116
 32
0.0
 13
139.25019
 23
160.980116
 33
0.0
  0
MTEXT
  5
222
330
21B
100
AcDbEntity
  8
LC-002-003-----0
 62
     2
100
AcDbMText
 10
108.45019
 20
209.344997
 30
0.0
 40
28.0
 41
0.0
 71
     5
 72
     1
  1
\A1;20
  7
LCTX15-400-0-0pDIN-Schrift
 11
6.123031769111886E-17
 21
1.0
 31
0.0
 73
     1
 44
1.0
  0
POINT
  5
223
330
21B
100
AcDbEntity
  8
Defpoints
 62
     0
100
AcDbPoint
 10
105.274173
 20
180.980118
 30
0.0
  0
POINT
  5
224
330
21B
100
AcDbEntity
  8
Defpoints
 62
     0
100
AcDbPoint
 10
106.274203
 20
160.980116
 30
0.0
  0
POINT
  5
225
330
21B
100
AcDbEntity
  8
Defpoints
 62
     0
100
AcDbPoint
 10
139.25019
 20
160.980116
 30
0.0
  0
ENDBLK
  5
227
330
21B
100
AcDbEntity
  8
0
100
AcDbBlockEnd
  0
BLOCK
  5
233
330
229
100
AcDbEntity
  8
0
100
AcDbBlockBegin
  2
*D5
 70
     1
 71
     0
 10
0.0
 20
0.0
 30
0.0
  3
*D5
  1

  0
LINE
  5
22A
330
229
100
AcDbEntity
  8
LC-002-003-----0
 62
     2
370
    -2
100
AcDbLine
 10
-31.725823
 20
179.980319
 30
0.0
 11
-31.725823
 21
205.56
 31
0.0
  0
LINE
  5
22B
330
229
100
AcDbEntity
  8
LC-002-003-----0
 62
     2
370
    -2
100
AcDbLine
 10
106.274177
 20
179.980116
 30
0.0
 11
106.274177
 21
205.56
 31
0.0
  0
LINE
  5
22C
330
229
100
AcDbEntity
  8
LC-002-003-----0
 62
     2
370
    -2
100
AcDbLine
 10
-3.725823
 20
201.96
 30
0.0
 11
78.274177
 21
201.96
 31
0.0
  0
SOLID
  5
22D
330
229
100
AcDbEntity
  8
LC-002-003-----0
 62
     2
100
AcDbTrace
 10
-3.725823
 20
206.626667
 30
0.0
 11
-3.725823
 21
197.293333
 31
0.0
 12
-31.725823
 22
201.96
 32
0.0
 13
-31.725823
 23
201.96
 33
0.0
  0
SOLID
  5
22E
330
229
100
AcDbEntity
  8
LC-002-003-----0
 62
     2
100
AcDbTrace
 10
78.274177
 20
197.293333
 30
0.0
 11
78.274177
 21
206.626667
 31
0.0
 12
106.274177
 22
201.96
 32
0.0
 13
106.274177
 23
201.96
 33
0.0
  0
MTEXT
  5
22F
330
229
100
AcDbEntity
  8
LC-002-003-----0
 62
     2
100
AcDbMText
 10
35.774958
 20
232.76
 30
0.0
 40
28.0
 41
0.0
 71
     5
 72
     1
  1
%%c\A1;138
  7
LCTX15-400-0-0pDIN-Schrift
 73
     1
 44
1.0
  0
POINT
  5
230
330
229
100
AcDbEntity
  8
Defpoints
 62
     0
100
AcDbPoint
 10
-31.725823
 20
179.980319
 30
0.0
  0
POINT
  5
231
330
229
100
AcDbEntity
  8
Defpoints
 62
     0
100
AcDbPoint
 10
106.274177
 20
179.980116
 30
0.0
  0
POINT
  5
232
330
229
100
AcDbEntity
  8
Defpoints
 62
     0
100
AcDbPoint
 10
106.274177
 20
201.96
 30
0.0
  0
ENDBLK
  5
234
330
229
100
AcDbEntity
  8
0
100
AcDbBlockEnd
  0
ENDSEC
  0
SECTION
  2
ENTITIES
  0
LINE
  5
31
330
1F
100
AcDbEntity
  8
LC-001-002-----0
 62
     7
370
    50
100
AcDbLine
 10
283.818173
 20
219.655475
 30
0.0
 11
283.136526
 21
223.521285
 31
0.0
  0
LINE
  5
32
330
1F
100
AcDbEntity
  8
LC-001-002-----0
 62
     7
370
    50
100
AcDbLine
 10
286.163494
 20
223.630808
 30
0.0
 11
286.338909
 21
222.635985
 31
0.0
  0
LINE
  5
33
330
1F
100
AcDbEntity
  8
LC-001-002-----0
 62
     7
370
    50
100
AcDbLine
 10
106.274203
 20
160.980116
 30
0.0
 11
118.209968
 21
159.935872
 31
0.0
  0
LINE
  5
34
330
1F
100
AcDbEntity
  8
LC-001-002-----0
 62
     7
370
    50
100
AcDbLine
 10
283.90457
 20
236.441806
 30
0.0
 11
286.772596
 21
220.17642
 31
0.0
  0
LINE
  5
35
330
1F
100
AcDbEntity
  8
LC-001-002-----0
 62
     7
370
    50
100
AcDbLine
 10
280.950147
 20
235.920861
 30
0.0
 11
283.209071
 21
223.109863
 31
0.0
  0
LINE
  5
36
330
1F
100
AcDbEntity
  8
LC-001-002-----0
 62
     7
370
    50
100
AcDbLine
 10
266.622057
 20
231.81097
 30
0.0
 11
272.270966
 21
216.29072
 31
0.0
  0
LINE
  5
37
330
1F
100
AcDbEntity
  8
LC-001-002-----0
 62
     7
370
    50
100
AcDbLine
 10
253.225319
 20
225.275471
 30
0.0
 11
261.483472
 21
210.971931
 31
0.0
  0
LINE
  5
38
330
1F
100
AcDbEntity
  8
LC-001-002-----0
 62
     7
370
    50
100
AcDbLine
 10
241.166984
 20
216.512942
 30
0.0
 11
251.783461
 21
203.860718
 31
0.0
  0
LINE
  5
39
330
1F
100
AcDbEntity
  8
LC-001-002-----0
 62
     7
370
    50
100
AcDbLine
 10
230.81344
 20
205.789628
 30
0.0
 11
243.465664
 21
195.173151
 31
0.0
  0
LINE
  5
3A
330
1F
100
AcDbEntity
  8
LC-001-002-----0
 62
     7
370
    50
100
AcDbLine
 10
222.479273
 20
193.43135
 30
0.0
 11
233.745076
 21
186.927036
 31
0.0
  0
LINE
  5
3B
330
1F
100
AcDbEntity
  8
LC-001-002-----0
 62
     7
370
    50
100
AcDbLine
 10
-31.725797
 20
160.980319
 30
0.0
 11
-31.725823
 21
179.980319
 31
0.0
  0
LINE
  5
3C
330
1F
100
AcDbEntity
  8
LC-001-002-----0
 62
     7
370
    50
100
AcDbLine
 10
108.774453
 20
147.529729
 30
0.0
 11
-34.22601
 21
147.529533
 31
0.0
  0
LINE
  5
3D
330
1F
100
AcDbEntity
  8
LC-001-002-----0
 62
     7
370
    50
100
AcDbLine
 10
216.417714
 20
179.81361
 30
0.0
 11
231.937965
 21
174.164701
 31
0.0
  0
LINE
  5
3E
330
1F
100
AcDbEntity
  8
LC-001-002-----0
 62
     7
370
    50
100
AcDbLine
 10
212.812939
 20
165.350175
 30
0.0
 11
229.078325
 21
162.482149
 31
0.0
  0
LINE
  5
3F
330
1F
100
AcDbEntity
  8
LC-001-002-----0
 62
     7
370
    50
100
AcDbLine
 10
106.274203
 20
160.980116
 30
0.0
 11
106.274177
 21
179.980116
 31
0.0
  0
LINE
  5
40
330
1F
100
AcDbEntity
  8
LC-001-002-----0
 62
     7
370
    50
100
AcDbLine
 10
-30.725827
 20
180.980318
 30
0.0
 11
104.274176
 21
180.980119
 31
0.0
  0
LINE
  5
41
330
1F
100
AcDbEntity
  8
LC-001-002-----0
 62
     7
370
    50
100
AcDbLine
 10
112.774489
 20
121.980324
 30
0.0
 11
112.274516
 21
121.980324
 31
0.0
  0
LINE
  5
42
330
1F
100
AcDbEntity
  8
LC-001-002-----0
 62
     7
370
    50
100
AcDbLine
 10
211.774478
 20
150.48051
 30
0.0
 11
224.783106
 21
150.48051
 31
0.0
  0
LINE
  5
43
330
1F
100
AcDbEntity
  8
LC-001-002-----0
 62
     7
370
    50
100
AcDbLine
 10
104.274176
 20
180.980118
 30
0.0
 11
104.274204
 21
160.480113
 31
0.0
  0
LINE
  5
44
330
1F
100
AcDbEntity
  8
LC-001-002-----0
 62
     7
370
    50
100
AcDbLine
 10
-29.725824
 20
180.980319
 30
0.0
 11
-29.725796
 21
160.479929
 31
0.0
  0
LINE
  5
45
330
1F
100
AcDbEntity
  8
LC-001-002-----0
 62
     7
370
    50
100
AcDbLine
 10
106.44918
 20
158.980115
 30
0.0
 11
107.324067
 21
148.980115
 31
0.0
  0
LINE
  5
46
330
1F
100
AcDbEntity
  8
LC-001-002-----0
 62
     7
370
    50
100
AcDbLine
 10
106.274177
 20
179.980116
 30
0.0
 11
105.274173
 21
180.980118
 31
0.0
  0
LINE
  5
47
330
1F
100
AcDbEntity
  8
LC-001-002-----0
 62
     7
370
    50
100
AcDbLine
 10
213.333884
 20
135.656421
 30
0.0
 11
229.59927
 21
138.524448
 31
0.0
  0
LINE
  5
48
330
1F
100
AcDbEntity
  8
LC-001-002-----0
 62
     7
370
    50
100
AcDbLine
 10
-34.22601
 20
147.529533
 30
0.0
 11
-34.225972
 21
119.979933
 31
0.0
  0
LINE
  5
49
330
1F
100
AcDbEntity
  8
LC-001-002-----0
 62
     7
370
    50
100
AcDbLine
 10
107.324067
 20
148.980115
 30
0.0
 11
108.774453
 21
147.529729
 31
0.0
  0
DIMENSION
  5
4D
330
1F
100
AcDbEntity
  8
LC-002-003-----0
 62
     7
370
    25
100
AcDbDimension
  2
*D1
 10
199.387307
 20
180.980119
 30
0.0
 11
168.587307
 21
197.208
 31
0.0
 70
   160
 71
     5
 42
32.000023
 53
90.0
  3
LC-DIM-L-0140-02-02
100
AcDbAlignedDimension
 13
119.774219
 23
148.980096
 33
0.0
 14
104.274176
 24
180.980119
 34
0.0
 50
90.0
100
AcDbRotatedDimension
  0
LINE
  5
5C
330
1F
100
AcDbEntity
  8
LC-001-002-----0
 62
     7
370
    50
100
AcDbLine
 10
-48.225811
 20
154.954673
 30
0.0
 11
-48.22581
 21
150.712407
 31
0.0
  0
LINE
  5
5D
330
1F
100
AcDbEntity
  8
LC-001-002-----0
 62
     7
370
    50
100
AcDbLine
 10
217.443775
 20
121.328332
 30
0.0
 11
232.964025
 21
126.977241
 31
0.0
  0
LINE
  5
5E
330
1F
100
AcDbEntity
  8
LC-001-002-----0
 62
     7
370
    50
100
AcDbLine
 10
122.774189
 20
154.9549
 30
0.0
 11
122.77419
 21
150.71213
 31
0.0
  0
LINE
  5
5F
330
1F
100
AcDbEntity
  8
LC-001-002-----0
 62
     7
370
    50
100
AcDbLine
 10
223.979273
 20
107.931593
 30
0.0
 11
235.245076
 21
114.435907
 31
0.0
  0
ARC
  5
60
330
1F
100
AcDbEntity
  8
LC-001-002-----0
 62
     7
370
    50
100
AcDbCircle
 10
297.274235
 20
151.98051
 30
0.0
 40
75.06283291330296
100
AcDbArc
 50
31.145033
 51
38.854967
  0
CIRCLE
  5
61
330
1F
100
AcDbEntity
  8
LC-001-002-----0
 62
     7
370
    50
100
AcDbCircle
 10
297.274235
 20
151.98051
 30
0.0
 40
66.99975752856197
  0
ARC
  5
62
330
1F
100
AcDbEntity
  8
LC-001-002-----0
 62
     7
370
    50
100
AcDbCircle
 10
297.274235
 20
151.98051
 30
0.0
 40
75.06283291330293
100
AcDbArc
 50
21.145033
 51
28.854967
  0
LINE
  5
63
330
1F
100
AcDbEntity
  8
LC-001-002-----0
 62
     7
370
    50
100
AcDbLine
 10
232.741803
 20
95.873259
 30
0.0
 11
245.394027
 21
106.489735
 31
0.0
  0
LINE
  5
64
330
1F
100
AcDbEntity
  8
LC-001-002-----0
 62
     7
370
    50
100
AcDbLine
 10
243.465117
 20
85.519714
 30
0.0
 11
254.081594
 21
98.171939
 31
0.0
  0
LINE
  5
65
330
1F
100
AcDbEntity
  8
LC-001-002-----0
 62
     7
370
    50
100
AcDbLine
 10
255.823395
 20
77.185548
 30
0.0
 11
264.081548
 21
91.489089
 31
0.0
  0
LINE
  5
66
330
1F
100
AcDbEntity
  8
LC-001-002-----0
 62
     7
370
    50
100
AcDbLine
 10
269.441135
 20
71.123989
 30
0.0
 11
275.095146
 21
86.658257
 31
0.0
  0
LINE
  5
67
330
1F
100
AcDbEntity
  8
LC-001-002-----0
 62
     7
370
    50
100
AcDbLine
 10
283.90457
 20
67.519214
 30
0.0
 11
286.772596
 21
83.7846
 31
0.0
  0
LINE
  5
68
330
1F
100
AcDbEntity
  8
LC-001-002-----0
 62
     7
370
    50
100
AcDbLine
 10
298.774235
 20
66.480753
 30
0.0
 11
298.774235
 21
82.997059
 31
0.0
  0
LINE
  5
69
330
1F
100
AcDbEntity
  8
LC-001-002-----0
 62
     7
370
    50
100
AcDbLine
 10
313.598324
 20
68.040158
 30
0.0
 11
310.730297
 21
84.305544
 31
0.0
  0
LINE
  5
6A
330
1F
100
AcDbEntity
  8
LC-001-002-----0
 62
     7
370
    50
100
AcDbLine
 10
327.926413
 20
72.150049
 30
0.0
 11
322.277504
 21
87.6703
 31
0.0
  0
LINE
  5
6B
330
1F
100
AcDbEntity
  8
LC-001-002-----0
 62
     7
370
    50
100
AcDbLine
 10
298.774235
 20
224.471639
 30
0.0
 11
298.774235
 21
223.461469
 31
0.0
  0
LINE
  5
6C
330
1F
100
AcDbEntity
  8
LC-001-002-----0
 62
     7
370
    50
100
AcDbLine
 10
341.323152
 20
78.685548
 30
0.0
 11
333.064999
 21
92.989089
 31
0.0
  0
LINE
  5
6D
330
1F
100
AcDbEntity
  8
LC-001-002-----0
 62
     7
370
    50
100
AcDbLine
 10
353.381486
 20
87.448077
 30
0.0
 11
342.76501
 21
100.100302
 31
0.0
  0
LINE
  5
6E
330
1F
100
AcDbEntity
  8
LC-001-002-----0
 62
     7
370
    50
100
AcDbLine
 10
363.735031
 20
98.171392
 30
0.0
 11
351.082806
 21
108.787869
 31
0.0
  0
LINE
  5
6F
330
1F
100
AcDbEntity
  8
LC-001-002-----0
 62
     7
370
    50
100
AcDbLine
 10
372.069197
 20
110.529669
 30
0.0
 11
357.765656
 21
118.787822
 31
0.0
  0
LINE
  5
70
330
1F
100
AcDbEntity
  8
LC-001-002-----0
 62
     7
370
    50
100
AcDbLine
 10
378.130756
 20
124.147409
 30
0.0
 11
362.610505
 21
129.796319
 31
0.0
  0
LINE
  5
71
330
1F
100
AcDbEntity
  8
LC-001-002-----0
 62
     7
370
    50
100
AcDbLine
 10
381.735531
 20
138.610844
 30
0.0
 11
365.470145
 21
141.478871
 31
0.0
  0
LINE
  5
72
330
1F
100
AcDbEntity
  8
LC-001-002-----0
 62
     7
370
    50
100
AcDbLine
 10
382.773992
 20
153.48051
 30
0.0
 11
366.257686
 21
153.48051
 31
0.0
  0
LINE
  5
73
330
1F
100
AcDbEntity
  8
LC-001-002-----0
 62
     7
370
    50
100
AcDbLine
 10
381.214587
 20
168.304598
 30
0.0
 11
364.949201
 21
165.436572
 31
0.0
  0
LINE
  5
74
330
1F
100
AcDbEntity
  8
LC-001-002-----0
 62
     7
370
    50
100
AcDbLine
 10
377.104696
 20
182.632688
 30
0.0
 11
361.584445
 21
176.983779
 31
0.0
  0
LINE
  5
75
330
1F
100
AcDbEntity
  8
LC-001-002-----0
 62
     7
370
    50
100
AcDbLine
 10
370.569197
 20
196.029426
 30
0.0
 11
356.265656
 21
187.771273
 31
0.0
  0
LINE
  5
76
330
1F
100
AcDbEntity
  8
LC-001-002-----0
 62
     7
370
    50
100
AcDbLine
 10
361.806668
 20
208.087761
 30
0.0
 11
349.154443
 21
197.471284
 31
0.0
  0
LINE
  5
77
330
1F
100
AcDbEntity
  8
LC-001-002-----0
 62
     7
370
    50
100
AcDbLine
 10
351.083353
 20
218.441305
 30
0.0
 11
340.47596
 21
205.799906
 31
0.0
  0
LINE
  5
78
330
1F
100
AcDbEntity
  8
LC-001-002-----0
 62
     7
370
    50
100
AcDbLine
 10
338.725076
 20
226.775471
 30
0.0
 11
330.466923
 21
212.471931
 31
0.0
  0
LINE
  5
79
330
1F
100
AcDbEntity
  8
LC-001-002-----0
 62
     7
370
    50
100
AcDbLine
 10
325.107336
 20
232.837031
 30
0.0
 11
319.458426
 21
217.31678
 31
0.0
  0
LINE
  5
7A
330
1F
100
AcDbEntity
  8
LC-001-002-----0
 62
     7
370
    50
100
AcDbLine
 10
-31.725797
 20
160.979927
 30
0.0
 11
-43.661603
 21
159.935646
 31
0.0
  0
LINE
  5
7B
330
1F
100
AcDbEntity
  8
LC-001-002-----0
 62
     7
370
    50
100
AcDbLine
 10
310.643901
 20
236.441806
 30
0.0
 11
307.775874
 21
220.17642
 31
0.0
  0
LINE
  5
7C
330
1F
100
AcDbEntity
  8
LC-001-002-----0
 62
     7
370
    50
100
AcDbLine
 10
269.441135
 20
232.837031
 30
0.0
 11
275.052929
 21
217.418753
 31
0.0
  0
LINE
  5
7D
330
1F
100
AcDbEntity
  8
LC-001-002-----0
 62
     7
370
    50
100
AcDbLine
 10
255.823395
 20
226.775471
 30
0.0
 11
264.081548
 21
212.471931
 31
0.0
  0
LINE
  5
7E
330
1F
100
AcDbEntity
  8
LC-001-002-----0
 62
     7
370
    50
100
AcDbLine
 10
243.465117
 20
218.441305
 30
0.0
 11
254.081594
 21
205.789081
 31
0.0
  0
LINE
  5
7F
330
1F
100
AcDbEntity
  8
LC-001-002-----0
 62
     7
370
    50
100
AcDbLine
 10
232.741803
 20
208.087761
 30
0.0
 11
245.394027
 21
197.471284
 31
0.0
  0
LINE
  5
80
330
1F
100
AcDbEntity
  8
LC-001-002-----0
 62
     7
370
    50
100
AcDbLine
 10
223.979273
 20
196.029426
 30
0.0
 11
238.282814
 21
187.771273
 31
0.0
  0
LINE
  5
81
330
1F
100
AcDbEntity
  8
LC-001-002-----0
 62
     7
370
    50
100
AcDbLine
 10
217.443775
 20
182.632688
 30
0.0
 11
232.964025
 21
176.983779
 31
0.0
  0
LINE
  5
82
330
1F
100
AcDbEntity
  8
LC-001-002-----0
 62
     7
370
    50
100
AcDbLine
 10
213.333884
 20
168.304598
 30
0.0
 11
226.144882
 21
166.045674
 31
0.0
  0
LINE
  5
83
330
1F
100
AcDbEntity
  8
LC-001-002-----0
 62
     7
370
    50
100
AcDbLine
 10
211.774478
 20
153.48051
 30
0.0
 11
224.783106
 21
153.48051
 31
0.0
  0
LINE
  5
84
330
1F
100
AcDbEntity
  8
LC-001-002-----0
 62
     7
370
    50
100
AcDbLine
 10
295.774235
 20
223.461469
 30
0.0
 11
295.774235
 21
224.471639
 31
0.0
  0
LINE
  5
85
330
1F
100
AcDbEntity
  8
LC-001-002-----0
 62
     7
370
    50
100
AcDbLine
 10
212.812939
 20
138.610844
 30
0.0
 11
229.078325
 21
141.478871
 31
0.0
  0
LINE
  5
86
330
1F
100
AcDbEntity
  8
LC-001-002-----0
 62
     7
370
    50
100
AcDbLine
 10
216.417714
 20
124.147409
 30
0.0
 11
231.937965
 21
129.796319
 31
0.0
  0
LINE
  5
87
330
1F
100
AcDbEntity
  8
LC-001-002-----0
 62
     7
370
    50
100
AcDbLine
 10
222.479273
 20
110.529669
 30
0.0
 11
236.782814
 21
118.787822
 31
0.0
  0
LINE
  5
88
330
1F
100
AcDbEntity
  8
LC-001-002-----0
 62
     7
370
    50
100
AcDbLine
 10
230.81344
 20
98.171392
 30
0.0
 11
240.778627
 21
106.533177
 31
0.0
  0
LINE
  5
89
330
1F
100
AcDbEntity
  8
LC-001-002-----0
 62
     7
370
    50
100
AcDbLine
 10
241.166984
 20
87.448077
 30
0.0
 11
251.783461
 21
100.100302
 31
0.0
  0
LINE
  5
8A
330
1F
100
AcDbEntity
  8
LC-001-002-----0
 62
     7
370
    50
100
AcDbLine
 10
253.225319
 20
78.685548
 30
0.0
 11
261.483472
 21
92.989089
 31
0.0
  0
LINE
  5
8B
330
1F
100
AcDbEntity
  8
LC-001-002-----0
 62
     7
370
    50
100
AcDbLine
 10
382.773992
 20
153.48051
 30
0.0
 11
382.773992
 21
150.48051
 31
0.0
  0
LINE
  5
8C
330
1F
100
AcDbEntity
  8
LC-001-002-----0
 62
     7
370
    50
100
AcDbLine
 10
266.622057
 20
72.150049
 30
0.0
 11
272.270966
 21
87.6703
 31
0.0
  0
LINE
  5
8D
330
1F
100
AcDbEntity
  8
LC-001-002-----0
 62
     7
370
    50
100
AcDbLine
 10
280.950147
 20
68.040158
 30
0.0
 11
283.818173
 21
84.305544
 31
0.0
  0
LINE
  5
8E
330
1F
100
AcDbEntity
  8
LC-001-002-----0
 62
     7
370
    50
100
AcDbLine
 10
295.774235
 20
66.480753
 30
0.0
 11
295.774235
 21
82.997059
 31
0.0
  0
LINE
  5
8F
330
1F
100
AcDbEntity
  8
LC-001-002-----0
 62
     7
370
    50
100
AcDbLine
 10
310.643901
 20
67.519214
 30
0.0
 11
307.80685
 21
83.608925
 31
0.0
  0
LINE
  5
90
330
1F
100
AcDbEntity
  8
LC-001-002-----0
 62
     7
370
    50
100
AcDbLine
 10
325.107336
 20
71.123989
 30
0.0
 11
319.458426
 21
86.644239
 31
0.0
  0
LINE
  5
91
330
1F
100
AcDbEntity
  8
LC-001-002-----0
 62
     7
370
    50
100
AcDbLine
 10
338.725076
 20
77.185548
 30
0.0
 11
330.466923
 21
91.489089
 31
0.0
  0
LINE
  5
92
330
1F
100
AcDbEntity
  8
LC-001-002-----0
 62
     7
370
    50
100
AcDbLine
 10
351.083353
 20
85.519714
 30
0.0
 11
340.439833
 21
98.204168
 31
0.0
  0
LINE
  5
93
330
1F
100
AcDbEntity
  8
LC-001-002-----0
 62
     7
370
    50
100
AcDbLine
 10
361.806668
 20
95.873259
 30
0.0
 11
349.154443
 21
106.489735
 31
0.0
  0
LINE
  5
94
330
1F
100
AcDbEntity
  8
LC-001-002-----0
 62
     7
370
    50
100
AcDbLine
 10
370.569197
 20
107.931593
 30
0.0
 11
356.265656
 21
116.189746
 31
0.0
  0
LINE
  5
95
330
1F
100
AcDbEntity
  8
LC-001-002-----0
 62
     7
370
    50
100
AcDbLine
 10
377.104696
 20
121.328332
 30
0.0
 11
361.584445
 21
126.977241
 31
0.0
  0
LINE
  5
96
330
1F
100
AcDbEntity
  8
LC-001-002-----0
 62
     7
370
    50
100
AcDbLine
 10
381.214587
 20
135.656421
 30
0.0
 11
364.949201
 21
138.524448
 31
0.0
  0
LINE
  5
97
330
1F
100
AcDbEntity
  8
LC-001-002-----0
 62
     7
370
    50
100
AcDbLine
 10
382.773993
 20
150.48051
 30
0.0
 11
366.257686
 21
150.48051
 31
0.0
  0
LINE
  5
98
330
1F
100
AcDbEntity
  8
LC-001-002-----0
 62
     7
370
    50
100
AcDbLine
 10
381.735531
 20
165.350175
 30
0.0
 11
365.470145
 21
162.482149
 31
0.0
  0
LINE
  5
99
330
1F
100
AcDbEntity
  8
LC-001-002-----0
 62
     7
370
    50
100
AcDbLine
 10
378.130756
 20
179.81361
 30
0.0
 11
362.610505
 21
174.164701
 31
0.0
  0
LINE
  5
9A
330
1F
100
AcDbEntity
  8
LC-001-002-----0
 62
     7
370
    50
100
AcDbLine
 10
372.069197
 20
193.43135
 30
0.0
 11
357.765656
 21
185.173197
 31
0.0
  0
LINE
  5
9B
330
1F
100
AcDbEntity
  8
LC-001-002-----0
 62
     7
370
    50
100
AcDbLine
 10
363.735031
 20
205.789628
 30
0.0
 11
351.082806
 21
195.173151
 31
0.0
  0
LINE
  5
9C
330
1F
100
AcDbEntity
  8
LC-001-002-----0
 62
     7
370
    50
100
AcDbLine
 10
353.381486
 20
216.512942
 30
0.0
 11
342.76501
 21
203.860718
 31
0.0
  0
LINE
  5
9D
330
1F
100
AcDbEntity
  8
LC-001-002-----0
 62
     7
370
    50
100
AcDbLine
 10
298.774235
 20
237.480267
 30
0.0
 11
298.774235
 21
220.963961
 31
0.0
  0
LINE
  5
9E
330
1F
100
AcDbEntity
  8
LC-001-002-----0
 62
     7
370
    50
100
AcDbLine
 10
341.323152
 20
225.275471
 30
0.0
 11
333.064999
 21
210.971931
 31
0.0
  0
LINE
  5
9F
330
1F
100
AcDbEntity
  8
LC-001-002-----0
 62
     7
370
    50
100
AcDbLine
 10
327.926413
 20
231.81097
 30
0.0
 11
322.277504
 21
216.29072
 31
0.0
  0
LINE
  5
A0
330
1F
100
AcDbEntity
  8
LC-001-002-----0
 62
     7
370
    50
100
AcDbLine
 10
313.598324
 20
235.920861
 30
0.0
 11
310.730297
 21
219.655475
 31
0.0
  0
LINE
  5
A1
330
1F
100
AcDbEntity
  8
LC-001-002-----0
 62
     7
370
    50
100
AcDbLine
 10
381.214587
 20
168.304598
 30
0.0
 11
381.735531
 21
165.350175
 31
0.0
  0
LINE
  5
A2
330
1F
100
AcDbEntity
  8
LC-001-002-----0
 62
     7
370
    50
100
AcDbLine
 10
377.104696
 20
182.632688
 30
0.0
 11
378.130756
 21
179.81361
 31
0.0
  0
LINE
  5
A3
330
1F
100
AcDbEntity
  8
LC-001-002-----0
 62
     7
370
    50
100
AcDbLine
 10
370.569197
 20
196.029426
 30
0.0
 11
372.069197
 21
193.43135
 31
0.0
  0
LINE
  5
A4
330
1F
100
AcDbEntity
  8
LC-001-002-----0
 62
     7
370
    50
100
AcDbLine
 10
361.806668
 20
208.087761
 30
0.0
 11
363.735031
 21
205.789628
 31
0.0
  0
LINE
  5
A5
330
1F
100
AcDbEntity
  8
LC-001-002-----0
 62
     7
370
    50
100
AcDbLine
 10
351.083353
 20
218.441305
 30
0.0
 11
353.381486
 21
216.512942
 31
0.0
  0
LINE
  5
A6
330
1F
100
AcDbEntity
  8
LC-001-002-----0
 62
     7
370
    50
100
AcDbLine
 10
338.725076
 20
226.775471
 30
0.0
 11
341.323152
 21
225.275471
 31
0.0
  0
LINE
  5
A7
330
1F
100
AcDbEntity
  8
LC-001-002-----0
 62
     7
370
    50
100
AcDbLine
 10
325.107336
 20
232.837031
 30
0.0
 11
327.926413
 21
231.81097
 31
0.0
  0
LINE
  5
A8
330
1F
100
AcDbEntity
  8
LC-001-002-----0
 62
     7
370
    50
100
AcDbLine
 10
310.643901
 20
236.441806
 30
0.0
 11
313.598324
 21
235.920861
 31
0.0
  0
LINE
  5
A9
330
1F
100
AcDbEntity
  8
LC-001-002-----0
 62
     7
370
    50
100
AcDbLine
 10
295.774235
 20
237.480267
 30
0.0
 11
298.774235
 21
237.480267
 31
0.0
  0
LINE
  5
AA
330
1F
100
AcDbEntity
  8
LC-001-002-----0
 62
     7
370
    50
100
AcDbLine
 10
280.950147
 20
235.920861
 30
0.0
 11
283.90457
 21
236.441806
 31
0.0
  0
LINE
  5
AB
330
1F
100
AcDbEntity
  8
LC-001-002-----0
 62
     7
370
    50
100
AcDbLine
 10
266.622057
 20
231.81097
 30
0.0
 11
269.441135
 21
232.837031
 31
0.0
  0
LINE
  5
AC
330
1F
100
AcDbEntity
  8
LC-001-002-----0
 62
     7
370
    50
100
AcDbLine
 10
253.225319
 20
225.275471
 30
0.0
 11
255.823395
 21
226.775471
 31
0.0
  0
LINE
  5
AD
330
1F
100
AcDbEntity
  8
LC-001-002-----0
 62
     7
370
    50
100
AcDbLine
 10
241.166984
 20
216.512942
 30
0.0
 11
243.465117
 21
218.441305
 31
0.0
  0
LINE
  5
AE
330
1F
100
AcDbEntity
  8
LC-001-002-----0
 62
     7
370
    50
100
AcDbLine
 10
230.81344
 20
205.789628
 30
0.0
 11
232.741803
 21
208.087761
 31
0.0
  0
LINE
  5
AF
330
1F
100
AcDbEntity
  8
LC-001-002-----0
 62
     7
370
    50
100
AcDbLine
 10
222.479273
 20
193.43135
 30
0.0
 11
223.979273
 21
196.029426
 31
0.0
  0
LINE
  5
B0
330
1F
100
AcDbEntity
  8
LC-001-002-----0
 62
     7
370
    50
100
AcDbLine
 10
216.417714
 20
179.81361
 30
0.0
 11
217.443775
 21
182.632688
 31
0.0
  0
LINE
  5
B1
330
1F
100
AcDbEntity
  8
LC-001-002-----0
 62
     7
370
    50
100
AcDbLine
 10
212.812939
 20
165.350175
 30
0.0
 11
213.333884
 21
168.304598
 31
0.0
  0
LINE
  5
B2
330
1F
100
AcDbEntity
  8
LC-001-002-----0
 62
     7
370
    50
100
AcDbLine
 10
211.774478
 20
150.48051
 30
0.0
 11
211.774478
 21
153.48051
 31
0.0
  0
LINE
  5
B3
330
1F
100
AcDbEntity
  8
LC-001-002-----0
 62
     7
370
    50
100
AcDbLine
 10
213.333884
 20
135.656421
 30
0.0
 11
212.812939
 21
138.610844
 31
0.0
  0
LINE
  5
B4
330
1F
100
AcDbEntity
  8
LC-001-002-----0
 62
     7
370
    50
100
AcDbLine
 10
295.774235
 20
237.480267
 30
0.0
 11
295.774235
 21
220.963961
 31
0.0
  0
LINE
  5
B5
330
1F
100
AcDbEntity
  8
LC-001-002-----0
 62
     7
370
    50
100
AcDbLine
 10
217.443775
 20
121.328332
 30
0.0
 11
216.417714
 21
124.147409
 31
0.0
  0
LINE
  5
B6
330
1F
100
AcDbEntity
  8
LC-001-002-----0
 62
     7
370
    50
100
AcDbLine
 10
223.979273
 20
107.931593
 30
0.0
 11
222.479273
 21
110.529669
 31
0.0
  0
LINE
  5
B7
330
1F
100
AcDbEntity
  8
LC-001-002-----0
 62
     7
370
    50
100
AcDbLine
 10
232.741803
 20
95.873259
 30
0.0
 11
230.81344
 21
98.171392
 31
0.0
  0
LINE
  5
B8
330
1F
100
AcDbEntity
  8
LC-001-002-----0
 62
     7
370
    50
100
AcDbLine
 10
243.465117
 20
85.519714
 30
0.0
 11
241.166984
 21
87.448077
 31
0.0
  0
LINE
  5
B9
330
1F
100
AcDbEntity
  8
LC-001-002-----0
 62
     7
370
    50
100
AcDbLine
 10
255.823395
 20
77.185548
 30
0.0
 11
253.225319
 21
78.685548
 31
0.0
  0
LINE
  5
BA
330
1F
100
AcDbEntity
  8
LC-001-002-----0
 62
     7
370
    50
100
AcDbLine
 10
269.441135
 20
71.123989
 30
0.0
 11
266.622057
 21
72.150049
 31
0.0
  0
LINE
  5
BB
330
1F
100
AcDbEntity
  8
LC-001-002-----0
 62
     7
370
    50
100
AcDbLine
 10
283.90457
 20
67.519214
 30
0.0
 11
280.950147
 21
68.040158
 31
0.0
  0
LINE
  5
BC
330
1F
100
AcDbEntity
  8
LC-001-002-----0
 62
     7
370
    50
100
AcDbLine
 10
298.774235
 20
66.480753
 30
0.0
 11
295.774235
 21
66.480753
 31
0.0
  0
LINE
  5
BD
330
1F
100
AcDbEntity
  8
LC-001-002-----0
 62
     7
370
    50
100
AcDbLine
 10
313.598324
 20
68.040158
 30
0.0
 11
310.643901
 21
67.519214
 31
0.0
  0
LINE
  5
BE
330
1F
100
AcDbEntity
  8
LC-001-002-----0
 62
     7
370
    50
100
AcDbLine
 10
327.926413
 20
72.150049
 30
0.0
 11
325.107336
 21
71.123989
 31
0.0
  0
LINE
  5
BF
330
1F
100
AcDbEntity
  8
LC-001-002-----0
 62
     7
370
    50
100
AcDbLine
 10
341.323152
 20
78.685548
 30
0.0
 11
338.725076
 21
77.185548
 31
0.0
  0
LINE
  5
C0
330
1F
100
AcDbEntity
  8
LC-001-002-----0
 62
     7
370
    50
100
AcDbLine
 10
353.381486
 20
87.448077
 30
0.0
 11
351.083353
 21
85.519714
 31
0.0
  0
LINE
  5
C1
330
1F
100
AcDbEntity
  8
LC-001-002-----0
 62
     7
370
    50
100
AcDbLine
 10
363.735031
 20
98.171392
 30
0.0
 11
361.806668
 21
95.873259
 31
0.0
  0
LINE
  5
C2
330
1F
100
AcDbEntity
  8
LC-001-002-----0
 62
     7
370
    50
100
AcDbLine
 10
372.069197
 20
110.529669
 30
0.0
 11
370.569197
 21
107.931593
 31
0.0
  0
LINE
  5
C3
330
1F
100
AcDbEntity
  8
LC-001-002-----0
 62
     7
370
    50
100
AcDbLine
 10
378.130756
 20
124.147409
 30
0.0
 11
377.104696
 21
121.328332
 31
0.0
  0
ARC
  5
C4
330
1F
100
AcDbEntity
  8
LC-001-002-----0
 62
     7
370
    50
100
AcDbCircle
 10
297.274235
 20
151.98051
 30
0.0
 40
75.06283291330301
100
AcDbArc
 50
1.145033
 51
8.854967
  0
ARC
  5
C5
330
1F
100
AcDbEntity
  8
LC-001-002-----0
 62
     7
370
    50
100
AcDbCircle
 10
297.274235
 20
151.98051
 30
0.0
 40
75.06283291330298
100
AcDbArc
 50
11.145033
 51
18.854967
  0
ARC
  5
C6
330
1F
100
AcDbEntity
  8
LC-001-002-----0
 62
     7
370
    50
100
AcDbCircle
 10
297.274235
 20
151.98051
 30
0.0
 40
75.06283291330296
100
AcDbArc
 50
351.145033
 51
358.854967
  0
ARC
  5
C7
330
1F
100
AcDbEntity
  8
LC-001-002-----0
 62
     7
370
    50
100
AcDbCircle
 10
297.274235
 20
151.98051
 30
0.0
 40
75.06283291330294
100
AcDbArc
 50
341.145033
 51
348.854967
  0
ARC
  5
C8
330
1F
100
AcDbEntity
  8
LC-001-002-----0
 62
     7
370
    50
100
AcDbCircle
 10
297.274235
 20
151.98051
 30
0.0
 40
75.06283291330296
100
AcDbArc
 50
331.145033
 51
338.854967
  0
ARC
  5
C9
330
1F
100
AcDbEntity
  8
LC-001-002-----0
 62
     7
370
    50
100
AcDbCircle
 10
297.274235
 20
151.98051
 30
0.0
 40
75.06283291330297
100
AcDbArc
 50
41.145033
 51
48.854967
  0
LINE
  5
CA
330
1F
100
AcDbEntity
  8
LC-001-002-----0
 62
     7
370
    50
100
AcDbLine
 10
381.735531
 20
138.610844
 30
0.0
 11
381.214587
 21
135.656421
 31
0.0
  0
LINE
  5
CB
330
1F
100
AcDbEntity
  8
LC-001-002-----0
 62
     7
370
    50
100
AcDbLine
 10
38.77448
 20
158.980115
 30
0.0
 11
38.77448
 21
148.980216
 31
0.0
  0
ARC
  5
CC
330
1F
100
AcDbEntity
  8
LC-001-002-----0
 62
     7
370
    50
100
AcDbCircle
 10
297.274235
 20
151.98051
 30
0.0
 40
75.06283291330296
100
AcDbArc
 50
51.145033
 51
58.854967
  0
ARC
  5
CD
330
1F
100
AcDbEntity
  8
LC-001-002-----0
 62
     7
370
    50
100
AcDbCircle
 10
297.274235
 20
151.98051
 30
0.0
 40
75.06283291330291
100
AcDbArc
 50
61.145033
 51
68.854967
  0
LINE
  5
CE
330
1F
100
AcDbEntity
  8
LC-001-002-----0
 62
     7
370
    50
100
AcDbLine
 10
105.774204
 20
158.980115
 30
0.0
 11
-31.225792
 21
158.980115
 31
0.0
  0
ARC
  5
CF
330
1F
100
AcDbEntity
  8
LC-001-002-----0
 62
     7
370
    50
100
AcDbCircle
 10
297.274235
 20
151.98051
 30
0.0
 40
75.06283291330296
100
AcDbArc
 50
71.145033
 51
78.854967
  0
ARC
  5
D0
330
1F
100
AcDbEntity
  8
LC-001-002-----0
 62
     7
370
    50
100
AcDbCircle
 10
297.274235
 20
151.98051
 30
0.0
 40
75.0628329133029
100
AcDbArc
 50
81.145033
 51
88.854967
  0
ARC
  5
D1
330
1F
100
AcDbEntity
  8
LC-001-002-----0
 62
     7
370
    50
100
AcDbCircle
 10
297.274235
 20
151.98051
 30
0.0
 40
75.0628329133029
100
AcDbArc
 50
181.145033
 51
188.854967
  0
ARC
  5
D2
330
1F
100
AcDbEntity
  8
LC-001-002-----0
 62
     7
370
    50
100
AcDbCircle
 10
297.274235
 20
151.98051
 30
0.0
 40
75.06283291330298
100
AcDbArc
 50
321.145033
 51
328.854967
  0
ARC
  5
D3
330
1F
100
AcDbEntity
  8
LC-001-002-----0
 62
     7
370
    50
100
AcDbCircle
 10
297.274235
 20
151.98051
 30
0.0
 40
75.06283291330298
100
AcDbArc
 50
311.145033
 51
318.854967
  0
ARC
  5
D4
330
1F
100
AcDbEntity
  8
LC-001-002-----0
 62
     7
370
    50
100
AcDbCircle
 10
297.274235
 20
151.98051
 30
0.0
 40
75.06283291330296
100
AcDbArc
 50
301.145033
 51
308.854967
  0
ARC
  5
D5
330
1F
100
AcDbEntity
  8
LC-001-002-----0
 62
     7
370
    50
100
AcDbCircle
 10
297.274235
 20
151.98051
 30
0.0
 40
75.06283291330294
100
AcDbArc
 50
291.145033
 51
298.854967
  0
ARC
  5
D6
330
1F
100
AcDbEntity
  8
LC-001-002-----0
 62
     7
370
    50
100
AcDbCircle
 10
297.274235
 20
151.98051
 30
0.0
 40
75.06283291330291
100
AcDbArc
 50
281.145033
 51
288.854967
  0
ARC
  5
D7
330
1F
100
AcDbEntity
  8
LC-001-002-----0
 62
     7
370
    50
100
AcDbCircle
 10
297.274235
 20
151.98051
 30
0.0
 40
75.06283291330294
100
AcDbArc
 50
271.145033
 51
278.854967
  0
ARC
  5
D9
330
1F
100
AcDbEntity
  8
LC-003-002-RND-0
 62
     7
370
    50
100
AcDbCircle
 10
117.774189
 20
154.954898
 30
0.0
 40
5.000000000000005
100
AcDbArc
 50
0.000012
 51
85.0
  0
ARC
  5
DA
330
1F
100
AcDbEntity
  8
LC-001-002-----0
  6
DASHED
 62
     7
370
    25
100
AcDbCircle
 10
297.274235
 20
151.98051
 30
0.0
 40
77.99977655996388
100
AcDbArc
 50
48.898087
 51
51.101913
  0
LINE
  5
DB
330
1F
100
AcDbEntity
  8
LC-001-002-----0
 62
     7
370
    50
100
AcDbLine
 10
35.77448
 20
158.980115
 30
0.0
 11
35.77448
 21
148.98022
 31
0.0
  0
LINE
  5
DC
330
1F
100
AcDbEntity
  8
LC-001-002-----0
 62
     7
370
    50
100
AcDbLine
 10
304.774235
 20
227.657455
 30
0.0
 11
304.774235
 21
226.667717
 31
0.0
  0
LINE
  5
DD
330
1F
100
AcDbEntity
  8
LC-001-002-----0
 62
     7
370
    50
100
AcDbLine
 10
106.44918
 20
158.980115
 30
0.0
 11
105.774204
 21
158.980115
 31
0.0
  0
ARC
  5
DE
330
1F
100
AcDbEntity
  8
LC-001-002-----0
 62
     7
370
    50
100
AcDbCircle
 10
297.274235
 20
151.98051
 30
0.0
 40
76.49999999999997
100
AcDbArc
 50
84.715267
 51
88.876481
  0
ARC
  5
DF
330
1F
100
AcDbEntity
  8
LC-001-002-----0
 62
     7
370
    50
100
AcDbCircle
 10
297.274235
 20
151.98051
 30
0.0
 40
76.49999999999996
100
AcDbArc
 50
91.123519
 51
95.284733
  0
LINE
  5
E0
330
1F
100
AcDbEntity
  8
LC-001-002-----0
 62
     7
370
    50
100
AcDbLine
 10
295.774235
 20
223.464774
 30
0.0
 11
295.774235
 21
224.471639
 31
0.0
  0
LINE
  5
E1
330
1F
100
AcDbEntity
  8
LC-001-002-----0
 62
     7
370
    50
100
AcDbLine
 10
298.774235
 20
224.471639
 30
0.0
 11
298.774235
 21
223.464774
 31
0.0
  0
LINE
  5
E2
330
1F
100
AcDbEntity
  8
LC-001-002-----0
 62
     7
370
    50
100
AcDbLine
 10
286.163494
 20
223.630808
 30
0.0
 11
286.338335
 21
222.639239
 31
0.0
  0
LINE
  5
E3
330
1F
100
AcDbEntity
  8
LC-001-002-----0
 62
     7
370
    50
100
AcDbLine
 10
372.95118
 20
144.48051
 30
0.0
 11
371.961442
 21
144.48051
 31
0.0
  0
ARC
  5
E4
330
1F
100
AcDbEntity
  8
LC-001-002-----0
 62
     7
370
    50
100
AcDbCircle
 10
297.274235
 20
151.98051
 30
0.0
 40
76.50000000000003
100
AcDbArc
 50
354.715267
 51
358.876481
  0
LINE
  5
E5
330
1F
100
AcDbEntity
  8
LC-001-002-----0
 62
     7
370
    50
100
AcDbLine
 10
289.774235
 20
227.657455
 30
0.0
 11
289.774235
 21
226.667717
 31
0.0
  0
LINE
  5
E6
330
1F
100
AcDbEntity
  8
LC-001-002-----0
 62
     7
370
    50
100
AcDbLine
 10
221.59729
 20
159.48051
 30
0.0
 11
222.587028
 21
159.48051
 31
0.0
  0
ARC
  5
E7
330
1F
100
AcDbEntity
  8
LC-001-002-----0
 62
     7
370
    50
100
AcDbCircle
 10
297.274235
 20
151.98051
 30
0.0
 40
76.49999999999992
100
AcDbArc
 50
174.715267
 51
178.876481
  0
ARC
  5
E8
330
1F
100
AcDbEntity
  8
LC-001-002-----0
 62
     7
370
    50
100
AcDbCircle
 10
297.274235
 20
151.98051
 30
0.0
 40
76.5
100
AcDbArc
 50
181.123519
 51
185.284733
  0
LINE
  5
E9
330
1F
100
AcDbEntity
  8
LC-001-002-----0
 62
     7
370
    50
100
AcDbLine
 10
225.789971
 20
150.48051
 30
0.0
 11
224.783106
 21
150.48051
 31
0.0
  0
LINE
  5
EA
330
1F
100
AcDbEntity
  8
LC-001-002-----0
 62
     7
370
    50
100
AcDbLine
 10
224.783106
 20
153.48051
 30
0.0
 11
225.789971
 21
153.48051
 31
0.0
  0
LINE
  5
EB
330
1F
100
AcDbEntity
  8
LC-001-002-----0
 62
     7
370
    50
100
AcDbLine
 10
225.623937
 20
140.869769
 30
0.0
 11
226.615506
 21
141.044609
 31
0.0
  0
LINE
  5
EC
330
1F
100
AcDbEntity
  8
LC-001-002-----0
 62
     7
370
    50
100
AcDbLine
 10
221.59729
 20
144.48051
 30
0.0
 11
222.587028
 21
144.48051
 31
0.0
  0
LINE
  5
ED
330
1F
100
AcDbEntity
  8
LC-001-002-----0
 62
     7
370
    50
100
AcDbLine
 10
289.774235
 20
76.303565
 30
0.0
 11
289.774235
 21
77.293303
 31
0.0
  0
ARC
  5
EE
330
1F
100
AcDbEntity
  8
LC-001-002-----0
 62
     7
370
    50
100
AcDbCircle
 10
297.274235
 20
151.98051
 30
0.0
 40
76.49999999999989
100
AcDbArc
 50
264.715267
 51
268.876481
  0
ARC
  5
EF
330
1F
100
AcDbEntity
  8
LC-001-002-----0
 62
     7
370
    50
100
AcDbCircle
 10
297.274235
 20
151.98051
 30
0.0
 40
76.5
100
AcDbArc
 50
271.123519
 51
275.284733
  0
LINE
  5
F0
330
1F
100
AcDbEntity
  8
LC-001-002-----0
 62
     7
370
    50
100
AcDbLine
 10
298.774235
 20
80.496246
 30
0.0
 11
298.774235
 21
79.489381
 31
0.0
  0
LINE
  5
F1
330
1F
100
AcDbEntity
  8
LC-001-002-----0
 62
     7
370
    50
100
AcDbLine
 10
295.774235
 20
79.489381
 30
0.0
 11
295.774235
 21
80.496246
 31
0.0
  0
LINE
  5
F2
330
1F
100
AcDbEntity
  8
LC-001-002-----0
 62
     7
370
    50
100
AcDbLine
 10
308.384976
 20
80.330212
 30
0.0
 11
308.210136
 21
81.32178
 31
0.0
  0
LINE
  5
F3
330
1F
100
AcDbEntity
  8
LC-001-002-----0
 62
     7
370
    50
100
AcDbLine
 10
304.774235
 20
76.303565
 30
0.0
 11
304.774235
 21
77.293303
 31
0.0
  0
ARC
  5
F4
330
1F
100
AcDbEntity
  8
LC-003-002-RND-0
 62
     7
370
    50
100
AcDbCircle
 10
-43.225811
 20
154.954674
 30
0.0
 40
4.999999999999954
100
AcDbArc
 50
95.000157
 51
180.000012
  0
LINE
  5
F5
330
1F
100
AcDbEntity
  8
LC-001-002-----0
 62
     7
370
    50
100
AcDbLine
 10
50.730542
 20
158.980115
 30
0.0
 11
45.53574
 21
158.980115
 31
0.0
  0
LINE
  5
F6
330
1F
100
AcDbEntity
  8
LC-001-002-----0
 62
     7
370
    50
100
AcDbLine
 10
105.274173
 20
180.980118
 30
0.0
 11
104.274176
 21
180.980118
 31
0.0
  0
ARC
  5
F7
330
1F
100
AcDbEntity
  8
LC-001-002-----0
  6
DASHED
 62
     7
370
    25
100
AcDbCircle
 10
297.274235
 20
151.98051
 30
0.0
 40
77.99977655996385
100
AcDbArc
 50
288.898087
 51
291.101913
  0
ARC
  5
F8
330
1F
100
AcDbEntity
  8
LC-003-002-RND-0
 62
     7
370
    50
100
AcDbCircle
 10
304.274235
 20
227.657455
 30
0.0
 40
0.5
100
AcDbArc
 50
0.0
 51
84.715267
  0
ARC
  5
F9
330
1F
100
AcDbEntity
  8
LC-003-002-RND-0
 62
     7
370
    50
100
AcDbCircle
 10
290.274235
 20
227.657455
 30
0.0
 40
0.4999999999999646
100
AcDbArc
 50
95.284733
 51
180.0
  0
ARC
  5
FA
330
1F
100
AcDbEntity
  8
LC-003-002-RND-0
 62
     7
370
    50
100
AcDbCircle
 10
372.95118
 20
158.98051
 30
0.0
 40
0.5000000000000212
100
AcDbArc
 50
5.284733
 51
90.0
  0
ARC
  5
FB
330
1F
100
AcDbEntity
  8
LC-003-002-RND-0
 62
     7
370
    50
100
AcDbCircle
 10
372.95118
 20
144.98051
 30
0.0
 40
0.5
100
AcDbArc
 50
270.0
 51
354.715267
  0
ARC
  5
FC
330
1F
100
AcDbEntity
  8
LC-003-002-RND-0
 62
     7
370
    50
100
AcDbCircle
 10
304.274235
 20
76.303565
 30
0.0
 40
0.5000000000000212
100
AcDbArc
 50
275.284733
 51
0.0
  0
ARC
  5
FD
330
1F
100
AcDbEntity
  8
LC-003-002-RND-0
 62
     7
370
    50
100
AcDbCircle
 10
290.274235
 20
76.303565
 30
0.0
 40
0.5
100
AcDbArc
 50
180.0
 51
264.715267
  0
ARC
  5
FE
330
1F
100
AcDbEntity
  8
LC-003-002-RND-0
 62
     7
370
    50
100
AcDbCircle
 10
105.774204
 20
160.480115
 30
0.0
 40
1.49999999999999
100
AcDbArc
 50
180.000079
 51
270.0
  0
ARC
  5
FF
330
1F
100
AcDbEntity
  8
LC-001-002-----0
  6
DASHED
 62
     7
370
    25
100
AcDbCircle
 10
297.274235
 20
151.98051
 30
0.0
 40
77.99977655996383
100
AcDbArc
 50
128.898087
 51
131.101913
  0
LINE
  5
100
330
1F
100
AcDbEntity
  8
LC-001-002-----0
 62
     7
370
    50
100
AcDbLine
 10
26.772292
 20
158.980086
 30
0.0
 11
26.589973
 21
148.980173
 31
0.0
  0
LINE
  5
101
330
1F
100
AcDbEntity
  8
LC-001-002-----0
 62
     7
370
    50
100
AcDbLine
 10
23.817869
 20
158.980078
 30
0.0
 11
23.63555
 21
148.98016
 31
0.0
  0
LINE
  5
102
330
1F
100
AcDbEntity
  8
LC-001-002-----0
 62
     7
370
    50
100
AcDbLine
 10
15.08974
 20
158.980054
 30
0.0
 11
14.730615
 21
148.980123
 31
0.0
  0
LINE
  5
103
330
1F
100
AcDbEntity
  8
LC-001-002-----0
 62
     7
370
    50
100
AcDbLine
 10
12.270663
 20
158.980047
 30
0.0
 11
11.911537
 21
148.980111
 31
0.0
  0
LINE
  5
104
330
1F
100
AcDbEntity
  8
LC-001-002-----0
 62
     7
370
    50
100
AcDbLine
 10
80.467121
 20
158.980115
 30
0.0
 11
81.142107
 21
148.980153
 31
0.0
  0
LINE
  5
105
330
1F
100
AcDbEntity
  8
LC-001-002-----0
 62
     7
370
    50
100
AcDbLine
 10
82.765223
 20
158.980115
 30
0.0
 11
83.440241
 21
148.98015
 31
0.0
  0
LINE
  5
106
330
1F
100
AcDbEntity
  8
LC-001-002-----0
 62
     7
370
    50
100
AcDbLine
 10
97.765901
 20
158.980115
 30
0.0
 11
98.675028
 21
148.980127
 31
0.0
  0
LINE
  5
107
330
1F
100
AcDbEntity
  8
LC-001-002-----0
 62
     7
370
    50
100
AcDbLine
 10
96.26587
 20
158.980115
 30
0.0
 11
97.175032
 21
148.980129
 31
0.0
  0
LINE
  5
108
330
1F
100
AcDbEntity
  8
LC-001-002-----0
 62
     7
370
    50
100
AcDbLine
 10
101.58469
 20
158.980115
 30
0.0
 11
102.571163
 21
148.980122
 31
0.0
  0
LINE
  5
109
330
1F
100
AcDbEntity
  8
LC-001-002-----0
 62
     7
370
    50
100
AcDbLine
 10
102.61075
 20
158.980115
 30
0.0
 11
103.59722
 21
148.98012
 31
0.0
  0
LINE
  5
10A
330
1F
100
AcDbEntity
  8
LC-001-002-----0
 62
     7
370
    50
100
AcDbLine
 10
104.949414
 20
158.980115
 30
0.0
 11
105.983277
 21
148.980116
 31
0.0
  0
LINE
  5
10B
330
1F
100
AcDbEntity
  8
LC-001-002-----0
 62
     7
370
    50
100
AcDbLine
 10
105.47039
 20
158.980115
 30
0.0
 11
106.504218
 21
148.980116
 31
0.0
  0
LINE
  5
10C
330
1F
100
AcDbEntity
  8
LC-001-002-----0
 62
     7
370
    50
100
AcDbLine
 10
4.081244
 20
158.980024
 30
0.0
 11
3.556225
 21
148.980076
 31
0.0
  0
LINE
  5
10D
330
1F
100
AcDbEntity
  8
LC-001-002-----0
 62
     7
370
    50
100
AcDbLine
 10
1.483168
 20
158.980017
 30
0.0
 11
0.958149
 21
148.980065
 31
0.0
  0
LINE
  5
10E
330
1F
100
AcDbEntity
  8
LC-001-002-----0
 62
     7
370
    50
100
AcDbLine
 10
-5.91871
 20
158.979997
 30
0.0
 11
-6.593668
 21
148.980033
 31
0.0
  0
LINE
  5
10F
330
1F
100
AcDbEntity
  8
LC-001-002-----0
 62
     7
370
    50
100
AcDbLine
 10
-8.216812
 20
158.97999
 30
0.0
 11
-8.891802
 21
148.980023
 31
0.0
  0
LINE
  5
110
330
1F
100
AcDbEntity
  8
LC-001-002-----0
 62
     7
370
    50
100
AcDbLine
 10
-14.606277
 20
158.979973
 30
0.0
 11
-15.410666
 21
148.979996
 31
0.0
  0
LINE
  5
111
330
1F
100
AcDbEntity
  8
LC-001-002-----0
 62
     7
370
    50
100
AcDbLine
 10
-16.534639
 20
158.979968
 30
0.0
 11
-17.339029
 21
148.979987
 31
0.0
  0
LINE
  5
112
330
1F
100
AcDbEntity
  8
LC-001-002-----0
 62
     7
370
    50
100
AcDbLine
 10
-21.717459
 20
158.979953
 30
0.0
 11
-22.626593
 21
148.979965
 31
0.0
  0
LINE
  5
113
330
1F
100
AcDbEntity
  8
LC-001-002-----0
 62
     7
370
    50
100
AcDbLine
 10
-23.21749
 20
158.979949
 30
0.0
 11
-24.12659
 21
148.979959
 31
0.0
  0
LINE
  5
114
330
1F
100
AcDbEntity
  8
LC-001-002-----0
 62
     7
370
    50
100
AcDbLine
 10
-27.036278
 20
158.979939
 30
0.0
 11
-28.022724
 21
148.979942
 31
0.0
  0
LINE
  5
115
330
1F
100
AcDbEntity
  8
LC-001-002-----0
 62
     7
370
    50
100
AcDbLine
 10
-28.062339
 20
158.979936
 30
0.0
 11
-29.048781
 21
148.979938
 31
0.0
  0
LINE
  5
116
330
1F
100
AcDbEntity
  8
LC-001-002-----0
 62
     7
370
    50
100
AcDbLine
 10
-28.062339
 20
158.979936
 30
0.0
 11
-29.048781
 21
148.979938
 31
0.0
  0
LINE
  5
117
330
1F
100
AcDbEntity
  8
LC-001-002-----0
 62
     7
370
    50
100
AcDbLine
 10
-30.921978
 20
158.979928
 30
0.0
 11
-31.955779
 21
148.979926
 31
0.0
  0
LINE
  5
118
330
1F
100
AcDbEntity
  8
LC-001-002-----0
 62
     7
370
    50
100
AcDbLine
 10
-30.921978
 20
158.979928
 30
0.0
 11
-31.955779
 21
148.979926
 31
0.0
  0
LINE
  5
119
330
1F
100
AcDbEntity
  8
LC-001-002-----0
 62
     7
370
    50
100
AcDbLine
 10
-30.401003
 20
158.97993
 30
0.0
 11
-31.434839
 21
148.979928
 31
0.0
  0
LINE
  5
11A
330
1F
100
AcDbEntity
  8
LC-001-002-----0
 62
     7
370
    50
100
AcDbLine
 10
112.774483
 20
148.980106
 30
0.0
 11
119.774219
 21
148.980106
 31
0.0
  0
ARC
  5
11B
330
1F
100
AcDbEntity
  8
LC-001-002-----0
 62
     7
370
    50
100
AcDbCircle
 10
297.274235
 20
151.98051
 30
0.0
 40
76.50000000000013
100
AcDbArc
 50
1.123519
 51
5.284733
  0
INSERT
  5
154
330
1F
100
AcDbEntity
  8
LC-004-005-----0
 62
     7
370
    25
100
AcDbBlockReference
  2
*X12
 10
0.0
 20
0.0
 30
0.0
  0
LINE
  5
155
330
1F
100
AcDbEntity
  8
LC-001-002-----0
 62
     7
370
    50
100
AcDbLine
 10
108.774453
 20
147.529729
 30
0.0
 11
108.772344
 21
119.980638
 31
0.0
  0
ARC
  5
156
330
1F
100
AcDbEntity
  8
LC-003-002-RND-0
 62
     7
370
    50
100
AcDbCircle
 10
-31.225796
 20
160.479927
 30
0.0
 40
1.500000000000017
100
AcDbArc
 50
270.000157
 51
0.000079
  0
LINE
  5
157
330
1F
100
AcDbEntity
  8
LC-001-002-----0
 62
     7
370
    50
100
AcDbLine
 10
115.274236
 20
148.980106
 30
0.0
 11
115.274257
 21
141.480395
 31
0.0
  0
LINE
  5
158
102
{ACAD_REACTORS
330
236
102
}
330
1F
100
AcDbEntity
  8
LC-001-002-----0
 62
     7
370
    50
100
AcDbLine
 10
111.774503
 20
132.479774
 30
0.0
 11
111.837314
 21
132.479774
 31
0.0
  0
ARC
  5
159
330
1F
100
AcDbEntity
  8
LC-003-002-RND-0
 62
     7
370
    50
100
AcDbCircle
 10
111.837317
 20
132.979774
 30
0.0
 40
0.499999999999966
100
AcDbArc
 50
269.999641
 51
0.000079
  0
LINE
  5
15A
330
1F
100
AcDbEntity
  8
LC-001-002-----0
  6
DASHED
 62
     7
370
    25
100
AcDbLine
 10
-31.894094
 20
159.056219
 30
0.0
 11
-31.736118
 21
160.861956
 31
0.0
  0
ARC
  5
15B
330
1F
100
AcDbEntity
  8
LC-003-002-RND-0
 62
     7
370
    50
100
AcDbCircle
 10
112.774481
 20
147.980106
 30
0.0
 40
1.000000000000005
100
AcDbArc
 50
89.999916
 51
180.000079
  0
LINE
  5
15C
330
1F
100
AcDbEntity
  8
LC-001-002-----0
 62
     7
370
    50
100
AcDbLine
 10
-31.900769
 20
158.979926
 30
0.0
 11
-31.225792
 21
158.979927
 31
0.0
  0
LINE
  5
15D
330
1F
100
AcDbEntity
  8
LC-001-002-----0
 62
     7
370
    50
100
AcDbLine
 10
-31.900769
 20
158.979926
 30
0.0
 11
-32.775628
 21
148.979922
 31
0.0
  0
LINE
  5
15E
330
1F
100
AcDbEntity
  8
LC-001-002-----0
 62
     7
370
    50
100
AcDbLine
 10
-37.22604
 20
147.98033
 30
0.0
 11
-37.226005
 21
122.480119
 31
0.0
  0
LINE
  5
15F
330
1F
100
AcDbEntity
  8
LC-001-002-----0
 62
     7
370
    50
100
AcDbLine
 10
50.730542
 20
158.980115
 30
0.0
 11
50.912889
 21
148.980198
 31
0.0
  0
LINE
  5
160
330
1F
100
AcDbEntity
  8
LC-001-002-----0
 62
     7
370
    50
100
AcDbLine
 10
47.776119
 20
158.980115
 30
0.0
 11
47.958466
 21
148.980202
 31
0.0
  0
LINE
  5
161
330
1F
100
AcDbEntity
  8
LC-001-002-----0
 62
     7
370
    50
100
AcDbLine
 10
-32.775593
 20
148.980321
 30
0.0
 11
107.324067
 21
148.980115
 31
0.0
  0
LINE
  5
162
330
1F
100
AcDbEntity
  8
LC-001-002-----0
 62
     7
370
    50
100
AcDbLine
 10
59.458671
 20
158.980115
 30
0.0
 11
59.817824
 21
148.980185
 31
0.0
  0
LINE
  5
163
330
1F
100
AcDbEntity
  8
LC-001-002-----0
 62
     7
370
    50
100
AcDbLine
 10
62.277749
 20
158.980115
 30
0.0
 11
62.636902
 21
148.98018
 31
0.0
  0
LINE
  5
164
330
1F
100
AcDbEntity
  8
LC-001-002-----0
 62
     7
370
    50
100
AcDbLine
 10
70.467168
 20
158.980115
 30
0.0
 11
70.992214
 21
148.980168
 31
0.0
  0
ARC
  5
165
330
1F
100
AcDbEntity
  8
LC-003-002-RND-0
 62
     7
370
    50
100
AcDbCircle
 10
-38.22604
 20
147.980329
 30
0.0
 40
1.000000000000031
100
AcDbArc
 50
0.000079
 51
89.999916
  0
LINE
  5
166
330
1F
100
AcDbEntity
  8
LC-001-002-----0
 62
     7
370
    50
100
AcDbLine
 10
73.065244
 20
158.980115
 30
0.0
 11
73.59029
 21
148.980164
 31
0.0
  0
LINE
  5
167
330
1F
100
AcDbEntity
  8
LC-001-002-----0
 62
     7
370
    50
100
AcDbLine
 10
-32.775628
 20
148.979922
 30
0.0
 11
-34.22601
 21
147.529533
 31
0.0
  0
LINE
  5
168
330
1F
100
AcDbEntity
  8
LC-001-002-----0
 62
     7
370
    50
100
AcDbLine
 10
-37.288834
 20
132.48019
 30
0.0
 11
-37.226019
 21
132.480191
 31
0.0
  0
LINE
  5
169
330
1F
100
AcDbEntity
  8
LC-001-002-----0
 62
     7
370
    50
100
AcDbLine
 10
-31.725823
 20
179.980319
 30
0.0
 11
-30.725827
 21
180.980318
 31
0.0
  0
LINE
  5
16A
330
1F
100
AcDbEntity
  8
LC-001-002-----0
 62
     7
370
    50
100
AcDbLine
 10
-38.225985
 20
119.980117
 30
0.0
 11
-34.225972
 21
119.979933
 31
0.0
  0
LINE
  5
16B
330
1F
100
AcDbEntity
  8
LC-001-002-----0
 62
     7
370
    50
100
AcDbLine
 10
91.083051
 20
158.980115
 30
0.0
 11
91.887468
 21
148.980137
 31
0.0
  0
CIRCLE
  5
16C
330
1F
100
AcDbEntity
  8
LC-001-002-----0
 62
     7
370
    50
100
AcDbCircle
 10
297.274235
 20
151.98051
 30
0.0
 40
68.99975752856004
  0
LINE
  5
16D
330
1F
100
AcDbEntity
  8
LC-001-002-----0
 62
     7
370
    50
100
AcDbLine
 10
89.154688
 20
158.980115
 30
0.0
 11
89.959105
 21
148.98014
 31
0.0
  0
CIRCLE
  5
16E
330
1F
100
AcDbEntity
  8
LC-001-002-----0
 62
     7
370
    50
100
AcDbCircle
 10
297.274235
 20
151.98051
 30
0.0
 40
67.99969263622675
  0
LINE
  5
16F
330
1F
100
AcDbEntity
  8
LC-001-002-----0
 62
     7
370
    50
100
AcDbLine
 10
271.416768
 20
218.637609
 30
0.0
 11
271.07127
 21
219.586859
 31
0.0
  0
LINE
  5
170
330
1F
100
AcDbEntity
  8
LC-001-002-----0
 62
     7
370
    50
100
AcDbLine
 10
260.234718
 20
213.134836
 30
0.0
 11
259.729633
 21
214.009669
 31
0.0
  0
LINE
  5
171
330
1F
100
AcDbEntity
  8
LC-001-002-----0
 62
     7
370
    50
100
AcDbLine
 10
250.178094
 20
205.77392
 30
0.0
 11
249.528769
 21
206.547755
 31
0.0
  0
LINE
  5
172
330
1F
100
AcDbEntity
  8
LC-001-002-----0
 62
     7
370
    50
100
AcDbLine
 10
241.552462
 20
196.778518
 30
0.0
 11
240.778627
 21
197.427843
 31
0.0
  0
LINE
  5
173
330
1F
100
AcDbEntity
  8
LC-001-002-----0
 62
     7
370
    50
100
AcDbLine
 10
236.782814
 20
185.173197
 30
0.0
 11
233.745076
 21
186.927036
 31
0.0
  0
LINE
  5
174
330
1F
100
AcDbEntity
  8
LC-001-002-----0
 62
     7
370
    50
100
AcDbLine
 10
228.290784
 20
150.48051
 30
0.0
 11
224.783106
 21
150.48051
 31
0.0
  0
LINE
  5
175
330
1F
100
AcDbEntity
  8
LC-001-002-----0
 62
     7
370
    50
100
AcDbLine
 10
227.139705
 20
138.09076
 30
0.0
 11
226.144882
 21
137.915346
 31
0.0
  0
LINE
  5
176
330
1F
100
AcDbEntity
  8
LC-001-002-----0
 62
     7
370
    50
100
AcDbLine
 10
230.617136
 20
126.123043
 30
0.0
 11
229.667886
 21
125.777544
 31
0.0
  0
LINE
  5
177
330
1F
100
AcDbEntity
  8
LC-001-002-----0
 62
     7
370
    50
100
AcDbLine
 10
238.282814
 20
116.189746
 30
0.0
 11
235.245076
 21
114.435907
 31
0.0
  0
LINE
  5
178
330
1F
100
AcDbEntity
  8
LC-001-002-----0
 62
     7
370
    50
100
AcDbLine
 10
243.480825
 20
104.884368
 30
0.0
 11
242.70699
 21
104.235043
 31
0.0
  0
LINE
  5
179
330
1F
100
AcDbEntity
  8
LC-001-002-----0
 62
     7
370
    50
100
AcDbLine
 10
252.476227
 20
96.258737
 30
0.0
 11
251.826902
 21
95.484902
 31
0.0
  0
LINE
  5
17A
330
1F
100
AcDbEntity
  8
LC-001-002-----0
 62
     7
370
    50
100
AcDbLine
 10
262.832794
 20
89.326183
 30
0.0
 11
262.327709
 21
88.45135
 31
0.0
  0
LINE
  5
17B
330
1F
100
AcDbEntity
  8
LC-001-002-----0
 62
     7
370
    50
100
AcDbLine
 10
274.235846
 20
84.29735
 30
0.0
 11
273.890348
 21
83.3481
 31
0.0
  0
LINE
  5
17C
330
1F
100
AcDbEntity
  8
LC-001-002-----0
 62
     7
370
    50
100
AcDbLine
 10
286.338909
 20
81.325035
 30
0.0
 11
286.163494
 21
80.330212
 31
0.0
  0
LINE
  5
17D
330
1F
100
AcDbEntity
  8
LC-001-002-----0
 62
     7
370
    50
100
AcDbLine
 10
298.774235
 20
80.496246
 30
0.0
 11
298.774235
 21
79.489381
 31
0.0
  0
LINE
  5
17E
330
1F
100
AcDbEntity
  8
LC-001-002-----0
 62
     7
370
    50
100
AcDbLine
 10
311.163985
 20
81.845979
 30
0.0
 11
311.339399
 21
80.851156
 31
0.0
  0
LINE
  5
17F
330
1F
100
AcDbEntity
  8
LC-001-002-----0
 62
     7
370
    50
100
AcDbLine
 10
323.131702
 20
85.32341
 30
0.0
 11
323.477201
 21
84.374161
 31
0.0
  0
LINE
  5
180
330
1F
100
AcDbEntity
  8
LC-001-002-----0
 62
     7
370
    50
100
AcDbLine
 10
334.313753
 20
90.826183
 30
0.0
 11
334.818838
 21
89.95135
 31
0.0
  0
LINE
  5
181
330
1F
100
AcDbEntity
  8
LC-001-002-----0
 62
     7
370
    50
100
AcDbLine
 10
344.370377
 20
98.1871
 30
0.0
 11
345.019701
 21
97.413265
 31
0.0
  0
LINE
  5
182
330
1F
100
AcDbEntity
  8
LC-001-002-----0
 62
     7
370
    50
100
AcDbLine
 10
352.996008
 20
107.182502
 30
0.0
 11
353.769843
 21
106.533177
 31
0.0
  0
LINE
  5
183
330
1F
100
AcDbEntity
  8
LC-001-002-----0
 62
     7
370
    50
100
AcDbLine
 10
359.928562
 20
117.539068
 30
0.0
 11
360.803395
 21
117.033983
 31
0.0
  0
LINE
  5
184
330
1F
100
AcDbEntity
  8
LC-001-002-----0
 62
     7
370
    50
100
AcDbLine
 10
364.957395
 20
128.942121
 30
0.0
 11
365.906645
 21
128.596622
 31
0.0
  0
LINE
  5
185
330
1F
100
AcDbEntity
  8
LC-001-002-----0
 62
     7
370
    50
100
AcDbLine
 10
367.932965
 20
141.044609
 30
0.0
 11
368.924533
 21
140.869769
 31
0.0
  0
LINE
  5
186
330
1F
100
AcDbEntity
  8
LC-001-002-----0
 62
     7
370
    50
100
AcDbLine
 10
368.758499
 20
153.48051
 30
0.0
 11
369.765364
 21
153.48051
 31
0.0
  0
LINE
  5
187
330
1F
100
AcDbEntity
  8
LC-001-002-----0
 62
     7
370
    50
100
AcDbLine
 10
367.408766
 20
165.87026
 30
0.0
 11
368.403589
 21
166.045674
 31
0.0
  0
LINE
  5
188
330
1F
100
AcDbEntity
  8
LC-001-002-----0
 62
     7
370
    50
100
AcDbLine
 10
363.931335
 20
177.837977
 30
0.0
 11
364.880584
 21
178.183475
 31
0.0
  0
LINE
  5
189
330
1F
100
AcDbEntity
  8
LC-001-002-----0
 62
     7
370
    50
100
AcDbLine
 10
358.428562
 20
189.020027
 30
0.0
 11
359.303395
 21
189.525112
 31
0.0
  0
LINE
  5
18A
330
1F
100
AcDbEntity
  8
LC-001-002-----0
 62
     7
370
    50
100
AcDbLine
 10
351.067645
 20
199.076651
 30
0.0
 11
351.84148
 21
199.725976
 31
0.0
  0
LINE
  5
18B
330
1F
100
AcDbEntity
  8
LC-001-002-----0
 62
     7
370
    50
100
AcDbLine
 10
342.072243
 20
207.702283
 30
0.0
 11
342.721568
 21
208.476118
 31
0.0
  0
LINE
  5
18C
330
1F
100
AcDbEntity
  8
LC-001-002-----0
 62
     7
370
    50
100
AcDbLine
 10
331.715677
 20
214.634836
 30
0.0
 11
332.220762
 21
215.509669
 31
0.0
  0
LINE
  5
18D
330
1F
100
AcDbEntity
  8
LC-001-002-----0
 62
     7
370
    50
100
AcDbLine
 10
320.312624
 20
219.66367
 30
0.0
 11
320.658123
 21
220.612919
 31
0.0
  0
LINE
  5
18E
330
1F
100
AcDbEntity
  8
LC-001-002-----0
 62
     7
370
    50
100
AcDbLine
 10
308.210136
 20
222.639239
 30
0.0
 11
308.384976
 21
223.630808
 31
0.0
  0
LINE
  5
18F
330
1F
100
AcDbEntity
  8
LC-001-002-----0
 62
     7
370
    50
100
AcDbLine
 10
273.890348
 20
220.612919
 30
0.0
 11
274.235846
 21
219.66367
 31
0.0
  0
LINE
  5
190
330
1F
100
AcDbEntity
  8
LC-001-002-----0
 62
     7
370
    50
100
AcDbLine
 10
262.327709
 20
215.509669
 30
0.0
 11
262.832794
 21
214.634836
 31
0.0
  0
LINE
  5
191
330
1F
100
AcDbEntity
  8
LC-001-002-----0
 62
     7
370
    50
100
AcDbLine
 10
251.826902
 20
208.476118
 30
0.0
 11
252.476227
 21
207.702283
 31
0.0
  0
LINE
  5
192
330
1F
100
AcDbEntity
  8
LC-001-002-----0
 62
     7
370
    50
100
AcDbLine
 10
242.70699
 20
199.725976
 30
0.0
 11
243.480825
 21
199.076651
 31
0.0
  0
LINE
  5
193
330
1F
100
AcDbEntity
  8
LC-001-002-----0
 62
     7
370
    50
100
AcDbLine
 10
235.245076
 20
189.525112
 30
0.0
 11
236.119909
 21
189.020027
 31
0.0
  0
LINE
  5
194
330
1F
100
AcDbEntity
  8
LC-001-002-----0
 62
     7
370
    50
100
AcDbLine
 10
226.144882
 20
166.045674
 30
0.0
 11
229.59927
 21
165.436572
 31
0.0
  0
LINE
  5
195
330
1F
100
AcDbEntity
  8
LC-001-002-----0
 62
     7
370
    50
100
AcDbLine
 10
224.783106
 20
153.48051
 30
0.0
 11
228.290784
 21
153.48051
 31
0.0
  0
LINE
  5
196
330
1F
100
AcDbEntity
  8
LC-001-002-----0
 62
     7
370
    50
100
AcDbLine
 10
225.623937
 20
140.869769
 30
0.0
 11
226.615506
 21
141.044609
 31
0.0
  0
LINE
  5
197
330
1F
100
AcDbEntity
  8
LC-001-002-----0
 62
     7
370
    50
100
AcDbLine
 10
228.641826
 20
128.596622
 30
0.0
 11
229.591075
 21
128.942121
 31
0.0
  0
LINE
  5
198
330
1F
100
AcDbEntity
  8
LC-001-002-----0
 62
     7
370
    50
100
AcDbLine
 10
233.745076
 20
117.033983
 30
0.0
 11
234.619909
 21
117.539068
 31
0.0
  0
LINE
  5
199
330
1F
100
AcDbEntity
  8
LC-001-002-----0
 62
     7
370
    50
100
AcDbLine
 10
240.778627
 20
106.533177
 30
0.0
 11
243.465664
 21
108.787869
 31
0.0
  0
LINE
  5
19A
330
1F
100
AcDbEntity
  8
LC-001-002-----0
 62
     7
370
    50
100
AcDbLine
 10
249.528769
 20
97.413265
 30
0.0
 11
250.178094
 21
98.1871
 31
0.0
  0
LINE
  5
19B
330
1F
100
AcDbEntity
  8
LC-001-002-----0
 62
     7
370
    50
100
AcDbLine
 10
259.729633
 20
89.95135
 30
0.0
 11
260.234718
 21
90.826183
 31
0.0
  0
LINE
  5
19C
330
1F
100
AcDbEntity
  8
LC-001-002-----0
 62
     7
370
    50
100
AcDbLine
 10
271.07127
 20
84.374161
 30
0.0
 11
271.416768
 21
85.32341
 31
0.0
  0
LINE
  5
19D
330
1F
100
AcDbEntity
  8
LC-001-002-----0
 62
     7
370
    50
100
AcDbLine
 10
283.209071
 20
80.851156
 30
0.0
 11
283.384485
 21
81.845979
 31
0.0
  0
LINE
  5
19E
330
1F
100
AcDbEntity
  8
LC-001-002-----0
 62
     7
370
    50
100
AcDbLine
 10
295.774235
 20
79.489381
 30
0.0
 11
295.774235
 21
80.499551
 31
0.0
  0
LINE
  5
19F
330
1F
100
AcDbEntity
  8
LC-001-002-----0
 62
     7
370
    50
100
AcDbLine
 10
308.384976
 20
80.330212
 30
0.0
 11
308.210136
 21
81.32178
 31
0.0
  0
LINE
  5
1A0
330
1F
100
AcDbEntity
  8
LC-001-002-----0
 62
     7
370
    50
100
AcDbLine
 10
320.658123
 20
83.3481
 30
0.0
 11
320.312624
 21
84.29735
 31
0.0
  0
LINE
  5
1A1
330
1F
100
AcDbEntity
  8
LC-001-002-----0
 62
     7
370
    50
100
AcDbLine
 10
332.220762
 20
88.45135
 30
0.0
 11
331.715677
 21
89.326183
 31
0.0
  0
LINE
  5
1A2
330
1F
100
AcDbEntity
  8
LC-001-002-----0
 62
     7
370
    50
100
AcDbLine
 10
342.721568
 20
95.484902
 30
0.0
 11
342.072243
 21
96.258737
 31
0.0
  0
LINE
  5
1A3
330
1F
100
AcDbEntity
  8
LC-001-002-----0
 62
     7
370
    50
100
AcDbLine
 10
351.84148
 20
104.235043
 30
0.0
 11
351.067645
 21
104.884368
 31
0.0
  0
LINE
  5
1A4
330
1F
100
AcDbEntity
  8
LC-001-002-----0
 62
     7
370
    50
100
AcDbLine
 10
359.303395
 20
114.435907
 30
0.0
 11
358.428562
 21
114.940992
 31
0.0
  0
LINE
  5
1A5
330
1F
100
AcDbEntity
  8
LC-001-002-----0
 62
     7
370
    50
100
AcDbLine
 10
364.880584
 20
125.777544
 30
0.0
 11
363.931335
 21
126.123043
 31
0.0
  0
DIMENSION
  5
1A7
330
1F
100
AcDbEntity
  8
LC-002-003-----0
 62
     7
370
    25
100
AcDbDimension
  2
*D3
 10
122.77419
 20
49.896
 30
0.0
 11
20.152031
 21
80.696
 31
0.0
 70
   160
  1
%%c170
 71
     5
 42
171.0
  3
LC-DIM-L-0140-01-02
100
AcDbAlignedDimension
 13
-48.22581
 23
150.712407
 33
0.0
 14
122.77419
 24
150.71213
 34
0.0
100
AcDbRotatedDimension
  0
LINE
  5
1B4
330
1F
100
AcDbEntity
  8
LC-001-002-----0
 62
     7
370
    50
100
AcDbLine
 10
368.403589
 20
137.915346
 30
0.0
 11
367.408766
 21
138.09076
 31
0.0
  0
LINE
  5
1B5
330
1F
100
AcDbEntity
  8
LC-001-002-----0
 62
     7
370
    50
100
AcDbLine
 10
369.765364
 20
150.48051
 30
0.0
 11
368.758499
 21
150.48051
 31
0.0
  0
LINE
  5
1B6
330
1F
100
AcDbEntity
  8
LC-001-002-----0
 62
     7
370
    50
100
AcDbLine
 10
368.924533
 20
163.091251
 30
0.0
 11
367.932965
 21
162.91641
 31
0.0
  0
LINE
  5
1B7
330
1F
100
AcDbEntity
  8
LC-001-002-----0
 62
     7
370
    50
100
AcDbLine
 10
365.906645
 20
175.364397
 30
0.0
 11
364.957395
 21
175.018899
 31
0.0
  0
LINE
  5
1B8
330
1F
100
AcDbEntity
  8
LC-001-002-----0
 62
     7
370
    50
100
AcDbLine
 10
360.803395
 20
186.927036
 30
0.0
 11
359.928562
 21
186.421951
 31
0.0
  0
LINE
  5
1B9
330
1F
100
AcDbEntity
  8
LC-001-002-----0
 62
     7
370
    50
100
AcDbLine
 10
353.769843
 20
197.427843
 30
0.0
 11
352.996008
 21
196.778518
 31
0.0
  0
LINE
  5
1BA
330
1F
100
AcDbEntity
  8
LC-001-002-----0
 62
     7
370
    50
100
AcDbLine
 10
345.019701
 20
206.547755
 30
0.0
 11
344.370377
 21
205.77392
 31
0.0
  0
LINE
  5
1BB
330
1F
100
AcDbEntity
  8
LC-001-002-----0
 62
     7
370
    50
100
AcDbLine
 10
334.818838
 20
214.009669
 30
0.0
 11
334.313753
 21
213.134836
 31
0.0
  0
LINE
  5
1BC
330
1F
100
AcDbEntity
  8
LC-001-002-----0
 62
     7
370
    50
100
AcDbLine
 10
323.477201
 20
219.586859
 30
0.0
 11
323.131702
 21
218.637609
 31
0.0
  0
LINE
  5
1BD
330
1F
100
AcDbEntity
  8
LC-001-002-----0
 62
     7
370
    50
100
AcDbLine
 10
311.339399
 20
223.109863
 30
0.0
 11
311.163985
 21
222.11504
 31
0.0
  0
ARC
  5
1BE
330
1F
100
AcDbEntity
  8
LC-003-002-RND-0
 62
     7
370
    50
100
AcDbCircle
 10
-37.726005
 20
122.480119
 30
0.0
 40
0.4999999999998295
100
AcDbArc
 50
270.0
 51
0.000079
  0
LINE
  5
1BF
330
1F
100
AcDbEntity
  8
LC-001-002-----0
 62
     7
370
    50
100
AcDbLine
 10
-38.225976
 20
121.980117
 30
0.0
 11
-37.726003
 21
121.980118
 31
0.0
  0
ARC
  5
1C0
330
1F
100
AcDbEntity
  8
LC-003-002-RND-0
 62
     7
370
    50
100
AcDbCircle
 10
221.59729
 20
158.98051
 30
0.0
 40
0.5
100
AcDbArc
 50
90.0
 51
174.715267
  0
ARC
  5
1C1
330
1F
100
AcDbEntity
  8
LC-003-002-RND-0
 62
     7
370
    50
100
AcDbCircle
 10
221.59729
 20
144.98051
 30
0.0
 40
0.5000000000000212
100
AcDbArc
 50
185.284733
 51
270.0
  0
ARC
  5
1C2
330
1F
100
AcDbEntity
  8
LC-001-002-----0
 62
     7
370
    50
100
AcDbCircle
 10
297.274235
 20
151.98051
 30
0.0
 40
70.12037374848117
100
AcDbArc
 50
11.225753
 51
18.774247
  0
ARC
  5
1C3
330
1F
100
AcDbEntity
  8
LC-001-002-----0
 62
     7
370
    50
100
AcDbCircle
 10
297.274235
 20
151.98051
 30
0.0
 40
70.12037374848117
100
AcDbArc
 50
351.225753
 51
358.774247
  0
LINE
  5
1C4
330
1F
100
AcDbEntity
  8
LC-001-002-----0
 62
     7
370
    50
100
AcDbLine
 10
372.95118
 20
159.48051
 30
0.0
 11
371.961442
 21
159.48051
 31
0.0
  0
ARC
  5
1C5
330
1F
100
AcDbEntity
  8
LC-001-002-----0
 62
     7
370
    50
100
AcDbCircle
 10
297.274235
 20
151.98051
 30
0.0
 40
70.1203737484812
100
AcDbArc
 50
341.225753
 51
348.774247
  0
ARC
  5
1C6
330
1F
100
AcDbEntity
  8
LC-001-002-----0
 62
     7
370
    50
100
AcDbCircle
 10
297.274235
 20
151.98051
 30
0.0
 40
70.12037374848117
100
AcDbArc
 50
331.225753
 51
338.774247
  0
ARC
  5
1C7
330
1F
100
AcDbEntity
  8
LC-001-002-----0
 62
     7
370
    50
100
AcDbCircle
 10
297.274235
 20
151.98051
 30
0.0
 40
70.12037374848114
100
AcDbArc
 50
1.225753
 51
8.774247
  0
ARC
  5
1C8
330
1F
100
AcDbEntity
  8
LC-001-002-----0
 62
     7
370
    50
100
AcDbCircle
 10
297.274235
 20
151.98051
 30
0.0
 40
70.1203737484812
100
AcDbArc
 50
321.225753
 51
328.774247
  0
ARC
  5
1C9
330
1F
100
AcDbEntity
  8
LC-001-002-----0
 62
     7
370
    50
100
AcDbCircle
 10
297.274235
 20
151.98051
 30
0.0
 40
70.12037374848117
100
AcDbArc
 50
311.225753
 51
318.774247
  0
ARC
  5
1CA
330
1F
100
AcDbEntity
  8
LC-001-002-----0
 62
     7
370
    50
100
AcDbCircle
 10
297.274235
 20
151.98051
 30
0.0
 40
70.12037374848109
100
AcDbArc
 50
301.225753
 51
308.774247
  0
ARC
  5
1CB
330
1F
100
AcDbEntity
  8
LC-001-002-----0
 62
     7
370
    50
100
AcDbCircle
 10
297.274235
 20
151.98051
 30
0.0
 40
70.12037374848111
100
AcDbArc
 50
291.225753
 51
298.774247
  0
ARC
  5
1CC
330
1F
100
AcDbEntity
  8
LC-001-002-----0
 62
     7
370
    50
100
AcDbCircle
 10
297.274235
 20
151.98051
 30
0.0
 40
70.12037374848114
100
AcDbArc
 50
281.225753
 51
288.774247
  0
ARC
  5
1CD
330
1F
100
AcDbEntity
  8
LC-001-002-----0
 62
     7
370
    50
100
AcDbCircle
 10
297.274235
 20
151.98051
 30
0.0
 40
70.12037374848111
100
AcDbArc
 50
271.225753
 51
278.774247
  0
ARC
  5
1CE
330
1F
100
AcDbEntity
  8
LC-001-002-----0
 62
     7
370
    50
100
AcDbCircle
 10
297.274235
 20
151.98051
 30
0.0
 40
70.12037374848113
100
AcDbArc
 50
261.225753
 51
268.774247
  0
ARC
  5
1CF
330
1F
100
AcDbEntity
  8
LC-001-002-----0
 62
     7
370
    50
100
AcDbCircle
 10
297.274235
 20
151.98051
 30
0.0
 40
70.12037374848109
100
AcDbArc
 50
251.225753
 51
258.774247
  0
ARC
  5
1D0
330
1F
100
AcDbEntity
  8
LC-001-002-----0
 62
     7
370
    50
100
AcDbCircle
 10
297.274235
 20
151.98051
 30
0.0
 40
70.12037374848111
100
AcDbArc
 50
241.225753
 51
248.774247
  0
ARC
  5
1D1
330
1F
100
AcDbEntity
  8
LC-001-002-----0
 62
     7
370
    50
100
AcDbCircle
 10
297.274235
 20
151.98051
 30
0.0
 40
70.12037374848113
100
AcDbArc
 50
231.225753
 51
238.774247
  0
ARC
  5
1D2
330
1F
100
AcDbEntity
  8
LC-001-002-----0
 62
     7
370
    50
100
AcDbCircle
 10
297.274235
 20
151.98051
 30
0.0
 40
70.12037374848114
100
AcDbArc
 50
221.225753
 51
228.774247
  0
ARC
  5
1D3
330
1F
100
AcDbEntity
  8
LC-003-002-RND-0
 62
     7
370
    50
100
AcDbCircle
 10
-38.225939
 20
120.980117
 30
0.0
 40
1.000000000000114
100
AcDbArc
 50
90.0
 51
180.000079
  0
ARC
  5
1D4
330
1F
100
AcDbEntity
  8
LC-003-002-RND-0
 62
     7
370
    50
100
AcDbCircle
 10
112.774455
 20
120.980324
 30
0.0
 40
1.000000000000031
100
AcDbArc
 50
0.000079
 51
90.000157
  0
LINE
  5
1D6
102
{ACAD_REACTORS
330
236
102
}
330
1F
100
AcDbEntity
  8
LC-005-002-___-0
 62
     7
370
    25
100
AcDbLine
 10
-31.707683
 20
132.480181
 30
0.0
 11
-33.725495
 21
132.480181
 31
0.0
  0
ARC
  5
1D7
330
1F
100
AcDbEntity
  8
LC-003-002-RND-0
 62
     7
370
    50
100
AcDbCircle
 10
112.774455
 20
120.980324
 30
0.0
 40
0.9999999999998975
100
AcDbArc
 50
270.000157
 51
0.000079
  0
LINE
  5
1D8
102
{ACAD_REACTORS
330
235
102
}
330
1F
100
AcDbEntity
  8
LC-001-002-----0
 62
     7
370
    50
100
AcDbLine
 10
112.778362
 20
119.980332
 30
0.0
 11
108.772344
 21
119.980638
 31
0.0
  0
ARC
  5
1D9
330
1F
100
AcDbEntity
  8
LC-001-002-----0
 62
     7
370
    50
100
AcDbCircle
 10
297.274235
 20
151.98051
 30
0.0
 40
70.12037374848114
100
AcDbArc
 50
211.225753
 51
218.774247
  0
LINE
  5
1DA
102
{ACAD_REACTORS
330
235
102
}
330
1F
100
AcDbEntity
  8
LC-001-002-----0
 62
     7
370
    50
100
AcDbLine
 10
111.837318
 20
132.480395
 30
0.0
 11
111.774503
 21
132.480181
 31
0.0
  0
ARC
  5
1DB
330
1F
100
AcDbEntity
  8
LC-003-002-RND-0
 62
     7
370
    50
100
AcDbCircle
 10
112.274516
 20
122.480324
 30
0.0
 40
0.5000000000000155
100
AcDbArc
 50
180.000079
 51
270.000157
  0
ARC
  5
1DC
330
1F
100
AcDbEntity
  8
LC-001-002-----0
 62
     7
370
    50
100
AcDbCircle
 10
297.274235
 20
151.98051
 30
0.0
 40
70.12037374848111
100
AcDbArc
 50
201.225753
 51
208.774247
  0
ARC
  5
1DD
330
1F
100
AcDbEntity
  8
LC-001-002-----0
 62
     7
370
    50
100
AcDbCircle
 10
297.274235
 20
151.98051
 30
0.0
 40
70.12037374848117
100
AcDbArc
 50
191.225753
 51
198.774247
  0
ARC
  5
1DE
330
1F
100
AcDbEntity
  8
LC-001-002-----0
 62
     7
370
    50
100
AcDbCircle
 10
297.274235
 20
151.98051
 30
0.0
 40
70.12037374848114
100
AcDbArc
 50
181.225753
 51
188.774247
  0
ARC
  5
1DF
330
1F
100
AcDbEntity
  8
LC-001-002-----0
 62
     7
370
    50
100
AcDbCircle
 10
297.274235
 20
151.98051
 30
0.0
 40
70.12037374848111
100
AcDbArc
 50
171.225753
 51
178.774247
  0
LINE
  5
1E0
330
1F
100
AcDbEntity
  8
LC-001-002-----0
 62
     7
370
    50
100
AcDbLine
 10
112.337305
 20
141.480387
 30
0.0
 11
112.337317
 21
132.979775
 31
0.0
  0
ARC
  5
1E1
330
1F
100
AcDbEntity
  8
LC-001-002-----0
 62
     7
370
    50
100
AcDbCircle
 10
297.274235
 20
151.98051
 30
0.0
 40
70.12037374848113
100
AcDbArc
 50
161.225753
 51
168.774247
  0
ARC
  5
1E2
330
1F
100
AcDbEntity
  8
LC-001-002-----0
 62
     7
370
    50
100
AcDbCircle
 10
297.274235
 20
151.98051
 30
0.0
 40
70.12037374848116
100
AcDbArc
 50
151.225753
 51
158.774247
  0
LINE
  5
1E3
330
1F
100
AcDbEntity
  8
LC-001-002-----0
 62
     7
370
    50
100
AcDbLine
 10
111.774481
 20
147.980105
 30
0.0
 11
111.774516
 21
122.480324
 31
0.0
  0
ARC
  5
1E4
330
1F
100
AcDbEntity
  8
LC-001-002-----0
 62
     7
370
    50
100
AcDbCircle
 10
297.274235
 20
151.98051
 30
0.0
 40
70.12037374848114
100
AcDbArc
 50
141.225753
 51
148.774247
  0
LINE
  5
1E6
102
{ACAD_REACTORS
330
236
102
}
330
1F
100
AcDbEntity
  8
LC-001-002-----0
  6
DASHDOT
 62
     7
370
    25
100
AcDbLine
 10
37.274172
 20
183.618007
 30
0.0
 11
37.274263
 21
116.939622
 31
0.0
  0
ARC
  5
1E7
330
1F
100
AcDbEntity
  8
LC-001-002-----0
 62
     7
370
    50
100
AcDbCircle
 10
297.274235
 20
151.98051
 30
0.0
 40
70.12037374848116
100
AcDbArc
 50
131.225753
 51
138.774247
  0
ARC
  5
1E8
330
1F
100
AcDbEntity
  8
LC-003-002-RND-0
 62
     7
370
    50
100
AcDbCircle
 10
-38.225939
 20
120.980117
 30
0.0
 40
1.000000000000031
100
AcDbArc
 50
180.000079
 51
270.0
  0
LINE
  5
1E9
330
1F
100
AcDbEntity
  8
LC-001-002-----0
 62
     7
370
    50
100
AcDbLine
 10
-37.226031
 20
141.480181
 30
0.0
 11
-37.226005
 21
122.480119
 31
0.0
  0
LINE
  5
1EA
330
1F
100
AcDbEntity
  8
LC-001-002-----0
 62
     7
370
    50
100
AcDbLine
 10
-45.225781
 20
148.980339
 30
0.0
 11
-38.226038
 21
148.980329
 31
0.0
  0
LINE
  5
1EB
330
1F
100
AcDbEntity
  8
LC-001-002-----0
 62
     7
370
    50
100
AcDbLine
 10
-37.788846
 20
141.480181
 30
0.0
 11
-37.788834
 21
132.98019
 31
0.0
  0
ARC
  5
1EC
330
1F
100
AcDbEntity
  8
LC-003-002-RND-0
 62
     7
370
    50
100
AcDbCircle
 10
-37.288834
 20
132.98019
 30
0.0
 40
0.5000000000000155
100
AcDbArc
 50
180.000079
 51
270.0
  0
ARC
  5
1ED
330
1F
100
AcDbEntity
  8
LC-001-002-----0
 62
     7
370
    50
100
AcDbCircle
 10
297.274235
 20
151.98051
 30
0.0
 40
70.12037374848113
100
AcDbArc
 50
121.225753
 51
128.774247
  0
ARC
  5
1EE
330
1F
100
AcDbEntity
  8
LC-001-002-----0
 62
     7
370
    50
100
AcDbCircle
 10
297.274235
 20
151.98051
 30
0.0
 40
70.12037374848117
100
AcDbArc
 50
111.225753
 51
118.774247
  0
ARC
  5
1EF
330
1F
100
AcDbEntity
  8
LC-001-002-----0
 62
     7
370
    50
100
AcDbCircle
 10
297.274235
 20
151.98051
 30
0.0
 40
70.12037374848113
100
AcDbArc
 50
101.225753
 51
108.774247
  0
ARC
  5
1F0
330
1F
100
AcDbEntity
  8
LC-001-002-----0
 62
     7
370
    50
100
AcDbCircle
 10
297.274235
 20
151.98051
 30
0.0
 40
70.12037374848114
100
AcDbArc
 50
91.225753
 51
98.774247
  0
LINE
  5
1F1
102
{ACAD_REACTORS
330
236
102
}
330
1F
100
AcDbEntity
  8
LC-001-002-----0
 62
     7
370
    50
100
AcDbLine
 10
-34.225989
 20
132.480181
 30
0.0
 11
27.774242
 21
132.480181
 31
0.0
  0
ARC
  5
1F2
330
1F
100
AcDbEntity
  8
LC-001-002-----0
 62
     7
370
    50
100
AcDbCircle
 10
297.274235
 20
151.98051
 30
0.0
 40
70.12037374848111
100
AcDbArc
 50
81.225753
 51
88.774247
  0
ARC
  5
1F3
330
1F
100
AcDbEntity
  8
LC-001-002-----0
 62
     7
370
    50
100
AcDbCircle
 10
297.274235
 20
151.98051
 30
0.0
 40
70.12037374848114
100
AcDbArc
 50
71.225753
 51
78.774247
  0
LINE
  5
1F4
330
1F
100
AcDbEntity
  8
LC-001-002-----0
 62
     7
370
    50
100
AcDbLine
 10
44.774231
 20
140.480215
 30
0.0
 11
44.774259
 21
119.980323
 31
0.0
  0
LINE
  5
1F5
330
1F
100
AcDbEntity
  8
LC-001-002-----0
 62
     7
370
    50
100
AcDbLine
 10
29.774259
 20
119.980323
 30
0.0
 11
44.774259
 21
119.980323
 31
0.0
  0
LINE
  5
1F6
330
1F
100
AcDbEntity
  8
LC-001-002-----0
 62
     7
370
    50
100
AcDbLine
 10
29.774231
 20
140.480183
 30
0.0
 11
29.774259
 21
119.980323
 31
0.0
  0
ARC
  5
1F7
330
1F
100
AcDbEntity
  8
LC-001-002-----0
 62
     7
370
    50
100
AcDbCircle
 10
297.274235
 20
151.98051
 30
0.0
 40
70.12037374848114
100
AcDbArc
 50
61.225753
 51
68.774247
  0
LINE
  5
1F8
330
1F
100
AcDbEntity
  8
LC-001-002-----0
 62
     7
370
    50
100
AcDbLine
 10
27.774231
 20
140.48018
 30
0.0
 11
27.774242
 21
132.480181
 31
0.0
  0
LINE
  5
1F9
330
1F
100
AcDbEntity
  8
LC-001-002-----0
 62
     7
370
    50
100
AcDbLine
 10
46.774231
 20
140.480218
 30
0.0
 11
46.774242
 21
132.480219
 31
0.0
  0
ARC
  5
1FA
330
1F
100
AcDbEntity
  8
LC-003-002-RND-0
 62
     7
370
    50
100
AcDbCircle
 10
28.774231
 20
140.480181
 30
0.0
 40
1.0
100
AcDbArc
 50
90.0
 51
180.000079
  0
ARC
  5
1FB
330
1F
100
AcDbEntity
  8
LC-003-002-RND-0
 62
     7
370
    50
100
AcDbCircle
 10
28.774231
 20
140.480181
 30
0.0
 40
1.000000000000031
100
AcDbArc
 50
0.000079
 51
90.0
  0
ARC
  5
1FC
330
1F
100
AcDbEntity
  8
LC-003-002-RND-0
 62
     7
370
    50
100
AcDbCircle
 10
45.774231
 20
140.480216
 30
0.0
 40
1.000000000000031
100
AcDbArc
 50
0.000079
 51
90.000157
  0
ARC
  5
1FD
330
1F
100
AcDbEntity
  8
LC-003-002-RND-0
 62
     7
370
    50
100
AcDbCircle
 10
45.774231
 20
140.480216
 30
0.0
 40
1.000000000000011
100
AcDbArc
 50
90.000157
 51
180.000079
  0
LINE
  5
1FE
102
{ACAD_REACTORS
330
236
102
}
330
1F
100
AcDbEntity
  8
LC-001-002-----0
 62
     7
370
    50
100
AcDbLine
 10
46.774242
 20
132.480181
 30
0.0
 11
108.773301
 21
132.479793
 31
0.0
  0
ARC
  5
1FF
330
1F
100
AcDbEntity
  8
LC-001-002-----0
 62
     7
370
    50
100
AcDbCircle
 10
297.274235
 20
151.98051
 30
0.0
 40
70.12037374848113
100
AcDbArc
 50
51.225753
 51
58.774247
  0
ARC
  5
200
330
1F
100
AcDbEntity
  8
LC-001-002-----0
 62
     7
370
    50
100
AcDbCircle
 10
297.274235
 20
151.98051
 30
0.0
 40
70.12037374848119
100
AcDbArc
 50
41.225753
 51
48.774247
  0
ARC
  5
201
330
1F
100
AcDbEntity
  8
LC-001-002-----0
 62
     7
370
    50
100
AcDbCircle
 10
297.274235
 20
151.98051
 30
0.0
 40
70.12037374848117
100
AcDbArc
 50
31.225753
 51
38.774247
  0
ARC
  5
202
330
1F
100
AcDbEntity
  8
LC-001-002-----0
 62
     7
370
    50
100
AcDbCircle
 10
297.274235
 20
151.98051
 30
0.0
 40
70.12037374848113
100
AcDbArc
 50
21.225753
 51
28.774247
  0
ARC
  5
203
330
1F
100
AcDbEntity
  8
LC-001-002-----0
  6
DASHED
 62
     7
370
    25
100
AcDbCircle
 10
297.274235
 20
151.98051
 30
0.0
 40
77.99977655996381
100
AcDbArc
 50
228.898087
 51
231.101913
  0
ARC
  5
204
330
1F
100
AcDbEntity
  8
LC-001-002-----0
 62
     7
370
    50
100
AcDbCircle
 10
297.274235
 20
151.98051
 30
0.0
 40
75.06283291330294
100
AcDbArc
 50
231.145033
 51
238.854967
  0
ARC
  5
205
330
1F
100
AcDbEntity
  8
LC-001-002-----0
 62
     7
370
    50
100
AcDbCircle
 10
297.274235
 20
151.98051
 30
0.0
 40
75.0628329133029
100
AcDbArc
 50
241.145033
 51
248.854967
  0
ARC
  5
206
330
1F
100
AcDbEntity
  8
LC-001-002-----0
 62
     7
370
    50
100
AcDbCircle
 10
297.274235
 20
151.98051
 30
0.0
 40
75.0628329133029
100
AcDbArc
 50
251.145033
 51
258.854967
  0
ARC
  5
207
330
1F
100
AcDbEntity
  8
LC-001-002-----0
 62
     7
370
    50
100
AcDbCircle
 10
297.274235
 20
151.98051
 30
0.0
 40
75.06283291330294
100
AcDbArc
 50
261.145033
 51
268.854967
  0
ARC
  5
208
330
1F
100
AcDbEntity
  8
LC-001-002-----0
 62
     7
370
    50
100
AcDbCircle
 10
297.274235
 20
151.98051
 30
0.0
 40
75.06283291330294
100
AcDbArc
 50
221.145033
 51
228.854967
  0
ARC
  5
209
330
1F
100
AcDbEntity
  8
LC-001-002-----0
 62
     7
370
    50
100
AcDbCircle
 10
297.274235
 20
151.98051
 30
0.0
 40
75.0628329133029
100
AcDbArc
 50
211.145033
 51
218.854967
  0
ARC
  5
20A
330
1F
100
AcDbEntity
  8
LC-001-002-----0
 62
     7
370
    50
100
AcDbCircle
 10
297.274235
 20
151.98051
 30
0.0
 40
75.0628329133029
100
AcDbArc
 50
201.145033
 51
208.854967
  0
ARC
  5
20B
330
1F
100
AcDbEntity
  8
LC-001-002-----0
 62
     7
370
    50
100
AcDbCircle
 10
297.274235
 20
151.98051
 30
0.0
 40
75.06283291330293
100
AcDbArc
 50
191.145033
 51
198.854967
  0
ARC
  5
20C
330
1F
100
AcDbEntity
  8
LC-001-002-----0
 62
     7
370
    50
100
AcDbCircle
 10
297.274235
 20
151.98051
 30
0.0
 40
75.0628329133029
100
AcDbArc
 50
171.145033
 51
178.854967
  0
ARC
  5
20D
330
1F
100
AcDbEntity
  8
LC-001-002-----0
 62
     7
370
    50
100
AcDbCircle
 10
297.274235
 20
151.98051
 30
0.0
 40
75.06283291330294
100
AcDbArc
 50
161.145033
 51
168.854967
  0
ARC
  5
20E
330
1F
100
AcDbEntity
  8
LC-001-002-----0
 62
     7
370
    50
100
AcDbCircle
 10
297.274235
 20
151.98051
 30
0.0
 40
75.06283291330296
100
AcDbArc
 50
151.145033
 51
158.854967
  0
ARC
  5
20F
330
1F
100
AcDbEntity
  8
LC-001-002-----0
 62
     7
370
    50
100
AcDbCircle
 10
297.274235
 20
151.98051
 30
0.0
 40
75.0628329133029
100
AcDbArc
 50
141.145033
 51
148.854967
  0
ARC
  5
210
330
1F
100
AcDbEntity
  8
LC-001-002-----0
 62
     7
370
    50
100
AcDbCircle
 10
297.274235
 20
151.98051
 30
0.0
 40
75.0628329133029
100
AcDbArc
 50
131.145033
 51
138.854967
  0
ARC
  5
211
330
1F
100
AcDbEntity
  8
LC-001-002-----0
 62
     7
370
    50
100
AcDbCircle
 10
297.274235
 20
151.98051
 30
0.0
 40
75.0628329133029
100
AcDbArc
 50
121.145033
 51
128.854967
  0
ARC
  5
212
330
1F
100
AcDbEntity
  8
LC-001-002-----0
 62
     7
370
    50
100
AcDbCircle
 10
297.274235
 20
151.98051
 30
0.0
 40
75.06283291330288
100
AcDbArc
 50
111.145033
 51
118.854967
  0
ARC
  5
213
330
1F
100
AcDbEntity
  8
LC-001-002-----0
 62
     7
370
    50
100
AcDbCircle
 10
297.274235
 20
151.98051
 30
0.0
 40
75.06283291330291
100
AcDbArc
 50
101.145033
 51
108.854967
  0
ARC
  5
214
330
1F
100
AcDbEntity
  8
LC-001-002-----0
 62
     7
370
    50
100
AcDbCircle
 10
297.274235
 20
151.98051
 30
0.0
 40
75.0628329133029
100
AcDbArc
 50
91.145033
 51
98.854967
  0
LINE
  5
215
330
1F
100
AcDbEntity
  8
LC-001-002-----0
 62
     7
370
    50
100
AcDbLine
 10
119.774219
 20
148.980096
 30
0.0
 11
122.77419
 21
150.71213
 31
0.0
  0
LINE
  5
216
330
1F
100
AcDbEntity
  8
LC-001-002-----0
 62
     7
370
    50
100
AcDbLine
 10
-45.225781
 20
148.980339
 30
0.0
 11
-48.22581
 21
150.712407
 31
0.0
  0
LINE
  5
217
330
1F
100
AcDbEntity
  8
LC-001-002-----0
 62
     7
370
    50
100
AcDbLine
 10
-40.725797
 20
148.980323
 30
0.0
 11
-40.725797
 21
141.480181
 31
0.0
  0
LINE
  5
218
330
1F
100
AcDbEntity
  8
LC-001-002-----0
 62
     7
370
    50
100
AcDbLine
 10
-40.725797
 20
141.480181
 30
0.0
 11
-37.788846
 21
141.480181
 31
0.0
  0
LINE
  5
219
330
1F
100
AcDbEntity
  8
LC-001-002-----0
 62
     7
370
    50
100
AcDbLine
 10
115.274257
 20
141.480395
 30
0.0
 11
112.337305
 21
141.480387
 31
0.0
  0
DIMENSION
  5
21A
330
1F
100
AcDbEntity
  8
LC-002-003-----0
 62
     7
370
    25
100
AcDbDimension
  2
*D4
 10
139.25019
 20
160.980116
 30
0.0
 11
108.45019
 21
209.344997
 31
0.0
 70
   160
 71
     5
 42
20.000001
 53
90.0
  3
LC-DIM-L-0140-02-02
100
AcDbAlignedDimension
 13
105.274173
 23
180.980118
 33
0.0
 14
106.274203
 24
160.980116
 34
0.0
 50
90.0
100
AcDbRotatedDimension
  0
DIMENSION
  5
228
330
1F
100
AcDbEntity
  8
LC-002-003-----0
 62
     7
370
    25
100
AcDbDimension
  2
*D5
 10
106.274177
 20
201.96
 30
0.0
 11
35.774958
 21
232.76
 31
0.0
 70
   160
  1
%%c<>
 71
     5
 42
138.0
  3
LC-DIM-L-0140-02-02
100
AcDbAlignedDimension
 13
-31.725823
 23
179.980319
 33
0.0
 14
106.274177
 24
179.980116
 34
0.0
100
AcDbRotatedDimension
  0
ENDSEC
  0
SECTION
  2
OBJECTS
  0
DICTIONARY
  5
C
330
0
100
AcDbDictionary
281
     1
  3
ACAD_GROUP
350
D
  3
ACAD_LAYOUT
350
1A
  3
ACAD_MLINESTYLE
350
17
  3
ACAD_PLOTSETTINGS
350
19
  3
ACAD_PLOTSTYLENAME
350
E
  0
DICTIONARY
  5
D
102
{ACAD_REACTORS
330
C
102
}
330
C
100
AcDbDictionary
281
     1
  3
LCGROUP877
350
235
  3
LCGROUP878
350
236
  0
DICTIONARY
  5
1A
102
{ACAD_REACTORS
330
C
102
}
330
C
100
AcDbDictionary
281
     1
  3
Layout1
350
1E
  3
Layout2
350
26
  3
Model
350
22
  0
DICTIONARY
  5
17
102
{ACAD_REACTORS
330
C
102
}
330
C
100
AcDbDictionary
281
     1
  3
Standard
350
18
  0
DICTIONARY
  5
19
102
{ACAD_REACTORS
330
C
102
}
330
C
100
AcDbDictionary
281
     1
  0
ACDBDICTIONARYWDFLT
  5
E
102
{ACAD_REACTORS
330
C
102
}
330
C
100
AcDbDictionary
281
     1
  3
Normal
350
F
100
AcDbDictionaryWithDefault
340
F
  0
GROUP
  5
235
102
{ACAD_REACTORS
330
D
102
}
330
D
100
AcDbGroup
300
GRP877
 70
     1
 71
     1
340
1D8
340
1DA
  0
GROUP
  5
236
102
{ACAD_REACTORS
330
D
102
}
330
D
100
AcDbGroup
300
GRP878
 70
     1
 71
     1
340
158
340
1D6
340
1E6
340
1F1
340
1FE
  0
LAYOUT
  5
1E
102
{ACAD_REACTORS
330
1A
102
}
330
1A
100
AcDbPlotSettings
  1

  2

  4

  6

 40
0.0
 41
0.0
 42
0.0
 43
0.0
 44
0.0
 45
0.0
 46
0.0
 47
0.0
 48
0.0
 49
0.0
140
0.0
141
0.0
142
1.0
143
1.0
 70
   688
 72
     0
 73
     0
 74
     5
  7

 75
    16
147
1.0
148
0.0
149
0.0
100
AcDbLayout
  1
Layout1
 70
     1
 71
     1
 10
-210.0
 20
-148.5
 11
630.0
 21
445.5
 12
0.0
 22
0.0
 32
0.0
 14
-210.0
 24
-148.5
 34
0.0
 15
630.0
 25
445.5
 35
0.0
146
0.0
 13
0.0
 23
0.0
 33
0.0
 16
1.0
 26
0.0
 36
0.0
 17
0.0
 27
1.0
 37
0.0
 76
     0
330
1B
  0
LAYOUT
  5
26
102
{ACAD_REACTORS
330
1A
102
}
330
1A
100
AcDbPlotSettings
  1

  2

  4

  6

 40
0.0
 41
0.0
 42
0.0
 43
0.0
 44
0.0
 45
0.0
 46
0.0
 47
0.0
 48
0.0
 49
0.0
140
0.0
141
0.0
142
1.0
143
1.0
 70
   688
 72
     0
 73
     0
 74
     5
  7

 75
    16
147
1.0
148
0.0
149
0.0
100
AcDbLayout
  1
Layout2
 70
     1
 71
     2
 10
0.0
 20
0.0
 11
0.0
 21
0.0
 12
0.0
 22
0.0
 32
0.0
 14
0.0
 24
0.0
 34
0.0
 15
0.0
 25
0.0
 35
0.0
146
0.0
 13
0.0
 23
0.0
 33
0.0
 16
1.0
 26
0.0
 36
0.0
 17
0.0
 27
1.0
 37
0.0
 76
     0
330
23
  0
LAYOUT
  5
22
102
{ACAD_REACTORS
330
1A
102
}
330
1A
100
AcDbPlotSettings
  1

  2

  4

  6

 40
0.0
 41
0.0
 42
0.0
 43
0.0
 44
0.0
 45
0.0
 46
0.0
 47
0.0
 48
0.0
 49
0.0
140
0.0
141
0.0
142
1.0
143
1.0
 70
  1776
 72
     0
 73
     0
 74
     0
  7

 75
     0
147
1.0
148
0.0
149
0.0
100
AcDbLayout
  1
Model
 70
     1
 71
     0
 10
-210.0
 20
-148.5
 11
630.0
 21
445.5
 12
0.0
 22
0.0
 32
0.0
 14
-210.0
 24
-148.5
 34
0.0
 15
630.0
 25
445.5
 35
0.0
146
0.0
 13
0.0
 23
0.0
 33
0.0
 16
1.0
 26
0.0
 36
0.0
 17
0.0
 27
1.0
 37
0.0
 76
     0
330
1F
  0
MLINESTYLE
  5
18
102
{ACAD_REACTORS
330
17
102
}
330
17
100
AcDbMlineStyle
  2
Standard
 70
     0
  3

 62
   256
 51
90.0
 52
90.0
 71
     2
 49
0.5
 62
   256
  6
BYLAYER
 49
-0.5
 62
   256
  6
BYLAYER
  0
ACDBPLACEHOLDER
  5
F
102
{ACAD_REACTORS
330
E
102
}
330
E
  0
ENDSEC
  0
EOF
