  0
SECTION
  2
HEADER
  9
$ACADVER
  1
AC1009
  9
$INSBASE
 10
0.0
 20
0.0
 30
0.0
  9
$EXTMIN
 10
0.0
 20
0.0
 30
0.0
  9
$EXTMAX
 10
840.0
 20
594.0
 30
0.0
  9
$LIMMIN
 10
0.0
 20
0.0
  9
$LIMMAX
 10
840.0
 20
594.0
  9
$ORTHOMODE
 70
     0
  9
$REGENMODE
 70
     1
  9
$FILLMODE
 70
     1
  9
$QTEXTMODE
 70
     0
  9
$MIRRTEXT
 70
     1
  9
$DRAGMODE
 70
     2
  9
$LTSCALE
 40
2.0
  9
$OSMODE
 70
     0
  9
$ATTMODE
 70
     1
  9
$TEXTSIZE
 40
0.2
  9
$TRACEWID
 40
0.05
  9
$TEXTSTYLE
  7
STANDARD
  9
$CLAYER
  8
0
  9
$CELTYPE
  6
BYLAYER
  9
$CECOLOR
 62
     7
  9
$DIMSCALE
 40
2.0
  9
$DIMASZ
 40
3.5
  9
$DIMEXO
 40
0.0625
  9
$DIMDLI
 40
0.38
  9
$DIMRND
 40
0.0
  9
$DIMDLE
 40
0.0
  9
$DIMEXE
 40
0.18
  9
$DIMTP
 40
0.0
  9
$DIMTM
 40
0.0
  9
$DIMTXT
 40
3.5
  9
$DIMCEN
 40
0.09
  9
$DIMTSZ
 40
0.0
  9
$DIMTOL
 70
     0
  9
$DIMLIM
 70
     0
  9
$DIMTIH
 70
     1
  9
$DIMTOH
 70
     1
  9
$DIMSE1
 70
     0
  9
$DIMSE2
 70
     0
  9
$DIMTAD
 70
     1
  9
$DIMZIN
 70
     0
  9
$DIMBLK
  1

  9
$DIMASO
 70
     1
  9
$DIMSHO
 70
     1
  9
$DIMPOST
  1

  9
$DIMAPOST
  1

  9
$DIMALT
 70
     0
  9
$DIMALTD
 70
     2
  9
$DIMALTF
 40
25.4
  9
$DIMLFAC
 40
1.0
  9
$DIMTOFL
 70
     0
  9
$DIMTVP
 40
0.0
  9
$DIMTIX
 70
     0
  9
$DIMSOXD
 70
     0
  9
$DIMSAH
 70
     0
  9
$DIMBLK1
  1

  9
$DIMBLK2
  1

  9
$DIMSTYLE
  2
STANDARD
  9
$DIMCLRD
 70
     0
  9
$DIMCLRE
 70
     0
  9
$DIMCLRT
 70
     0
  9
$DIMTFAC
 40
1.0
  9
$DIMGAP
 40
0.09
  9
$LUNITS
 70
     2
  9
$LUPREC
 70
     2
  9
$AXISMODE
 70
     0
  9
$AXISUNIT
 10
0.0
 20
0.0
  9
$SKETCHINC
 40
0.1
  9
$FILLETRAD
 40
0.0
  9
$AUNITS
 70
     0
  9
$AUPREC
 70
     0
  9
$MENU
  1
acad
  9
$ELEVATION
 40
0.0
  9
$PELEVATION
 40
0.0
  9
$THICKNESS
 40
0.0
  9
$LIMCHECK
 70
     0
  9
$BLIPMODE
 70
     1
  9
$CHAMFERA
 40
0.0
  9
$CHAMFERB
 40
0.0
  9
$SKPOLY
 70
     0
  9
$TDCREATE
 40
0.000000000
  9
$TDUPDATE
 40
0.000000000
  9
$TDINDWG
 40
0.0000000000
  9
$TDUSRTIMER
 40
0.0000000000
  9
$USRTIMER
 70
     1
  9
$ANGBASE
 50
0.0
  9
$ANGDIR
 70
     0
  9
$PDMODE
 70
     0
  9
$PDSIZE
 40
0.0
  9
$PLINEWID
 40
0.0
  9
$COORDS
 70
     0
  9
$SPLFRAME
 70
     0
  9
$SPLINETYPE
 70
     6
  9
$SPLINESEGS
 70
     8
  9
$ATTDIA
 70
     0
  9
$ATTREQ
 70
     1
  9
$HANDLING
 70
     1
  9
$HANDSEED
  5
371
  9
$SURFTAB1
 70
     6
  9
$SURFTAB2
 70
     6
  9
$SURFTYPE
 70
     6
  9
$SURFU
 70
     6
  9
$SURFV
 70
     6
  9
$UCSNAME
  2

  9
$UCSORG
 10
0.0
 20
0.0
 30
0.0
  9
$UCSXDIR
 10
1.0
 20
0.0
 30
0.0
  9
$UCSYDIR
 10
0.0
 20
1.0
 30
0.0
  9
$PUCSNAME
  2

  9
$PUCSORG
 10
0.0
 20
0.0
 30
0.0
  9
$PUCSXDIR
 10
1.0
 20
0.0
 30
0.0
  9
$PUCSYDIR
 10
0.0
 20
1.0
 30
0.0
  9
$USERI1
 70
     0
  9
$USERI2
 70
     0
  9
$USERI3
 70
     0
  9
$USERI4
 70
     0
  9
$USERI5
 70
     0
  9
$USERR1
 40
0.0
  9
$USERR2
 40
0.0
  9
$USERR3
 40
0.0
  9
$USERR4
 40
0.0
  9
$USERR5
 40
0.0
  9
$WORLDVIEW
 70
     1
  9
$SHADEDGE
 70
     3
  9
$SHADEDIF
 70
    70
  9
$TILEMODE
 70
     1
  9
$MAXACTVP
 70
    16
  9
$PINSBASE
 10
0.0
 20
0.0
 30
0.0
  9
$PLIMCHECK
 70
     0
  9
$PEXTMIN
 10
1.000000E+20
 20
1.000000E+20
 30
1.000000E+20
  9
$PEXTMAX
 10
-1.000000E+20
 20
-1.000000E+20
 30
-1.000000E+20
  9
$PLIMMIN
 10
0.0
 20
0.0
  9
$PLIMMAX
 10
840.0
 20
594.0
  9
$UNITMODE
 70
     0
  9
$VISRETAIN
 70
     0
  9
$PLINEGEN
 70
     1
  9
$PSLTSCALE
 70
     0
  9
$TREEDEPTH
 70
  3020
  9
$DWGCODEPAGE
  3
dos850
  0
ENDSEC
  0
SECTION
  2
TABLES
  0
TABLE
  2
VPORT
 70
     1
  0
VPORT
  2
*ACTIVE
 70
     0
 10
0.0
 20
0.0
 11
1.0
 21
1.0
 12
420.0
 22
297.0
 13
0.0
 23
0.0
 14
1.0
 24
1.0
 15
0.0
 25
0.0
 16
0.0
 26
0.0
 36
1.0
 17
0.0
 27
0.0
 37
0.0
 40
594.0
 41
1.604229
 42
50.0
 43
0.0
 44
0.0
 50
0.0
 51
0.0
 71
     0
 72
   100
 73
     1
 74
     1
 75
     0
 76
     0
 77
     0
 78
     0
  0
ENDTAB
  0
TABLE
  2
LTYPE
 70
     2
  0
LTYPE
  2
CONTINUOUS
 70
    64
  3
Solid line
 72
    65
 73
     0
 40
0.0
  0
LTYPE
  2
DASHDOT
 70
    64
  3
__ . __ . __ . __ . __
 72
    65
 73
     4
 40
7.5
 49
5.0
 49
-1.25
 49
0.0
 49
-1.25
  0
ENDTAB
  0
TABLE
  2
LAYER
 70
    14
  0
LAYER
  2
0
 70
     0
 62
     7
  6
CONTINUOUS
  0
LAYER
  2
LC-INFO-1-2-MM-A3-0
 70
     1
 62
    -1
  6
CONTINUOUS
  0
LAYER
  2
LC-007-005-----0
 70
     0
 62
     2
  6
CONTINUOUS
  0
LAYER
  2
LC-010-003-MTH-0
 70
     0
 62
     2
  6
CONTINUOUS
  0
LAYER
  2
LC-011-003-MTG-0
 70
     0
 62
     2
  6
CONTINUOUS
  0
LAYER
  2
LC-009-003-----0
 70
     0
 62
     2
  6
CONTINUOUS
  0
LAYER
  2
LC-006-000-----0
 70
     0
 62
     7
  6
CONTINUOUS
  0
LAYER
  2
LC-008-000-----0
 70
     0
 62
     7
  6
CONTINUOUS
  0
LAYER
  2
LC-001-103-D00-1
 70
     0
 62
     1
  6
CONTINUOUS
  0
LAYER
  2
LC-002-002-----0
 70
     0
 62
     1
  6
CONTINUOUS
  0
LAYER
  2
LC-003-002-RND-0
 70
     0
 62
     1
  6
CONTINUOUS
  0
LAYER
  2
LC-004-001-RND-0
 70
     0
 62
     1
  6
CONTINUOUS
  0
LAYER
  2
LC-005-001-----0
 70
     0
 62
     1
  6
CONTINUOUS
  0
LAYER
  2
LC-000
 70
     0
 62
     7
  6
CONTINUOUS
  0
ENDTAB
  0
TABLE
  2
STYLE
 70
     4
  0
STYLE
  2
STANDARD
 70
     0
 40
0.0
 41
1.0
 50
0.0
 71
     0
 42
0.0
  3
txt
  4

  0
STYLE
  2
LC-STANDARD
 70
    64
 40
0.0
 41
1.0
 50
0.0
 71
     0
 42
3.5
  3
MONOTXT
  4

  0
STYLE
  2
LC-TXTSTYLE-150-400-0-0-A2
 70
    64
 40
0.0
 41
1.0
 50
15.0
 71
     0
 42
3.5
  3
MONOTXT
  4

  0
STYLE
  2
LC-TXTSTYLE-150-400-0-0-D3
 70
    64
 40
0.0
 41
1.0
 50
15.0
 71
     0
 42
3.5
  3
LC-STANDARD
  4

  0
ENDTAB
  0
TABLE
  2
VIEW
 70
     0
  0
ENDTAB
  0
TABLE
  2
UCS
 70
     0
  0
ENDTAB
  0
TABLE
  2
APPID
 70
     1
  0
APPID
  2
ACAD
 70
     0
  0
ENDTAB
  0
TABLE
  2
DIMSTYLE
 70
     3
  0
DIMSTYLE
  2
STANDARD
 70
     0
  3

  4

  5

  6

  7

 40
1.0
 41
0.18
 42
0.0625
 43
0.38
 44
0.18
 45
0.0
 46
0.0
 47
0.0
 48
0.0
 71
     0
 72
     0
 73
     1
 74
     1
 75
     0
 76
     0
 77
     0
 78
     0
140
0.18
141
0.09
142
0.0
143
25.4
144
1.0
145
0.0
146
1.0
147
0.09
170
     0
171
     2
172
     0
173
     0
174
     0
175
     0
176
     0
177
     0
178
     0
  0
DIMSTYLE
  2
LC-STANDARD
 70
     0
  3

  4

  5

  6

  7

 40
1.0
 41
3.5
 42
0.0
 43
7.5
 44
1.8
 45
0.0
 46
0.0
 47
0.0
 48
0.0
 71
     0
 72
     0
 73
     0
 74
     0
 75
     0
 76
     0
 77
     1
 78
     8
140
3.5
141
0.0
142
0.0
143
25.4
144
1.0
145
0.0
146
0.71
147
1.5
170
     0
171
     2
172
     1
173
     0
174
     0
175
     0
176
     0
177
     0
178
     3
  0
DIMSTYLE
  2
LC-DIM-L-0140-02-02
 70
     0
  3

  4

  5

  6

  7

 40
2.0
 41
3.5
 42
0.0
 43
7.5
 44
1.8
 45
0.0
 46
0.0
 47
0.0
 48
0.0
 71
     0
 72
     0
 73
     0
 74
     0
 75
     0
 76
     0
 77
     1
 78
     8
140
14.0
141
0.0
142
0.0
143
25.4
144
1.0
145
0.0
146
0.71
147
1.5
170
     0
171
     2
172
     0
173
     0
174
     0
175
     0
176
     2
177
     2
178
     8
  0
ENDTAB
  0
ENDSEC
  0
SECTION
  2
BLOCKS
  0
BLOCK
  8
0
  5
23
  2
BLK1
 70
    64
 10
0.0
 20
0.0
 30
0.0
  3
BLK1
  0
ENDBLK
  8
0
  5
24
  0
BLOCK
  8
0
  5
26
  2
*X1
 70
    65
 10
350.270438
 20
325.246189
 30
0.0
  3
*X1
  0
LINE
  8
LC-007-005-----0
  6
CONTINUOUS
  5
28
 10
432.726676
 20
325.246446
 30
0.0
 11
433.270608
 21
325.790378
 31
0.0
  0
LINE
  8
LC-007-005-----0
  6
CONTINUOUS
  5
29
 10
432.270768
 20
327.618964
 30
0.0
 11
433.27061
 21
328.618807
 31
0.0
  0
LINE
  8
LC-007-005-----0
  6
CONTINUOUS
  5
2A
 10
432.270762
 20
330.447386
 30
0.0
 11
433.270612
 21
331.447236
 31
0.0
  0
LINE
  8
LC-007-005-----0
  6
CONTINUOUS
  5
2B
 10
432.270756
 20
333.275807
 30
0.0
 11
433.270614
 21
334.275665
 31
0.0
  0
LINE
  8
LC-007-005-----0
  6
CONTINUOUS
  5
2C
 10
432.27075
 20
336.104228
 30
0.0
 11
433.270616
 21
337.104094
 31
0.0
  0
LINE
  8
LC-007-005-----0
  6
CONTINUOUS
  5
2D
 10
432.270745
 20
338.932649
 30
0.0
 11
433.270618
 21
339.932523
 31
0.0
  0
LINE
  8
LC-007-005-----0
  6
CONTINUOUS
  5
2E
 10
432.270739
 20
341.761071
 30
0.0
 11
433.27062
 21
342.760952
 31
0.0
  0
LINE
  8
LC-007-005-----0
  6
CONTINUOUS
  5
2F
 10
432.270733
 20
344.589492
 30
0.0
 11
433.270621
 21
345.589381
 31
0.0
  0
LINE
  8
LC-007-005-----0
  6
CONTINUOUS
  5
30
 10
432.270727
 20
347.417913
 30
0.0
 11
433.270623
 21
348.417809
 31
0.0
  0
LINE
  8
LC-007-005-----0
  6
CONTINUOUS
  5
31
 10
432.270721
 20
350.246334
 30
0.0
 11
433.270625
 21
351.246238
 31
0.0
  0
LINE
  8
LC-007-005-----0
  6
CONTINUOUS
  5
32
 10
432.270715
 20
353.074756
 30
0.0
 11
433.270627
 21
354.074667
 31
0.0
  0
LINE
  8
LC-007-005-----0
  6
CONTINUOUS
  5
33
 10
432.270709
 20
355.903177
 30
0.0
 11
433.270629
 21
356.903096
 31
0.0
  0
LINE
  8
LC-007-005-----0
  6
CONTINUOUS
  5
34
 10
432.270704
 20
358.731598
 30
0.0
 11
433.270631
 21
359.731525
 31
0.0
  0
LINE
  8
LC-007-005-----0
  6
CONTINUOUS
  5
35
 10
432.270698
 20
361.56002
 30
0.0
 11
433.270632
 21
362.559954
 31
0.0
  0
LINE
  8
LC-007-005-----0
  6
CONTINUOUS
  5
36
 10
432.270692
 20
364.388441
 30
0.0
 11
433.270634
 21
365.388383
 31
0.0
  0
LINE
  8
LC-007-005-----0
  6
CONTINUOUS
  5
37
 10
432.270686
 20
367.216862
 30
0.0
 11
433.270636
 21
368.216812
 31
0.0
  0
LINE
  8
LC-007-005-----0
  6
CONTINUOUS
  5
38
 10
432.27068
 20
370.045283
 30
0.0
 11
433.270638
 21
371.045241
 31
0.0
  0
LINE
  8
LC-007-005-----0
  6
CONTINUOUS
  5
39
 10
432.270674
 20
372.873705
 30
0.0
 11
433.27064
 21
373.87367
 31
0.0
  0
LINE
  8
LC-007-005-----0
  6
CONTINUOUS
  5
3A
 10
432.270668
 20
375.702126
 30
0.0
 11
433.270642
 21
376.702099
 31
0.0
  0
LINE
  8
LC-007-005-----0
  6
CONTINUOUS
  5
3B
 10
432.270663
 20
378.530547
 30
0.0
 11
433.270644
 21
379.530528
 31
0.0
  0
LINE
  8
LC-007-005-----0
  6
CONTINUOUS
  5
3C
 10
432.270657
 20
381.358968
 30
0.0
 11
433.270645
 21
382.358957
 31
0.0
  0
LINE
  8
LC-007-005-----0
  6
CONTINUOUS
  5
3D
 10
432.270651
 20
384.18739
 30
0.0
 11
433.270647
 21
385.187386
 31
0.0
  0
LINE
  8
LC-007-005-----0
  6
CONTINUOUS
  5
3E
 10
432.136098
 20
386.881264
 30
0.0
 11
433.006263
 21
387.751429
 31
0.0
  0
LINE
  8
LC-007-005-----0
  6
CONTINUOUS
  5
3F
 10
431.50656
 20
389.080153
 30
0.0
 11
432.33003
 21
389.903624
 31
0.0
  0
LINE
  8
LC-007-005-----0
  6
CONTINUOUS
  5
40
 10
430.510482
 20
390.912503
 30
0.0
 11
431.352505
 21
391.754525
 31
0.0
  0
LINE
  8
LC-007-005-----0
  6
CONTINUOUS
  5
41
 10
429.213203
 20
392.44365
 30
0.0
 11
430.120377
 21
393.350825
 31
0.0
  0
LINE
  8
LC-007-005-----0
  6
CONTINUOUS
  5
42
 10
427.630049
 20
393.688924
 30
0.0
 11
428.65018
 21
394.709054
 31
0.0
  0
LINE
  8
LC-007-005-----0
  6
CONTINUOUS
  5
43
 10
425.738505
 20
394.625807
 30
0.0
 11
426.93699
 21
395.824292
 31
0.0
  0
LINE
  8
LC-007-005-----0
  6
CONTINUOUS
  5
44
 10
423.459692
 20
395.17542
 30
0.0
 11
424.952002
 21
396.667731
 31
0.0
  0
LINE
  8
LC-007-005-----0
  6
CONTINUOUS
  5
45
 10
350.702106
 20
325.246261
 30
0.0
 11
351.270606
 21
325.814762
 31
0.0
  0
LINE
  8
LC-007-005-----0
  6
CONTINUOUS
  5
46
 10
392.202036
 20
366.746192
 30
0.0
 11
393.206371
 21
367.750527
 31
0.0
  0
LINE
  8
LC-007-005-----0
  6
CONTINUOUS
  5
47
 10
420.702207
 20
395.246363
 30
0.0
 11
422.62548
 21
397.169636
 31
0.0
  0
LINE
  8
LC-007-005-----0
  6
CONTINUOUS
  5
48
 10
350.270601
 20
327.643184
 30
0.0
 11
351.270598
 21
328.643181
 31
0.0
  0
LINE
  8
LC-007-005-----0
  6
CONTINUOUS
  5
49
 10
389.373609
 20
366.746192
 30
0.0
 11
393.207137
 21
370.57972
 31
0.0
  0
LINE
  8
LC-007-005-----0
  6
CONTINUOUS
  5
4A
 10
417.87378
 20
395.246363
 30
0.0
 11
419.873781
 21
397.246364
 31
0.0
  0
LINE
  8
LC-007-005-----0
  6
CONTINUOUS
  5
4B
 10
350.270593
 20
330.471603
 30
0.0
 11
351.27059
 21
331.471601
 31
0.0
  0
LINE
  8
LC-007-005-----0
  6
CONTINUOUS
  5
4C
 10
386.545182
 20
366.746192
 30
0.0
 11
393.207903
 21
373.408913
 31
0.0
  0
LINE
  8
LC-007-005-----0
  6
CONTINUOUS
  5
4D
 10
415.045353
 20
395.246363
 30
0.0
 11
417.045356
 21
397.246366
 31
0.0
  0
LINE
  8
LC-007-005-----0
  6
CONTINUOUS
  5
4E
 10
350.270585
 20
333.300023
 30
0.0
 11
351.270582
 21
334.30002
 31
0.0
  0
LINE
  8
LC-007-005-----0
  6
CONTINUOUS
  5
4F
 10
383.716755
 20
366.746192
 30
0.0
 11
393.208669
 21
376.238106
 31
0.0
  0
LINE
  8
LC-007-005-----0
  6
CONTINUOUS
  5
50
 10
412.216926
 20
395.246363
 30
0.0
 11
414.216931
 21
397.246368
 31
0.0
  0
LINE
  8
LC-007-005-----0
  6
CONTINUOUS
  5
51
 10
350.270577
 20
336.128442
 30
0.0
 11
351.270574
 21
337.128439
 31
0.0
  0
LINE
  8
LC-007-005-----0
  6
CONTINUOUS
  5
52
 10
380.888327
 20
366.746192
 30
0.0
 11
393.209434
 21
379.067299
 31
0.0
  0
LINE
  8
LC-007-005-----0
  6
CONTINUOUS
  5
53
 10
409.388499
 20
395.246363
 30
0.0
 11
411.388506
 21
397.24637
 31
0.0
  0
LINE
  8
LC-007-005-----0
  6
CONTINUOUS
  5
54
 10
350.270569
 20
338.956861
 30
0.0
 11
351.270566
 21
339.956858
 31
0.0
  0
LINE
  8
LC-007-005-----0
  6
CONTINUOUS
  5
55
 10
378.0599
 20
366.746192
 30
0.0
 11
393.2102
 21
381.896492
 31
0.0
  0
LINE
  8
LC-007-005-----0
  6
CONTINUOUS
  5
56
 10
406.560072
 20
395.246363
 30
0.0
 11
408.560081
 21
397.246372
 31
0.0
  0
LINE
  8
LC-007-005-----0
  6
CONTINUOUS
  5
57
 10
350.270561
 20
341.78528
 30
0.0
 11
351.270558
 21
342.785277
 31
0.0
  0
LINE
  8
LC-007-005-----0
  6
CONTINUOUS
  5
58
 10
375.231473
 20
366.746192
 30
0.0
 11
393.210966
 21
384.725685
 31
0.0
  0
LINE
  8
LC-007-005-----0
  6
CONTINUOUS
  5
59
 10
403.731644
 20
395.246363
 30
0.0
 11
405.731655
 21
397.246374
 31
0.0
  0
LINE
  8
LC-007-005-----0
  6
CONTINUOUS
  5
5A
 10
350.270553
 20
344.613699
 30
0.0
 11
351.27055
 21
345.613696
 31
0.0
  0
LINE
  8
LC-007-005-----0
  6
CONTINUOUS
  5
5B
 10
372.403046
 20
366.746192
 30
0.0
 11
393.211732
 21
387.554878
 31
0.0
  0
LINE
  8
LC-007-005-----0
  6
CONTINUOUS
  5
5C
 10
400.903217
 20
395.246363
 30
0.0
 11
405.395781
 21
399.738927
 31
0.0
  0
LINE
  8
LC-007-005-----0
  6
CONTINUOUS
  5
5D
 10
350.270545
 20
347.442118
 30
0.0
 11
351.270542
 21
348.442115
 31
0.0
  0
LINE
  8
LC-007-005-----0
  6
CONTINUOUS
  5
5E
 10
369.574619
 20
366.746192
 30
0.0
 11
393.212498
 21
390.38407
 31
0.0
  0
LINE
  8
LC-007-005-----0
  6
CONTINUOUS
  5
5F
 10
398.07479
 20
395.246363
 30
0.0
 11
400.074805
 21
397.246378
 31
0.0
  0
LINE
  8
LC-007-005-----0
  6
CONTINUOUS
  5
60
 10
401.502127
 20
398.6737
 30
0.0
 11
404.740158
 21
401.911731
 31
0.0
  0
LINE
  8
LC-007-005-----0
  6
CONTINUOUS
  5
61
 10
350.270537
 20
350.270537
 30
0.0
 11
351.270534
 21
351.270534
 31
0.0
  0
LINE
  8
LC-007-005-----0
  6
CONTINUOUS
  5
62
 10
366.746192
 20
366.746192
 30
0.0
 11
393.213263
 21
393.213263
 31
0.0
  0
LINE
  8
LC-007-005-----0
  6
CONTINUOUS
  5
63
 10
395.246363
 20
395.246363
 30
0.0
 11
397.24638
 21
397.24638
 31
0.0
  0
LINE
  8
LC-007-005-----0
  6
CONTINUOUS
  5
64
 10
400.811935
 20
400.811935
 30
0.0
 11
403.688506
 21
403.688506
 31
0.0
  0
LINE
  8
LC-007-005-----0
  6
CONTINUOUS
  5
65
 10
350.270529
 20
353.098956
 30
0.0
 11
351.270526
 21
354.098953
 31
0.0
  0
LINE
  8
LC-007-005-----0
  6
CONTINUOUS
  5
66
 10
364.732296
 20
367.560724
 30
0.0
 11
394.417955
 21
397.246382
 31
0.0
  0
LINE
  8
LC-007-005-----0
  6
CONTINUOUS
  5
67
 10
399.461382
 20
402.289809
 30
0.0
 11
402.309135
 21
405.137562
 31
0.0
  0
LINE
  8
LC-007-005-----0
  6
CONTINUOUS
  5
68
 10
350.270521
 20
355.927375
 30
0.0
 11
351.270518
 21
356.927373
 31
0.0
  0
LINE
  8
LC-007-005-----0
  6
CONTINUOUS
  5
69
 10
364.134579
 20
369.791434
 30
0.0
 11
391.589338
 21
397.246192
 31
0.0
  0
LINE
  8
LC-007-005-----0
  6
CONTINUOUS
  5
6A
 10
397.493699
 20
403.150554
 30
0.0
 11
400.607706
 21
406.26456
 31
0.0
  0
LINE
  8
LC-007-005-----0
  6
CONTINUOUS
  5
6B
 10
350.270513
 20
358.755795
 30
0.0
 11
351.27051
 21
359.755792
 31
0.0
  0
LINE
  8
LC-007-005-----0
  6
CONTINUOUS
  5
6C
 10
364.012727
 20
372.498009
 30
0.0
 11
388.76091
 21
397.246192
 31
0.0
  0
LINE
  8
LC-007-005-----0
  6
CONTINUOUS
  5
6D
 10
394.760911
 20
403.246192
 30
0.0
 11
398.533002
 21
407.018283
 31
0.0
  0
LINE
  8
LC-007-005-----0
  6
CONTINUOUS
  5
6E
 10
350.270505
 20
361.584214
 30
0.0
 11
351.270502
 21
362.584211
 31
0.0
  0
LINE
  8
LC-007-005-----0
  6
CONTINUOUS
  5
6F
 10
363.432483
 20
374.746192
 30
0.0
 11
385.932483
 21
397.246192
 31
0.0
  0
LINE
  8
LC-007-005-----0
  6
CONTINUOUS
  5
70
 10
391.932483
 20
403.246192
 30
0.0
 11
395.932484
 21
407.246192
 31
0.0
  0
LINE
  8
LC-007-005-----0
  6
CONTINUOUS
  5
71
 10
350.270497
 20
364.412633
 30
0.0
 11
351.270494
 21
365.41263
 31
0.0
  0
LINE
  8
LC-007-005-----0
  6
CONTINUOUS
  5
72
 10
360.604056
 20
374.746192
 30
0.0
 11
383.104056
 21
397.246192
 31
0.0
  0
LINE
  8
LC-007-005-----0
  6
CONTINUOUS
  5
73
 10
389.104056
 20
403.246192
 30
0.0
 11
393.104056
 21
407.246192
 31
0.0
  0
LINE
  8
LC-007-005-----0
  6
CONTINUOUS
  5
74
 10
350.270489
 20
367.241052
 30
0.0
 11
351.270486
 21
368.241049
 31
0.0
  0
LINE
  8
LC-007-005-----0
  6
CONTINUOUS
  5
75
 10
360.513465
 20
377.484028
 30
0.0
 11
382.086654
 21
399.057217
 31
0.0
  0
LINE
  8
LC-007-005-----0
  6
CONTINUOUS
  5
76
 10
386.209414
 20
403.179977
 30
0.0
 11
390.275629
 21
407.246192
 31
0.0
  0
LINE
  8
LC-007-005-----0
  6
CONTINUOUS
  5
77
 10
350.270481
 20
370.069471
 30
0.0
 11
351.270478
 21
371.069468
 31
0.0
  0
LINE
  8
LC-007-005-----0
  6
CONTINUOUS
  5
78
 10
360.514231
 20
380.31322
 30
0.0
 11
377.447202
 21
397.246192
 31
0.0
  0
LINE
  8
LC-007-005-----0
  6
CONTINUOUS
  5
79
 10
378.02044
 20
397.81943
 30
0.0
 11
387.447202
 21
407.246192
 31
0.0
  0
LINE
  8
LC-007-005-----0
  6
CONTINUOUS
  5
7A
 10
350.270473
 20
372.89789
 30
0.0
 11
351.27047
 21
373.897887
 31
0.0
  0
LINE
  8
LC-007-005-----0
  6
CONTINUOUS
  5
7B
 10
360.514996
 20
383.142413
 30
0.0
 11
374.618775
 21
397.246192
 31
0.0
  0
LINE
  8
LC-007-005-----0
  6
CONTINUOUS
  5
7C
 10
378.49109
 20
401.118507
 30
0.0
 11
384.148124
 21
406.775541
 31
0.0
  0
LINE
  8
LC-007-005-----0
  6
CONTINUOUS
  5
7D
 10
350.270465
 20
375.726309
 30
0.0
 11
351.270462
 21
376.726306
 31
0.0
  0
LINE
  8
LC-007-005-----0
  6
CONTINUOUS
  5
7E
 10
360.515762
 20
385.971606
 30
0.0
 11
371.790348
 21
397.246192
 31
0.0
  0
LINE
  8
LC-007-005-----0
  6
CONTINUOUS
  5
7F
 10
350.270457
 20
378.554728
 30
0.0
 11
351.270454
 21
379.554725
 31
0.0
  0
LINE
  8
LC-007-005-----0
  6
CONTINUOUS
  5
80
 10
360.516528
 20
388.800799
 30
0.0
 11
368.961921
 21
397.246192
 31
0.0
  0
LINE
  8
LC-007-005-----0
  6
CONTINUOUS
  5
81
 10
350.270449
 20
381.383147
 30
0.0
 11
351.270446
 21
382.383145
 31
0.0
  0
LINE
  8
LC-007-005-----0
  6
CONTINUOUS
  5
82
 10
360.517294
 20
391.629992
 30
0.0
 11
366.133493
 21
397.246192
 31
0.0
  0
LINE
  8
LC-007-005-----0
  6
CONTINUOUS
  5
83
 10
350.270441
 20
384.211567
 30
0.0
 11
351.270438
 21
385.211564
 31
0.0
  0
LINE
  8
LC-007-005-----0
  6
CONTINUOUS
  5
84
 10
360.51806
 20
394.459185
 30
0.0
 11
363.305066
 21
397.246192
 31
0.0
  0
LINE
  8
LC-007-005-----0
  6
CONTINUOUS
  5
85
 10
350.430586
 20
387.200139
 30
0.0
 11
351.860288
 21
388.629841
 31
0.0
  0
LINE
  8
LC-007-005-----0
  6
CONTINUOUS
  5
86
 10
357.886789
 20
394.656342
 30
0.0
 11
360.316491
 21
397.086044
 31
0.0
  0
LINE
  8
LC-007-005-----0
  6
CONTINUOUS
  5
87
 10
352.248945
 20
391.846925
 30
0.0
 11
355.669705
 21
395.267685
 31
0.0
  0
ENDBLK
  8
0
  5
88
  0
BLOCK
  8
0
  5
8A
  2
BLK2
 70
    64
 10
0.0
 20
0.0
 30
0.0
  3
BLK2
  0
ENDBLK
  8
0
  5
8B
  0
BLOCK
  8
0
  5
8D
  2
BLK3
 70
    64
 10
0.0
 20
0.0
 30
0.0
  3
BLK3
  0
ENDBLK
  8
0
  5
8E
  0
BLOCK
  8
0
  5
90
  2
*X4
 70
    65
 10
461.271212
 20
390.772209
 30
0.0
  3
*X4
  0
LINE
  8
LC-007-005-----0
  6
CONTINUOUS
  5
91
 10
469.993095
 20
390.797136
 30
0.0
 11
470.746285
 21
391.550325
 31
0.0
  0
LINE
  8
LC-007-005-----0
  6
CONTINUOUS
  5
92
 10
467.139741
 20
390.772209
 30
0.0
 11
470.771212
 21
394.403679
 31
0.0
  0
LINE
  8
LC-007-005-----0
  6
CONTINUOUS
  5
93
 10
480.905967
 20
404.538435
 30
0.0
 11
482.91815
 21
406.550618
 31
0.0
  0
LINE
  8
LC-007-005-----0
  6
CONTINUOUS
  5
94
 10
464.311314
 20
390.772209
 30
0.0
 11
470.771212
 21
397.232107
 31
0.0
  0
LINE
  8
LC-007-005-----0
  6
CONTINUOUS
  5
95
 10
480.770997
 20
407.231892
 30
0.0
 11
483.389586
 21
409.850481
 31
0.0
  0
LINE
  8
LC-007-005-----0
  6
CONTINUOUS
  5
96
 10
461.482887
 20
390.772209
 30
0.0
 11
470.771212
 21
400.060534
 31
0.0
  0
LINE
  8
LC-007-005-----0
  6
CONTINUOUS
  5
97
 10
478.634681
 20
407.924003
 30
0.0
 11
481.329205
 21
410.618527
 31
0.0
  0
LINE
  8
LC-007-005-----0
  6
CONTINUOUS
  5
98
 10
461.271212
 20
393.388961
 30
0.0
 11
461.65446
 21
393.772209
 31
0.0
  0
LINE
  8
LC-007-005-----0
  6
CONTINUOUS
  5
99
 10
464.021212
 20
396.138961
 30
0.0
 11
470.771212
 21
402.888961
 31
0.0
  0
LINE
  8
LC-007-005-----0
  6
CONTINUOUS
  5
9A
 10
475.593601
 20
407.71135
 30
0.0
 11
478.288125
 21
410.405874
 31
0.0
  0
LINE
  8
LC-007-005-----0
  6
CONTINUOUS
  5
9B
 10
464.021212
 20
398.967388
 30
0.0
 11
470.771212
 21
405.717388
 31
0.0
  0
LINE
  8
LC-007-005-----0
  6
CONTINUOUS
  5
9C
 10
472.55252
 20
407.498697
 30
0.0
 11
475.247045
 21
410.193221
 31
0.0
  0
LINE
  8
LC-007-005-----0
  6
CONTINUOUS
  5
9D
 10
464.021212
 20
401.795815
 30
0.0
 11
472.205964
 21
409.980568
 31
0.0
  0
LINE
  8
LC-007-005-----0
  6
CONTINUOUS
  5
9E
 10
464.021212
 20
404.624242
 30
0.0
 11
469.164884
 21
409.767915
 31
0.0
  0
LINE
  8
LC-007-005-----0
  6
CONTINUOUS
  5
9F
 10
464.021212
 20
407.452669
 30
0.0
 11
466.123804
 21
409.555262
 31
0.0
  0
ENDBLK
  8
0
  5
A0
  0
BLOCK
  8
0
  5
A2
  2
*X5
 70
    65
 10
300.021212
 20
390.772209
 30
0.0
  3
*X5
  0
LINE
  8
LC-007-005-----0
  6
CONTINUOUS
  5
A3
 10
320.061531
 20
390.772209
 30
0.0
 11
322.271212
 21
392.98189
 31
0.0
  0
LINE
  8
LC-007-005-----0
  6
CONTINUOUS
  5
A4
 10
317.233104
 20
390.772209
 30
0.0
 11
320.233104
 21
393.772209
 31
0.0
  0
LINE
  8
LC-007-005-----0
  6
CONTINUOUS
  5
A5
 10
314.404677
 20
390.772209
 30
0.0
 11
319.521212
 21
395.888744
 31
0.0
  0
LINE
  8
LC-007-005-----0
  6
CONTINUOUS
  5
A6
 10
312.771212
 20
391.967171
 30
0.0
 11
319.521212
 21
398.717171
 31
0.0
  0
LINE
  8
LC-007-005-----0
  6
CONTINUOUS
  5
A7
 10
312.771212
 20
394.795598
 30
0.0
 11
319.521212
 21
401.545598
 31
0.0
  0
LINE
  8
LC-007-005-----0
  6
CONTINUOUS
  5
A8
 10
312.771212
 20
397.624026
 30
0.0
 11
319.521212
 21
404.374026
 31
0.0
  0
LINE
  8
LC-007-005-----0
  6
CONTINUOUS
  5
A9
 10
312.771212
 20
400.452453
 30
0.0
 11
319.521212
 21
407.202453
 31
0.0
  0
LINE
  8
LC-007-005-----0
  6
CONTINUOUS
  5
AA
 10
312.771212
 20
403.28088
 30
0.0
 11
318.861111
 21
409.370779
 31
0.0
  0
LINE
  8
LC-007-005-----0
  6
CONTINUOUS
  5
AB
 10
312.771212
 20
406.109307
 30
0.0
 11
316.295689
 21
409.633785
 31
0.0
  0
LINE
  8
LC-007-005-----0
  6
CONTINUOUS
  5
AC
 10
311.309805
 20
407.476327
 30
0.0
 11
313.652119
 21
409.818641
 31
0.0
  0
LINE
  8
LC-007-005-----0
  6
CONTINUOUS
  5
AD
 10
308.666234
 20
407.661183
 30
0.0
 11
311.008548
 21
410.003498
 31
0.0
  0
LINE
  8
LC-007-005-----0
  6
CONTINUOUS
  5
AE
 10
301.948833
 20
403.772209
 30
0.0
 11
302.529085
 21
404.352462
 31
0.0
  0
LINE
  8
LC-007-005-----0
  6
CONTINUOUS
  5
AF
 10
306.022663
 20
407.84604
 30
0.0
 11
308.364977
 21
410.188354
 31
0.0
  0
LINE
  8
LC-007-005-----0
  6
CONTINUOUS
  5
B0
 10
300.783599
 20
405.435403
 30
0.0
 11
302.771426
 21
407.42323
 31
0.0
  0
LINE
  8
LC-007-005-----0
  6
CONTINUOUS
  5
B1
 10
303.379093
 20
408.030896
 30
0.0
 11
305.721407
 21
410.37321
 31
0.0
  0
LINE
  8
LC-007-005-----0
  6
CONTINUOUS
  5
B2
 10
300.430028
 20
407.910259
 30
0.0
 11
303.077836
 21
410.558067
 31
0.0
  0
LINE
  8
LC-007-005-----0
  6
CONTINUOUS
  5
B3
 10
300.076457
 20
410.385115
 30
0.0
 11
300.434266
 21
410.742923
 31
0.0
  0
ENDBLK
  8
0
  5
B4
  0
BLOCK
  8
0
  5
B6
  2
*D6
 70
    65
 10
0.0
 20
0.0
 30
0.0
  3
*D6
  0
LINE
  8
LC-010-003-MTH-0
  6
CONTINUOUS
  5
B8
 10
241.617077
 20
413.543407
 30
0.0
 11
241.617077
 21
487.2
 31
0.0
  0
LINE
  8
LC-010-003-MTH-0
  6
CONTINUOUS
  5
B9
 10
541.917925
 20
413.543407
 30
0.0
 11
541.917925
 21
487.2
 31
0.0
  0
LINE
  8
LC-011-003-MTG-0
  6
CONTINUOUS
  5
BB
 10
241.617077
 20
470.4
 30
0.0
 11
541.917925
 21
470.4
 31
0.0
  0
LINE
  8
LC-009-003-----0
  6
CONTINUOUS
  5
BD
 10
269.377533
 20
474.054733
 30
0.0
 11
241.617077
 21
470.4
 31
0.0
  0
LINE
  8
LC-009-003-----0
  6
CONTINUOUS
  5
BE
 10
241.617077
 20
470.4
 30
0.0
 11
269.377533
 21
466.745267
 31
0.0
  0
LINE
  8
LC-009-003-----0
  6
CONTINUOUS
  5
BF
 10
269.377533
 20
466.745267
 30
0.0
 11
269.377533
 21
474.054733
 31
0.0
  0
LINE
  8
LC-009-003-----0
  6
CONTINUOUS
  5
C0
 10
269.439814
 20
473.104503
 30
0.0
 11
248.897077
 21
470.4
 31
0.0
  0
LINE
  8
LC-009-003-----0
  6
CONTINUOUS
  5
C1
 10
248.897077
 20
470.4
 30
0.0
 11
269.439814
 21
467.695497
 31
0.0
  0
LINE
  8
LC-009-003-----0
  6
CONTINUOUS
  5
C2
 10
269.502096
 20
472.154272
 30
0.0
 11
256.177077
 21
470.4
 31
0.0
  0
LINE
  8
LC-009-003-----0
  6
CONTINUOUS
  5
C3
 10
256.177077
 20
470.4
 30
0.0
 11
269.502096
 21
468.645728
 31
0.0
  0
LINE
  8
LC-009-003-----0
  6
CONTINUOUS
  5
C4
 10
269.564377
 20
471.204041
 30
0.0
 11
263.457077
 21
470.4
 31
0.0
  0
LINE
  8
LC-009-003-----0
  6
CONTINUOUS
  5
C5
 10
263.457077
 20
470.4
 30
0.0
 11
269.564377
 21
469.595959
 31
0.0
  0
LINE
  8
LC-009-003-----0
  6
CONTINUOUS
  5
C6
 10
514.157469
 20
466.745267
 30
0.0
 11
541.917925
 21
470.4
 31
0.0
  0
LINE
  8
LC-009-003-----0
  6
CONTINUOUS
  5
C7
 10
541.917925
 20
470.4
 30
0.0
 11
514.157469
 21
474.054733
 31
0.0
  0
LINE
  8
LC-009-003-----0
  6
CONTINUOUS
  5
C8
 10
514.157469
 20
474.054733
 30
0.0
 11
514.157469
 21
466.745267
 31
0.0
  0
LINE
  8
LC-009-003-----0
  6
CONTINUOUS
  5
C9
 10
514.095188
 20
467.695497
 30
0.0
 11
534.637925
 21
470.4
 31
0.0
  0
LINE
  8
LC-009-003-----0
  6
CONTINUOUS
  5
CA
 10
534.637925
 20
470.4
 30
0.0
 11
514.095188
 21
473.104503
 31
0.0
  0
LINE
  8
LC-009-003-----0
  6
CONTINUOUS
  5
CB
 10
514.032906
 20
468.645728
 30
0.0
 11
527.357925
 21
470.4
 31
0.0
  0
LINE
  8
LC-009-003-----0
  6
CONTINUOUS
  5
CC
 10
527.357925
 20
470.4
 30
0.0
 11
514.032906
 21
472.154272
 31
0.0
  0
LINE
  8
LC-009-003-----0
  6
CONTINUOUS
  5
CD
 10
513.970625
 20
469.595959
 30
0.0
 11
520.077925
 21
470.4
 31
0.0
  0
LINE
  8
LC-009-003-----0
  6
CONTINUOUS
  5
CE
 10
520.077925
 20
470.4
 30
0.0
 11
513.970625
 21
471.204041
 31
0.0
  0
TEXT
  8
LC-009-003-----0
  6
CONTINUOUS
 62
     8
  5
D0
 10
358.018023
 20
478.227554
 30
0.0
 40
28.0
  1
Ø300
 41
0.9
 51
15.0
  7
LC-TXTSTYLE-150-400-0-0-D0
 72
     1
 11
396.115661
 21
478.227554
 31
0.0
  0
ENDBLK
  8
0
  5
D1
  0
BLOCK
  8
0
  5
D3
  2
*D7
 70
    65
 10
0.0
 20
0.0
 30
0.0
  3
*D7
  0
LINE
  8
LC-010-003-MTH-0
  6
CONTINUOUS
  5
D4
 10
366.771364
 20
254.159634
 30
0.0
 11
366.771364
 21
218.4
 31
0.0
  0
LINE
  8
LC-010-003-MTH-0
  6
CONTINUOUS
  5
D5
 10
416.771365
 20
254.159634
 30
0.0
 11
416.771365
 21
218.4
 31
0.0
  0
LINE
  8
LC-009-003-----0
  6
CONTINUOUS
  5
D6
 10
339.010908
 20
231.545267
 30
0.0
 11
366.771364
 21
235.2
 31
0.0
  0
LINE
  8
LC-009-003-----0
  6
CONTINUOUS
  5
D7
 10
366.771364
 20
235.2
 30
0.0
 11
339.010908
 21
238.854733
 31
0.0
  0
LINE
  8
LC-009-003-----0
  6
CONTINUOUS
  5
D8
 10
339.010908
 20
238.854733
 30
0.0
 11
339.010908
 21
231.545267
 31
0.0
  0
LINE
  8
LC-009-003-----0
  6
CONTINUOUS
  5
D9
 10
338.948626
 20
232.495497
 30
0.0
 11
359.491364
 21
235.2
 31
0.0
  0
LINE
  8
LC-009-003-----0
  6
CONTINUOUS
  5
DA
 10
359.491364
 20
235.2
 30
0.0
 11
338.948626
 21
237.904503
 31
0.0
  0
LINE
  8
LC-009-003-----0
  6
CONTINUOUS
  5
DB
 10
338.886345
 20
233.445728
 30
0.0
 11
352.211364
 21
235.2
 31
0.0
  0
LINE
  8
LC-009-003-----0
  6
CONTINUOUS
  5
DC
 10
352.211364
 20
235.2
 30
0.0
 11
338.886345
 21
236.954272
 31
0.0
  0
LINE
  8
LC-009-003-----0
  6
CONTINUOUS
  5
DD
 10
338.824063
 20
234.395959
 30
0.0
 11
344.931364
 21
235.2
 31
0.0
  0
LINE
  8
LC-009-003-----0
  6
CONTINUOUS
  5
DE
 10
344.931364
 20
235.2
 30
0.0
 11
338.824063
 21
236.004041
 31
0.0
  0
LINE
  8
LC-009-003-----0
  6
CONTINUOUS
  5
DF
 10
444.531821
 20
238.854733
 30
0.0
 11
416.771365
 21
235.2
 31
0.0
  0
LINE
  8
LC-009-003-----0
  6
CONTINUOUS
  5
E0
 10
416.771365
 20
235.2
 30
0.0
 11
444.531821
 21
231.545267
 31
0.0
  0
LINE
  8
LC-009-003-----0
  6
CONTINUOUS
  5
E1
 10
444.531821
 20
231.545267
 30
0.0
 11
444.531821
 21
238.854733
 31
0.0
  0
LINE
  8
LC-009-003-----0
  6
CONTINUOUS
  5
E2
 10
444.594102
 20
237.904503
 30
0.0
 11
424.051365
 21
235.2
 31
0.0
  0
LINE
  8
LC-009-003-----0
  6
CONTINUOUS
  5
E3
 10
424.051365
 20
235.2
 30
0.0
 11
444.594102
 21
232.495497
 31
0.0
  0
LINE
  8
LC-009-003-----0
  6
CONTINUOUS
  5
E4
 10
444.656384
 20
236.954272
 30
0.0
 11
431.331365
 21
235.2
 31
0.0
  0
LINE
  8
LC-009-003-----0
  6
CONTINUOUS
  5
E5
 10
431.331365
 20
235.2
 30
0.0
 11
444.656384
 21
233.445728
 31
0.0
  0
LINE
  8
LC-009-003-----0
  6
CONTINUOUS
  5
E6
 10
444.718665
 20
236.004041
 30
0.0
 11
438.611365
 21
235.2
 31
0.0
  0
LINE
  8
LC-009-003-----0
  6
CONTINUOUS
  5
E7
 10
438.611365
 20
235.2
 30
0.0
 11
444.718665
 21
234.395959
 31
0.0
  0
LINE
  8
LC-011-003-MTG-0
  6
CONTINUOUS
  5
E8
 10
327.571364
 20
235.2
 30
0.0
 11
545.741465
 21
235.2
 31
0.0
  0
TEXT
  8
LC-009-003-----0
  6
CONTINUOUS
 62
     8
  5
E9
 10
459.199525
 20
243.027554
 30
0.0
 40
28.0
  1
DN50
 51
15.0
  7
LC-TXTSTYLE-150-400-0-0-D0
  0
ENDBLK
  8
0
  5
EA
  0
BLOCK
  8
0
  5
EC
  2
*D8
 70
    65
 10
0.0
 20
0.0
 30
0.0
  3
*D8
  0
LINE
  8
LC-010-003-MTH-0
  6
CONTINUOUS
  5
ED
 10
323.790441
 20
303.75816
 30
0.0
 11
207.2
 21
303.75816
 31
0.0
  0
LINE
  8
LC-010-003-MTH-0
  6
CONTINUOUS
  5
EE
 10
241.617077
 20
413.543407
 30
0.0
 11
207.2
 21
413.543407
 31
0.0
  0
LINE
  8
LC-011-003-MTG-0
  6
CONTINUOUS
  5
EF
 10
224.0
 20
303.75816
 30
0.0
 11
224.0
 21
413.543407
 31
0.0
  0
LINE
  8
LC-009-003-----0
  6
CONTINUOUS
  5
F0
 10
220.345267
 20
331.518616
 30
0.0
 11
224.0
 21
303.75816
 31
0.0
  0
LINE
  8
LC-009-003-----0
  6
CONTINUOUS
  5
F1
 10
224.0
 20
303.75816
 30
0.0
 11
227.654733
 21
331.518616
 31
0.0
  0
LINE
  8
LC-009-003-----0
  6
CONTINUOUS
  5
F2
 10
227.654733
 20
331.518616
 30
0.0
 11
220.345267
 21
331.518616
 31
0.0
  0
LINE
  8
LC-009-003-----0
  6
CONTINUOUS
  5
F3
 10
221.295497
 20
331.580897
 30
0.0
 11
224.0
 21
311.03816
 31
0.0
  0
LINE
  8
LC-009-003-----0
  6
CONTINUOUS
  5
F4
 10
224.0
 20
311.03816
 30
0.0
 11
226.704503
 21
331.580897
 31
0.0
  0
LINE
  8
LC-009-003-----0
  6
CONTINUOUS
  5
F5
 10
222.245728
 20
331.643179
 30
0.0
 11
224.0
 21
318.31816
 31
0.0
  0
LINE
  8
LC-009-003-----0
  6
CONTINUOUS
  5
F6
 10
224.0
 20
318.31816
 30
0.0
 11
225.754272
 21
331.643179
 31
0.0
  0
LINE
  8
LC-009-003-----0
  6
CONTINUOUS
  5
F7
 10
223.195959
 20
331.70546
 30
0.0
 11
224.0
 21
325.59816
 31
0.0
  0
LINE
  8
LC-009-003-----0
  6
CONTINUOUS
  5
F8
 10
224.0
 20
325.59816
 30
0.0
 11
224.804041
 21
331.70546
 31
0.0
  0
LINE
  8
LC-009-003-----0
  6
CONTINUOUS
  5
F9
 10
227.654733
 20
385.782951
 30
0.0
 11
224.0
 21
413.543407
 31
0.0
  0
LINE
  8
LC-009-003-----0
  6
CONTINUOUS
  5
FA
 10
224.0
 20
413.543407
 30
0.0
 11
220.345267
 21
385.782951
 31
0.0
  0
LINE
  8
LC-009-003-----0
  6
CONTINUOUS
  5
FB
 10
220.345267
 20
385.782951
 30
0.0
 11
227.654733
 21
385.782951
 31
0.0
  0
LINE
  8
LC-009-003-----0
  6
CONTINUOUS
  5
FC
 10
226.704503
 20
385.720669
 30
0.0
 11
224.0
 21
406.263407
 31
0.0
  0
LINE
  8
LC-009-003-----0
  6
CONTINUOUS
  5
FD
 10
224.0
 20
406.263407
 30
0.0
 11
221.295497
 21
385.720669
 31
0.0
  0
LINE
  8
LC-009-003-----0
  6
CONTINUOUS
  5
FE
 10
225.754272
 20
385.658388
 30
0.0
 11
224.0
 21
398.983407
 31
0.0
  0
LINE
  8
LC-009-003-----0
  6
CONTINUOUS
  5
FF
 10
224.0
 20
398.983407
 30
0.0
 11
222.245728
 21
385.658388
 31
0.0
  0
LINE
  8
LC-009-003-----0
  6
CONTINUOUS
  5
100
 10
224.804041
 20
385.596106
 30
0.0
 11
224.0
 21
391.703407
 31
0.0
  0
LINE
  8
LC-009-003-----0
  6
CONTINUOUS
  5
101
 10
224.0
 20
391.703407
 30
0.0
 11
223.195959
 21
385.596106
 31
0.0
  0
TEXT
  8
LC-009-003-----0
  6
CONTINUOUS
 62
     8
  5
102
 10
216.172446
 20
333.235164
 30
0.0
 40
28.0
  1
110
 50
90.0
 51
15.0
  7
LC-TXTSTYLE-150-400-0-0-D0
 72
     1
 11
216.172446
 21
362.998943
 31
0.0
  0
ENDBLK
  8
0
  5
103
  0
BLOCK
  8
0
  5
105
  2
*D9
 70
    65
 10
0.0
 20
0.0
 30
0.0
  3
*D9
  0
LINE
  8
LC-010-003-MTH-0
  6
CONTINUOUS
  5
106
 10
350.270442
 20
325.246189
 30
0.0
 11
263.2
 21
325.246189
 31
0.0
  0
LINE
  8
LC-010-003-MTH-0
  6
CONTINUOUS
  5
107
 10
360.512724
 20
374.746192
 30
0.0
 11
263.2
 21
374.746192
 31
0.0
  0
LINE
  8
LC-009-003-----0
  6
CONTINUOUS
  5
108
 10
283.654733
 20
297.485733
 30
0.0
 11
280.0
 21
325.246189
 31
0.0
  0
LINE
  8
LC-009-003-----0
  6
CONTINUOUS
  5
109
 10
280.0
 20
325.246189
 30
0.0
 11
276.345267
 21
297.485733
 31
0.0
  0
LINE
  8
LC-009-003-----0
  6
CONTINUOUS
  5
10A
 10
276.345267
 20
297.485733
 30
0.0
 11
283.654733
 21
297.485733
 31
0.0
  0
LINE
  8
LC-009-003-----0
  6
CONTINUOUS
  5
10B
 10
282.704503
 20
297.423452
 30
0.0
 11
280.0
 21
317.966189
 31
0.0
  0
LINE
  8
LC-009-003-----0
  6
CONTINUOUS
  5
10C
 10
280.0
 20
317.966189
 30
0.0
 11
277.295497
 21
297.423452
 31
0.0
  0
LINE
  8
LC-009-003-----0
  6
CONTINUOUS
  5
10D
 10
281.754272
 20
297.36117
 30
0.0
 11
280.0
 21
310.686189
 31
0.0
  0
LINE
  8
LC-009-003-----0
  6
CONTINUOUS
  5
10E
 10
280.0
 20
310.686189
 30
0.0
 11
278.245728
 21
297.36117
 31
0.0
  0
LINE
  8
LC-009-003-----0
  6
CONTINUOUS
  5
10F
 10
280.804041
 20
297.298889
 30
0.0
 11
280.0
 21
303.406189
 31
0.0
  0
LINE
  8
LC-009-003-----0
  6
CONTINUOUS
  5
110
 10
280.0
 20
303.406189
 30
0.0
 11
279.195959
 21
297.298889
 31
0.0
  0
LINE
  8
LC-009-003-----0
  6
CONTINUOUS
  5
111
 10
276.345267
 20
402.506648
 30
0.0
 11
280.0
 21
374.746192
 31
0.0
  0
LINE
  8
LC-009-003-----0
  6
CONTINUOUS
  5
112
 10
280.0
 20
374.746192
 30
0.0
 11
283.654733
 21
402.506648
 31
0.0
  0
LINE
  8
LC-009-003-----0
  6
CONTINUOUS
  5
113
 10
283.654733
 20
402.506648
 30
0.0
 11
276.345267
 21
402.506648
 31
0.0
  0
LINE
  8
LC-009-003-----0
  6
CONTINUOUS
  5
114
 10
277.295497
 20
402.568929
 30
0.0
 11
280.0
 21
382.026192
 31
0.0
  0
LINE
  8
LC-009-003-----0
  6
CONTINUOUS
  5
115
 10
280.0
 20
382.026192
 30
0.0
 11
282.704503
 21
402.568929
 31
0.0
  0
LINE
  8
LC-009-003-----0
  6
CONTINUOUS
  5
116
 10
278.245728
 20
402.631211
 30
0.0
 11
280.0
 21
389.306192
 31
0.0
  0
LINE
  8
LC-009-003-----0
  6
CONTINUOUS
  5
117
 10
280.0
 20
389.306192
 30
0.0
 11
281.754272
 21
402.631211
 31
0.0
  0
LINE
  8
LC-009-003-----0
  6
CONTINUOUS
  5
118
 10
279.195959
 20
402.693492
 30
0.0
 11
280.0
 21
396.586192
 31
0.0
  0
LINE
  8
LC-009-003-----0
  6
CONTINUOUS
  5
119
 10
280.0
 20
396.586192
 30
0.0
 11
280.804041
 21
402.693492
 31
0.0
  0
LINE
  8
LC-011-003-MTG-0
  6
CONTINUOUS
  5
11A
 10
280.0
 20
286.046189
 30
0.0
 11
280.0
 21
413.946192
 31
0.0
  0
TEXT
  8
LC-009-003-----0
  6
CONTINUOUS
 62
     8
  5
11B
 10
272.172446
 20
337.941201
 30
0.0
 40
28.0
  1
50
 50
90.0
 51
15.0
  7
LC-TXTSTYLE-150-400-0-0-D0
 72
     1
 11
272.172446
 21
354.34435
 31
0.0
  0
ENDBLK
  8
0
  5
11C
  0
BLOCK
  8
0
  5
11E
  2
BLK4
 70
    64
 10
0.0
 20
0.0
 30
0.0
  3
BLK4
  0
ENDBLK
  8
0
  5
11F
  0
BLOCK
  8
0
  5
121
  2
BLK5
 70
    64
 10
0.0
 20
0.0
 30
0.0
  3
BLK5
  0
ENDBLK
  8
0
  5
122
  0
BLOCK
  8
0
  5
124
  2
*D12
 70
    65
 10
0.0
 20
0.0
 30
0.0
  3
*D12
  0
LINE
  8
LC-010-003-MTH-0
  6
CONTINUOUS
  5
125
 10
311.880342
 20
314.708769
 30
0.0
 11
311.880342
 21
140.0
 31
0.0
  0
LINE
  8
LC-010-003-MTH-0
  6
CONTINUOUS
  5
126
 10
471.700159
 20
232.848
 30
0.0
 11
471.700159
 21
140.0
 31
0.0
  0
LINE
  8
LC-011-003-MTG-0
  6
CONTINUOUS
  5
127
 10
311.880342
 20
156.8
 30
0.0
 11
471.700159
 21
156.8
 31
0.0
  0
LINE
  8
LC-009-003-----0
  6
CONTINUOUS
  5
128
 10
339.640798
 20
160.454733
 30
0.0
 11
311.880342
 21
156.8
 31
0.0
  0
LINE
  8
LC-009-003-----0
  6
CONTINUOUS
  5
129
 10
311.880342
 20
156.8
 30
0.0
 11
339.640798
 21
153.145267
 31
0.0
  0
LINE
  8
LC-009-003-----0
  6
CONTINUOUS
  5
12A
 10
339.640798
 20
153.145267
 30
0.0
 11
339.640798
 21
160.454733
 31
0.0
  0
LINE
  8
LC-009-003-----0
  6
CONTINUOUS
  5
12B
 10
339.703079
 20
159.504503
 30
0.0
 11
319.160342
 21
156.8
 31
0.0
  0
LINE
  8
LC-009-003-----0
  6
CONTINUOUS
  5
12C
 10
319.160342
 20
156.8
 30
0.0
 11
339.703079
 21
154.095497
 31
0.0
  0
LINE
  8
LC-009-003-----0
  6
CONTINUOUS
  5
12D
 10
339.765361
 20
158.554272
 30
0.0
 11
326.440342
 21
156.8
 31
0.0
  0
LINE
  8
LC-009-003-----0
  6
CONTINUOUS
  5
12E
 10
326.440342
 20
156.8
 30
0.0
 11
339.765361
 21
155.045728
 31
0.0
  0
LINE
  8
LC-009-003-----0
  6
CONTINUOUS
  5
12F
 10
339.827642
 20
157.604041
 30
0.0
 11
333.720342
 21
156.8
 31
0.0
  0
LINE
  8
LC-009-003-----0
  6
CONTINUOUS
  5
130
 10
333.720342
 20
156.8
 30
0.0
 11
339.827642
 21
155.995959
 31
0.0
  0
LINE
  8
LC-009-003-----0
  6
CONTINUOUS
  5
131
 10
443.939703
 20
153.145267
 30
0.0
 11
471.700159
 21
156.8
 31
0.0
  0
LINE
  8
LC-009-003-----0
  6
CONTINUOUS
  5
132
 10
471.700159
 20
156.8
 30
0.0
 11
443.939703
 21
160.454733
 31
0.0
  0
LINE
  8
LC-009-003-----0
  6
CONTINUOUS
  5
133
 10
443.939703
 20
160.454733
 30
0.0
 11
443.939703
 21
153.145267
 31
0.0
  0
LINE
  8
LC-009-003-----0
  6
CONTINUOUS
  5
134
 10
443.877421
 20
154.095497
 30
0.0
 11
464.420159
 21
156.8
 31
0.0
  0
LINE
  8
LC-009-003-----0
  6
CONTINUOUS
  5
135
 10
464.420159
 20
156.8
 30
0.0
 11
443.877421
 21
159.504503
 31
0.0
  0
LINE
  8
LC-009-003-----0
  6
CONTINUOUS
  5
136
 10
443.81514
 20
155.045728
 30
0.0
 11
457.140159
 21
156.8
 31
0.0
  0
LINE
  8
LC-009-003-----0
  6
CONTINUOUS
  5
137
 10
457.140159
 20
156.8
 30
0.0
 11
443.81514
 21
158.554272
 31
0.0
  0
LINE
  8
LC-009-003-----0
  6
CONTINUOUS
  5
138
 10
443.752859
 20
155.995959
 30
0.0
 11
449.860159
 21
156.8
 31
0.0
  0
LINE
  8
LC-009-003-----0
  6
CONTINUOUS
  5
139
 10
449.860159
 20
156.8
 30
0.0
 11
443.752859
 21
157.604041
 31
0.0
  0
TEXT
  8
LC-009-003-----0
  6
CONTINUOUS
 62
     8
  5
13A
 10
358.040773
 20
164.627554
 30
0.0
 40
28.0
  1
Ø160
 51
15.0
  7
LC-TXTSTYLE-150-400-0-0-D0
 72
     1
 11
396.13841
 21
164.627554
 31
0.0
  0
ENDBLK
  8
0
  5
13B
  0
BLOCK
  8
0
  5
13D
  2
*D13
 70
    65
 10
0.0
 20
0.0
 30
0.0
  3
*D13
  0
LINE
  8
LC-010-003-MTH-0
  6
CONTINUOUS
  5
13E
 10
297.266463
 20
404.292919
 30
0.0
 11
297.27655
 21
447.931298
 31
0.0
  0
LINE
  8
LC-010-003-MTH-0
  6
CONTINUOUS
  5
13F
 10
486.273617
 20
404.249231
 30
0.0
 11
486.283704
 21
447.88761
 31
0.0
  0
LINE
  8
LC-011-003-MTG-0
  6
CONTINUOUS
  5
140
 10
297.272666
 20
431.131298
 30
0.0
 11
486.279821
 21
431.08761
 31
0.0
  0
LINE
  8
LC-009-003-----0
  6
CONTINUOUS
  5
141
 10
325.033966
 20
434.779615
 30
0.0
 11
297.272666
 21
431.131298
 31
0.0
  0
LINE
  8
LC-009-003-----0
  6
CONTINUOUS
  5
142
 10
297.272666
 20
431.131298
 30
0.0
 11
325.032277
 21
427.470148
 31
0.0
  0
LINE
  8
LC-009-003-----0
  6
CONTINUOUS
  5
143
 10
325.032277
 20
427.470148
 30
0.0
 11
325.033966
 21
434.779615
 31
0.0
  0
LINE
  8
LC-009-003-----0
  6
CONTINUOUS
  5
144
 10
325.096028
 20
433.82937
 30
0.0
 11
304.552666
 21
431.129615
 31
0.0
  0
LINE
  8
LC-009-003-----0
  6
CONTINUOUS
  5
145
 10
304.552666
 20
431.129615
 30
0.0
 11
325.094778
 21
428.420364
 31
0.0
  0
LINE
  8
LC-009-003-----0
  6
CONTINUOUS
  5
146
 10
325.15809
 20
432.879125
 30
0.0
 11
311.832666
 21
431.127933
 31
0.0
  0
LINE
  8
LC-009-003-----0
  6
CONTINUOUS
  5
147
 10
311.832666
 20
431.127933
 30
0.0
 11
325.157279
 21
429.370581
 31
0.0
  0
LINE
  8
LC-009-003-----0
  6
CONTINUOUS
  5
148
 10
325.220152
 20
431.92888
 30
0.0
 11
319.112666
 21
431.12625
 31
0.0
  0
LINE
  8
LC-009-003-----0
  6
CONTINUOUS
  5
149
 10
319.112666
 20
431.12625
 30
0.0
 11
325.21978
 21
430.320797
 31
0.0
  0
LINE
  8
LC-009-003-----0
  6
CONTINUOUS
  5
14A
 10
458.518521
 20
427.439293
 30
0.0
 11
486.279821
 21
431.08761
 31
0.0
  0
LINE
  8
LC-009-003-----0
  6
CONTINUOUS
  5
14B
 10
486.279821
 20
431.08761
 30
0.0
 11
458.52021
 21
434.74876
 31
0.0
  0
LINE
  8
LC-009-003-----0
  6
CONTINUOUS
  5
14C
 10
458.52021
 20
434.74876
 30
0.0
 11
458.518521
 21
427.439293
 31
0.0
  0
LINE
  8
LC-009-003-----0
  6
CONTINUOUS
  5
14D
 10
458.456459
 20
428.389539
 30
0.0
 11
478.999821
 21
431.089293
 31
0.0
  0
LINE
  8
LC-009-003-----0
  6
CONTINUOUS
  5
14E
 10
478.999821
 20
431.089293
 30
0.0
 11
458.457709
 21
433.798544
 31
0.0
  0
LINE
  8
LC-009-003-----0
  6
CONTINUOUS
  5
14F
 10
458.394397
 20
429.339784
 30
0.0
 11
471.719821
 21
431.090976
 31
0.0
  0
LINE
  8
LC-009-003-----0
  6
CONTINUOUS
  5
150
 10
471.719821
 20
431.090976
 30
0.0
 11
458.395208
 21
432.848328
 31
0.0
  0
LINE
  8
LC-009-003-----0
  6
CONTINUOUS
  5
151
 10
458.332336
 20
430.290029
 30
0.0
 11
464.439822
 21
431.092658
 31
0.0
  0
LINE
  8
LC-009-003-----0
  6
CONTINUOUS
  5
152
 10
464.439822
 20
431.092658
 30
0.0
 11
458.332707
 21
431.898111
 31
0.0
  0
TEXT
  8
LC-009-003-----0
  6
CONTINUOUS
 62
     8
  5
153
 10
358.024824
 20
438.937008
 30
0.0
 40
28.0
  1
Ø190
 50
360.0
 51
15.0
  7
LC-TXTSTYLE-150-400-0-0-D0
 72
     1
 11
396.122462
 21
438.937008
 31
0.0
  0
ENDBLK
  8
0
  5
154
  0
ENDSEC
  0
SECTION
  2
ENTITIES
  0
VIEWPORT
  8
LC-000
  5
368
 67
     1
 68
     1
 10
420.0
 20
297.0
 30
0.0
 40
840.0
 41
594.0
 69
     1
1001
ACAD
1000
MVIEW
1002
{
1070
    16
1010
0.0
1020
0.0
1030
0.0
1010
0.0
1020
0.0
1030
1.0
1040
0.0
1040
594.0
1040
420.0
1040
297.0
1040
50.0
1040
0.0
1040
0.0
1070
     0
1070
   100
1070
     1
1070
     1
1070
     0
1070
     0
1070
     0
1070
     0
1040
0.0
1040
0.0
1040
0.0
1040
1.0
1040
1.0
1040
0.0
1040
0.0
1070
     0
1002
{
1002
}
1002
}
  0
VIEWPORT
  8
0
  5
369
 67
     1
 68
     1
 10
0.0
 20
0.0
 30
0.0
 40
0.0
 41
0.0
 69
     1
1001
ACAD
1000
MVIEW
1002
{
1070
    16
1010
0.0
1020
0.0
1030
0.0
1010
0.0
1020
0.0
1030
1.0
1040
0.0
1040
594.0
1040
0.0
1040
0.0
1040
50.0
1040
0.0
1040
0.0
1070
     0
1070
   100
1070
     0
1070
     1
1070
     0
1070
     0
1070
     0
1070
     0
1040
0.0
1040
0.0
1040
0.0
1040
0.5
1040
0.5
1040
0.5
1040
0.5
1070
     0
1002
{
1002
}
1002
}
  0
INSERT
  8
0
  5
156
  2
BLK1
 10
0.0
 20
0.0
 30
0.0
  0
INSERT
  8
0
  5
157
  2
*X1
 10
350.270438
 20
325.246189
 30
0.0
  0
INSERT
  8
0
  5
158
  2
BLK2
 10
0.0
 20
0.0
 30
0.0
  0
INSERT
  8
0
  5
15A
  2
BLK3
 10
0.0
 20
0.0
 30
0.0
  0
INSERT
  8
0
  5
15B
  2
*X4
 10
461.271212
 20
390.772209
 30
0.0
  0
INSERT
  8
0
  5
15C
  2
*X5
 10
300.021212
 20
390.772209
 30
0.0
  0
DIMENSION
  8
0
  5
15D
  2
*D6
 10
391.767501
 20
470.4
 30
0.0
 11
391.767501
 21
470.4
 31
0.0
  1
%%c300
 13
241.617077
 23
413.543407
 33
0.0
 14
541.917925
 24
413.543407
 34
0.0
  3
LC-DIM-L-0140-02-02
  0
DIMENSION
  8
0
  5
15E
  2
*D7
 10
391.771364
 20
235.2
 30
0.0
 11
391.771364
 21
235.2
 31
0.0
  1
DN50
 13
366.771364
 23
254.159634
 33
0.0
 14
416.771365
 24
254.159634
 34
0.0
  3
LC-DIM-L-0140-02-02
  0
DIMENSION
  8
0
  5
15F
  2
*D8
 10
224.0
 20
358.650783
 30
0.0
 11
224.0
 21
358.650783
 31
0.0
  1
110
 13
241.617077
 23
413.543407
 33
0.0
 14
323.790441
 24
303.75816
 34
0.0
 50
90.0
  3
LC-DIM-L-0140-02-02
  0
DIMENSION
  8
0
  5
160
  2
*D9
 10
280.0
 20
349.99619
 30
0.0
 11
280.0
 21
349.99619
 31
0.0
  1
50
 13
350.270442
 23
325.246189
 33
0.0
 14
360.512724
 24
374.746192
 34
0.0
 50
90.0
  3
LC-DIM-L-0140-02-02
  0
INSERT
  8
0
  5
161
  2
BLK4
 10
0.0
 20
0.0
 30
0.0
  0
INSERT
  8
0
  5
162
  2
BLK5
 10
0.0
 20
0.0
 30
0.0
  0
DIMENSION
  8
0
  5
163
  2
*D12
 10
391.79025
 20
156.8
 30
0.0
 11
391.79025
 21
156.8
 31
0.0
  1
%%c160
 13
311.880342
 23
314.708769
 33
0.0
 14
471.700159
 24
232.848
 34
0.0
  3
LC-DIM-L-0140-02-02
  0
DIMENSION
  8
0
  5
164
  2
*D13
 10
391.776244
 20
431.109454
 30
0.0
 11
391.776244
 21
431.109454
 31
0.0
 70
     1
  1
%%c190
 13
297.266463
 23
404.292919
 33
0.0
 14
486.273617
 24
404.249231
 34
0.0
  3
LC-DIM-L-0140-02-02
  0
LINE
  8
LC-001-103-D00-1
  6
CONTINUOUS
  5
166
 10
416.771365
 20
254.159634
 30
0.0
 11
415.837271
 21
250.673593
 31
0.0
  0
ARC
  8
LC-002-002-----0
  6
CONTINUOUS
  5
168
 10
459.752245
 20
315.710441
 30
0.0
 40
11.952134
 50
269.999963
 51
0.0
  0
LINE
  8
LC-002-002-----0
  6
CONTINUOUS
  5
169
 10
426.179906
 20
303.758346
 30
0.0
 11
426.179906
 21
303.811049
 31
0.0
  0
ARC
  8
LC-003-002-RND-0
  6
CONTINUOUS
  5
16B
 10
243.617077
 20
414.394
 30
0.0
 40
2.0
 50
86.000003
 51
180.0
  0
LINE
  8
LC-002-002-----0
  6
CONTINUOUS
  5
16C
 10
357.355255
 20
306.746193
 30
0.0
 11
358.401067
 21
306.746193
 31
0.0
  0
LINE
  8
LC-002-002-----0
  6
CONTINUOUS
  5
16D
 10
426.179908
 20
306.746193
 30
0.0
 11
426.179908
 21
306.746193
 31
0.0
  0
LINE
  8
LC-002-002-----0
  6
CONTINUOUS
  5
16E
 10
305.36561
 20
401.402239
 30
0.0
 11
305.36561
 21
407.876311
 31
0.0
  0
LINE
  8
LC-002-002-----0
  6
CONTINUOUS
  5
16F
 10
303.373587
 20
407.876311
 30
0.0
 11
305.36561
 21
407.876311
 31
0.0
  0
LINE
  8
LC-002-002-----0
  6
CONTINUOUS
  5
170
 10
478.169393
 20
401.402239
 30
0.0
 11
478.169393
 21
407.876311
 31
0.0
  0
LINE
  8
LC-002-002-----0
  6
CONTINUOUS
  5
171
 10
480.161415
 20
407.876311
 30
0.0
 11
478.169393
 21
407.876311
 31
0.0
  0
LINE
  8
LC-002-002-----0
  6
CONTINUOUS
  5
172
 10
480.161415
 20
401.900244
 30
0.0
 11
480.161415
 21
407.876311
 31
0.0
  0
LINE
  8
LC-002-002-----0
  6
CONTINUOUS
  5
173
 10
303.373587
 20
401.900244
 30
0.0
 11
303.373587
 21
407.876311
 31
0.0
  0
LINE
  8
LC-002-002-----0
  6
CONTINUOUS
  5
174
 10
301.381565
 20
401.900244
 30
0.0
 11
303.373587
 21
401.900244
 31
0.0
  0
LINE
  8
LC-002-002-----0
  6
CONTINUOUS
  5
175
 10
314.577337
 20
315.710294
 30
0.0
 11
314.577337
 21
381.229458
 31
0.0
  0
ARC
  8
LC-002-002-----0
  6
CONTINUOUS
  5
176
 10
323.790441
 20
315.710294
 30
0.0
 40
11.952134
 50
180.0
 51
270.0
  0
LINE
  8
LC-002-002-----0
  6
CONTINUOUS
  5
177
 10
313.232722
 20
390.442562
 30
0.0
 11
351.453889
 21
390.442562
 31
0.0
  0
LINE
  8
LC-002-002-----0
  6
CONTINUOUS
  5
178
 10
314.029531
 20
389.645753
 30
0.0
 11
314.228734
 21
389.645753
 31
0.0
  0
LINE
  8
LC-002-002-----0
  6
CONTINUOUS
  5
179
 10
305.364234
 20
390.940568
 30
0.0
 11
305.364234
 21
407.872758
 31
0.0
  0
LINE
  8
LC-002-002-----0
  6
CONTINUOUS
  5
17A
 10
482.153437
 20
401.900244
 30
0.0
 11
480.161415
 21
401.900244
 31
0.0
  0
LINE
  8
LC-002-002-----0
  6
CONTINUOUS
  5
17B
 10
314.029531
 20
386.159714
 30
0.0
 11
314.029531
 21
387.653731
 31
0.0
  0
LINE
  8
LC-002-002-----0
  6
CONTINUOUS
  5
17C
 10
314.029531
 20
382.723475
 30
0.0
 11
314.029531
 21
383.221481
 31
0.0
  0
LINE
  8
LC-002-002-----0
  6
CONTINUOUS
  5
17D
 10
314.029531
 20
381.229458
 30
0.0
 11
314.029531
 21
384.167691
 31
0.0
  0
LINE
  8
LC-002-002-----0
  6
CONTINUOUS
  5
17E
 10
314.029531
 20
381.229458
 30
0.0
 11
314.577337
 21
381.229458
 31
0.0
  0
LINE
  8
LC-002-002-----0
  6
CONTINUOUS
  5
17F
 10
314.029531
 20
384.167691
 30
0.0
 11
314.228734
 21
384.167691
 31
0.0
  0
LINE
  8
LC-002-002-----0
  6
CONTINUOUS
  5
180
 10
315.025543
 20
384.9645
 30
0.0
 11
315.025543
 21
385.362905
 31
0.0
  0
LINE
  8
LC-002-002-----0
  6
CONTINUOUS
  5
181
 10
315.025543
 20
388.45054
 30
0.0
 11
315.025543
 21
388.848944
 31
0.0
  0
LINE
  8
LC-002-002-----0
  6
CONTINUOUS
  5
182
 10
314.029531
 20
387.653731
 30
0.0
 11
314.228734
 21
387.653731
 31
0.0
  0
ARC
  8
LC-002-002-----0
  6
CONTINUOUS
  5
183
 10
314.228734
 20
388.848944
 30
0.0
 40
0.796809
 50
0.0
 51
90.0
  0
ARC
  8
LC-002-002-----0
  6
CONTINUOUS
  5
184
 10
314.228734
 20
385.362905
 30
0.0
 40
0.796809
 50
0.0
 51
90.0
  0
LINE
  8
LC-002-002-----0
  6
CONTINUOUS
  5
185
 10
281.827975
 20
411.790864
 30
0.0
 11
299.935192
 21
410.463854
 31
0.0
  0
LINE
  8
LC-002-002-----0
  6
CONTINUOUS
  5
186
 10
301.329357
 20
401.896691
 30
0.0
 11
303.372211
 21
401.896691
 31
0.0
  0
ARC
  8
LC-002-002-----0
  6
CONTINUOUS
  5
187
 10
314.228734
 20
384.9645
 30
0.0
 40
0.796809
 50
270.0
 51
0.0
  0
ARC
  8
LC-002-002-----0
  6
CONTINUOUS
  5
188
 10
314.228734
 20
388.45054
 30
0.0
 40
0.796809
 50
270.0
 51
0.0
  0
LINE
  8
LC-002-002-----0
  6
CONTINUOUS
  5
189
 10
468.957665
 20
315.710294
 30
0.0
 11
468.957665
 21
381.229458
 31
0.0
  0
ARC
  8
LC-002-002-----0
  6
CONTINUOUS
  5
18A
 10
305.862239
 20
390.940568
 30
0.0
 40
0.498006
 50
180.0
 51
270.0
  0
LINE
  8
LC-002-002-----0
  6
CONTINUOUS
  5
18B
 10
303.372211
 20
401.896691
 30
0.0
 11
303.372211
 21
407.872758
 31
0.0
  0
LINE
  8
LC-002-002-----0
  6
CONTINUOUS
  5
18C
 10
243.75659
 20
416.389128
 30
0.0
 11
275.957901
 21
414.137395
 31
0.0
  0
ARC
  8
LC-002-002-----0
  6
CONTINUOUS
  5
18D
 10
301.329357
 20
402.892702
 30
0.0
 40
0.996011
 50
183.0
 51
270.0
  0
LINE
  8
LC-002-002-----0
  6
CONTINUOUS
  5
18E
 10
241.617077
 20
413.543407
 30
0.0
 11
274.807532
 21
411.222507
 31
0.0
  0
LINE
  8
LC-002-002-----0
  6
CONTINUOUS
  5
18F
 10
299.935192
 20
410.463854
 30
0.0
 11
300.334711
 21
402.840575
 31
0.0
  0
LINE
  8
LC-002-002-----0
  6
CONTINUOUS
  5
190
 10
241.617077
 20
414.394
 30
0.0
 11
241.617077
 21
413.543407
 31
0.0
  0
LINE
  8
LC-002-002-----0
  6
CONTINUOUS
  5
191
 10
469.505471
 20
389.645753
 30
0.0
 11
469.306269
 21
389.645753
 31
0.0
  0
LINE
  8
LC-002-002-----0
  6
CONTINUOUS
  5
192
 10
297.158785
 20
406.347523
 30
0.0
 11
297.37414
 21
402.238315
 31
0.0
  0
LINE
  8
LC-002-002-----0
  6
CONTINUOUS
  5
193
 10
274.807532
 20
411.222507
 30
0.0
 11
280.677606
 21
408.875975
 31
0.0
  0
ARC
  8
LC-003-002-RND-0
  6
CONTINUOUS
  5
194
 10
539.917925
 20
414.394
 30
0.0
 40
2.0
 50
0.0
 51
93.999996
  0
LINE
  8
LC-002-002-----0
  6
CONTINUOUS
  5
195
 10
539.917925
 20
416.394
 30
0.0
 11
243.617077
 21
416.394
 31
0.0
  0
LINE
  8
LC-002-002-----0
  6
CONTINUOUS
  5
196
 10
314.029531
 20
386.159714
 30
0.0
 11
314.228734
 21
386.159714
 31
0.0
  0
LINE
  8
LC-002-002-----0
  6
CONTINUOUS
  5
197
 10
478.170768
 20
390.940568
 30
0.0
 11
478.170768
 21
407.872758
 31
0.0
  0
LINE
  8
LC-002-002-----0
  6
CONTINUOUS
  5
198
 10
469.505471
 20
386.159714
 30
0.0
 11
469.505471
 21
387.653731
 31
0.0
  0
LINE
  8
LC-002-002-----0
  6
CONTINUOUS
  5
199
 10
469.505471
 20
382.723475
 30
0.0
 11
469.505471
 21
383.221481
 31
0.0
  0
LINE
  8
LC-002-002-----0
  6
CONTINUOUS
  5
19A
 10
469.505471
 20
381.229458
 30
0.0
 11
469.505471
 21
384.167691
 31
0.0
  0
ARC
  8
LC-002-002-----0
  6
CONTINUOUS
  5
19B
 10
323.541438
 20
315.710294
 30
0.0
 40
8.964101
 50
180.0
 51
270.0
  0
ARC
  8
LC-004-001-RND-0
  6
CONTINUOUS
  5
19D
 10
295.666815
 20
406.269333
 30
0.0
 40
1.494017
 50
3.0
 51
86.000003
  0
LINE
  8
LC-002-002-----0
  6
CONTINUOUS
  5
19E
 10
469.505471
 20
381.229458
 30
0.0
 11
468.957665
 21
381.229458
 31
0.0
  0
LINE
  8
LC-002-002-----0
  6
CONTINUOUS
  5
19F
 10
469.505471
 20
384.167691
 30
0.0
 11
469.306269
 21
384.167691
 31
0.0
  0
LINE
  8
LC-002-002-----0
  6
CONTINUOUS
  5
1A0
 10
468.50946
 20
384.9645
 30
0.0
 11
468.50946
 21
385.362905
 31
0.0
  0
LINE
  8
LC-002-002-----0
  6
CONTINUOUS
  5
1A1
 10
468.50946
 20
388.45054
 30
0.0
 11
468.50946
 21
388.848944
 31
0.0
  0
LINE
  8
LC-002-002-----0
  6
CONTINUOUS
  5
1A2
 10
469.505471
 20
387.653731
 30
0.0
 11
469.306269
 21
387.653731
 31
0.0
  0
LINE
  8
LC-002-002-----0
  6
CONTINUOUS
  5
1A3
 10
501.12783
 20
411.7479
 30
0.0
 11
483.599811
 21
410.463854
 31
0.0
  0
ARC
  8
LC-002-002-----0
  6
CONTINUOUS
  5
1A4
 10
469.306269
 20
388.848944
 30
0.0
 40
0.796809
 50
90.0
 51
180.0
  0
ARC
  8
LC-002-002-----0
  6
CONTINUOUS
  5
1A5
 10
469.306269
 20
385.362905
 30
0.0
 40
0.796809
 50
90.0
 51
180.0
  0
LINE
  8
LC-002-002-----0
  6
CONTINUOUS
  5
1A6
 10
482.205646
 20
401.896691
 30
0.0
 11
480.162791
 21
401.896691
 31
0.0
  0
LINE
  8
LC-002-002-----0
  6
CONTINUOUS
  5
1A7
 10
480.162791
 20
401.896691
 30
0.0
 11
480.162791
 21
407.872758
 31
0.0
  0
ARC
  8
LC-002-002-----0
  6
CONTINUOUS
  5
1A8
 10
469.306269
 20
384.9645
 30
0.0
 40
0.796809
 50
180.0
 51
270.0
  0
ARC
  8
LC-002-002-----0
  6
CONTINUOUS
  5
1A9
 10
469.306269
 20
388.45054
 30
0.0
 40
0.796809
 50
180.0
 51
270.0
  0
LINE
  8
LC-002-002-----0
  6
CONTINUOUS
  5
1AA
 10
539.778412
 20
416.389128
 30
0.0
 11
508.300692
 21
414.187993
 31
0.0
  0
ARC
  8
LC-002-002-----0
  6
CONTINUOUS
  5
1AB
 10
477.672763
 20
390.940568
 30
0.0
 40
0.498006
 50
270.0
 51
0.0
  0
LINE
  8
LC-002-002-----0
  6
CONTINUOUS
  5
1AC
 10
541.917925
 20
413.543407
 30
0.0
 11
509.451062
 21
411.273105
 31
0.0
  0
LINE
  8
LC-002-002-----0
  6
CONTINUOUS
  5
1AD
 10
483.599811
 20
410.463854
 30
0.0
 11
483.200291
 21
402.840575
 31
0.0
  0
ARC
  8
LC-002-002-----0
  6
CONTINUOUS
  5
1AE
 10
482.205646
 20
402.892702
 30
0.0
 40
0.996011
 50
270.0
 51
357.0
  0
LINE
  8
LC-002-002-----0
  6
CONTINUOUS
  5
1AF
 10
541.917925
 20
414.394
 30
0.0
 11
541.917925
 21
413.543407
 31
0.0
  0
LINE
  8
LC-002-002-----0
  6
CONTINUOUS
  5
1B0
 10
486.376217
 20
406.347523
 30
0.0
 11
486.160863
 21
402.238315
 31
0.0
  0
LINE
  8
LC-002-002-----0
  6
CONTINUOUS
  5
1B1
 10
509.451062
 20
411.273105
 30
0.0
 11
503.597343
 21
408.927209
 31
0.0
  0
LINE
  8
LC-002-002-----0
  6
CONTINUOUS
  5
1B2
 10
469.505471
 20
386.159714
 30
0.0
 11
469.306269
 21
386.159714
 31
0.0
  0
LINE
  8
LC-002-002-----0
  6
CONTINUOUS
  5
1B3
 10
480.909799
 20
391.438573
 30
0.0
 11
471.70438
 21
378.291871
 31
0.0
  0
LINE
  8
LC-002-002-----0
  6
CONTINUOUS
  5
1B4
 10
483.176924
 20
399.406663
 30
0.0
 11
482.901821
 21
399.406663
 31
0.0
  0
LINE
  8
LC-002-002-----0
  6
CONTINUOUS
  5
1B5
 10
302.625203
 20
391.438573
 30
0.0
 11
311.838307
 21
378.280898
 31
0.0
  0
LINE
  8
LC-005-001-----0
  6
CONTINUOUS
  5
1B7
 10
503.597343
 20
408.927209
 30
0.0
 11
487.763969
 21
407.75971
 31
0.0
  0
ARC
  8
LC-002-002-----0
  6
CONTINUOUS
  5
1B8
 10
459.993564
 20
315.710294
 30
0.0
 40
8.964101
 50
270.0
 51
0.0
  0
ARC
  8
LC-004-001-RND-0
  6
CONTINUOUS
  5
1B9
 10
487.868187
 20
406.269333
 30
0.0
 40
1.494017
 50
93.999997
 51
177.0
  0
LINE
  8
LC-002-002-----0
  6
CONTINUOUS
  5
1BA
 10
300.358078
 20
399.406663
 30
0.0
 11
300.633181
 21
399.406663
 31
0.0
  0
LINE
  8
LC-005-001-----0
  6
CONTINUOUS
  5
1BB
 10
280.677606
 20
408.875975
 30
0.0
 11
295.771034
 21
407.75971
 31
0.0
  0
LINE
  8
LC-002-002-----0
  6
CONTINUOUS
  5
1BC
 10
302.625203
 20
391.438573
 30
0.0
 11
302.625203
 21
397.41464
 31
0.0
  0
LINE
  8
LC-002-002-----0
  6
CONTINUOUS
  5
1BD
 10
305.862239
 20
390.442562
 30
0.0
 11
313.232722
 21
390.442562
 31
0.0
  0
LINE
  8
LC-002-002-----0
  6
CONTINUOUS
  5
1BE
 10
305.364234
 20
391.936579
 30
0.0
 11
305.364234
 21
393.230778
 31
0.0
  0
LINE
  8
LC-002-002-----0
  6
CONTINUOUS
  5
1BF
 10
480.909799
 20
391.438573
 30
0.0
 11
480.909799
 21
397.41464
 31
0.0
  0
ARC
  8
LC-002-002-----0
  6
CONTINUOUS
  5
1C0
 10
300.358078
 20
402.394696
 30
0.0
 40
2.988034
 50
183.0
 51
270.0
  0
ARC
  8
LC-002-002-----0
  6
CONTINUOUS
  5
1C1
 10
300.633181
 20
397.41464
 30
0.0
 40
1.992022
 50
0.0
 51
90.0
  0
LINE
  8
LC-002-002-----0
  6
CONTINUOUS
  5
1C2
 10
303.372211
 20
407.872758
 30
0.0
 11
305.364234
 21
407.872758
 31
0.0
  0
LINE
  8
LC-002-002-----0
  6
CONTINUOUS
  5
1C3
 10
314.029531
 20
382.474472
 30
0.0
 11
314.029531
 21
382.972478
 31
0.0
  0
LINE
  8
LC-002-002-----0
  6
CONTINUOUS
  5
1C4
 10
305.364234
 20
391.936579
 30
0.0
 11
305.364234
 21
393.230778
 31
0.0
  0
ARC
  8
LC-002-002-----0
  6
CONTINUOUS
  5
1C5
 10
483.176924
 20
402.394696
 30
0.0
 40
2.988034
 50
270.0
 51
357.0
  0
LINE
  8
LC-002-002-----0
  6
CONTINUOUS
  5
1C6
 10
477.672763
 20
390.442562
 30
0.0
 11
470.30228
 21
390.442562
 31
0.0
  0
ARC
  8
LC-002-002-----0
  6
CONTINUOUS
  5
1C7
 10
482.901821
 20
397.41464
 30
0.0
 40
1.992022
 50
90.0
 51
180.0
  0
LINE
  8
LC-002-002-----0
  6
CONTINUOUS
  5
1C8
 10
314.029531
 20
382.673675
 30
0.0
 11
314.029531
 21
383.17168
 31
0.0
  0
LINE
  8
LC-002-002-----0
  6
CONTINUOUS
  5
1C9
 10
478.170768
 20
391.936579
 30
0.0
 11
478.170768
 21
393.230778
 31
0.0
  0
LINE
  8
LC-002-002-----0
  6
CONTINUOUS
  5
1CA
 10
480.162791
 20
407.872758
 30
0.0
 11
478.170768
 21
407.872758
 31
0.0
  0
LINE
  8
LC-002-002-----0
  6
CONTINUOUS
  5
1CB
 10
469.505471
 20
382.474472
 30
0.0
 11
469.505471
 21
382.972478
 31
0.0
  0
LINE
  8
LC-002-002-----0
  6
CONTINUOUS
  5
1CC
 10
275.957901
 20
414.137395
 30
0.0
 11
281.827975
 21
411.790864
 31
0.0
  0
LINE
  8
LC-002-002-----0
  6
CONTINUOUS
  5
1CD
 10
478.170768
 20
391.936579
 30
0.0
 11
478.170768
 21
393.230778
 31
0.0
  0
LINE
  8
LC-002-002-----0
  6
CONTINUOUS
  5
1CE
 10
469.505471
 20
382.673675
 30
0.0
 11
469.505471
 21
383.17168
 31
0.0
  0
LINE
  8
LC-002-002-----0
  6
CONTINUOUS
  5
1CF
 10
508.300692
 20
414.187993
 30
0.0
 11
501.12783
 21
411.7479
 31
0.0
  0
LINE
  8
LC-002-002-----0
  6
CONTINUOUS
  5
1D0
 10
459.752238
 20
303.758307
 30
0.0
 11
423.178115
 21
303.758342
 31
0.0
  0
LINE
  8
LC-002-002-----0
  6
CONTINUOUS
  5
1D1
 10
360.364601
 20
303.75816
 30
0.0
 11
323.790441
 21
303.75816
 31
0.0
  0
ARC
  8
LC-002-002-----0
  6
CONTINUOUS
  5
1D2
 10
313.232722
 20
389.645753
 30
0.0
 40
0.796809
 50
0.0
 51
90.0
  0
LINE
  8
LC-002-002-----0
  6
CONTINUOUS
  5
1D3
 10
323.541438
 20
306.746193
 30
0.0
 11
357.355255
 21
306.746193
 31
0.0
  0
ARC
  8
LC-002-002-----0
  6
CONTINUOUS
  5
1D4
 10
470.30228
 20
389.645753
 30
0.0
 40
0.796809
 50
90.0
 51
180.0
  0
LINE
  8
LC-002-002-----0
  6
CONTINUOUS
  5
1D5
 10
459.993564
 20
306.746193
 30
0.0
 11
425.134064
 21
306.746193
 31
0.0
  0
LINE
  8
LC-002-002-----0
  6
CONTINUOUS
  5
1D6
 10
432.08728
 20
390.442562
 30
0.0
 11
470.30228
 21
390.442562
 31
0.0
  0
LINE
  8
LC-001-103-D00-1
  6
CONTINUOUS
  5
1D7
 10
415.837271
 20
250.673593
 30
0.0
 11
413.67999
 21
250.673593
 31
0.0
  0
LINE
  8
LC-001-103-D00-1
  6
CONTINUOUS
  5
1D8
 10
413.67999
 20
250.673593
 30
0.0
 11
413.680072
 21
302.746193
 31
0.0
  0
LINE
  8
LC-002-002-----0
  6
CONTINUOUS
  5
1D9
 10
413.67999
 20
250.673593
 30
0.0
 11
369.862741
 21
250.673593
 31
0.0
  0
LINE
  8
LC-002-002-----0
  6
CONTINUOUS
  5
1DA
 10
350.270449
 20
381.229458
 30
0.0
 11
314.577337
 21
381.229458
 31
0.0
  0
LINE
  8
LC-002-002-----0
  6
CONTINUOUS
  5
1DB
 10
413.680072
 20
302.746193
 30
0.0
 11
369.855195
 21
302.746179
 31
0.0
  0
LINE
  8
LC-002-002-----0
  6
CONTINUOUS
  5
1DC
 10
411.768941
 20
305.453142
 30
0.0
 11
416.974656
 21
306.84801
 31
0.0
  0
LINE
  8
LC-001-103-D00-1
  6
CONTINUOUS
  5
1DD
 10
366.771364
 20
254.159634
 30
0.0
 11
367.705459
 21
250.673593
 31
0.0
  0
LINE
  8
LC-001-103-D00-1
  6
CONTINUOUS
  5
1DE
 10
367.705459
 20
250.673593
 30
0.0
 11
369.862741
 21
250.673593
 31
0.0
  0
LINE
  8
LC-001-103-D00-1
  6
CONTINUOUS
  5
1DF
 10
369.862741
 20
250.673593
 30
0.0
 11
369.862643
 21
302.746179
 31
0.0
  0
LINE
  8
LC-002-002-----0
  6
CONTINUOUS
  5
1E0
 10
471.70438
 20
315.710441
 30
0.0
 11
471.70438
 21
378.291871
 31
0.0
  0
LINE
  8
LC-002-002-----0
  6
CONTINUOUS
  5
1E1
 10
366.568056
 20
306.847994
 30
0.0
 11
371.768941
 21
305.454421
 31
0.0
  0
LINE
  8
LC-002-002-----0
  6
CONTINUOUS
  5
1E2
 10
371.768941
 20
305.454421
 30
0.0
 11
411.768941
 21
305.454421
 31
0.0
  0
LINE
  8
LC-002-002-----0
  6
CONTINUOUS
  5
1E3
 10
408.481827
 20
374.746193
 30
0.0
 11
419.929692
 21
374.746193
 31
0.0
  0
ARC
  8
LC-001-103-D00-1
  6
CONTINUOUS
  5
1E4
 10
425.134064
 20
309.734239
 30
0.0
 40
2.988044
 50
180.0
 51
270.000071
  0
ARC
  8
LC-001-103-D00-1
  6
CONTINUOUS
  5
1E5
 10
358.401067
 20
309.734239
 30
0.0
 40
2.988046
 50
270.0
 51
0.0
  0
LINE
  8
LC-001-103-D00-1
  6
CONTINUOUS
 62
     4
  5
1E6
 10
413.680041
 20
303.758357
 30
0.0
 11
413.680057
 21
303.758357
 31
0.0
  0
ARC
  8
LC-001-103-D00-1
  6
CONTINUOUS
  5
1E7
 10
416.201293
 20
309.734239
 30
0.0
 40
2.988045
 50
285.0
 51
359.394775
  0
LINE
  8
LC-002-002-----0
  6
CONTINUOUS
  5
1E8
 10
411.773713
 20
305.454421
 30
0.0
 11
411.773713
 21
302.746192
 31
0.0
  0
LINE
  8
LC-002-002-----0
  6
CONTINUOUS
  5
1E9
 10
371.768941
 20
305.454421
 30
0.0
 11
371.768941
 21
302.74618
 31
0.0
  0
LINE
  8
LC-002-002-----0
  6
CONTINUOUS
  5
1EA
 10
416.771365
 20
304.205347
 30
0.0
 11
420.126748
 21
305.10442
 31
0.0
  0
LINE
  8
LC-002-002-----0
  6
CONTINUOUS
  5
1EB
 10
363.415964
 20
305.104404
 30
0.0
 11
366.771351
 21
304.205331
 31
0.0
  0
LINE
  8
LC-002-002-----0
  6
CONTINUOUS
  5
1EC
 10
357.355255
 20
303.75816
 30
0.0
 11
357.355255
 21
303.75816
 31
0.0
  0
LINE
  8
LC-002-002-----0
  6
CONTINUOUS
  5
1ED
 10
426.179897
 20
303.758336
 30
0.0
 11
426.179906
 21
303.758346
 31
0.0
  0
LINE
  8
LC-002-002-----0
  6
CONTINUOUS
  5
1EE
 10
406.731825
 20
372.246193
 30
0.0
 11
419.90123
 21
372.246193
 31
0.0
  0
ARC
  8
LC-002-002-----0
  6
CONTINUOUS
  5
1EF
 10
421.228078
 20
373.481249
 30
0.0
 40
1.812703
 50
135.74746
 51
222.947976
  0
LINE
  8
LC-002-002-----0
  6
CONTINUOUS
  5
1F0
 10
419.929692
 20
374.746193
 30
0.0
 11
422.146003
 21
374.746193
 31
0.0
  0
ARC
  8
LC-002-002-----0
  6
CONTINUOUS
  5
1F1
 10
362.438781
 20
373.483849
 30
0.0
 40
1.812638
 50
316.937765
 51
44.139908
  0
LINE
  8
LC-001-103-D00-1
  6
CONTINUOUS
  5
1F2
 10
416.771365
 20
304.205347
 30
0.0
 11
416.771365
 21
254.159634
 31
0.0
  0
ARC
  8
LC-001-103-D00-1
  6
CONTINUOUS
  5
1F3
 10
421.221307
 20
305.864337
 30
0.0
 40
0.489202
 50
33.69001
 51
146.309906
  0
LINE
  8
LC-001-103-D00-1
  6
CONTINUOUS
  5
1F4
 10
420.126748
 20
305.10442
 30
0.0
 11
420.814267
 21
306.135699
 31
0.0
  0
LINE
  8
LC-001-103-D00-1
  6
CONTINUOUS
  5
1F5
 10
423.178115
 20
303.811049
 30
0.0
 11
421.628349
 21
306.135699
 31
0.0
  0
ARC
  8
LC-001-103-D00-1
  6
CONTINUOUS
  5
1F6
 10
367.341419
 20
309.734224
 30
0.0
 40
2.988045
 50
180.605255
 51
255.0
  0
ARC
  8
LC-001-103-D00-1
  6
CONTINUOUS
  5
1F7
 10
362.321407
 20
305.864315
 30
0.0
 40
0.489202
 50
33.69014
 51
146.310028
  0
LINE
  8
LC-001-103-D00-1
  6
CONTINUOUS
  5
1F8
 10
363.415964
 20
305.104404
 30
0.0
 11
362.728447
 21
306.135676
 31
0.0
  0
LINE
  8
LC-001-103-D00-1
  6
CONTINUOUS
  5
1F9
 10
360.364601
 20
303.811027
 30
0.0
 11
361.914365
 21
306.135676
 31
0.0
  0
LINE
  8
LC-001-103-D00-1
  6
CONTINUOUS
  5
1FA
 10
366.771351
 20
304.205331
 30
0.0
 11
366.771364
 21
254.159634
 31
0.0
  0
LINE
  8
LC-001-103-D00-1
  6
CONTINUOUS
  5
1FB
 10
419.90123
 20
372.246193
 30
0.0
 11
419.189175
 21
309.702708
 31
0.0
  0
LINE
  8
LC-001-103-D00-1
  6
CONTINUOUS
  5
1FC
 10
422.146003
 20
374.746193
 30
0.0
 11
422.146003
 21
309.734239
 31
0.0
  0
LINE
  8
LC-001-103-D00-1
  6
CONTINUOUS
  5
1FD
 10
361.389069
 20
374.746193
 30
0.0
 11
361.389069
 21
309.734239
 31
0.0
  0
LINE
  8
LC-001-103-D00-1
  6
CONTINUOUS
  5
1FE
 10
363.763117
 20
372.246193
 30
0.0
 11
364.351271
 21
309.708202
 31
0.0
  0
LINE
  8
LC-002-002-----0
  6
CONTINUOUS
  5
1FF
 10
425.771343
 20
306.746193
 30
0.0
 11
426.179908
 21
306.746193
 31
0.0
  0
LINE
  8
LC-002-002-----0
  6
CONTINUOUS
  5
200
 10
350.270438
 20
385.246192
 30
0.0
 11
350.270608
 21
325.246357
 31
0.0
  0
LINE
  8
LC-002-002-----0
  6
CONTINUOUS
  5
201
 10
351.270438
 20
385.246192
 30
0.0
 11
351.270608
 21
325.246357
 31
0.0
  0
LINE
  8
LC-002-002-----0
  6
CONTINUOUS
  5
202
 10
351.270608
 20
325.246357
 30
0.0
 11
350.270442
 21
325.246189
 31
0.0
  0
LINE
  8
LC-002-002-----0
  6
CONTINUOUS
  5
203
 10
351.270608
 20
325.246357
 30
0.0
 11
361.389069
 21
325.246357
 31
0.0
  0
ARC
  8
LC-002-002-----0
  6
CONTINUOUS
  5
204
 10
361.270438
 20
385.246192
 30
0.0
 40
10.0
 50
94.313709
 51
179.999848
  0
ARC
  8
LC-003-002-RND-0
  6
CONTINUOUS
  5
205
 10
362.270438
 20
385.246192
 30
0.0
 40
12.0
 50
90.0
 51
180.0
  0
LINE
  8
LC-002-002-----0
  6
CONTINUOUS
  5
206
 10
421.270656
 20
397.246363
 30
0.0
 11
405.520437
 21
397.246374
 31
0.0
  0
LINE
  8
LC-002-002-----0
  6
CONTINUOUS
  5
207
 10
422.270655
 20
395.246363
 30
0.0
 11
393.213814
 21
395.246363
 31
0.0
  0
LINE
  8
LC-002-002-----0
  6
CONTINUOUS
  5
208
 10
362.270438
 20
397.246192
 30
0.0
 11
378.02044
 21
397.246192
 31
0.0
  0
ARC
  8
LC-003-002-RND-0
  6
CONTINUOUS
  5
209
 10
396.520436
 20
398.246192
 30
0.0
 40
9.0
 50
0.000006
 51
90.000006
  0
ARC
  8
LC-002-002-----0
  6
CONTINUOUS
  5
20A
 10
422.270649
 20
385.246363
 30
0.0
 40
10.0
 50
0.000096
 51
89.999963
  0
ARC
  8
LC-002-002-----0
  6
CONTINUOUS
  5
20B
 10
421.270649
 20
385.246363
 30
0.0
 40
12.0
 50
0.000096
 51
89.999963
  0
LINE
  8
LC-002-002-----0
  6
CONTINUOUS
  5
20C
 10
433.270647
 20
385.246355
 30
0.0
 11
433.270608
 21
325.246355
 31
0.0
  0
LINE
  8
LC-002-002-----0
  6
CONTINUOUS
  5
20D
 10
432.270647
 20
385.246357
 30
0.0
 11
432.270773
 21
325.246521
 31
0.0
  0
LINE
  8
LC-002-002-----0
  6
CONTINUOUS
  5
20E
 10
432.270773
 20
325.246521
 30
0.0
 11
433.270608
 21
325.246355
 31
0.0
  0
LINE
  8
LC-002-002-----0
  6
CONTINUOUS
  5
20F
 10
360.512724
 20
374.746192
 30
0.0
 11
360.518275
 21
395.255213
 31
0.0
  0
LINE
  8
LC-002-002-----0
  6
CONTINUOUS
  5
210
 10
393.206099
 20
366.746192
 30
0.0
 11
364.95055
 21
366.746192
 31
0.0
  0
LINE
  8
LC-002-002-----0
  6
CONTINUOUS
  5
211
 10
364.012727
 20
370.246192
 30
0.0
 11
364.95055
 21
366.746192
 31
0.0
  0
LINE
  8
LC-002-002-----0
  6
CONTINUOUS
  5
212
 10
364.012727
 20
373.331979
 30
0.0
 11
364.012727
 21
370.246192
 31
0.0
  0
ARC
  8
LC-002-002-----0
  6
CONTINUOUS
  5
213
 10
363.762724
 20
374.039085
 30
0.0
 40
0.75
 50
289.471622
 51
70.528779
  0
LINE
  8
LC-002-002-----0
  6
CONTINUOUS
  5
214
 10
360.512724
 20
374.746192
 30
0.0
 11
364.012724
 21
374.746192
 31
0.0
  0
LINE
  8
LC-002-002-----0
  6
CONTINUOUS
  5
215
 10
396.520436
 20
403.246192
 30
0.0
 11
391.770437
 21
403.246192
 31
0.0
  0
LINE
  8
LC-002-002-----0
  6
CONTINUOUS
  5
216
 10
401.520437
 20
397.246193
 30
0.0
 11
401.520436
 21
398.246193
 31
0.0
  0
ARC
  8
LC-002-002-----0
  6
CONTINUOUS
  5
217
 10
396.520436
 20
398.246192
 30
0.0
 40
5.0
 50
0.000005
 51
90.000006
  0
ARC
  8
LC-003-002-RND-0
  6
CONTINUOUS
  5
218
 10
387.02044
 20
398.246192
 30
0.0
 40
9.0
 50
90.0
 51
180.000001
  0
LINE
  8
LC-002-002-----0
  6
CONTINUOUS
  5
219
 10
387.02044
 20
403.246192
 30
0.0
 11
391.770438
 21
403.246192
 31
0.0
  0
LINE
  8
LC-002-002-----0
  6
CONTINUOUS
  5
21A
 10
382.02044
 20
397.246192
 30
0.0
 11
382.02044
 21
398.246192
 31
0.0
  0
LINE
  8
LC-002-002-----0
  6
CONTINUOUS
  5
21B
 10
396.520436
 20
407.246192
 30
0.0
 11
391.770437
 21
407.246192
 31
0.0
  0
LINE
  8
LC-002-002-----0
  6
CONTINUOUS
  5
21C
 10
405.520437
 20
397.246193
 30
0.0
 11
405.520436
 21
398.246193
 31
0.0
  0
ARC
  8
LC-002-002-----0
  6
CONTINUOUS
  5
21D
 10
387.02044
 20
398.246192
 30
0.0
 40
5.0
 50
90.0
 51
180.000001
  0
LINE
  8
LC-002-002-----0
  6
CONTINUOUS
  5
21E
 10
387.02044
 20
407.246192
 30
0.0
 11
391.770438
 21
407.246192
 31
0.0
  0
LINE
  8
LC-002-002-----0
  6
CONTINUOUS
  5
21F
 10
378.02044
 20
397.246192
 30
0.0
 11
378.02044
 21
398.246192
 31
0.0
  0
LINE
  8
LC-002-002-----0
  6
CONTINUOUS
  5
220
 10
393.206099
 20
366.746192
 30
0.0
 11
393.213814
 21
395.246363
 31
0.0
  0
LINE
  8
LC-002-002-----0
  6
CONTINUOUS
  5
221
 10
382.02044
 20
397.246192
 30
0.0
 11
391.770438
 21
397.246192
 31
0.0
  0
LINE
  8
LC-002-002-----0
  6
CONTINUOUS
  5
222
 10
401.520437
 20
397.246377
 30
0.0
 11
391.770438
 21
397.246384
 31
0.0
  0
LINE
  8
LC-002-002-----0
  6
CONTINUOUS
  5
223
 10
393.206099
 20
366.746192
 30
0.0
 11
406.262914
 21
366.746192
 31
0.0
  0
LINE
  8
LC-002-002-----0
  6
CONTINUOUS
  5
224
 10
406.262914
 20
366.746192
 30
0.0
 11
406.731825
 21
370.246192
 31
0.0
  0
LINE
  8
LC-002-002-----0
  6
CONTINUOUS
  5
225
 10
406.731825
 20
370.246192
 30
0.0
 11
406.731825
 21
373.331979
 31
0.0
  0
LINE
  8
LC-002-002-----0
  6
CONTINUOUS
  5
226
 10
406.731825
 20
374.746192
 30
0.0
 11
408.481827
 21
374.746192
 31
0.0
  0
LINE
  8
LC-002-002-----0
  6
CONTINUOUS
  5
227
 10
408.481827
 20
374.746192
 30
0.0
 11
408.481827
 21
395.246363
 31
0.0
  0
ARC
  8
LC-002-002-----0
  6
CONTINUOUS
  5
228
 10
407.030519
 20
374.039086
 30
0.0
 40
0.767605
 50
112.900021
 51
247.099979
  0
LINE
  8
LC-002-002-----0
  6
CONTINUOUS
  5
229
 10
422.146003
 20
325.246357
 30
0.0
 11
432.270773
 21
325.246357
 31
0.0
  0
LINE
  8
LC-002-002-----0
  6
CONTINUOUS
  5
22A
 10
483.521212
 20
410.771807
 30
0.0
 11
464.771212
 21
409.460679
 31
0.0
  0
LINE
  8
LC-002-002-----0
  6
CONTINUOUS
  5
22B
 10
302.771426
 20
408.073388
 30
0.0
 11
312.771212
 21
407.374135
 31
0.0
  0
LINE
  8
LC-002-002-----0
  6
CONTINUOUS
  5
22C
 10
461.017872
 20
390.772209
 30
0.0
 11
461.017872
 21
393.772209
 31
0.0
  0
LINE
  8
LC-002-002-----0
  6
CONTINUOUS
  5
22D
 10
455.358491
 20
390.772209
 30
0.0
 11
455.358491
 21
393.772209
 31
0.0
  0
LINE
  8
LC-002-002-----0
  6
CONTINUOUS
  5
22E
 10
448.539066
 20
390.772209
 30
0.0
 11
448.539066
 21
393.772209
 31
0.0
  0
LINE
  8
LC-002-002-----0
  6
CONTINUOUS
  5
22F
 10
432.813472
 20
390.772209
 30
0.0
 11
432.813472
 21
393.772209
 31
0.0
  0
LINE
  8
LC-002-002-----0
  6
CONTINUOUS
  5
230
 10
454.589142
 20
409.460679
 30
0.0
 11
453.839142
 21
408.710679
 31
0.0
  0
LINE
  8
LC-002-002-----0
  6
CONTINUOUS
  5
231
 10
453.839142
 20
408.710679
 30
0.0
 11
453.839142
 21
393.772209
 31
0.0
  0
LINE
  8
LC-002-002-----0
  6
CONTINUOUS
  5
232
 10
453.839142
 20
408.710679
 30
0.0
 11
459.38345
 21
408.710679
 31
0.0
  0
LINE
  8
LC-002-002-----0
  6
CONTINUOUS
  5
233
 10
459.38345
 20
408.710679
 30
0.0
 11
459.38345
 21
393.772209
 31
0.0
  0
LINE
  8
LC-002-002-----0
  6
CONTINUOUS
  5
234
 10
464.771212
 20
409.460679
 30
0.0
 11
464.021212
 21
408.710679
 31
0.0
  0
LINE
  8
LC-002-002-----0
  6
CONTINUOUS
  5
235
 10
459.037572
 20
409.460679
 30
0.0
 11
459.38345
 21
408.710679
 31
0.0
  0
LINE
  8
LC-002-002-----0
  6
CONTINUOUS
  5
236
 10
436.080917
 20
390.772209
 30
0.0
 11
436.080917
 21
393.772209
 31
0.0
  0
LINE
  8
LC-002-002-----0
  6
CONTINUOUS
  5
237
 10
461.271212
 20
390.772209
 30
0.0
 11
461.271212
 21
393.772209
 31
0.0
  0
LINE
  8
LC-002-002-----0
  6
CONTINUOUS
  5
238
 10
464.021212
 20
393.772209
 30
0.0
 11
464.021212
 21
408.710679
 31
0.0
  0
LINE
  8
LC-002-002-----0
  6
CONTINUOUS
  5
239
 10
426.771212
 20
409.460679
 30
0.0
 11
426.021212
 21
408.710679
 31
0.0
  0
LINE
  8
LC-002-002-----0
  6
CONTINUOUS
  5
23A
 10
426.021212
 20
408.710679
 30
0.0
 11
426.021212
 21
396.265989
 31
0.0
  0
LINE
  8
LC-002-002-----0
  6
CONTINUOUS
  5
23B
 10
322.524552
 20
390.772209
 30
0.0
 11
322.524552
 21
393.772209
 31
0.0
  0
LINE
  8
LC-002-002-----0
  6
CONTINUOUS
  5
23C
 10
328.183932
 20
390.772209
 30
0.0
 11
328.183932
 21
393.772209
 31
0.0
  0
LINE
  8
LC-002-002-----0
  6
CONTINUOUS
  5
23D
 10
432.339177
 20
409.460679
 30
0.0
 11
432.97156
 21
408.710679
 31
0.0
  0
LINE
  8
LC-002-002-----0
  6
CONTINUOUS
  5
23E
 10
432.97156
 20
408.710679
 30
0.0
 11
432.97156
 21
393.772209
 31
0.0
  0
LINE
  8
LC-002-002-----0
  6
CONTINUOUS
  5
23F
 10
432.97156
 20
408.710679
 30
0.0
 11
426.021212
 21
408.710679
 31
0.0
  0
LINE
  8
LC-002-002-----0
  6
CONTINUOUS
  5
240
 10
335.003357
 20
390.772209
 30
0.0
 11
335.003357
 21
393.772209
 31
0.0
  0
LINE
  8
LC-002-002-----0
  6
CONTINUOUS
  5
241
 10
350.728952
 20
390.772209
 30
0.0
 11
350.728952
 21
393.772209
 31
0.0
  0
LINE
  8
LC-002-002-----0
  6
CONTINUOUS
  5
242
 10
328.953281
 20
409.460679
 30
0.0
 11
329.703281
 21
408.710679
 31
0.0
  0
LINE
  8
LC-002-002-----0
  6
CONTINUOUS
  5
243
 10
329.703281
 20
408.710679
 30
0.0
 11
329.703281
 21
393.772209
 31
0.0
  0
LINE
  8
LC-002-002-----0
  6
CONTINUOUS
  5
244
 10
329.703281
 20
408.710679
 30
0.0
 11
324.158973
 21
408.710679
 31
0.0
  0
LINE
  8
LC-002-002-----0
  6
CONTINUOUS
  5
245
 10
324.158973
 20
408.710679
 30
0.0
 11
324.158973
 21
393.772209
 31
0.0
  0
LINE
  8
LC-002-002-----0
  6
CONTINUOUS
  5
246
 10
318.771212
 20
409.460679
 30
0.0
 11
319.521212
 21
408.710679
 31
0.0
  0
LINE
  8
LC-002-002-----0
  6
CONTINUOUS
  5
247
 10
324.504851
 20
409.460679
 30
0.0
 11
324.158973
 21
408.710679
 31
0.0
  0
LINE
  8
LC-002-002-----0
  6
CONTINUOUS
  5
248
 10
347.461507
 20
390.772209
 30
0.0
 11
347.461507
 21
393.772209
 31
0.0
  0
LINE
  8
LC-002-002-----0
  6
CONTINUOUS
  5
249
 10
322.271212
 20
390.772209
 30
0.0
 11
322.271212
 21
393.772209
 31
0.0
  0
LINE
  8
LC-002-002-----0
  6
CONTINUOUS
  5
24A
 10
319.521212
 20
393.772209
 30
0.0
 11
319.521212
 21
408.710679
 31
0.0
  0
LINE
  8
LC-002-002-----0
  6
CONTINUOUS
  5
24B
 10
356.771212
 20
409.460679
 30
0.0
 11
357.521212
 21
408.710679
 31
0.0
  0
LINE
  8
LC-002-002-----0
  6
CONTINUOUS
  5
24C
 10
357.521212
 20
408.710679
 30
0.0
 11
357.521212
 21
396.266394
 31
0.0
  0
LINE
  8
LC-002-002-----0
  6
CONTINUOUS
  5
24D
 10
351.203247
 20
409.460679
 30
0.0
 11
350.570863
 21
408.710679
 31
0.0
  0
LINE
  8
LC-002-002-----0
  6
CONTINUOUS
  5
24E
 10
350.570863
 20
408.710679
 30
0.0
 11
350.570863
 21
393.772209
 31
0.0
  0
LINE
  8
LC-002-002-----0
  6
CONTINUOUS
  5
24F
 10
350.570863
 20
408.710679
 30
0.0
 11
357.521212
 21
408.710679
 31
0.0
  0
ARC
  8
LC-003-002-RND-0
  6
CONTINUOUS
  5
250
 10
469.771212
 20
391.772209
 30
0.0
 40
1.0
 50
270.0
 51
0.0
  0
LINE
  8
LC-002-002-----0
  6
CONTINUOUS
  5
251
 10
300.021212
 20
410.771807
 30
0.0
 11
301.021212
 21
403.772209
 31
0.0
  0
LINE
  8
LC-002-002-----0
  6
CONTINUOUS
  5
252
 10
302.194076
 20
403.772209
 30
0.0
 11
301.021212
 21
403.772209
 31
0.0
  0
LINE
  8
LC-002-002-----0
  6
CONTINUOUS
  5
253
 10
302.771426
 20
404.772209
 30
0.0
 11
302.194076
 21
403.772209
 31
0.0
  0
LINE
  8
LC-002-002-----0
  6
CONTINUOUS
  5
254
 10
302.771426
 20
404.772209
 30
0.0
 11
302.771426
 21
408.073388
 31
0.0
  0
ARC
  8
LC-003-002-RND-0
  6
CONTINUOUS
  5
255
 10
313.771212
 20
391.772209
 30
0.0
 40
1.0
 50
180.0
 51
270.0
  0
LINE
  8
LC-002-002-----0
  6
CONTINUOUS
  5
256
 10
313.771212
 20
390.772209
 30
0.0
 11
351.618531
 21
390.772209
 31
0.0
  0
LINE
  8
LC-002-002-----0
  6
CONTINUOUS
  5
257
 10
480.770997
 20
404.772209
 30
0.0
 11
481.348347
 21
403.772209
 31
0.0
  0
LINE
  8
LC-002-002-----0
  6
CONTINUOUS
  5
258
 10
312.771212
 20
391.772209
 30
0.0
 11
312.771212
 21
407.374135
 31
0.0
  0
LINE
  8
LC-002-002-----0
  6
CONTINUOUS
  5
259
 10
480.770997
 20
404.772209
 30
0.0
 11
480.770997
 21
408.073388
 31
0.0
  0
LINE
  8
LC-002-002-----0
  6
CONTINUOUS
  5
25A
 10
469.771212
 20
390.772209
 30
0.0
 11
461.271212
 21
390.772209
 31
0.0
  0
LINE
  8
LC-002-002-----0
  6
CONTINUOUS
  5
25B
 10
470.771212
 20
391.772209
 30
0.0
 11
470.771212
 21
407.374135
 31
0.0
  0
LINE
  8
LC-002-002-----0
  6
CONTINUOUS
  5
25C
 10
481.348347
 20
403.772209
 30
0.0
 11
482.521212
 21
403.772209
 31
0.0
  0
LINE
  8
LC-002-002-----0
  6
CONTINUOUS
  5
25D
 10
461.271212
 20
390.772209
 30
0.0
 11
431.922645
 21
390.772209
 31
0.0
  0
LINE
  8
LC-002-002-----0
  6
CONTINUOUS
  5
25E
 10
448.539066
 20
393.772209
 30
0.0
 11
461.271212
 21
393.772209
 31
0.0
  0
LINE
  8
LC-002-002-----0
  6
CONTINUOUS
  5
25F
 10
429.715171
 20
393.772209
 30
0.0
 11
436.080917
 21
393.772209
 31
0.0
  0
LINE
  8
LC-002-002-----0
  6
CONTINUOUS
  5
260
 10
353.826089
 20
393.772209
 30
0.0
 11
347.461507
 21
393.772209
 31
0.0
  0
LINE
  8
LC-002-002-----0
  6
CONTINUOUS
  5
261
 10
480.770997
 20
408.073388
 30
0.0
 11
470.771212
 21
407.374135
 31
0.0
  0
LINE
  8
LC-002-002-----0
  6
CONTINUOUS
  5
262
 10
483.521212
 20
410.771807
 30
0.0
 11
482.521212
 21
403.772209
 31
0.0
  0
LINE
  8
LC-002-002-----0
  6
CONTINUOUS
  5
263
 10
300.021212
 20
410.771807
 30
0.0
 11
318.771212
 21
409.460679
 31
0.0
  0
LINE
  8
LC-002-002-----0
  6
CONTINUOUS
  5
264
 10
324.504851
 20
409.460679
 30
0.0
 11
328.953281
 21
409.460679
 31
0.0
  0
LINE
  8
LC-002-002-----0
  6
CONTINUOUS
  5
265
 10
351.203247
 20
409.460679
 30
0.0
 11
356.771212
 21
409.460679
 31
0.0
  0
LINE
  8
LC-002-002-----0
  6
CONTINUOUS
  5
266
 10
426.771212
 20
409.460679
 30
0.0
 11
432.339177
 21
409.460679
 31
0.0
  0
LINE
  8
LC-002-002-----0
  6
CONTINUOUS
  5
267
 10
454.589142
 20
409.460679
 30
0.0
 11
459.037572
 21
409.460679
 31
0.0
  0
LINE
  8
LC-007-005-----0
  6
CONTINUOUS
  5
268
 10
369.467532
 20
250.673593
 30
0.0
 11
369.86274
 21
251.068801
 31
0.0
  0
LINE
  8
LC-007-005-----0
  6
CONTINUOUS
  5
269
 10
367.48011
 20
251.514597
 30
0.0
 11
369.862735
 21
253.897223
 31
0.0
  0
LINE
  8
LC-007-005-----0
  6
CONTINUOUS
  5
26A
 10
366.882386
 20
253.745301
 30
0.0
 11
369.862729
 21
256.725644
 31
0.0
  0
LINE
  8
LC-007-005-----0
  6
CONTINUOUS
  5
26B
 10
366.771363
 20
256.462705
 30
0.0
 11
369.862724
 21
259.554066
 31
0.0
  0
LINE
  8
LC-007-005-----0
  6
CONTINUOUS
  5
26C
 10
366.771362
 20
259.291132
 30
0.0
 11
369.862719
 21
262.382488
 31
0.0
  0
LINE
  8
LC-007-005-----0
  6
CONTINUOUS
  5
26D
 10
366.771362
 20
262.119558
 30
0.0
 11
369.862714
 21
265.21091
 31
0.0
  0
LINE
  8
LC-007-005-----0
  6
CONTINUOUS
  5
26E
 10
366.771361
 20
264.947984
 30
0.0
 11
369.862708
 21
268.039332
 31
0.0
  0
LINE
  8
LC-007-005-----0
  6
CONTINUOUS
  5
26F
 10
366.77136
 20
267.776411
 30
0.0
 11
369.862703
 21
270.867754
 31
0.0
  0
LINE
  8
LC-007-005-----0
  6
CONTINUOUS
  5
270
 10
366.771359
 20
270.604837
 30
0.0
 11
369.862698
 21
273.696175
 31
0.0
  0
LINE
  8
LC-007-005-----0
  6
CONTINUOUS
  5
271
 10
366.771359
 20
273.433264
 30
0.0
 11
369.862692
 21
276.524597
 31
0.0
  0
LINE
  8
LC-007-005-----0
  6
CONTINUOUS
  5
272
 10
366.771358
 20
276.26169
 30
0.0
 11
369.862687
 21
279.353019
 31
0.0
  0
LINE
  8
LC-007-005-----0
  6
CONTINUOUS
  5
273
 10
366.771357
 20
279.090116
 30
0.0
 11
369.862682
 21
282.181441
 31
0.0
  0
LINE
  8
LC-007-005-----0
  6
CONTINUOUS
  5
274
 10
366.771357
 20
281.918543
 30
0.0
 11
369.862677
 21
285.009863
 31
0.0
  0
LINE
  8
LC-007-005-----0
  6
CONTINUOUS
  5
275
 10
366.771356
 20
284.746969
 30
0.0
 11
369.862671
 21
287.838285
 31
0.0
  0
LINE
  8
LC-007-005-----0
  6
CONTINUOUS
  5
276
 10
366.771355
 20
287.575396
 30
0.0
 11
369.862666
 21
290.666706
 31
0.0
  0
LINE
  8
LC-007-005-----0
  6
CONTINUOUS
  5
277
 10
366.771354
 20
290.403822
 30
0.0
 11
369.862661
 21
293.495128
 31
0.0
  0
LINE
  8
LC-007-005-----0
  6
CONTINUOUS
  5
278
 10
366.771354
 20
293.232248
 30
0.0
 11
369.862655
 21
296.32355
 31
0.0
  0
LINE
  8
LC-007-005-----0
  6
CONTINUOUS
  5
279
 10
366.771353
 20
296.060675
 30
0.0
 11
369.86265
 21
299.151972
 31
0.0
  0
LINE
  8
LC-007-005-----0
  6
CONTINUOUS
  5
27A
 10
366.771352
 20
298.889101
 30
0.0
 11
369.862645
 21
301.980394
 31
0.0
  0
LINE
  8
LC-007-005-----0
  6
CONTINUOUS
  5
27B
 10
370.628431
 20
302.74618
 30
0.0
 11
371.768941
 21
303.88669
 31
0.0
  0
LINE
  8
LC-007-005-----0
  6
CONTINUOUS
  5
27C
 10
366.771351
 20
301.717528
 30
0.0
 11
370.774661
 21
305.720837
 31
0.0
  0
LINE
  8
LC-007-005-----0
  6
CONTINUOUS
  5
27D
 10
366.50271
 20
304.277313
 30
0.0
 11
368.543951
 21
306.318554
 31
0.0
  0
LINE
  8
LC-007-005-----0
  6
CONTINUOUS
  5
27E
 10
364.272
 20
304.87503
 30
0.0
 11
366.322309
 21
306.92534
 31
0.0
  0
LINE
  8
LC-007-005-----0
  6
CONTINUOUS
  5
27F
 10
362.718532
 20
306.149989
 30
0.0
 11
364.774043
 21
308.205501
 31
0.0
  0
LINE
  8
LC-007-005-----0
  6
CONTINUOUS
  5
280
 10
357.551143
 20
303.811027
 30
0.0
 11
364.342858
 21
310.602743
 31
0.0
  0
LINE
  8
LC-007-005-----0
  6
CONTINUOUS
  5
281
 10
354.271462
 20
303.359774
 30
0.0
 11
357.657882
 21
306.746193
 31
0.0
  0
LINE
  8
LC-007-005-----0
  6
CONTINUOUS
  5
282
 10
361.389113
 20
310.477424
 30
0.0
 11
364.316506
 21
313.404817
 31
0.0
  0
LINE
  8
LC-007-005-----0
  6
CONTINUOUS
  5
283
 10
351.841421
 20
303.75816
 30
0.0
 11
354.829455
 21
306.746193
 31
0.0
  0
LINE
  8
LC-007-005-----0
  6
CONTINUOUS
  5
284
 10
361.389111
 20
313.305849
 30
0.0
 11
364.290153
 21
316.206892
 31
0.0
  0
LINE
  8
LC-007-005-----0
  6
CONTINUOUS
  5
285
 10
349.012994
 20
303.75816
 30
0.0
 11
352.001027
 21
306.746193
 31
0.0
  0
LINE
  8
LC-007-005-----0
  6
CONTINUOUS
  5
286
 10
361.389109
 20
316.134275
 30
0.0
 11
364.2638
 21
319.008966
 31
0.0
  0
LINE
  8
LC-007-005-----0
  6
CONTINUOUS
  5
287
 10
346.184567
 20
303.75816
 30
0.0
 11
349.1726
 21
306.746193
 31
0.0
  0
LINE
  8
LC-007-005-----0
  6
CONTINUOUS
  5
288
 10
361.389107
 20
318.9627
 30
0.0
 11
364.237447
 21
321.81104
 31
0.0
  0
LINE
  8
LC-007-005-----0
  6
CONTINUOUS
  5
289
 10
343.35614
 20
303.75816
 30
0.0
 11
346.344173
 21
306.746193
 31
0.0
  0
LINE
  8
LC-007-005-----0
  6
CONTINUOUS
  5
28A
 10
361.389105
 20
321.791125
 30
0.0
 11
364.211094
 21
324.613115
 31
0.0
  0
LINE
  8
LC-007-005-----0
  6
CONTINUOUS
  5
28B
 10
340.527712
 20
303.75816
 30
0.0
 11
343.515746
 21
306.746193
 31
0.0
  0
LINE
  8
LC-007-005-----0
  6
CONTINUOUS
  5
28C
 10
361.389103
 20
324.61955
 30
0.0
 11
364.184742
 21
327.415189
 31
0.0
  0
LINE
  8
LC-007-005-----0
  6
CONTINUOUS
  5
28D
 10
337.699285
 20
303.75816
 30
0.0
 11
340.687319
 21
306.746193
 31
0.0
  0
LINE
  8
LC-007-005-----0
  6
CONTINUOUS
  5
28E
 10
361.389101
 20
327.447976
 30
0.0
 11
364.158389
 21
330.217263
 31
0.0
  0
LINE
  8
LC-007-005-----0
  6
CONTINUOUS
  5
28F
 10
334.870858
 20
303.75816
 30
0.0
 11
337.858892
 21
306.746193
 31
0.0
  0
LINE
  8
LC-007-005-----0
  6
CONTINUOUS
  5
290
 10
361.389099
 20
330.276401
 30
0.0
 11
364.132036
 21
333.019338
 31
0.0
  0
LINE
  8
LC-007-005-----0
  6
CONTINUOUS
  5
291
 10
332.042431
 20
303.75816
 30
0.0
 11
335.030465
 21
306.746193
 31
0.0
  0
LINE
  8
LC-007-005-----0
  6
CONTINUOUS
  5
292
 10
361.389097
 20
333.104826
 30
0.0
 11
364.105683
 21
335.821412
 31
0.0
  0
LINE
  8
LC-007-005-----0
  6
CONTINUOUS
  5
293
 10
329.214004
 20
303.75816
 30
0.0
 11
332.202038
 21
306.746193
 31
0.0
  0
LINE
  8
LC-007-005-----0
  6
CONTINUOUS
  5
294
 10
361.389095
 20
335.933251
 30
0.0
 11
364.07933
 21
338.623486
 31
0.0
  0
LINE
  8
LC-007-005-----0
  6
CONTINUOUS
  5
295
 10
326.385577
 20
303.75816
 30
0.0
 11
329.37361
 21
306.746193
 31
0.0
  0
LINE
  8
LC-007-005-----0
  6
CONTINUOUS
  5
296
 10
361.389093
 20
338.761676
 30
0.0
 11
364.052978
 21
341.425561
 31
0.0
  0
LINE
  8
LC-007-005-----0
  6
CONTINUOUS
  5
297
 10
323.559383
 20
303.760393
 30
0.0
 11
326.545183
 21
306.746193
 31
0.0
  0
LINE
  8
LC-007-005-----0
  6
CONTINUOUS
  5
298
 10
361.389091
 20
341.590102
 30
0.0
 11
364.026625
 21
344.227635
 31
0.0
  0
LINE
  8
LC-007-005-----0
  6
CONTINUOUS
  5
299
 10
321.047681
 20
304.077118
 30
0.0
 11
323.716756
 21
306.746193
 31
0.0
  0
LINE
  8
LC-007-005-----0
  6
CONTINUOUS
  5
29A
 10
361.38909
 20
344.418527
 30
0.0
 11
364.000272
 21
347.029709
 31
0.0
  0
LINE
  8
LC-007-005-----0
  6
CONTINUOUS
  5
29B
 10
318.932213
 20
304.790077
 30
0.0
 11
321.199626
 21
307.05749
 31
0.0
  0
LINE
  8
LC-007-005-----0
  6
CONTINUOUS
  5
29C
 10
361.389088
 20
347.246952
 30
0.0
 11
363.973919
 21
349.831784
 31
0.0
  0
LINE
  8
LC-007-005-----0
  6
CONTINUOUS
  5
29D
 10
317.111875
 20
305.798167
 30
0.0
 11
319.188011
 21
307.874302
 31
0.0
  0
LINE
  8
LC-007-005-----0
  6
CONTINUOUS
  5
29E
 10
361.389086
 20
350.075377
 30
0.0
 11
363.947566
 21
352.633858
 31
0.0
  0
LINE
  8
LC-007-005-----0
  6
CONTINUOUS
  5
29F
 10
315.544001
 20
307.05872
 30
0.0
 11
317.538374
 21
309.053093
 31
0.0
  0
LINE
  8
LC-007-005-----0
  6
CONTINUOUS
  5
2A0
 10
361.389084
 20
352.903802
 30
0.0
 11
363.921214
 21
355.435932
 31
0.0
  0
LINE
  8
LC-007-005-----0
  6
CONTINUOUS
  5
2A1
 10
314.214665
 20
308.55781
 30
0.0
 11
316.209642
 21
310.552788
 31
0.0
  0
LINE
  8
LC-007-005-----0
  6
CONTINUOUS
  5
2A2
 10
361.389082
 20
355.732228
 30
0.0
 11
363.894861
 21
358.238007
 31
0.0
  0
LINE
  8
LC-007-005-----0
  6
CONTINUOUS
  5
2A3
 10
313.131424
 20
310.302997
 30
0.0
 11
315.215927
 21
312.3875
 31
0.0
  0
LINE
  8
LC-007-005-----0
  6
CONTINUOUS
  5
2A4
 10
361.38908
 20
358.560653
 30
0.0
 11
363.868508
 21
361.040081
 31
0.0
  0
LINE
  8
LC-007-005-----0
  6
CONTINUOUS
  5
2A5
 10
312.327123
 20
312.327123
 30
0.0
 11
314.641305
 21
314.641305
 31
0.0
  0
LINE
  8
LC-007-005-----0
  6
CONTINUOUS
  5
2A6
 10
361.389078
 20
361.389078
 30
0.0
 11
363.842155
 21
363.842155
 31
0.0
  0
LINE
  8
LC-007-005-----0
  6
CONTINUOUS
  5
2A7
 10
311.880342
 20
314.708769
 30
0.0
 11
314.577337
 21
317.405765
 31
0.0
  0
LINE
  8
LC-007-005-----0
  6
CONTINUOUS
  5
2A8
 10
361.389076
 20
364.217503
 30
0.0
 11
363.815803
 21
366.64423
 31
0.0
  0
LINE
  8
LC-007-005-----0
  6
CONTINUOUS
  5
2A9
 10
311.838307
 20
317.495161
 30
0.0
 11
314.577337
 21
320.234192
 31
0.0
  0
LINE
  8
LC-007-005-----0
  6
CONTINUOUS
  5
2AA
 10
361.389074
 20
367.045928
 30
0.0
 11
363.78945
 21
369.446304
 31
0.0
  0
LINE
  8
LC-007-005-----0
  6
CONTINUOUS
  5
2AB
 10
311.838307
 20
320.323588
 30
0.0
 11
314.577337
 21
323.062619
 31
0.0
  0
LINE
  8
LC-007-005-----0
  6
CONTINUOUS
  5
2AC
 10
361.389072
 20
369.874354
 30
0.0
 11
363.787248
 21
372.272529
 31
0.0
  0
LINE
  8
LC-007-005-----0
  6
CONTINUOUS
  5
2AD
 10
311.838307
 20
323.152015
 30
0.0
 11
314.577337
 21
325.891046
 31
0.0
  0
LINE
  8
LC-007-005-----0
  6
CONTINUOUS
  5
2AE
 10
361.38907
 20
372.702779
 30
0.0
 11
363.432485
 21
374.746193
 31
0.0
  0
LINE
  8
LC-007-005-----0
  6
CONTINUOUS
  5
2AF
 10
311.838307
 20
325.980442
 30
0.0
 11
314.577337
 21
328.719473
 31
0.0
  0
LINE
  8
LC-007-005-----0
  6
CONTINUOUS
  5
2B0
 10
311.838307
 20
328.808869
 30
0.0
 11
314.577337
 21
331.5479
 31
0.0
  0
LINE
  8
LC-007-005-----0
  6
CONTINUOUS
  5
2B1
 10
311.838307
 20
331.637297
 30
0.0
 11
314.577337
 21
334.376327
 31
0.0
  0
LINE
  8
LC-007-005-----0
  6
CONTINUOUS
  5
2B2
 10
311.838307
 20
334.465724
 30
0.0
 11
314.577337
 21
337.204754
 31
0.0
  0
LINE
  8
LC-007-005-----0
  6
CONTINUOUS
  5
2B3
 10
311.838307
 20
337.294151
 30
0.0
 11
314.577337
 21
340.033182
 31
0.0
  0
LINE
  8
LC-007-005-----0
  6
CONTINUOUS
  5
2B4
 10
311.838307
 20
340.122578
 30
0.0
 11
314.577337
 21
342.861609
 31
0.0
  0
LINE
  8
LC-007-005-----0
  6
CONTINUOUS
  5
2B5
 10
311.838307
 20
342.951005
 30
0.0
 11
314.577337
 21
345.690036
 31
0.0
  0
LINE
  8
LC-007-005-----0
  6
CONTINUOUS
  5
2B6
 10
311.838307
 20
345.779432
 30
0.0
 11
314.577337
 21
348.518463
 31
0.0
  0
LINE
  8
LC-007-005-----0
  6
CONTINUOUS
  5
2B7
 10
311.838307
 20
348.607859
 30
0.0
 11
314.577337
 21
351.34689
 31
0.0
  0
LINE
  8
LC-007-005-----0
  6
CONTINUOUS
  5
2B8
 10
311.838307
 20
351.436286
 30
0.0
 11
314.577337
 21
354.175317
 31
0.0
  0
LINE
  8
LC-007-005-----0
  6
CONTINUOUS
  5
2B9
 10
311.838307
 20
354.264714
 30
0.0
 11
314.577337
 21
357.003744
 31
0.0
  0
LINE
  8
LC-007-005-----0
  6
CONTINUOUS
  5
2BA
 10
311.838307
 20
357.093141
 30
0.0
 11
314.577337
 21
359.832171
 31
0.0
  0
LINE
  8
LC-007-005-----0
  6
CONTINUOUS
  5
2BB
 10
311.838307
 20
359.921568
 30
0.0
 11
314.577337
 21
362.660599
 31
0.0
  0
LINE
  8
LC-007-005-----0
  6
CONTINUOUS
  5
2BC
 10
311.838307
 20
362.749995
 30
0.0
 11
314.577337
 21
365.489026
 31
0.0
  0
LINE
  8
LC-007-005-----0
  6
CONTINUOUS
  5
2BD
 10
311.838307
 20
365.578422
 30
0.0
 11
314.577337
 21
368.317453
 31
0.0
  0
LINE
  8
LC-007-005-----0
  6
CONTINUOUS
  5
2BE
 10
311.838307
 20
368.406849
 30
0.0
 11
314.577337
 21
371.14588
 31
0.0
  0
LINE
  8
LC-007-005-----0
  6
CONTINUOUS
  5
2BF
 10
311.838307
 20
371.235276
 30
0.0
 11
314.577337
 21
373.974307
 31
0.0
  0
LINE
  8
LC-007-005-----0
  6
CONTINUOUS
  5
2C0
 10
311.838307
 20
374.063703
 30
0.0
 11
314.577337
 21
376.802734
 31
0.0
  0
LINE
  8
LC-007-005-----0
  6
CONTINUOUS
  5
2C1
 10
311.838307
 20
376.892131
 30
0.0
 11
314.577337
 21
379.631161
 31
0.0
  0
LINE
  8
LC-007-005-----0
  6
CONTINUOUS
  5
2C2
 10
311.245402
 20
379.127653
 30
0.0
 11
314.029531
 21
381.911782
 31
0.0
  0
LINE
  8
LC-007-005-----0
  6
CONTINUOUS
  5
2C3
 10
310.080553
 20
380.791231
 30
0.0
 11
314.962606
 21
385.673284
 31
0.0
  0
LINE
  8
LC-007-005-----0
  6
CONTINUOUS
  5
2C4
 10
308.915703
 20
382.454808
 30
0.0
 11
314.029531
 21
387.568637
 31
0.0
  0
LINE
  8
LC-007-005-----0
  6
CONTINUOUS
  5
2C5
 10
314.114625
 20
387.653731
 30
0.0
 11
315.025543
 21
388.564648
 31
0.0
  0
LINE
  8
LC-007-005-----0
  6
CONTINUOUS
  5
2C6
 10
307.750854
 20
384.118386
 30
0.0
 11
313.818441
 21
390.185973
 31
0.0
  0
LINE
  8
LC-007-005-----0
  6
CONTINUOUS
  5
2C7
 10
306.586004
 20
385.781963
 30
0.0
 11
311.246602
 21
390.442562
 31
0.0
  0
LINE
  8
LC-007-005-----0
  6
CONTINUOUS
  5
2C8
 10
305.421154
 20
387.445541
 30
0.0
 11
308.418175
 21
390.442562
 31
0.0
  0
LINE
  8
LC-007-005-----0
  6
CONTINUOUS
  5
2C9
 10
304.256305
 20
389.109119
 30
0.0
 11
305.641394
 21
390.494208
 31
0.0
  0
LINE
  8
LC-007-005-----0
  6
CONTINUOUS
  5
2CA
 10
303.091455
 20
390.772696
 30
0.0
 11
305.364234
 21
393.045475
 31
0.0
  0
LINE
  8
LC-007-005-----0
  6
CONTINUOUS
  5
2CB
 10
302.625203
 20
393.134871
 30
0.0
 11
305.364234
 21
395.873902
 31
0.0
  0
LINE
  8
LC-007-005-----0
  6
CONTINUOUS
  5
2CC
 10
302.625203
 20
395.963298
 30
0.0
 11
305.364234
 21
398.702329
 31
0.0
  0
LINE
  8
LC-007-005-----0
  6
CONTINUOUS
  5
2CD
 10
302.315255
 20
398.481777
 30
0.0
 11
305.364234
 21
401.530756
 31
0.0
  0
LINE
  8
LC-007-005-----0
  6
CONTINUOUS
  5
2CE
 10
300.411713
 20
399.406663
 30
0.0
 11
302.901741
 21
401.896691
 31
0.0
  0
LINE
  8
LC-007-005-----0
  6
CONTINUOUS
  5
2CF
 10
303.373587
 20
402.368536
 30
0.0
 11
305.364234
 21
404.359183
 31
0.0
  0
LINE
  8
LC-007-005-----0
  6
CONTINUOUS
  5
2D0
 10
298.354532
 20
400.177909
 30
0.0
 11
300.50716
 21
402.330537
 31
0.0
  0
LINE
  8
LC-007-005-----0
  6
CONTINUOUS
  5
2D1
 10
303.373587
 20
405.196964
 30
0.0
 11
305.364234
 21
407.18761
 31
0.0
  0
LINE
  8
LC-007-005-----0
  6
CONTINUOUS
  5
2D2
 10
297.390855
 20
402.042658
 30
0.0
 11
300.227848
 21
404.879651
 31
0.0
  0
LINE
  8
LC-007-005-----0
  6
CONTINUOUS
  5
2D3
 10
297.243865
 20
404.724096
 30
0.0
 11
300.086998
 21
407.567228
 31
0.0
  0
LINE
  8
LC-007-005-----0
  6
CONTINUOUS
  5
2D4
 10
296.859907
 20
407.168565
 30
0.0
 11
299.946148
 21
410.254806
 31
0.0
  0
LINE
  8
LC-007-005-----0
  6
CONTINUOUS
  5
2D5
 10
294.701719
 20
407.838804
 30
0.0
 11
297.504877
 21
410.641962
 31
0.0
  0
LINE
  8
LC-007-005-----0
  6
CONTINUOUS
  5
2D6
 10
292.068067
 20
408.033579
 30
0.0
 11
294.869581
 21
410.835093
 31
0.0
  0
LINE
  8
LC-007-005-----0
  6
CONTINUOUS
  5
2D7
 10
289.434415
 20
408.228354
 30
0.0
 11
292.234285
 21
411.028224
 31
0.0
  0
LINE
  8
LC-007-005-----0
  6
CONTINUOUS
  5
2D8
 10
286.800763
 20
408.423129
 30
0.0
 11
289.598989
 21
411.221355
 31
0.0
  0
LINE
  8
LC-007-005-----0
  6
CONTINUOUS
  5
2D9
 10
284.167111
 20
408.617904
 30
0.0
 11
286.963693
 21
411.414486
 31
0.0
  0
LINE
  8
LC-007-005-----0
  6
CONTINUOUS
  5
2DA
 10
281.533459
 20
408.81268
 30
0.0
 11
284.328397
 21
411.607617
 31
0.0
  0
LINE
  8
LC-007-005-----0
  6
CONTINUOUS
  5
2DB
 10
279.313587
 20
409.421235
 30
0.0
 11
281.724557
 21
411.832205
 31
0.0
  0
LINE
  8
LC-007-005-----0
  6
CONTINUOUS
  5
2DC
 10
277.292913
 20
410.228988
 30
0.0
 11
279.703883
 21
412.639958
 31
0.0
  0
LINE
  8
LC-007-005-----0
  6
CONTINUOUS
  5
2DD
 10
275.27224
 20
411.036742
 30
0.0
 11
277.68321
 21
413.447712
 31
0.0
  0
LINE
  8
LC-007-005-----0
  6
CONTINUOUS
  5
2DE
 10
272.771921
 20
411.36485
 30
0.0
 11
275.571487
 21
414.164416
 31
0.0
  0
LINE
  8
LC-007-005-----0
  6
CONTINUOUS
  5
2DF
 10
270.12835
 20
411.549706
 30
0.0
 11
272.927916
 21
414.349272
 31
0.0
  0
LINE
  8
LC-007-005-----0
  6
CONTINUOUS
  5
2E0
 10
267.484779
 20
411.734563
 30
0.0
 11
270.284345
 21
414.534128
 31
0.0
  0
LINE
  8
LC-007-005-----0
  6
CONTINUOUS
  5
2E1
 10
264.841209
 20
411.919419
 30
0.0
 11
267.640774
 21
414.718985
 31
0.0
  0
LINE
  8
LC-007-005-----0
  6
CONTINUOUS
  5
2E2
 10
262.197638
 20
412.104275
 30
0.0
 11
264.997203
 21
414.903841
 31
0.0
  0
LINE
  8
LC-007-005-----0
  6
CONTINUOUS
  5
2E3
 10
259.554067
 20
412.289132
 30
0.0
 11
262.353633
 21
415.088697
 31
0.0
  0
LINE
  8
LC-007-005-----0
  6
CONTINUOUS
  5
2E4
 10
256.910496
 20
412.473988
 30
0.0
 11
259.710062
 21
415.273554
 31
0.0
  0
LINE
  8
LC-007-005-----0
  6
CONTINUOUS
  5
2E5
 10
254.266925
 20
412.658844
 30
0.0
 11
257.066491
 21
415.45841
 31
0.0
  0
LINE
  8
LC-007-005-----0
  6
CONTINUOUS
  5
2E6
 10
251.623354
 20
412.8437
 30
0.0
 11
254.42292
 21
415.643266
 31
0.0
  0
LINE
  8
LC-007-005-----0
  6
CONTINUOUS
  5
2E7
 10
248.979784
 20
413.028557
 30
0.0
 11
251.779349
 21
415.828123
 31
0.0
  0
LINE
  8
LC-007-005-----0
  6
CONTINUOUS
  5
2E8
 10
246.336213
 20
413.213413
 30
0.0
 11
249.135779
 21
416.012979
 31
0.0
  0
LINE
  8
LC-007-005-----0
  6
CONTINUOUS
  5
2E9
 10
243.692642
 20
413.398269
 30
0.0
 11
246.492208
 21
416.197835
 31
0.0
  0
LINE
  8
LC-007-005-----0
  6
CONTINUOUS
  5
2EA
 10
241.617077
 20
414.151132
 30
0.0
 11
243.848637
 21
416.382692
 31
0.0
  0
LINE
  8
LC-007-005-----0
  6
CONTINUOUS
  5
2EB
 10
414.721373
 20
250.6726
 30
0.0
 11
416.235978
 21
252.187205
 31
0.0
  0
LINE
  8
LC-007-005-----0
  6
CONTINUOUS
  5
2EC
 10
413.672851
 20
252.452505
 30
0.0
 11
416.764359
 21
255.544013
 31
0.0
  0
LINE
  8
LC-007-005-----0
  6
CONTINUOUS
  5
2ED
 10
413.672979
 20
255.28106
 30
0.0
 11
416.764482
 21
258.372563
 31
0.0
  0
LINE
  8
LC-007-005-----0
  6
CONTINUOUS
  5
2EE
 10
462.458585
 20
304.066666
 30
0.0
 11
471.388572
 21
312.996653
 31
0.0
  0
LINE
  8
LC-007-005-----0
  6
CONTINUOUS
  5
2EF
 10
413.673106
 20
258.109615
 30
0.0
 11
416.764605
 21
261.201113
 31
0.0
  0
LINE
  8
LC-007-005-----0
  6
CONTINUOUS
  5
2F0
 10
459.31873
 20
303.755238
 30
0.0
 11
462.735227
 21
307.171736
 31
0.0
  0
LINE
  8
LC-007-005-----0
  6
CONTINUOUS
  5
2F1
 10
468.532494
 20
312.969002
 30
0.0
 11
471.700037
 21
316.136545
 31
0.0
  0
LINE
  8
LC-007-005-----0
  6
CONTINUOUS
  5
2F2
 10
413.673234
 20
260.938169
 30
0.0
 11
416.764728
 21
264.029663
 31
0.0
  0
LINE
  8
LC-007-005-----0
  6
CONTINUOUS
  5
2F3
 10
456.490425
 20
303.75536
 30
0.0
 11
459.478329
 21
306.743264
 31
0.0
  0
LINE
  8
LC-007-005-----0
  6
CONTINUOUS
  5
2F4
 10
468.96101
 20
316.225945
 30
0.0
 11
471.700159
 21
318.965094
 31
0.0
  0
LINE
  8
LC-007-005-----0
  6
CONTINUOUS
  5
2F5
 10
413.673362
 20
263.766724
 30
0.0
 11
416.764851
 21
266.858214
 31
0.0
  0
LINE
  8
LC-007-005-----0
  6
CONTINUOUS
  5
2F6
 10
453.66212
 20
303.755482
 30
0.0
 11
456.650024
 21
306.743387
 31
0.0
  0
LINE
  8
LC-007-005-----0
  6
CONTINUOUS
  5
2F7
 10
468.961132
 20
319.054494
 30
0.0
 11
471.700281
 21
321.793644
 31
0.0
  0
LINE
  8
LC-007-005-----0
  6
CONTINUOUS
  5
2F8
 10
413.673489
 20
266.595279
 30
0.0
 11
416.764974
 21
269.686764
 31
0.0
  0
LINE
  8
LC-007-005-----0
  6
CONTINUOUS
  5
2F9
 10
450.833815
 20
303.755605
 30
0.0
 11
453.82172
 21
306.743509
 31
0.0
  0
LINE
  8
LC-007-005-----0
  6
CONTINUOUS
  5
2FA
 10
468.961254
 20
321.883044
 30
0.0
 11
471.700404
 21
324.622193
 31
0.0
  0
LINE
  8
LC-007-005-----0
  6
CONTINUOUS
  5
2FB
 10
413.673617
 20
269.423834
 30
0.0
 11
416.765097
 21
272.515314
 31
0.0
  0
LINE
  8
LC-007-005-----0
  6
CONTINUOUS
  5
2FC
 10
448.005511
 20
303.755727
 30
0.0
 11
450.993415
 21
306.743632
 31
0.0
  0
LINE
  8
LC-007-005-----0
  6
CONTINUOUS
  5
2FD
 10
468.961377
 20
324.711593
 30
0.0
 11
471.700526
 21
327.450743
 31
0.0
  0
LINE
  8
LC-007-005-----0
  6
CONTINUOUS
  5
2FE
 10
413.673745
 20
272.252388
 30
0.0
 11
416.76522
 21
275.343864
 31
0.0
  0
LINE
  8
LC-007-005-----0
  6
CONTINUOUS
  5
2FF
 10
445.177206
 20
303.75585
 30
0.0
 11
448.16511
 21
306.743754
 31
0.0
  0
LINE
  8
LC-007-005-----0
  6
CONTINUOUS
  5
300
 10
468.961499
 20
327.540143
 30
0.0
 11
471.700648
 21
330.279292
 31
0.0
  0
LINE
  8
LC-007-005-----0
  6
CONTINUOUS
  5
301
 10
413.673872
 20
275.080943
 30
0.0
 11
416.765344
 21
278.172414
 31
0.0
  0
LINE
  8
LC-007-005-----0
  6
CONTINUOUS
  5
302
 10
442.348901
 20
303.755972
 30
0.0
 11
445.336805
 21
306.743876
 31
0.0
  0
LINE
  8
LC-007-005-----0
  6
CONTINUOUS
  5
303
 10
468.961621
 20
330.368692
 30
0.0
 11
471.700771
 21
333.107842
 31
0.0
  0
LINE
  8
LC-007-005-----0
  6
CONTINUOUS
  5
304
 10
413.674
 20
277.909498
 30
0.0
 11
416.765467
 21
281.000965
 31
0.0
  0
LINE
  8
LC-007-005-----0
  6
CONTINUOUS
  5
305
 10
439.520596
 20
303.756094
 30
0.0
 11
442.508501
 21
306.743999
 31
0.0
  0
LINE
  8
LC-007-005-----0
  6
CONTINUOUS
  5
306
 10
468.961744
 20
333.197242
 30
0.0
 11
471.700893
 21
335.936391
 31
0.0
  0
LINE
  8
LC-007-005-----0
  6
CONTINUOUS
  5
307
 10
413.674128
 20
280.738053
 30
0.0
 11
416.76559
 21
283.829515
 31
0.0
  0
LINE
  8
LC-007-005-----0
  6
CONTINUOUS
  5
308
 10
436.692291
 20
303.756217
 30
0.0
 11
439.680196
 21
306.744121
 31
0.0
  0
LINE
  8
LC-007-005-----0
  6
CONTINUOUS
  5
309
 10
468.961866
 20
336.025791
 30
0.0
 11
471.701015
 21
338.764941
 31
0.0
  0
LINE
  8
LC-007-005-----0
  6
CONTINUOUS
  5
30A
 10
413.674255
 20
283.566607
 30
0.0
 11
416.765713
 21
286.658065
 31
0.0
  0
LINE
  8
LC-007-005-----0
  6
CONTINUOUS
  5
30B
 10
433.863987
 20
303.756339
 30
0.0
 11
436.851891
 21
306.744243
 31
0.0
  0
LINE
  8
LC-007-005-----0
  6
CONTINUOUS
  5
30C
 10
468.961989
 20
338.854341
 30
0.0
 11
471.701138
 21
341.59349
 31
0.0
  0
LINE
  8
LC-007-005-----0
  6
CONTINUOUS
  5
30D
 10
413.674383
 20
286.395162
 30
0.0
 11
416.765836
 21
289.486615
 31
0.0
  0
LINE
  8
LC-007-005-----0
  6
CONTINUOUS
  5
30E
 10
431.035682
 20
303.756461
 30
0.0
 11
434.023586
 21
306.744366
 31
0.0
  0
LINE
  8
LC-007-005-----0
  6
CONTINUOUS
  5
30F
 10
468.962111
 20
341.68289
 30
0.0
 11
471.70126
 21
344.42204
 31
0.0
  0
LINE
  8
LC-007-005-----0
  6
CONTINUOUS
  5
310
 10
540.732782
 20
413.453562
 30
0.0
 11
541.910602
 21
414.631382
 31
0.0
  0
LINE
  8
LC-007-005-----0
  6
CONTINUOUS
  5
311
 10
413.67451
 20
289.223717
 30
0.0
 11
416.765959
 21
292.315165
 31
0.0
  0
LINE
  8
LC-007-005-----0
  6
CONTINUOUS
  5
312
 10
428.20913
 20
303.758337
 30
0.0
 11
431.195281
 21
306.744488
 31
0.0
  0
LINE
  8
LC-007-005-----0
  6
CONTINUOUS
  5
313
 10
468.962233
 20
344.51144
 30
0.0
 11
471.701383
 21
347.250589
 31
0.0
  0
LINE
  8
LC-007-005-----0
  6
CONTINUOUS
  5
314
 10
537.691845
 20
413.241051
 30
0.0
 11
540.687529
 21
416.236736
 31
0.0
  0
LINE
  8
LC-007-005-----0
  6
CONTINUOUS
  5
315
 10
413.674638
 20
292.052272
 30
0.0
 11
416.766082
 21
295.143716
 31
0.0
  0
LINE
  8
LC-007-005-----0
  6
CONTINUOUS
  5
316
 10
425.431938
 20
303.809571
 30
0.0
 11
428.366977
 21
306.74461
 31
0.0
  0
LINE
  8
LC-007-005-----0
  6
CONTINUOUS
  5
317
 10
468.962356
 20
347.339989
 30
0.0
 11
471.701505
 21
350.079139
 31
0.0
  0
LINE
  8
LC-007-005-----0
  6
CONTINUOUS
  5
318
 10
534.650907
 20
413.028541
 30
0.0
 11
537.871278
 21
416.248912
 31
0.0
  0
LINE
  8
LC-007-005-----0
  6
CONTINUOUS
  5
319
 10
413.674766
 20
294.880826
 30
0.0
 11
416.766205
 21
297.972266
 31
0.0
  0
LINE
  8
LC-007-005-----0
  6
CONTINUOUS
  5
31A
 10
422.945381
 20
304.151442
 30
0.0
 11
425.538672
 21
306.744733
 31
0.0
  0
LINE
  8
LC-007-005-----0
  6
CONTINUOUS
  5
31B
 10
468.962478
 20
350.168539
 30
0.0
 11
471.701627
 21
352.907688
 31
0.0
  0
LINE
  8
LC-007-005-----0
  6
CONTINUOUS
  5
31C
 10
531.609969
 20
412.81603
 30
0.0
 11
534.830341
 21
416.036401
 31
0.0
  0
LINE
  8
LC-007-005-----0
  6
CONTINUOUS
  5
31D
 10
413.674893
 20
297.709381
 30
0.0
 11
416.766328
 21
300.800816
 31
0.0
  0
LINE
  8
LC-007-005-----0
  6
CONTINUOUS
  5
31E
 10
421.814074
 20
305.848562
 30
0.0
 11
423.323509
 21
307.357997
 31
0.0
  0
LINE
  8
LC-007-005-----0
  6
CONTINUOUS
  5
31F
 10
468.9626
 20
352.997088
 30
0.0
 11
471.70175
 21
355.736238
 31
0.0
  0
LINE
  8
LC-007-005-----0
  6
CONTINUOUS
  5
320
 10
528.569031
 20
412.603519
 30
0.0
 11
531.789403
 21
415.823891
 31
0.0
  0
LINE
  8
LC-007-005-----0
  6
CONTINUOUS
  5
321
 10
413.675021
 20
300.537936
 30
0.0
 11
416.766451
 21
303.629366
 31
0.0
  0
LINE
  8
LC-007-005-----0
  6
CONTINUOUS
  5
322
 10
417.551697
 20
304.414612
 30
0.0
 11
422.220394
 21
309.083309
 31
0.0
  0
LINE
  8
LC-007-005-----0
  6
CONTINUOUS
  5
323
 10
468.962723
 20
355.825638
 30
0.0
 11
471.701872
 21
358.564787
 31
0.0
  0
LINE
  8
LC-007-005-----0
  6
CONTINUOUS
  5
324
 10
525.528093
 20
412.391009
 30
0.0
 11
528.748465
 21
415.61138
 31
0.0
  0
LINE
  8
LC-007-005-----0
  6
CONTINUOUS
  5
325
 10
413.053917
 20
302.745259
 30
0.0
 11
417.242961
 21
306.934303
 31
0.0
  0
LINE
  8
LC-007-005-----0
  6
CONTINUOUS
  5
326
 10
418.995512
 20
308.686854
 30
0.0
 11
422.149046
 21
311.840388
 31
0.0
  0
LINE
  8
LC-007-005-----0
  6
CONTINUOUS
  5
327
 10
468.962845
 20
358.654187
 30
0.0
 11
471.701994
 21
361.393336
 31
0.0
  0
LINE
  8
LC-007-005-----0
  6
CONTINUOUS
  5
328
 10
522.487156
 20
412.178498
 30
0.0
 11
525.707527
 21
415.398869
 31
0.0
  0
LINE
  8
LC-007-005-----0
  6
CONTINUOUS
  5
329
 10
411.76889
 20
304.288659
 30
0.0
 11
413.360049
 21
305.879818
 31
0.0
  0
LINE
  8
LC-007-005-----0
  6
CONTINUOUS
  5
32A
 10
419.205866
 20
311.725635
 30
0.0
 11
422.14917
 21
314.668939
 31
0.0
  0
LINE
  8
LC-007-005-----0
  6
CONTINUOUS
  5
32B
 10
468.962967
 20
361.482737
 30
0.0
 11
471.702117
 21
364.221886
 31
0.0
  0
LINE
  8
LC-007-005-----0
  6
CONTINUOUS
  5
32C
 10
519.446218
 20
411.965987
 30
0.0
 11
522.666589
 21
415.186358
 31
0.0
  0
LINE
  8
LC-007-005-----0
  6
CONTINUOUS
  5
32D
 10
419.232844
 20
314.58104
 30
0.0
 11
422.149294
 21
317.497491
 31
0.0
  0
LINE
  8
LC-007-005-----0
  6
CONTINUOUS
  5
32E
 10
468.96309
 20
364.311286
 30
0.0
 11
471.702239
 21
367.050435
 31
0.0
  0
LINE
  8
LC-007-005-----0
  6
CONTINUOUS
  5
32F
 10
516.40528
 20
411.753477
 30
0.0
 11
519.625651
 21
414.973848
 31
0.0
  0
LINE
  8
LC-007-005-----0
  6
CONTINUOUS
  5
330
 10
419.259822
 20
317.436445
 30
0.0
 11
422.149419
 21
320.326042
 31
0.0
  0
LINE
  8
LC-007-005-----0
  6
CONTINUOUS
  5
331
 10
468.963212
 20
367.139836
 30
0.0
 11
471.702361
 21
369.878985
 31
0.0
  0
LINE
  8
LC-007-005-----0
  6
CONTINUOUS
  5
332
 10
513.364342
 20
411.540966
 30
0.0
 11
516.584713
 21
414.761337
 31
0.0
  0
LINE
  8
LC-007-005-----0
  6
CONTINUOUS
  5
333
 10
419.286799
 20
320.29185
 30
0.0
 11
422.149543
 21
323.154594
 31
0.0
  0
LINE
  8
LC-007-005-----0
  6
CONTINUOUS
  5
334
 10
468.963334
 20
369.968385
 30
0.0
 11
471.702484
 21
372.707534
 31
0.0
  0
LINE
  8
LC-007-005-----0
  6
CONTINUOUS
  5
335
 10
510.323405
 20
411.328455
 30
0.0
 11
513.543776
 21
414.548826
 31
0.0
  0
LINE
  8
LC-007-005-----0
  6
CONTINUOUS
  5
336
 10
419.313777
 20
323.147255
 30
0.0
 11
422.149667
 21
325.983145
 31
0.0
  0
LINE
  8
LC-007-005-----0
  6
CONTINUOUS
  5
337
 10
468.963457
 20
372.796935
 30
0.0
 11
471.702606
 21
375.536084
 31
0.0
  0
LINE
  8
LC-007-005-----0
  6
CONTINUOUS
  5
338
 10
506.484478
 20
410.317956
 30
0.0
 11
510.502838
 21
414.336316
 31
0.0
  0
LINE
  8
LC-007-005-----0
  6
CONTINUOUS
  5
339
 10
419.340755
 20
326.00266
 30
0.0
 11
422.149791
 21
328.811696
 31
0.0
  0
LINE
  8
LC-007-005-----0
  6
CONTINUOUS
  5
33A
 10
468.963579
 20
375.625484
 30
0.0
 11
471.90643
 21
378.568335
 31
0.0
  0
LINE
  8
LC-007-005-----0
  6
CONTINUOUS
  5
33B
 10
502.156949
 20
408.818854
 30
0.0
 11
507.394443
 21
414.056348
 31
0.0
  0
LINE
  8
LC-007-005-----0
  6
CONTINUOUS
  5
33C
 10
419.367733
 20
328.858065
 30
0.0
 11
422.149916
 21
331.640248
 31
0.0
  0
LINE
  8
LC-007-005-----0
  6
CONTINUOUS
  5
33D
 10
468.963702
 20
378.454034
 30
0.0
 11
478.51465
 21
388.004982
 31
0.0
  0
LINE
  8
LC-007-005-----0
  6
CONTINUOUS
  5
33E
 10
499.10278
 20
408.593112
 30
0.0
 11
502.682796
 21
412.173128
 31
0.0
  0
LINE
  8
LC-007-005-----0
  6
CONTINUOUS
  5
33F
 10
419.394711
 20
331.71347
 30
0.0
 11
422.15004
 21
334.468799
 31
0.0
  0
LINE
  8
LC-007-005-----0
  6
CONTINUOUS
  5
340
 10
469.511654
 20
381.830413
 30
0.0
 11
480.916475
 21
393.235235
 31
0.0
  0
LINE
  8
LC-007-005-----0
  6
CONTINUOUS
  5
341
 10
496.048611
 20
408.36737
 30
0.0
 11
499.289753
 21
411.608512
 31
0.0
  0
LINE
  8
LC-007-005-----0
  6
CONTINUOUS
  5
342
 10
419.421689
 20
334.568875
 30
0.0
 11
422.150164
 21
337.297351
 31
0.0
  0
LINE
  8
LC-007-005-----0
  6
CONTINUOUS
  5
343
 10
469.058686
 20
384.205872
 30
0.0
 11
475.291763
 21
390.438949
 31
0.0
  0
LINE
  8
LC-007-005-----0
  6
CONTINUOUS
  5
344
 10
478.177448
 20
393.324635
 30
0.0
 11
480.916598
 21
396.063784
 31
0.0
  0
LINE
  8
LC-007-005-----0
  6
CONTINUOUS
  5
345
 10
492.994442
 20
408.141628
 30
0.0
 11
496.237792
 21
411.384978
 31
0.0
  0
LINE
  8
LC-007-005-----0
  6
CONTINUOUS
  5
346
 10
419.448667
 20
337.42428
 30
0.0
 11
422.150289
 21
340.125902
 31
0.0
  0
LINE
  8
LC-007-005-----0
  6
CONTINUOUS
  5
347
 10
469.511898
 20
387.487512
 30
0.0
 11
472.463458
 21
390.439071
 31
0.0
  0
LINE
  8
LC-007-005-----0
  6
CONTINUOUS
  5
348
 10
478.177571
 20
396.153184
 30
0.0
 11
486.273617
 21
404.249231
 31
0.0
  0
LINE
  8
LC-007-005-----0
  6
CONTINUOUS
  5
349
 10
489.940273
 20
407.915886
 30
0.0
 11
493.185831
 21
411.161444
 31
0.0
  0
LINE
  8
LC-007-005-----0
  6
CONTINUOUS
  5
34A
 10
419.475645
 20
340.279685
 30
0.0
 11
422.150413
 21
342.954453
 31
0.0
  0
LINE
  8
LC-007-005-----0
  6
CONTINUOUS
  5
34B
 10
478.177693
 20
398.981734
 30
0.0
 11
481.088787
 21
401.892827
 31
0.0
  0
LINE
  8
LC-007-005-----0
  6
CONTINUOUS
  5
34C
 10
483.272413
 20
404.076454
 30
0.0
 11
490.13387
 21
410.93791
 31
0.0
  0
LINE
  8
LC-007-005-----0
  6
CONTINUOUS
  5
34D
 10
419.502622
 20
343.13509
 30
0.0
 11
422.150537
 21
345.783005
 31
0.0
  0
LINE
  8
LC-007-005-----0
  6
CONTINUOUS
  5
34E
 10
478.177816
 20
401.810283
 30
0.0
 11
480.168548
 21
403.801016
 31
0.0
  0
LINE
  8
LC-007-005-----0
  6
CONTINUOUS
  5
34F
 10
483.42898
 20
407.061447
 30
0.0
 11
487.081908
 21
410.714376
 31
0.0
  0
LINE
  8
LC-007-005-----0
  6
CONTINUOUS
  5
350
 10
419.5296
 20
345.990495
 30
0.0
 11
422.150661
 21
348.611556
 31
0.0
  0
LINE
  8
LC-007-005-----0
  6
CONTINUOUS
  5
351
 10
478.177938
 20
404.638833
 30
0.0
 11
480.168671
 21
406.629566
 31
0.0
  0
LINE
  8
LC-007-005-----0
  6
CONTINUOUS
  5
352
 10
483.585546
 20
410.046441
 30
0.0
 11
484.029947
 21
410.490842
 31
0.0
  0
LINE
  8
LC-007-005-----0
  6
CONTINUOUS
  5
353
 10
419.556578
 20
348.8459
 30
0.0
 11
422.150786
 21
351.440108
 31
0.0
  0
LINE
  8
LC-007-005-----0
  6
CONTINUOUS
  5
354
 10
478.17806
 20
407.467382
 30
0.0
 11
478.579681
 21
407.869003
 31
0.0
  0
LINE
  8
LC-007-005-----0
  6
CONTINUOUS
  5
355
 10
419.583556
 20
351.701305
 30
0.0
 11
422.15091
 21
354.268659
 31
0.0
  0
LINE
  8
LC-007-005-----0
  6
CONTINUOUS
  5
356
 10
419.610534
 20
354.55671
 30
0.0
 11
422.151034
 21
357.09721
 31
0.0
  0
LINE
  8
LC-007-005-----0
  6
CONTINUOUS
  5
357
 10
419.637512
 20
357.412115
 30
0.0
 11
422.151158
 21
359.925762
 31
0.0
  0
LINE
  8
LC-007-005-----0
  6
CONTINUOUS
  5
358
 10
419.66449
 20
360.26752
 30
0.0
 11
422.151283
 21
362.754313
 31
0.0
  0
LINE
  8
LC-007-005-----0
  6
CONTINUOUS
  5
359
 10
419.691468
 20
363.122925
 30
0.0
 11
422.151407
 21
365.582865
 31
0.0
  0
LINE
  8
LC-007-005-----0
  6
CONTINUOUS
  5
35A
 10
419.718446
 20
365.97833
 30
0.0
 11
422.151531
 21
368.411416
 31
0.0
  0
LINE
  8
LC-007-005-----0
  6
CONTINUOUS
  5
35B
 10
419.745423
 20
368.833735
 30
0.0
 11
422.151656
 21
371.239967
 31
0.0
  0
LINE
  8
LC-007-005-----0
  6
CONTINUOUS
  5
35C
 10
419.772401
 20
371.68914
 30
0.0
 11
422.15178
 21
374.068519
 31
0.0
  0
LINE
  8
LC-007-005-----0
  6
CONTINUOUS
  5
35D
 10
419.424792
 20
374.169958
 30
0.0
 11
419.999806
 21
374.744972
 31
0.0
  0
LINE
  8
LC-002-002-----0
  6
CONTINUOUS
  5
35E
 10
319.521212
 20
393.772209
 30
0.0
 11
335.003357
 21
393.772209
 31
0.0
  0
LINE
  8
LC-002-002-----0
  6
CONTINUOUS
  5
35F
 10
464.021212
 20
393.772209
 30
0.0
 11
461.017872
 21
393.772209
 31
0.0
  0
LINE
  8
LC-002-002-----0
  6
CONTINUOUS
  5
360
 10
311.838307
 20
317.495161
 30
0.0
 11
311.838307
 21
378.280898
 31
0.0
  0
LINE
  8
LC-002-002-----0
  6
CONTINUOUS
 62
     2
  5
361
 10
471.700159
 20
318.965094
 30
0.0
 11
471.700159
 21
273.834
 31
0.0
  0
LINE
  8
LC-002-002-----0
  6
CONTINUOUS
  5
362
 10
300.021212
 20
410.771807
 30
0.0
 11
483.521212
 21
410.771807
 31
0.0
  0
LINE
  8
LC-002-002-----0
  6
CONTINUOUS
  5
363
 10
318.771212
 20
409.460679
 30
0.0
 11
464.771212
 21
409.460679
 31
0.0
  0
LINE
  8
LC-002-002-----0
  6
DASHDOT
 62
     2
  5
365
 10
391.771365
 20
250.673593
 30
0.0
 11
391.771365
 21
416.394
 31
0.0
  0
LINE
  8
LC-002-002-----0
  6
CONTINUOUS
  5
366
 10
468.957665
 20
381.229458
 30
0.0
 11
433.270645
 21
381.229482
 31
0.0
  0
ENDSEC
  0
EOF
