  0
SECTION
  2
HEADER
  9
$ACADVER
  1
AC1009
  9
$INSBASE
 10
291.893321
 20
-17.76
 30
0.0
  9
$EXTMIN
 10
291.893321
 20
-17.76
 30
0.0
  9
$EXTMAX
 10
1131.893321
 20
576.24
 30
0.0
  9
$LIMMIN
 10
291.893321
 20
-17.76
  9
$LIMMAX
 10
1131.893321
 20
576.24
  9
$ORTHOMODE
 70
     0
  9
$REGENMODE
 70
     1
  9
$FILLMODE
 70
     1
  9
$QTEXTMODE
 70
     0
  9
$MIRRTEXT
 70
     1
  9
$DRAGMODE
 70
     2
  9
$LTSCALE
 40
2.0
  9
$OSMODE
 70
     0
  9
$ATTMODE
 70
     1
  9
$TEXTSIZE
 40
0.2
  9
$TRACEWID
 40
0.05
  9
$TEXTSTYLE
  7
STANDARD
  9
$CLAYER
  8
0
  9
$CELTYPE
  6
BYLAYER
  9
$CECOLOR
 62
     7
  9
$DIMSCALE
 40
2.0
  9
$DIMASZ
 40
3.5
  9
$DIMEXO
 40
0.0625
  9
$DIMDLI
 40
0.38
  9
$DIMRND
 40
0.0
  9
$DIMDLE
 40
0.0
  9
$DIMEXE
 40
0.18
  9
$DIMTP
 40
0.0
  9
$DIMTM
 40
0.0
  9
$DIMTXT
 40
3.5
  9
$DIMCEN
 40
0.09
  9
$DIMTSZ
 40
0.0
  9
$DIMTOL
 70
     0
  9
$DIMLIM
 70
     0
  9
$DIMTIH
 70
     1
  9
$DIMTOH
 70
     1
  9
$DIMSE1
 70
     0
  9
$DIMSE2
 70
     0
  9
$DIMTAD
 70
     1
  9
$DIMZIN
 70
     0
  9
$DIMBLK
  1

  9
$DIMASO
 70
     1
  9
$DIMSHO
 70
     1
  9
$DIMPOST
  1

  9
$DIMAPOST
  1

  9
$DIMALT
 70
     0
  9
$DIMALTD
 70
     2
  9
$DIMALTF
 40
25.4
  9
$DIMLFAC
 40
1.0
  9
$DIMTOFL
 70
     0
  9
$DIMTVP
 40
0.0
  9
$DIMTIX
 70
     0
  9
$DIMSOXD
 70
     0
  9
$DIMSAH
 70
     0
  9
$DIMBLK1
  1

  9
$DIMBLK2
  1

  9
$DIMSTYLE
  2
STANDARD
  9
$DIMCLRD
 70
     0
  9
$DIMCLRE
 70
     0
  9
$DIMCLRT
 70
     0
  9
$DIMTFAC
 40
1.0
  9
$DIMGAP
 40
0.09
  9
$LUNITS
 70
     2
  9
$LUPREC
 70
     2
  9
$AXISMODE
 70
     0
  9
$AXISUNIT
 10
0.0
 20
0.0
  9
$SKETCHINC
 40
0.1
  9
$FILLETRAD
 40
0.0
  9
$AUNITS
 70
     0
  9
$AUPREC
 70
     0
  9
$MENU
  1
acad
  9
$ELEVATION
 40
0.0
  9
$PELEVATION
 40
0.0
  9
$THICKNESS
 40
0.0
  9
$LIMCHECK
 70
     0
  9
$BLIPMODE
 70
     1
  9
$CHAMFERA
 40
0.0
  9
$CHAMFERB
 40
0.0
  9
$SKPOLY
 70
     0
  9
$TDCREATE
 40
0.000000000
  9
$TDUPDATE
 40
0.000000000
  9
$TDINDWG
 40
0.0000000000
  9
$TDUSRTIMER
 40
0.0000000000
  9
$USRTIMER
 70
     1
  9
$ANGBASE
 50
0.0
  9
$ANGDIR
 70
     0
  9
$PDMODE
 70
     0
  9
$PDSIZE
 40
0.0
  9
$PLINEWID
 40
0.0
  9
$COORDS
 70
     0
  9
$SPLFRAME
 70
     0
  9
$SPLINETYPE
 70
     6
  9
$SPLINESEGS
 70
     8
  9
$ATTDIA
 70
     0
  9
$ATTREQ
 70
     1
  9
$HANDLING
 70
     1
  9
$HANDSEED
  5
892
  9
$SURFTAB1
 70
     6
  9
$SURFTAB2
 70
     6
  9
$SURFTYPE
 70
     6
  9
$SURFU
 70
     6
  9
$SURFV
 70
     6
  9
$UCSNAME
  2

  9
$UCSORG
 10
0.0
 20
0.0
 30
0.0
  9
$UCSXDIR
 10
1.0
 20
0.0
 30
0.0
  9
$UCSYDIR
 10
0.0
 20
1.0
 30
0.0
  9
$PUCSNAME
  2

  9
$PUCSORG
 10
0.0
 20
0.0
 30
0.0
  9
$PUCSXDIR
 10
1.0
 20
0.0
 30
0.0
  9
$PUCSYDIR
 10
0.0
 20
1.0
 30
0.0
  9
$USERI1
 70
     0
  9
$USERI2
 70
     0
  9
$USERI3
 70
     0
  9
$USERI4
 70
     0
  9
$USERI5
 70
     0
  9
$USERR1
 40
0.0
  9
$USERR2
 40
0.0
  9
$USERR3
 40
0.0
  9
$USERR4
 40
0.0
  9
$USERR5
 40
0.0
  9
$WORLDVIEW
 70
     1
  9
$SHADEDGE
 70
     3
  9
$SHADEDIF
 70
    70
  9
$TILEMODE
 70
     1
  9
$MAXACTVP
 70
    16
  9
$PINSBASE
 10
0.0
 20
0.0
 30
0.0
  9
$PLIMCHECK
 70
     0
  9
$PEXTMIN
 10
1.000000E+20
 20
1.000000E+20
 30
1.000000E+20
  9
$PEXTMAX
 10
-1.000000E+20
 20
-1.000000E+20
 30
-1.000000E+20
  9
$PLIMMIN
 10
291.893321
 20
-17.76
  9
$PLIMMAX
 10
1131.893321
 20
576.24
  9
$UNITMODE
 70
     0
  9
$VISRETAIN
 70
     0
  9
$PLINEGEN
 70
     1
  9
$PSLTSCALE
 70
     0
  9
$TREEDEPTH
 70
  3020
  9
$DWGCODEPAGE
  3
dos850
  0
ENDSEC
  0
SECTION
  2
TABLES
  0
TABLE
  2
VPORT
 70
     1
  0
VPORT
  2
*ACTIVE
 70
     0
 10
0.0
 20
0.0
 11
1.0
 21
1.0
 12
420.0
 22
297.0
 13
0.0
 23
0.0
 14
1.0
 24
1.0
 15
0.0
 25
0.0
 16
0.0
 26
0.0
 36
1.0
 17
291.893321
 27
-17.76
 37
0.0
 40
594.0
 41
1.604229
 42
50.0
 43
0.0
 44
0.0
 50
0.0
 51
0.0
 71
     0
 72
   100
 73
     1
 74
     1
 75
     0
 76
     0
 77
     0
 78
     0
  0
ENDTAB
  0
TABLE
  2
LTYPE
 70
     2
  0
LTYPE
  2
CONTINUOUS
 70
    64
  3
Solid line
 72
    65
 73
     0
 40
0.0
  0
LTYPE
  2
DASHDOT
 70
    64
  3
__ . __ . __ . __ . __
 72
    65
 73
     4
 40
7.5
 49
5.0
 49
-1.25
 49
0.0
 49
-1.25
  0
ENDTAB
  0
TABLE
  2
LAYER
 70
    15
  0
LAYER
  2
0
 70
     0
 62
     7
  6
CONTINUOUS
  0
LAYER
  2
LC-INFO-1-2-MM-A3-0
 70
     1
 62
    -1
  6
CONTINUOUS
  0
LAYER
  2
LC-006-005-----0
 70
     0
 62
     2
  6
CONTINUOUS
  0
LAYER
  2
LC-011-003-MTH-0
 70
     0
 62
     2
  6
CONTINUOUS
  0
LAYER
  2
LC-012-003-MTG-0
 70
     0
 62
     2
  6
CONTINUOUS
  0
LAYER
  2
LC-010-003-----0
 70
     0
 62
     2
  6
CONTINUOUS
  0
LAYER
  2
LC-008-000-----0
 70
     0
 62
     7
  6
CONTINUOUS
  0
LAYER
  2
LC-009-000-----0
 70
     0
 62
     7
  6
CONTINUOUS
  0
LAYER
  2
LC-001-002-RND-0
 70
     0
 62
     1
  6
CONTINUOUS
  0
LAYER
  2
LC-002-002-----0
 70
     0
 62
     1
  6
CONTINUOUS
  0
LAYER
  2
LC-003-103-D00-1
 70
     0
 62
     1
  6
CONTINUOUS
  0
LAYER
  2
LC-004-001-RND-0
 70
     0
 62
     1
  6
CONTINUOUS
  0
LAYER
  2
LC-005-001-----0
 70
     0
 62
     1
  6
CONTINUOUS
  0
LAYER
  2
LC-007-206-----0
 70
     0
 62
     1
  6
CONTINUOUS
  0
LAYER
  2
LC-000
 70
     0
 62
     7
  6
CONTINUOUS
  0
ENDTAB
  0
TABLE
  2
STYLE
 70
     4
  0
STYLE
  2
STANDARD
 70
     0
 40
0.0
 41
1.0
 50
0.0
 71
     0
 42
0.0
  3
txt
  4

  0
STYLE
  2
LC-STANDARD
 70
    64
 40
0.0
 41
1.0
 50
0.0
 71
     0
 42
3.5
  3
MONOTXT
  4

  0
STYLE
  2
LC-TXTSTYLE-150-400-0-0-A2
 70
    64
 40
0.0
 41
1.0
 50
15.0
 71
     0
 42
3.5
  3
MONOTXT
  4

  0
STYLE
  2
LC-TXTSTYLE-150-400-0-0-D3
 70
    64
 40
0.0
 41
1.0
 50
15.0
 71
     0
 42
3.5
  3
LC-STANDARD
  4

  0
ENDTAB
  0
TABLE
  2
VIEW
 70
     0
  0
ENDTAB
  0
TABLE
  2
UCS
 70
     0
  0
ENDTAB
  0
TABLE
  2
APPID
 70
     1
  0
APPID
  2
ACAD
 70
     0
  0
ENDTAB
  0
TABLE
  2
DIMSTYLE
 70
     3
  0
DIMSTYLE
  2
STANDARD
 70
     0
  3

  4

  5

  6

  7

 40
1.0
 41
0.18
 42
0.0625
 43
0.38
 44
0.18
 45
0.0
 46
0.0
 47
0.0
 48
0.0
 71
     0
 72
     0
 73
     1
 74
     1
 75
     0
 76
     0
 77
     0
 78
     0
140
0.18
141
0.09
142
0.0
143
25.4
144
1.0
145
0.0
146
1.0
147
0.09
170
     0
171
     2
172
     0
173
     0
174
     0
175
     0
176
     0
177
     0
178
     0
  0
DIMSTYLE
  2
LC-STANDARD
 70
     0
  3

  4

  5

  6

  7

 40
1.0
 41
3.5
 42
0.0
 43
7.5
 44
1.8
 45
0.0
 46
0.0
 47
0.0
 48
0.0
 71
     0
 72
     0
 73
     0
 74
     0
 75
     0
 76
     0
 77
     1
 78
     8
140
3.5
141
0.0
142
0.0
143
25.4
144
1.0
145
0.0
146
0.71
147
1.5
170
     0
171
     2
172
     1
173
     0
174
     0
175
     0
176
     0
177
     0
178
     3
  0
DIMSTYLE
  2
LC-DIM-L-0140-02-02
 70
     0
  3

  4

  5

  6

  7

 40
2.0
 41
3.5
 42
0.0
 43
7.5
 44
1.8
 45
0.0
 46
0.0
 47
0.0
 48
0.0
 71
     0
 72
     0
 73
     0
 74
     0
 75
     0
 76
     0
 77
     1
 78
     8
140
14.0
141
0.0
142
0.0
143
25.4
144
1.0
145
0.0
146
0.71
147
1.5
170
     0
171
     2
172
     0
173
     0
174
     0
175
     0
176
     2
177
     2
178
     8
  0
ENDTAB
  0
ENDSEC
  0
SECTION
  2
BLOCKS
  0
BLOCK
  8
0
  5
23
  2
*X0
 70
    65
 10
605.684598
 20
171.310829
 30
0.0
  3
*X0
  0
LINE
  8
LC-006-005-----0
  6
CONTINUOUS
  5
25
 10
663.715551
 20
177.226086
 30
0.0
 11
665.208986
 21
178.71952
 31
0.0
  0
LINE
  8
LC-006-005-----0
  6
CONTINUOUS
  5
26
 10
662.594272
 20
178.933234
 30
0.0
 11
665.208981
 21
181.547943
 31
0.0
  0
LINE
  8
LC-006-005-----0
  6
CONTINUOUS
  5
27
 10
652.14344
 20
171.310829
 30
0.0
 11
652.709105
 21
171.876494
 31
0.0
  0
LINE
  8
LC-006-005-----0
  6
CONTINUOUS
  5
28
 10
662.117613
 20
181.285002
 30
0.0
 11
665.208977
 21
184.376366
 31
0.0
  0
LINE
  8
LC-006-005-----0
  6
CONTINUOUS
  5
29
 10
650.290463
 20
172.286279
 30
0.0
 11
652.709104
 21
174.70492
 31
0.0
  0
LINE
  8
LC-006-005-----0
  6
CONTINUOUS
  5
2A
 10
662.117613
 20
184.113429
 30
0.0
 11
665.208972
 21
187.204788
 31
0.0
  0
LINE
  8
LC-006-005-----0
  6
CONTINUOUS
  5
2B
 10
649.692746
 20
174.516989
 30
0.0
 11
652.709102
 21
177.533345
 31
0.0
  0
LINE
  8
LC-006-005-----0
  6
CONTINUOUS
  5
2C
 10
662.117613
 20
186.941856
 30
0.0
 11
665.208968
 21
190.033211
 31
0.0
  0
LINE
  8
LC-006-005-----0
  6
CONTINUOUS
  5
2D
 10
649.617753
 20
177.270423
 30
0.0
 11
652.709101
 21
180.361771
 31
0.0
  0
LINE
  8
LC-006-005-----0
  6
CONTINUOUS
  5
2E
 10
662.117613
 20
189.770283
 30
0.0
 11
665.208963
 21
192.861634
 31
0.0
  0
LINE
  8
LC-006-005-----0
  6
CONTINUOUS
  5
2F
 10
649.617753
 20
180.09885
 30
0.0
 11
652.709099
 21
183.190196
 31
0.0
  0
LINE
  8
LC-006-005-----0
  6
CONTINUOUS
  5
30
 10
662.117613
 20
192.59871
 30
0.0
 11
665.208959
 21
195.690056
 31
0.0
  0
LINE
  8
LC-006-005-----0
  6
CONTINUOUS
  5
31
 10
649.617753
 20
182.927278
 30
0.0
 11
652.709097
 21
186.018622
 31
0.0
  0
LINE
  8
LC-006-005-----0
  6
CONTINUOUS
  5
32
 10
662.117613
 20
195.427138
 30
0.0
 11
665.208955
 21
198.518479
 31
0.0
  0
LINE
  8
LC-006-005-----0
  6
CONTINUOUS
  5
33
 10
649.617753
 20
185.755705
 30
0.0
 11
652.709096
 21
188.847047
 31
0.0
  0
LINE
  8
LC-006-005-----0
  6
CONTINUOUS
  5
34
 10
662.117613
 20
198.255565
 30
0.0
 11
665.20895
 21
201.346902
 31
0.0
  0
LINE
  8
LC-006-005-----0
  6
CONTINUOUS
  5
35
 10
649.617753
 20
188.584132
 30
0.0
 11
652.709094
 21
191.675473
 31
0.0
  0
LINE
  8
LC-006-005-----0
  6
CONTINUOUS
  5
36
 10
662.117613
 20
201.083992
 30
0.0
 11
665.208946
 21
204.175324
 31
0.0
  0
LINE
  8
LC-006-005-----0
  6
CONTINUOUS
  5
37
 10
649.617753
 20
191.412559
 30
0.0
 11
652.709093
 21
194.503898
 31
0.0
  0
LINE
  8
LC-006-005-----0
  6
CONTINUOUS
  5
38
 10
662.117613
 20
203.912419
 30
0.0
 11
665.208941
 21
207.003747
 31
0.0
  0
LINE
  8
LC-006-005-----0
  6
CONTINUOUS
  5
39
 10
649.617753
 20
194.240986
 30
0.0
 11
652.709091
 21
197.332324
 31
0.0
  0
LINE
  8
LC-006-005-----0
  6
CONTINUOUS
  5
3A
 10
662.117613
 20
206.740846
 30
0.0
 11
665.208937
 21
209.83217
 31
0.0
  0
LINE
  8
LC-006-005-----0
  6
CONTINUOUS
  5
3B
 10
649.617753
 20
197.069413
 30
0.0
 11
652.709089
 21
200.160749
 31
0.0
  0
LINE
  8
LC-006-005-----0
  6
CONTINUOUS
  5
3C
 10
662.117613
 20
209.569273
 30
0.0
 11
665.208932
 21
212.660592
 31
0.0
  0
LINE
  8
LC-006-005-----0
  6
CONTINUOUS
  5
3D
 10
649.617753
 20
199.89784
 30
0.0
 11
652.709088
 21
202.989175
 31
0.0
  0
LINE
  8
LC-006-005-----0
  6
CONTINUOUS
  5
3E
 10
662.117613
 20
212.3977
 30
0.0
 11
665.208928
 21
215.489015
 31
0.0
  0
LINE
  8
LC-006-005-----0
  6
CONTINUOUS
  5
3F
 10
649.617753
 20
202.726268
 30
0.0
 11
652.709086
 21
205.8176
 31
0.0
  0
LINE
  8
LC-006-005-----0
  6
CONTINUOUS
  5
40
 10
662.117613
 20
215.226127
 30
0.0
 11
665.208923
 21
218.317438
 31
0.0
  0
LINE
  8
LC-006-005-----0
  6
CONTINUOUS
  5
41
 10
649.617753
 20
205.554695
 30
0.0
 11
652.709084
 21
208.646026
 31
0.0
  0
LINE
  8
LC-006-005-----0
  6
CONTINUOUS
  5
42
 10
662.117613
 20
218.054555
 30
0.0
 11
665.208919
 21
221.14586
 31
0.0
  0
LINE
  8
LC-006-005-----0
  6
CONTINUOUS
  5
43
 10
649.617753
 20
208.383122
 30
0.0
 11
652.709083
 21
211.474451
 31
0.0
  0
LINE
  8
LC-006-005-----0
  6
CONTINUOUS
  5
44
 10
662.117613
 20
220.882982
 30
0.0
 11
665.208914
 21
223.974283
 31
0.0
  0
LINE
  8
LC-006-005-----0
  6
CONTINUOUS
  5
45
 10
649.617753
 20
211.211549
 30
0.0
 11
652.709081
 21
214.302877
 31
0.0
  0
LINE
  8
LC-006-005-----0
  6
CONTINUOUS
  5
46
 10
662.117613
 20
223.711409
 30
0.0
 11
665.20891
 21
226.802706
 31
0.0
  0
LINE
  8
LC-006-005-----0
  6
CONTINUOUS
  5
47
 10
649.617753
 20
214.039976
 30
0.0
 11
652.70908
 21
217.131302
 31
0.0
  0
LINE
  8
LC-006-005-----0
  6
CONTINUOUS
  5
48
 10
662.117613
 20
226.539836
 30
0.0
 11
667.115265
 21
231.537488
 31
0.0
  0
LINE
  8
LC-006-005-----0
  6
CONTINUOUS
  5
49
 10
649.617753
 20
216.868403
 30
0.0
 11
652.709078
 21
219.959728
 31
0.0
  0
LINE
  8
LC-006-005-----0
  6
CONTINUOUS
  5
4A
 10
662.117613
 20
229.368263
 30
0.0
 11
665.254779
 21
232.505429
 31
0.0
  0
LINE
  8
LC-006-005-----0
  6
CONTINUOUS
  5
4B
 10
649.617754
 20
219.696831
 30
0.0
 11
652.709076
 21
222.788153
 31
0.0
  0
LINE
  8
LC-006-005-----0
  6
CONTINUOUS
  5
4C
 10
660.982828
 20
231.061905
 30
0.0
 11
663.024069
 21
233.103146
 31
0.0
  0
LINE
  8
LC-006-005-----0
  6
CONTINUOUS
  5
4D
 10
649.617754
 20
222.525258
 30
0.0
 11
652.709075
 21
225.616579
 31
0.0
  0
LINE
  8
LC-006-005-----0
  6
CONTINUOUS
  5
4E
 10
658.757101
 20
231.664605
 30
0.0
 11
660.949074
 21
233.856579
 31
0.0
  0
LINE
  8
LC-006-005-----0
  6
CONTINUOUS
  5
4F
 10
649.617754
 20
225.353685
 30
0.0
 11
652.709073
 21
228.445005
 31
0.0
  0
LINE
  8
LC-006-005-----0
  6
CONTINUOUS
  5
50
 10
654.62761
 20
230.363542
 30
0.0
 11
659.796432
 21
235.532364
 31
0.0
  0
LINE
  8
LC-006-005-----0
  6
CONTINUOUS
  5
51
 10
649.617754
 20
228.182112
 30
0.0
 11
655.011307
 21
233.575665
 31
0.0
  0
LINE
  8
LC-006-005-----0
  6
CONTINUOUS
  5
52
 10
656.465981
 20
235.030339
 30
0.0
 11
659.677192
 21
238.24155
 31
0.0
  0
LINE
  8
LC-006-005-----0
  6
CONTINUOUS
  5
53
 10
648.918042
 20
230.310828
 30
0.0
 11
651.905902
 21
233.298688
 31
0.0
  0
LINE
  8
LC-006-005-----0
  6
CONTINUOUS
  5
54
 10
656.742958
 20
238.135744
 30
0.0
 11
659.645353
 21
241.038138
 31
0.0
  0
LINE
  8
LC-006-005-----0
  6
CONTINUOUS
  5
55
 10
646.089613
 20
230.310825
 30
0.0
 11
649.077475
 21
233.298688
 31
0.0
  0
LINE
  8
LC-006-005-----0
  6
CONTINUOUS
  5
56
 10
656.742959
 20
240.964172
 30
0.0
 11
659.613513
 21
243.834726
 31
0.0
  0
LINE
  8
LC-006-005-----0
  6
CONTINUOUS
  5
57
 10
643.261183
 20
230.310822
 30
0.0
 11
646.249048
 21
233.298688
 31
0.0
  0
LINE
  8
LC-006-005-----0
  6
CONTINUOUS
  5
58
 10
656.74296
 20
243.7926
 30
0.0
 11
659.581674
 21
246.631314
 31
0.0
  0
LINE
  8
LC-006-005-----0
  6
CONTINUOUS
  5
59
 10
640.432753
 20
230.31082
 30
0.0
 11
643.420621
 21
233.298688
 31
0.0
  0
LINE
  8
LC-006-005-----0
  6
CONTINUOUS
  5
5A
 10
656.74296
 20
246.621027
 30
0.0
 11
659.549835
 21
249.427902
 31
0.0
  0
LINE
  8
LC-006-005-----0
  6
CONTINUOUS
  5
5B
 10
637.604323
 20
230.310817
 30
0.0
 11
640.592193
 21
233.298687
 31
0.0
  0
LINE
  8
LC-006-005-----0
  6
CONTINUOUS
  5
5C
 10
656.742961
 20
249.449455
 30
0.0
 11
659.517996
 21
252.22449
 31
0.0
  0
LINE
  8
LC-006-005-----0
  6
CONTINUOUS
  5
5D
 10
634.775893
 20
230.310814
 30
0.0
 11
637.763766
 21
233.298687
 31
0.0
  0
LINE
  8
LC-006-005-----0
  6
CONTINUOUS
  5
5E
 10
656.742962
 20
252.277883
 30
0.0
 11
659.486157
 21
255.021078
 31
0.0
  0
LINE
  8
LC-006-005-----0
  6
CONTINUOUS
  5
5F
 10
631.947463
 20
230.310812
 30
0.0
 11
634.935339
 21
233.298687
 31
0.0
  0
LINE
  8
LC-006-005-----0
  6
CONTINUOUS
  5
60
 10
656.742963
 20
255.106311
 30
0.0
 11
659.454318
 21
257.817666
 31
0.0
  0
LINE
  8
LC-006-005-----0
  6
CONTINUOUS
  5
61
 10
629.119033
 20
230.310809
 30
0.0
 11
632.106911
 21
233.298687
 31
0.0
  0
LINE
  8
LC-006-005-----0
  6
CONTINUOUS
  5
62
 10
656.742963
 20
257.934739
 30
0.0
 11
659.422478
 21
260.614254
 31
0.0
  0
LINE
  8
LC-006-005-----0
  6
CONTINUOUS
  5
63
 10
626.290604
 20
230.310806
 30
0.0
 11
629.278484
 21
233.298687
 31
0.0
  0
LINE
  8
LC-006-005-----0
  6
CONTINUOUS
  5
64
 10
656.742964
 20
260.763167
 30
0.0
 11
659.390639
 21
263.410842
 31
0.0
  0
LINE
  8
LC-006-005-----0
  6
CONTINUOUS
  5
65
 10
623.462174
 20
230.310803
 30
0.0
 11
626.450057
 21
233.298687
 31
0.0
  0
LINE
  8
LC-006-005-----0
  6
CONTINUOUS
  5
66
 10
656.742965
 20
263.591594
 30
0.0
 11
659.3588
 21
266.20743
 31
0.0
  0
LINE
  8
LC-006-005-----0
  6
CONTINUOUS
  5
67
 10
620.633744
 20
230.310801
 30
0.0
 11
623.62163
 21
233.298686
 31
0.0
  0
LINE
  8
LC-006-005-----0
  6
CONTINUOUS
  5
68
 10
656.742966
 20
266.420022
 30
0.0
 11
659.326961
 21
269.004018
 31
0.0
  0
LINE
  8
LC-006-005-----0
  6
CONTINUOUS
  5
69
 10
617.872378
 20
230.377862
 30
0.0
 11
620.793202
 21
233.298686
 31
0.0
  0
LINE
  8
LC-006-005-----0
  6
CONTINUOUS
  5
6A
 10
656.742966
 20
269.24845
 30
0.0
 11
659.295122
 21
271.800606
 31
0.0
  0
LINE
  8
LC-006-005-----0
  6
CONTINUOUS
  5
6B
 10
615.53309
 20
230.867001
 30
0.0
 11
618.008736
 21
233.342647
 31
0.0
  0
LINE
  8
LC-006-005-----0
  6
CONTINUOUS
  5
6C
 10
656.742967
 20
272.076878
 30
0.0
 11
659.263283
 21
274.597194
 31
0.0
  0
LINE
  8
LC-006-005-----0
  6
CONTINUOUS
  5
6D
 10
613.539879
 20
231.702217
 30
0.0
 11
615.718273
 21
233.880611
 31
0.0
  0
LINE
  8
LC-006-005-----0
  6
CONTINUOUS
  5
6E
 10
656.742968
 20
274.905306
 30
0.0
 11
659.231443
 21
277.393782
 31
0.0
  0
LINE
  8
LC-006-005-----0
  6
CONTINUOUS
  5
6F
 10
611.820732
 20
232.811497
 30
0.0
 11
613.857524
 21
234.84829
 31
0.0
  0
LINE
  8
LC-006-005-----0
  6
CONTINUOUS
  5
70
 10
656.742968
 20
277.733734
 30
0.0
 11
659.199604
 21
280.190369
 31
0.0
  0
LINE
  8
LC-006-005-----0
  6
CONTINUOUS
  5
71
 10
609.491598
 20
233.31079
 30
0.0
 11
611.9916
 21
235.810792
 31
0.0
  0
LINE
  8
LC-006-005-----0
  6
CONTINUOUS
  5
72
 10
656.742969
 20
280.562162
 30
0.0
 11
659.167765
 21
282.986957
 31
0.0
  0
LINE
  8
LC-006-005-----0
  6
CONTINUOUS
  5
73
 10
606.663168
 20
233.310787
 30
0.0
 11
609.16317
 21
235.81079
 31
0.0
  0
LINE
  8
LC-006-005-----0
  6
CONTINUOUS
  5
74
 10
656.74297
 20
283.390589
 30
0.0
 11
659.135926
 21
285.783545
 31
0.0
  0
LINE
  8
LC-006-005-----0
  6
CONTINUOUS
  5
75
 10
605.684598
 20
235.160645
 30
0.0
 11
606.33474
 21
235.810787
 31
0.0
  0
LINE
  8
LC-006-005-----0
  6
CONTINUOUS
  5
76
 10
656.742971
 20
286.219017
 30
0.0
 11
659.104087
 21
288.580133
 31
0.0
  0
LINE
  8
LC-006-005-----0
  6
CONTINUOUS
  5
77
 10
656.742971
 20
289.047445
 30
0.0
 11
659.072247
 21
291.376721
 31
0.0
  0
LINE
  8
LC-006-005-----0
  6
CONTINUOUS
  5
78
 10
656.742972
 20
291.875873
 30
0.0
 11
659.040408
 21
294.173309
 31
0.0
  0
LINE
  8
LC-006-005-----0
  6
CONTINUOUS
  5
79
 10
656.742973
 20
294.704301
 30
0.0
 11
659.008569
 21
296.969897
 31
0.0
  0
LINE
  8
LC-006-005-----0
  6
CONTINUOUS
  5
7A
 10
656.742974
 20
297.532729
 30
0.0
 11
659.460612
 21
300.250367
 31
0.0
  0
LINE
  8
LC-006-005-----0
  6
CONTINUOUS
  5
7B
 10
656.742974
 20
300.361157
 30
0.0
 11
657.680504
 21
301.298686
 31
0.0
  0
ENDBLK
  8
0
  5
7C
  0
BLOCK
  8
0
  5
7E
  2
*X1
 70
    65
 10
536.971053
 20
253.810786
 30
0.0
  3
*X1
  0
LINE
  8
LC-006-005-----0
  6
CONTINUOUS
  5
7F
 10
607.364179
 20
253.810788
 30
0.0
 11
609.931313
 21
256.377923
 31
0.0
  0
LINE
  8
LC-006-005-----0
  6
CONTINUOUS
  5
80
 10
605.684598
 20
254.959635
 30
0.0
 11
609.931313
 21
259.20635
 31
0.0
  0
LINE
  8
LC-006-005-----0
  6
CONTINUOUS
  5
81
 10
605.684598
 20
257.788062
 30
0.0
 11
609.931313
 21
262.034777
 31
0.0
  0
LINE
  8
LC-006-005-----0
  6
CONTINUOUS
  5
82
 10
605.684598
 20
260.616489
 30
0.0
 11
609.931313
 21
264.863204
 31
0.0
  0
LINE
  8
LC-006-005-----0
  6
CONTINUOUS
  5
83
 10
605.684598
 20
263.444916
 30
0.0
 11
609.931313
 21
267.691631
 31
0.0
  0
LINE
  8
LC-006-005-----0
  6
CONTINUOUS
  5
84
 10
605.684598
 20
266.273343
 30
0.0
 11
609.931313
 21
270.520058
 31
0.0
  0
LINE
  8
LC-006-005-----0
  6
CONTINUOUS
  5
85
 10
605.684598
 20
269.10177
 30
0.0
 11
609.931313
 21
273.348486
 31
0.0
  0
LINE
  8
LC-006-005-----0
  6
CONTINUOUS
  5
86
 10
605.684598
 20
271.930198
 30
0.0
 11
609.931313
 21
276.176913
 31
0.0
  0
LINE
  8
LC-006-005-----0
  6
CONTINUOUS
  5
87
 10
605.684598
 20
274.758625
 30
0.0
 11
606.236761
 21
275.310787
 31
0.0
  0
LINE
  8
LC-006-005-----0
  6
CONTINUOUS
  5
88
 10
607.184598
 20
276.258625
 30
0.0
 11
609.931313
 21
279.00534
 31
0.0
  0
LINE
  8
LC-006-005-----0
  6
CONTINUOUS
  5
89
 10
607.184598
 20
279.087052
 30
0.0
 11
609.931313
 21
281.833767
 31
0.0
  0
LINE
  8
LC-006-005-----0
  6
CONTINUOUS
  5
8A
 10
607.184598
 20
281.915479
 30
0.0
 11
609.931313
 21
284.662194
 31
0.0
  0
LINE
  8
LC-006-005-----0
  6
CONTINUOUS
  5
8B
 10
607.184598
 20
284.743906
 30
0.0
 11
609.931313
 21
287.490621
 31
0.0
  0
LINE
  8
LC-006-005-----0
  6
CONTINUOUS
  5
8C
 10
607.184598
 20
287.572333
 30
0.0
 11
609.931313
 21
290.319048
 31
0.0
  0
LINE
  8
LC-006-005-----0
  6
CONTINUOUS
  5
8D
 10
607.184598
 20
290.40076
 30
0.0
 11
609.931313
 21
293.147475
 31
0.0
  0
LINE
  8
LC-006-005-----0
  6
CONTINUOUS
  5
8E
 10
607.184598
 20
293.229187
 30
0.0
 11
609.931313
 21
295.975903
 31
0.0
  0
LINE
  8
LC-006-005-----0
  6
CONTINUOUS
  5
8F
 10
607.184598
 20
296.057614
 30
0.0
 11
609.931313
 21
298.80433
 31
0.0
  0
LINE
  8
LC-006-005-----0
  6
CONTINUOUS
  5
90
 10
607.184598
 20
298.886042
 30
0.0
 11
609.931313
 21
301.632757
 31
0.0
  0
LINE
  8
LC-006-005-----0
  6
CONTINUOUS
  5
91
 10
607.184598
 20
301.714469
 30
0.0
 11
609.931313
 21
304.461184
 31
0.0
  0
LINE
  8
LC-006-005-----0
  6
CONTINUOUS
  5
92
 10
607.184598
 20
304.542896
 30
0.0
 11
609.931313
 21
307.289611
 31
0.0
  0
LINE
  8
LC-006-005-----0
  6
CONTINUOUS
  5
93
 10
606.143904
 20
306.330629
 30
0.0
 11
609.383507
 21
309.570232
 31
0.0
  0
LINE
  8
LC-006-005-----0
  6
CONTINUOUS
  5
94
 10
604.979055
 20
307.994207
 30
0.0
 11
609.689822
 21
312.704974
 31
0.0
  0
LINE
  8
LC-006-005-----0
  6
CONTINUOUS
  5
95
 10
603.814205
 20
309.657784
 30
0.0
 11
610.133576
 21
315.977155
 31
0.0
  0
LINE
  8
LC-006-005-----0
  6
CONTINUOUS
  5
96
 10
602.649356
 20
311.321362
 30
0.0
 11
608.323048
 21
316.995055
 31
0.0
  0
LINE
  8
LC-006-005-----0
  6
CONTINUOUS
  5
97
 10
601.484506
 20
312.984939
 30
0.0
 11
605.494621
 21
316.995055
 31
0.0
  0
LINE
  8
LC-006-005-----0
  6
CONTINUOUS
  5
98
 10
600.319657
 20
314.648517
 30
0.0
 11
602.666194
 21
316.995055
 31
0.0
  0
LINE
  8
LC-006-005-----0
  6
CONTINUOUS
  5
99
 10
599.154807
 20
316.312095
 30
0.0
 11
600.71821
 21
317.875497
 31
0.0
  0
LINE
  8
LC-006-005-----0
  6
CONTINUOUS
  5
9A
 10
597.989958
 20
317.975672
 30
0.0
 11
600.71821
 21
320.703924
 31
0.0
  0
LINE
  8
LC-006-005-----0
  6
CONTINUOUS
  5
9B
 10
597.979179
 20
320.793321
 30
0.0
 11
600.71821
 21
323.532352
 31
0.0
  0
LINE
  8
LC-006-005-----0
  6
CONTINUOUS
  5
9C
 10
597.979179
 20
323.621748
 30
0.0
 11
600.71821
 21
326.360779
 31
0.0
  0
LINE
  8
LC-006-005-----0
  6
CONTINUOUS
  5
9D
 10
597.128659
 20
325.599655
 30
0.0
 11
600.71821
 21
329.189206
 31
0.0
  0
LINE
  8
LC-006-005-----0
  6
CONTINUOUS
  5
9E
 10
594.801765
 20
326.101188
 30
0.0
 11
597.14976
 21
328.449183
 31
0.0
  0
LINE
  8
LC-006-005-----0
  6
CONTINUOUS
  5
9F
 10
598.727563
 20
330.026986
 30
0.0
 11
600.71821
 21
332.017633
 31
0.0
  0
LINE
  8
LC-006-005-----0
  6
CONTINUOUS
  5
A0
 10
593.200524
 20
327.328374
 30
0.0
 11
595.667598
 21
329.795448
 31
0.0
  0
LINE
  8
LC-006-005-----0
  6
CONTINUOUS
  5
A1
 10
598.727563
 20
332.855413
 30
0.0
 11
600.2974
 21
334.425251
 31
0.0
  0
LINE
  8
LC-006-005-----0
  6
CONTINUOUS
  5
A2
 10
592.683617
 20
329.639894
 30
0.0
 11
595.526748
 21
332.483026
 31
0.0
  0
LINE
  8
LC-006-005-----0
  6
CONTINUOUS
  5
A3
 10
592.542766
 20
332.327471
 30
0.0
 11
595.385898
 21
335.170603
 31
0.0
  0
LINE
  8
LC-006-005-----0
  6
CONTINUOUS
  5
A4
 10
591.590021
 20
334.203152
 30
0.0
 11
594.463687
 21
337.076818
 31
0.0
  0
LINE
  8
LC-006-005-----0
  6
CONTINUOUS
  5
A5
 10
589.025466
 20
334.467025
 30
0.0
 11
591.828318
 21
337.269877
 31
0.0
  0
LINE
  8
LC-006-005-----0
  6
CONTINUOUS
  5
A6
 10
586.391274
 20
334.66126
 30
0.0
 11
589.19295
 21
337.462936
 31
0.0
  0
LINE
  8
LC-006-005-----0
  6
CONTINUOUS
  5
A7
 10
583.757081
 20
334.855494
 30
0.0
 11
586.557581
 21
337.655994
 31
0.0
  0
LINE
  8
LC-006-005-----0
  6
CONTINUOUS
  5
A8
 10
581.122889
 20
335.049729
 30
0.0
 11
583.922213
 21
337.849053
 31
0.0
  0
LINE
  8
LC-006-005-----0
  6
CONTINUOUS
  5
A9
 10
578.488697
 20
335.243964
 30
0.0
 11
581.286844
 21
338.042112
 31
0.0
  0
LINE
  8
LC-006-005-----0
  6
CONTINUOUS
  5
AA
 10
575.854504
 20
335.438198
 30
0.0
 11
578.651476
 21
338.23517
 31
0.0
  0
LINE
  8
LC-006-005-----0
  6
CONTINUOUS
  5
AB
 10
573.703879
 20
336.116
 30
0.0
 11
576.363671
 21
338.775792
 31
0.0
  0
LINE
  8
LC-006-005-----0
  6
CONTINUOUS
  5
AC
 10
571.68466
 20
336.925208
 30
0.0
 11
574.253194
 21
339.493743
 31
0.0
  0
LINE
  8
LC-006-005-----0
  6
CONTINUOUS
  5
AD
 10
569.665441
 20
337.734417
 30
0.0
 11
572.142718
 21
340.211693
 31
0.0
  0
LINE
  8
LC-006-005-----0
  6
CONTINUOUS
  5
AE
 10
567.092222
 20
337.989625
 30
0.0
 11
569.891787
 21
340.78919
 31
0.0
  0
LINE
  8
LC-006-005-----0
  6
CONTINUOUS
  5
AF
 10
564.448651
 20
338.174481
 30
0.0
 11
567.248216
 21
340.974046
 31
0.0
  0
LINE
  8
LC-006-005-----0
  6
CONTINUOUS
  5
B0
 10
561.80508
 20
338.359337
 30
0.0
 11
564.604646
 21
341.158903
 31
0.0
  0
LINE
  8
LC-006-005-----0
  6
CONTINUOUS
  5
B1
 10
559.161509
 20
338.544193
 30
0.0
 11
561.961075
 21
341.343759
 31
0.0
  0
LINE
  8
LC-006-005-----0
  6
CONTINUOUS
  5
B2
 10
556.517938
 20
338.72905
 30
0.0
 11
559.317504
 21
341.528615
 31
0.0
  0
LINE
  8
LC-006-005-----0
  6
CONTINUOUS
  5
B3
 10
553.874367
 20
338.913906
 30
0.0
 11
556.673933
 21
341.713472
 31
0.0
  0
LINE
  8
LC-006-005-----0
  6
CONTINUOUS
  5
B4
 10
551.230797
 20
339.098762
 30
0.0
 11
554.030362
 21
341.898328
 31
0.0
  0
LINE
  8
LC-006-005-----0
  6
CONTINUOUS
  5
B5
 10
548.587226
 20
339.283618
 30
0.0
 11
551.386791
 21
342.083184
 31
0.0
  0
LINE
  8
LC-006-005-----0
  6
CONTINUOUS
  5
B6
 10
545.943655
 20
339.468475
 30
0.0
 11
548.743221
 21
342.268041
 31
0.0
  0
LINE
  8
LC-006-005-----0
  6
CONTINUOUS
  5
B7
 10
543.300084
 20
339.653331
 30
0.0
 11
546.09965
 21
342.452897
 31
0.0
  0
LINE
  8
LC-006-005-----0
  6
CONTINUOUS
  5
B8
 10
540.656513
 20
339.838187
 30
0.0
 11
543.456079
 21
342.637753
 31
0.0
  0
LINE
  8
LC-006-005-----0
  6
CONTINUOUS
  5
B9
 10
538.012942
 20
340.023044
 30
0.0
 11
540.812508
 21
342.82261
 31
0.0
  0
ENDBLK
  8
0
  5
BA
  0
BLOCK
  8
0
  5
BC
  2
*X2
 70
    65
 10
707.120037
 20
171.310652
 30
0.0
  3
*X2
  0
LINE
  8
LC-006-005-----0
  6
CONTINUOUS
  5
BD
 10
722.853941
 20
171.310652
 30
0.0
 11
723.986942
 21
172.443652
 31
0.0
  0
LINE
  8
LC-006-005-----0
  6
CONTINUOUS
  5
BE
 10
721.533723
 20
172.818861
 30
0.0
 11
724.617515
 21
175.902653
 31
0.0
  0
LINE
  8
LC-006-005-----0
  6
CONTINUOUS
  5
BF
 10
721.533723
 20
175.647288
 30
0.0
 11
724.617515
 21
178.73108
 31
0.0
  0
LINE
  8
LC-006-005-----0
  6
CONTINUOUS
  5
C0
 10
721.533723
 20
178.475715
 30
0.0
 11
724.617515
 21
181.559507
 31
0.0
  0
LINE
  8
LC-006-005-----0
  6
CONTINUOUS
  5
C1
 10
721.533723
 20
181.304142
 30
0.0
 11
724.617515
 21
184.387935
 31
0.0
  0
LINE
  8
LC-006-005-----0
  6
CONTINUOUS
  5
C2
 10
721.533723
 20
184.132569
 30
0.0
 11
724.617515
 21
187.216362
 31
0.0
  0
LINE
  8
LC-006-005-----0
  6
CONTINUOUS
  5
C3
 10
721.533723
 20
186.960996
 30
0.0
 11
724.617515
 21
190.044789
 31
0.0
  0
LINE
  8
LC-006-005-----0
  6
CONTINUOUS
  5
C4
 10
709.026237
 20
177.281938
 30
0.0
 11
711.993598
 21
180.249299
 31
0.0
  0
LINE
  8
LC-006-005-----0
  6
CONTINUOUS
  5
C5
 10
721.533723
 20
189.789424
 30
0.0
 11
724.617516
 21
192.873216
 31
0.0
  0
LINE
  8
LC-006-005-----0
  6
CONTINUOUS
  5
C6
 10
709.026243
 20
180.11037
 30
0.0
 11
712.117615
 21
183.201743
 31
0.0
  0
LINE
  8
LC-006-005-----0
  6
CONTINUOUS
  5
C7
 10
721.533723
 20
192.617851
 30
0.0
 11
724.617516
 21
195.701643
 31
0.0
  0
LINE
  8
LC-006-005-----0
  6
CONTINUOUS
  5
C8
 10
760.464129
 20
231.548257
 30
0.0
 11
765.882211
 21
236.966339
 31
0.0
  0
LINE
  8
LC-006-005-----0
  6
CONTINUOUS
  5
C9
 10
709.026248
 20
182.938803
 30
0.0
 11
712.117616
 21
186.03017
 31
0.0
  0
LINE
  8
LC-006-005-----0
  6
CONTINUOUS
  5
CA
 10
721.533723
 20
195.446278
 30
0.0
 11
724.617516
 21
198.53007
 31
0.0
  0
LINE
  8
LC-006-005-----0
  6
CONTINUOUS
  5
CB
 10
756.46917
 20
230.381725
 30
0.0
 11
767.048744
 21
240.961298
 31
0.0
  0
LINE
  8
LC-006-005-----0
  6
CONTINUOUS
  5
CC
 10
709.026253
 20
185.767235
 30
0.0
 11
712.117616
 21
188.858598
 31
0.0
  0
LINE
  8
LC-006-005-----0
  6
CONTINUOUS
  5
CD
 10
721.533723
 20
198.274705
 30
0.0
 11
724.617516
 21
201.358498
 31
0.0
  0
LINE
  8
LC-006-005-----0
  6
CONTINUOUS
  5
CE
 10
753.569671
 20
230.310653
 30
0.0
 11
756.653319
 21
233.394301
 31
0.0
  0
LINE
  8
LC-006-005-----0
  6
CONTINUOUS
  5
CF
 10
764.216026
 20
240.957008
 30
0.0
 11
767.119816
 21
243.860797
 31
0.0
  0
LINE
  8
LC-006-005-----0
  6
CONTINUOUS
  5
D0
 10
709.026259
 20
188.595668
 30
0.0
 11
712.117617
 21
191.687026
 31
0.0
  0
LINE
  8
LC-006-005-----0
  6
CONTINUOUS
  5
D1
 10
721.533723
 20
201.103132
 30
0.0
 11
724.617516
 21
204.186925
 31
0.0
  0
LINE
  8
LC-006-005-----0
  6
CONTINUOUS
  5
D2
 10
750.741243
 20
230.310653
 30
0.0
 11
753.729277
 21
233.298686
 31
0.0
  0
LINE
  8
LC-006-005-----0
  6
CONTINUOUS
  5
D3
 10
764.31164
 20
243.88105
 30
0.0
 11
767.119816
 21
246.689225
 31
0.0
  0
LINE
  8
LC-006-005-----0
  6
CONTINUOUS
  5
D4
 10
709.026264
 20
191.4241
 30
0.0
 11
712.117618
 21
194.515454
 31
0.0
  0
LINE
  8
LC-006-005-----0
  6
CONTINUOUS
  5
D5
 10
721.533723
 20
203.931559
 30
0.0
 11
724.617516
 21
207.015352
 31
0.0
  0
LINE
  8
LC-006-005-----0
  6
CONTINUOUS
  5
D6
 10
747.912816
 20
230.310653
 30
0.0
 11
750.90085
 21
233.298686
 31
0.0
  0
LINE
  8
LC-006-005-----0
  6
CONTINUOUS
  5
D7
 10
764.31164
 20
246.709477
 30
0.0
 11
767.119816
 21
249.517652
 31
0.0
  0
LINE
  8
LC-006-005-----0
  6
CONTINUOUS
  5
D8
 10
709.026269
 20
194.252532
 30
0.0
 11
712.117619
 21
197.343882
 31
0.0
  0
LINE
  8
LC-006-005-----0
  6
CONTINUOUS
  5
D9
 10
721.533723
 20
206.759986
 30
0.0
 11
724.617516
 21
209.843779
 31
0.0
  0
LINE
  8
LC-006-005-----0
  6
CONTINUOUS
  5
DA
 10
745.084389
 20
230.310653
 30
0.0
 11
748.072423
 21
233.298686
 31
0.0
  0
LINE
  8
LC-006-005-----0
  6
CONTINUOUS
  5
DB
 10
764.31164
 20
249.537904
 30
0.0
 11
767.119816
 21
252.346079
 31
0.0
  0
LINE
  8
LC-006-005-----0
  6
CONTINUOUS
  5
DC
 10
709.026274
 20
197.080965
 30
0.0
 11
712.117619
 21
200.17231
 31
0.0
  0
LINE
  8
LC-006-005-----0
  6
CONTINUOUS
  5
DD
 10
721.533723
 20
209.588414
 30
0.0
 11
724.617516
 21
212.672206
 31
0.0
  0
LINE
  8
LC-006-005-----0
  6
CONTINUOUS
  5
DE
 10
742.255962
 20
230.310653
 30
0.0
 11
745.243996
 21
233.298686
 31
0.0
  0
LINE
  8
LC-006-005-----0
  6
CONTINUOUS
  5
DF
 10
764.31164
 20
252.366331
 30
0.0
 11
767.119816
 21
255.174506
 31
0.0
  0
LINE
  8
LC-006-005-----0
  6
CONTINUOUS
  5
E0
 10
709.02628
 20
199.909397
 30
0.0
 11
712.11762
 21
203.000738
 31
0.0
  0
LINE
  8
LC-006-005-----0
  6
CONTINUOUS
  5
E1
 10
721.533723
 20
212.416841
 30
0.0
 11
724.617516
 21
215.500633
 31
0.0
  0
LINE
  8
LC-006-005-----0
  6
CONTINUOUS
  5
E2
 10
739.427535
 20
230.310653
 30
0.0
 11
742.415569
 21
233.298686
 31
0.0
  0
LINE
  8
LC-006-005-----0
  6
CONTINUOUS
  5
E3
 10
764.31164
 20
255.194758
 30
0.0
 11
767.119816
 21
258.002933
 31
0.0
  0
LINE
  8
LC-006-005-----0
  6
CONTINUOUS
  5
E4
 10
709.026285
 20
202.73783
 30
0.0
 11
712.117621
 21
205.829165
 31
0.0
  0
LINE
  8
LC-006-005-----0
  6
CONTINUOUS
  5
E5
 10
721.533723
 20
215.245268
 30
0.0
 11
724.617516
 21
218.32906
 31
0.0
  0
LINE
  8
LC-006-005-----0
  6
CONTINUOUS
  5
E6
 10
736.599108
 20
230.310653
 30
0.0
 11
739.587141
 21
233.298686
 31
0.0
  0
LINE
  8
LC-006-005-----0
  6
CONTINUOUS
  5
E7
 10
764.31164
 20
258.023185
 30
0.0
 11
767.119816
 21
260.83136
 31
0.0
  0
LINE
  8
LC-006-005-----0
  6
CONTINUOUS
  5
E8
 10
709.02629
 20
205.566262
 30
0.0
 11
712.117621
 21
208.657593
 31
0.0
  0
LINE
  8
LC-006-005-----0
  6
CONTINUOUS
  5
E9
 10
721.533723
 20
218.073695
 30
0.0
 11
724.617516
 21
221.157488
 31
0.0
  0
LINE
  8
LC-006-005-----0
  6
CONTINUOUS
  5
EA
 10
733.770681
 20
230.310653
 30
0.0
 11
736.758714
 21
233.298686
 31
0.0
  0
LINE
  8
LC-006-005-----0
  6
CONTINUOUS
  5
EB
 10
764.31164
 20
260.851612
 30
0.0
 11
767.119816
 21
263.659787
 31
0.0
  0
LINE
  8
LC-006-005-----0
  6
CONTINUOUS
  5
EC
 10
709.026296
 20
208.394694
 30
0.0
 11
712.117622
 21
211.486021
 31
0.0
  0
LINE
  8
LC-006-005-----0
  6
CONTINUOUS
  5
ED
 10
721.533723
 20
220.902122
 30
0.0
 11
724.617516
 21
223.985915
 31
0.0
  0
LINE
  8
LC-006-005-----0
  6
CONTINUOUS
  5
EE
 10
730.942254
 20
230.310653
 30
0.0
 11
733.930287
 21
233.298686
 31
0.0
  0
LINE
  8
LC-006-005-----0
  6
CONTINUOUS
  5
EF
 10
764.31164
 20
263.680039
 30
0.0
 11
767.119816
 21
266.488214
 31
0.0
  0
LINE
  8
LC-006-005-----0
  6
CONTINUOUS
  5
F0
 10
709.026301
 20
211.223127
 30
0.0
 11
712.117623
 21
214.314449
 31
0.0
  0
LINE
  8
LC-006-005-----0
  6
CONTINUOUS
  5
F1
 10
721.533723
 20
223.730549
 30
0.0
 11
724.617516
 21
226.814342
 31
0.0
  0
LINE
  8
LC-006-005-----0
  6
CONTINUOUS
  5
F2
 10
728.113826
 20
230.310653
 30
0.0
 11
731.10186
 21
233.298686
 31
0.0
  0
LINE
  8
LC-006-005-----0
  6
CONTINUOUS
  5
F3
 10
764.31164
 20
266.508467
 30
0.0
 11
767.119816
 21
269.316642
 31
0.0
  0
LINE
  8
LC-006-005-----0
  6
CONTINUOUS
  5
F4
 10
709.026306
 20
214.051559
 30
0.0
 11
712.117624
 21
217.142877
 31
0.0
  0
LINE
  8
LC-006-005-----0
  6
CONTINUOUS
  5
F5
 10
721.533723
 20
226.558976
 30
0.0
 11
724.617516
 21
229.642769
 31
0.0
  0
LINE
  8
LC-006-005-----0
  6
CONTINUOUS
  5
F6
 10
725.285399
 20
230.310653
 30
0.0
 11
728.273433
 21
233.298686
 31
0.0
  0
LINE
  8
LC-006-005-----0
  6
CONTINUOUS
  5
F7
 10
764.31164
 20
269.336894
 30
0.0
 11
767.119816
 21
272.145069
 31
0.0
  0
LINE
  8
LC-006-005-----0
  6
CONTINUOUS
  5
F8
 10
834.905147
 20
339.9304
 30
0.0
 11
836.973011
 21
341.998264
 31
0.0
  0
LINE
  8
LC-006-005-----0
  6
CONTINUOUS
  5
F9
 10
709.026311
 20
216.879992
 30
0.0
 11
712.117624
 21
219.971305
 31
0.0
  0
LINE
  8
LC-006-005-----0
  6
CONTINUOUS
  5
FA
 10
721.533723
 20
229.387404
 30
0.0
 11
725.445006
 21
233.298686
 31
0.0
  0
LINE
  8
LC-006-005-----0
  6
CONTINUOUS
  5
FB
 10
764.31164
 20
272.165321
 30
0.0
 11
767.119816
 21
274.973496
 31
0.0
  0
LINE
  8
LC-006-005-----0
  6
CONTINUOUS
  5
FC
 10
831.864067
 20
339.717747
 30
0.0
 11
835.084599
 21
342.938279
 31
0.0
  0
LINE
  8
LC-006-005-----0
  6
CONTINUOUS
  5
FD
 10
709.026317
 20
219.708424
 30
0.0
 11
712.117625
 21
222.799733
 31
0.0
  0
LINE
  8
LC-006-005-----0
  6
CONTINUOUS
  5
FE
 10
719.681413
 20
230.36352
 30
0.0
 11
722.616579
 21
233.298686
 31
0.0
  0
LINE
  8
LC-006-005-----0
  6
CONTINUOUS
  5
FF
 10
764.31164
 20
274.993748
 30
0.0
 11
767.119816
 21
277.801923
 31
0.0
  0
LINE
  8
LC-006-005-----0
  6
CONTINUOUS
  5
100
 10
828.822987
 20
339.505095
 30
0.0
 11
832.043519
 21
342.725626
 31
0.0
  0
LINE
  8
LC-006-005-----0
  6
CONTINUOUS
  5
101
 10
709.026322
 20
222.536856
 30
0.0
 11
712.117626
 21
225.62816
 31
0.0
  0
LINE
  8
LC-006-005-----0
  6
CONTINUOUS
  5
102
 10
717.85582
 20
231.366355
 30
0.0
 11
719.855781
 21
233.366316
 31
0.0
  0
LINE
  8
LC-006-005-----0
  6
CONTINUOUS
  5
103
 10
764.31164
 20
277.822175
 30
0.0
 11
767.119816
 21
280.63035
 31
0.0
  0
LINE
  8
LC-006-005-----0
  6
CONTINUOUS
  5
104
 10
825.781907
 20
339.292442
 30
0.0
 11
829.002439
 21
342.512973
 31
0.0
  0
LINE
  8
LC-006-005-----0
  6
CONTINUOUS
  5
105
 10
709.026327
 20
225.365289
 30
0.0
 11
712.117627
 21
228.456588
 31
0.0
  0
LINE
  8
LC-006-005-----0
  6
CONTINUOUS
  5
106
 10
715.261172
 20
231.600134
 30
0.0
 11
715.783175
 21
232.122137
 31
0.0
  0
LINE
  8
LC-006-005-----0
  6
CONTINUOUS
  5
107
 10
716.567048
 20
232.906009
 30
0.0
 11
718.122305
 21
234.461266
 31
0.0
  0
LINE
  8
LC-006-005-----0
  6
CONTINUOUS
  5
108
 10
764.31164
 20
280.650602
 30
0.0
 11
767.119816
 21
283.458777
 31
0.0
  0
LINE
  8
LC-006-005-----0
  6
CONTINUOUS
  5
109
 10
822.740827
 20
339.079789
 30
0.0
 11
825.961359
 21
342.300321
 31
0.0
  0
LINE
  8
LC-006-005-----0
  6
CONTINUOUS
  5
10A
 10
709.026333
 20
228.193721
 30
0.0
 11
717.499865
 21
236.667254
 31
0.0
  0
LINE
  8
LC-006-005-----0
  6
CONTINUOUS
  5
10B
 10
764.31164
 20
283.479029
 30
0.0
 11
767.119816
 21
286.287204
 31
0.0
  0
LINE
  8
LC-006-005-----0
  6
CONTINUOUS
  5
10C
 10
819.699747
 20
338.867136
 30
0.0
 11
822.920279
 21
342.087668
 31
0.0
  0
LINE
  8
LC-006-005-----0
  6
CONTINUOUS
  5
10D
 10
707.302857
 20
229.298673
 30
0.0
 11
711.069299
 21
233.065115
 31
0.0
  0
LINE
  8
LC-006-005-----0
  6
CONTINUOUS
  5
10E
 10
714.540297
 20
236.536113
 30
0.0
 11
717.499867
 21
239.495683
 31
0.0
  0
LINE
  8
LC-006-005-----0
  6
CONTINUOUS
  5
10F
 10
764.31164
 20
286.307456
 30
0.0
 11
767.119816
 21
289.115631
 31
0.0
  0
LINE
  8
LC-006-005-----0
  6
CONTINUOUS
  5
110
 10
816.658667
 20
338.654483
 30
0.0
 11
819.879199
 21
341.875015
 31
0.0
  0
LINE
  8
LC-006-005-----0
  6
CONTINUOUS
  5
111
 10
707.120037
 20
231.94428
 30
0.0
 11
707.205596
 21
232.029839
 31
0.0
  0
LINE
  8
LC-006-005-----0
  6
CONTINUOUS
  5
112
 10
714.56715
 20
239.391393
 30
0.0
 11
717.499869
 21
242.324112
 31
0.0
  0
LINE
  8
LC-006-005-----0
  6
CONTINUOUS
  5
113
 10
764.31164
 20
289.135884
 30
0.0
 11
767.119816
 21
291.944059
 31
0.0
  0
LINE
  8
LC-006-005-----0
  6
CONTINUOUS
  5
114
 10
813.617588
 20
338.441831
 30
0.0
 11
816.838119
 21
341.662362
 31
0.0
  0
LINE
  8
LC-006-005-----0
  6
CONTINUOUS
  5
115
 10
714.594003
 20
242.246673
 30
0.0
 11
717.499871
 21
245.152541
 31
0.0
  0
LINE
  8
LC-006-005-----0
  6
CONTINUOUS
  5
116
 10
764.31164
 20
291.964311
 30
0.0
 11
767.119816
 21
294.772486
 31
0.0
  0
LINE
  8
LC-006-005-----0
  6
CONTINUOUS
  5
117
 10
810.576508
 20
338.229178
 30
0.0
 11
813.797039
 21
341.449709
 31
0.0
  0
LINE
  8
LC-006-005-----0
  6
CONTINUOUS
  5
118
 10
714.620856
 20
245.101954
 30
0.0
 11
717.499873
 21
247.98097
 31
0.0
  0
LINE
  8
LC-006-005-----0
  6
CONTINUOUS
  5
119
 10
764.31164
 20
294.792738
 30
0.0
 11
767.119816
 21
297.600913
 31
0.0
  0
LINE
  8
LC-006-005-----0
  6
CONTINUOUS
  5
11A
 10
807.535428
 20
338.016525
 30
0.0
 11
810.755959
 21
341.237056
 31
0.0
  0
LINE
  8
LC-006-005-----0
  6
CONTINUOUS
  5
11B
 10
714.64771
 20
247.957234
 30
0.0
 11
717.499875
 21
250.809399
 31
0.0
  0
LINE
  8
LC-006-005-----0
  6
CONTINUOUS
  5
11C
 10
764.31164
 20
297.621165
 30
0.0
 11
767.119816
 21
300.42934
 31
0.0
  0
LINE
  8
LC-006-005-----0
  6
CONTINUOUS
  5
11D
 10
804.494348
 20
337.803872
 30
0.0
 11
807.714879
 21
341.024403
 31
0.0
  0
LINE
  8
LC-006-005-----0
  6
CONTINUOUS
  5
11E
 10
714.674563
 20
250.812514
 30
0.0
 11
717.499877
 21
253.637828
 31
0.0
  0
LINE
  8
LC-006-005-----0
  6
CONTINUOUS
  5
11F
 10
764.31164
 20
300.449592
 30
0.0
 11
767.119816
 21
303.257767
 31
0.0
  0
LINE
  8
LC-006-005-----0
  6
CONTINUOUS
  5
120
 10
800.009181
 20
336.147133
 30
0.0
 11
804.673799
 21
340.811751
 31
0.0
  0
LINE
  8
LC-006-005-----0
  6
CONTINUOUS
  5
121
 10
714.701416
 20
253.667795
 30
0.0
 11
717.499879
 21
256.466257
 31
0.0
  0
LINE
  8
LC-006-005-----0
  6
CONTINUOUS
  5
122
 10
764.31164
 20
303.278019
 30
0.0
 11
770.045915
 21
309.012293
 31
0.0
  0
LINE
  8
LC-006-005-----0
  6
CONTINUOUS
  5
123
 10
796.322387
 20
335.288766
 30
0.0
 11
800.91932
 21
339.885698
 31
0.0
  0
LINE
  8
LC-006-005-----0
  6
CONTINUOUS
  5
124
 10
714.728269
 20
256.523075
 30
0.0
 11
717.499881
 21
259.294686
 31
0.0
  0
LINE
  8
LC-006-005-----0
  6
CONTINUOUS
  5
125
 10
764.31164
 20
306.106446
 30
0.0
 11
776.331356
 21
318.126162
 31
0.0
  0
LINE
  8
LC-006-005-----0
  6
CONTINUOUS
  5
126
 10
793.268074
 20
335.06288
 30
0.0
 11
796.508025
 21
338.302831
 31
0.0
  0
LINE
  8
LC-006-005-----0
  6
CONTINUOUS
  5
127
 10
714.755122
 20
259.378355
 30
0.0
 11
717.499882
 21
262.123115
 31
0.0
  0
LINE
  8
LC-006-005-----0
  6
CONTINUOUS
  5
128
 10
764.859447
 20
309.48268
 30
0.0
 11
772.371822
 21
316.995055
 31
0.0
  0
LINE
  8
LC-006-005-----0
  6
CONTINUOUS
  5
129
 10
773.524744
 20
318.147977
 30
0.0
 11
776.299005
 21
320.922238
 31
0.0
  0
LINE
  8
LC-006-005-----0
  6
CONTINUOUS
  5
12A
 10
790.213762
 20
334.836995
 30
0.0
 11
793.455921
 21
338.079154
 31
0.0
  0
LINE
  8
LC-006-005-----0
  6
CONTINUOUS
  5
12B
 10
714.781976
 20
262.233636
 30
0.0
 11
717.499884
 21
264.951544
 31
0.0
  0
LINE
  8
LC-006-005-----0
  6
CONTINUOUS
  5
12C
 10
763.884278
 20
311.335938
 30
0.0
 11
769.543395
 21
316.995055
 31
0.0
  0
LINE
  8
LC-006-005-----0
  6
CONTINUOUS
  5
12D
 10
773.524744
 20
320.976404
 30
0.0
 11
776.266654
 21
323.718314
 31
0.0
  0
LINE
  8
LC-006-005-----0
  6
CONTINUOUS
  5
12E
 10
778.507495
 20
325.959155
 30
0.0
 11
781.524555
 21
328.976215
 31
0.0
  0
LINE
  8
LC-006-005-----0
  6
CONTINUOUS
  5
12F
 10
787.159449
 20
334.611109
 30
0.0
 11
790.403816
 21
337.855476
 31
0.0
  0
LINE
  8
LC-006-005-----0
  6
CONTINUOUS
  5
130
 10
714.808829
 20
265.088916
 30
0.0
 11
717.499886
 21
267.779973
 31
0.0
  0
LINE
  8
LC-006-005-----0
  6
CONTINUOUS
  5
131
 10
764.129039
 20
314.409126
 30
0.0
 11
766.714967
 21
316.995055
 31
0.0
  0
LINE
  8
LC-006-005-----0
  6
CONTINUOUS
  5
132
 10
773.524744
 20
323.804831
 30
0.0
 11
781.680985
 21
331.961072
 31
0.0
  0
LINE
  8
LC-006-005-----0
  6
CONTINUOUS
  5
133
 10
784.105137
 20
334.385224
 30
0.0
 11
787.351712
 21
337.631799
 31
0.0
  0
LINE
  8
LC-006-005-----0
  6
CONTINUOUS
  5
134
 10
714.835682
 20
267.944196
 30
0.0
 11
717.499888
 21
270.608402
 31
0.0
  0
LINE
  8
LC-006-005-----0
  6
CONTINUOUS
  5
135
 10
773.524744
 20
326.633258
 30
0.0
 11
775.515391
 21
328.623905
 31
0.0
  0
LINE
  8
LC-006-005-----0
  6
CONTINUOUS
  5
136
 10
778.679796
 20
331.78831
 30
0.0
 11
784.299607
 21
337.408122
 31
0.0
  0
LINE
  8
LC-006-005-----0
  6
CONTINUOUS
  5
137
 10
714.862535
 20
270.799476
 30
0.0
 11
717.49989
 21
273.436832
 31
0.0
  0
LINE
  8
LC-006-005-----0
  6
CONTINUOUS
  5
138
 10
773.524744
 20
329.461685
 30
0.0
 11
775.515391
 21
331.452332
 31
0.0
  0
LINE
  8
LC-006-005-----0
  6
CONTINUOUS
  5
139
 10
778.836226
 20
334.773167
 30
0.0
 11
781.247503
 21
337.184444
 31
0.0
  0
LINE
  8
LC-006-005-----0
  6
CONTINUOUS
  5
13A
 10
714.889388
 20
273.654757
 30
0.0
 11
717.499892
 21
276.265261
 31
0.0
  0
LINE
  8
LC-006-005-----0
  6
CONTINUOUS
  5
13B
 10
773.524744
 20
332.290113
 30
0.0
 11
775.515391
 21
334.280759
 31
0.0
  0
LINE
  8
LC-006-005-----0
  6
CONTINUOUS
  5
13C
 10
714.916241
 20
276.510037
 30
0.0
 11
717.499894
 21
279.09369
 31
0.0
  0
LINE
  8
LC-006-005-----0
  6
CONTINUOUS
  5
13D
 10
714.943095
 20
279.365317
 30
0.0
 11
717.499896
 21
281.922119
 31
0.0
  0
LINE
  8
LC-006-005-----0
  6
CONTINUOUS
  5
13E
 10
714.969948
 20
282.220598
 30
0.0
 11
717.499898
 21
284.750548
 31
0.0
  0
LINE
  8
LC-006-005-----0
  6
CONTINUOUS
  5
13F
 10
714.996801
 20
285.075878
 30
0.0
 11
717.4999
 21
287.578977
 31
0.0
  0
LINE
  8
LC-006-005-----0
  6
CONTINUOUS
  5
140
 10
715.023654
 20
287.931158
 30
0.0
 11
717.499902
 21
290.407406
 31
0.0
  0
LINE
  8
LC-006-005-----0
  6
CONTINUOUS
  5
141
 10
715.050507
 20
290.786439
 30
0.0
 11
717.499904
 21
293.235835
 31
0.0
  0
LINE
  8
LC-006-005-----0
  6
CONTINUOUS
  5
142
 10
715.077361
 20
293.641719
 30
0.0
 11
717.499905
 21
296.064264
 31
0.0
  0
LINE
  8
LC-006-005-----0
  6
CONTINUOUS
  5
143
 10
715.104214
 20
296.496999
 30
0.0
 11
717.499907
 21
298.892693
 31
0.0
  0
LINE
  8
LC-006-005-----0
  6
CONTINUOUS
  5
144
 10
714.890889
 20
299.112102
 30
0.0
 11
717.077473
 21
301.298686
 31
0.0
  0
ENDBLK
  8
0
  5
145
  0
BLOCK
  8
0
  5
147
  2
*X3
 70
    65
 10
475.619955
 20
272.897885
 30
0.0
  3
*X3
  0
LINE
  8
LC-006-005-----0
  6
CONTINUOUS
  5
148
 10
503.619955
 20
327.93762
 30
0.0
 11
502.955322
 21
328.602253
 31
0.0
  0
LINE
  8
LC-006-005-----0
  6
CONTINUOUS
  5
149
 10
503.619955
 20
325.109192
 30
0.0
 11
502.119955
 21
326.609192
 31
0.0
  0
LINE
  8
LC-006-005-----0
  6
CONTINUOUS
  5
14A
 10
501.82367
 20
326.905478
 30
0.0
 11
499.091619
 21
329.637529
 31
0.0
  0
LINE
  8
LC-006-005-----0
  6
CONTINUOUS
  5
14B
 10
503.619955
 20
322.280765
 30
0.0
 11
502.119955
 21
323.780765
 31
0.0
  0
LINE
  8
LC-006-005-----0
  6
CONTINUOUS
  5
14C
 10
498.002835
 20
327.897885
 30
0.0
 11
496.002835
 21
329.897885
 31
0.0
  0
LINE
  8
LC-006-005-----0
  6
CONTINUOUS
  5
14D
 10
503.619955
 20
319.452338
 30
0.0
 11
502.119955
 21
320.952338
 31
0.0
  0
LINE
  8
LC-006-005-----0
  6
CONTINUOUS
  5
14E
 10
495.174408
 20
327.897885
 30
0.0
 11
493.174408
 21
329.897885
 31
0.0
  0
LINE
  8
LC-006-005-----0
  6
CONTINUOUS
  5
14F
 10
503.619955
 20
316.623911
 30
0.0
 11
502.119955
 21
318.123911
 31
0.0
  0
LINE
  8
LC-006-005-----0
  6
CONTINUOUS
  5
150
 10
492.345981
 20
327.897885
 30
0.0
 11
490.345981
 21
329.897885
 31
0.0
  0
LINE
  8
LC-006-005-----0
  6
CONTINUOUS
  5
151
 10
503.619955
 20
313.795484
 30
0.0
 11
502.119955
 21
315.295484
 31
0.0
  0
LINE
  8
LC-006-005-----0
  6
CONTINUOUS
  5
152
 10
489.517554
 20
327.897885
 30
0.0
 11
487.517554
 21
329.897885
 31
0.0
  0
LINE
  8
LC-006-005-----0
  6
CONTINUOUS
  5
153
 10
503.619955
 20
310.967057
 30
0.0
 11
502.119955
 21
312.467057
 31
0.0
  0
LINE
  8
LC-006-005-----0
  6
CONTINUOUS
  5
154
 10
486.689127
 20
327.897885
 30
0.0
 11
484.689127
 21
329.897885
 31
0.0
  0
LINE
  8
LC-006-005-----0
  6
CONTINUOUS
  5
155
 10
503.619955
 20
308.13863
 30
0.0
 11
502.119955
 21
309.63863
 31
0.0
  0
LINE
  8
LC-006-005-----0
  6
CONTINUOUS
  5
156
 10
483.8607
 20
327.897885
 30
0.0
 11
481.8607
 21
329.897885
 31
0.0
  0
LINE
  8
LC-006-005-----0
  6
CONTINUOUS
  5
157
 10
477.119955
 20
334.63863
 30
0.0
 11
475.619955
 21
336.13863
 31
0.0
  0
LINE
  8
LC-006-005-----0
  6
CONTINUOUS
  5
158
 10
503.619955
 20
305.310203
 30
0.0
 11
502.119955
 21
306.810203
 31
0.0
  0
LINE
  8
LC-006-005-----0
  6
CONTINUOUS
  5
159
 10
481.032272
 20
327.897885
 30
0.0
 11
479.032272
 21
329.897885
 31
0.0
  0
LINE
  8
LC-006-005-----0
  6
CONTINUOUS
  5
15A
 10
477.119955
 20
331.810203
 30
0.0
 11
475.619955
 21
333.310203
 31
0.0
  0
LINE
  8
LC-006-005-----0
  6
CONTINUOUS
  5
15B
 10
503.619955
 20
302.481775
 30
0.0
 11
502.119955
 21
303.981775
 31
0.0
  0
LINE
  8
LC-006-005-----0
  6
CONTINUOUS
  5
15C
 10
478.203845
 20
327.897885
 30
0.0
 11
475.619955
 21
330.481775
 31
0.0
  0
LINE
  8
LC-006-005-----0
  6
CONTINUOUS
  5
15D
 10
503.619955
 20
299.653348
 30
0.0
 11
502.119955
 21
301.153348
 31
0.0
  0
LINE
  8
LC-006-005-----0
  6
CONTINUOUS
  5
15E
 10
503.619955
 20
296.824921
 30
0.0
 11
502.119955
 21
298.324921
 31
0.0
  0
LINE
  8
LC-006-005-----0
  6
CONTINUOUS
  5
15F
 10
503.619955
 20
293.996494
 30
0.0
 11
502.119955
 21
295.496494
 31
0.0
  0
LINE
  8
LC-006-005-----0
  6
CONTINUOUS
  5
160
 10
503.619955
 20
291.168067
 30
0.0
 11
502.119955
 21
292.668067
 31
0.0
  0
LINE
  8
LC-006-005-----0
  6
CONTINUOUS
  5
161
 10
503.619955
 20
288.33964
 30
0.0
 11
502.119955
 21
289.83964
 31
0.0
  0
LINE
  8
LC-006-005-----0
  6
CONTINUOUS
  5
162
 10
503.619955
 20
285.511213
 30
0.0
 11
502.119955
 21
287.011213
 31
0.0
  0
LINE
  8
LC-006-005-----0
  6
CONTINUOUS
  5
163
 10
503.619955
 20
282.682786
 30
0.0
 11
502.119955
 21
284.182786
 31
0.0
  0
LINE
  8
LC-006-005-----0
  6
CONTINUOUS
  5
164
 10
502.42334
 20
281.050974
 30
0.0
 11
500.84599
 21
282.628324
 31
0.0
  0
LINE
  8
LC-006-005-----0
  6
CONTINUOUS
  5
165
 10
500.19263
 20
280.453257
 30
0.0
 11
498.615279
 21
282.030607
 31
0.0
  0
LINE
  8
LC-006-005-----0
  6
CONTINUOUS
  5
166
 10
497.919574
 20
279.897885
 30
0.0
 11
495.919574
 21
281.897885
 31
0.0
  0
LINE
  8
LC-006-005-----0
  6
CONTINUOUS
  5
167
 10
495.091147
 20
279.897885
 30
0.0
 11
493.091147
 21
281.897885
 31
0.0
  0
LINE
  8
LC-006-005-----0
  6
CONTINUOUS
  5
168
 10
492.26272
 20
279.897885
 30
0.0
 11
490.26272
 21
281.897885
 31
0.0
  0
LINE
  8
LC-006-005-----0
  6
CONTINUOUS
  5
169
 10
489.434293
 20
279.897885
 30
0.0
 11
487.434293
 21
281.897885
 31
0.0
  0
LINE
  8
LC-006-005-----0
  6
CONTINUOUS
  5
16A
 10
486.605866
 20
279.897885
 30
0.0
 11
484.605866
 21
281.897885
 31
0.0
  0
LINE
  8
LC-006-005-----0
  6
CONTINUOUS
  5
16B
 10
483.777438
 20
279.897885
 30
0.0
 11
481.777438
 21
281.897885
 31
0.0
  0
LINE
  8
LC-006-005-----0
  6
CONTINUOUS
  5
16C
 10
480.949011
 20
279.897885
 30
0.0
 11
478.949011
 21
281.897885
 31
0.0
  0
LINE
  8
LC-006-005-----0
  6
CONTINUOUS
  5
16D
 10
478.120584
 20
279.897885
 30
0.0
 11
476.120584
 21
281.897885
 31
0.0
  0
LINE
  8
LC-006-005-----0
  6
CONTINUOUS
  5
16E
 10
477.119955
 20
278.070087
 30
0.0
 11
475.619955
 21
279.570087
 31
0.0
  0
LINE
  8
LC-006-005-----0
  6
CONTINUOUS
  5
16F
 10
477.119955
 20
275.24166
 30
0.0
 11
475.619955
 21
276.74166
 31
0.0
  0
LINE
  8
LC-006-005-----0
  6
CONTINUOUS
  5
170
 10
476.635303
 20
272.897885
 30
0.0
 11
475.619955
 21
273.913233
 31
0.0
  0
ENDBLK
  8
0
  5
171
  0
BLOCK
  8
0
  5
173
  2
*X4
 70
    65
 10
542.333943
 20
263.953064
 30
0.0
  3
*X4
  0
LINE
  8
LC-006-005-----0
  6
CONTINUOUS
  5
174
 10
544.192843
 20
264.178557
 30
0.0
 11
548.10845
 21
268.094165
 31
0.0
  0
LINE
  8
LC-006-005-----0
  6
CONTINUOUS
  5
175
 10
542.701001
 20
265.515143
 30
0.0
 11
546.771864
 21
269.586006
 31
0.0
  0
LINE
  8
LC-006-005-----0
  6
CONTINUOUS
  5
176
 10
542.649192
 20
268.291761
 30
0.0
 11
543.995247
 21
269.637816
 31
0.0
  0
ENDBLK
  8
0
  5
177
  0
BLOCK
  8
0
  5
179
  2
*X5
 70
    65
 10
591.905967
 20
263.953064
 30
0.0
  3
*X5
  0
LINE
  8
LC-006-005-----0
  6
CONTINUOUS
  5
17A
 10
594.879158
 20
263.953184
 30
0.0
 11
597.905847
 21
266.979873
 31
0.0
  0
LINE
  8
LC-006-005-----0
  6
CONTINUOUS
  5
17B
 10
592.858202
 20
264.760655
 30
0.0
 11
597.098376
 21
269.000829
 31
0.0
  0
LINE
  8
LC-006-005-----0
  6
CONTINUOUS
  5
17C
 10
591.921112
 20
266.651993
 30
0.0
 11
595.207038
 21
269.937919
 31
0.0
  0
ENDBLK
  8
0
  5
17D
  0
BLOCK
  8
0
  5
17F
  2
*X6
 70
    65
 10
477.119955
 20
227.647885
 30
0.0
  3
*X6
  0
LINE
  8
LC-006-005-----0
  6
CONTINUOUS
  5
180
 10
591.187402
 20
257.433001
 30
0.0
 11
592.39592
 21
258.641519
 31
0.0
  0
LINE
  8
LC-006-005-----0
  6
CONTINUOUS
  5
181
 10
590.119955
 20
259.193982
 30
0.0
 11
594.33494
 21
263.408966
 31
0.0
  0
LINE
  8
LC-006-005-----0
  6
CONTINUOUS
  5
182
 10
590.119955
 20
262.022409
 30
0.0
 11
592.419955
 21
264.322409
 31
0.0
  0
LINE
  8
LC-006-005-----0
  6
CONTINUOUS
  5
183
 10
590.119955
 20
264.850836
 30
0.0
 11
592.419955
 21
267.150836
 31
0.0
  0
LINE
  8
LC-006-005-----0
  6
CONTINUOUS
  5
184
 10
595.678153
 20
270.409034
 30
0.0
 11
597.069955
 21
271.800836
 31
0.0
  0
LINE
  8
LC-006-005-----0
  6
CONTINUOUS
  5
185
 10
590.119955
 20
267.679263
 30
0.0
 11
595.349726
 21
272.909034
 31
0.0
  0
LINE
  8
LC-006-005-----0
  6
CONTINUOUS
  5
186
 10
590.119955
 20
270.50769
 30
0.0
 11
592.911178
 21
273.298913
 31
0.0
  0
LINE
  8
LC-006-005-----0
  6
CONTINUOUS
  5
187
 10
596.81015
 20
277.197885
 30
0.0
 11
599.219955
 21
279.60769
 31
0.0
  0
LINE
  8
LC-006-005-----0
  6
CONTINUOUS
  5
188
 10
590.119955
 20
273.336117
 30
0.0
 11
592.419955
 21
275.636117
 31
0.0
  0
LINE
  8
LC-006-005-----0
  6
CONTINUOUS
  5
189
 10
593.981723
 20
277.197885
 30
0.0
 11
596.481723
 21
279.697885
 31
0.0
  0
LINE
  8
LC-006-005-----0
  6
CONTINUOUS
  5
18A
 10
590.119955
 20
276.164544
 30
0.0
 11
593.653296
 21
279.697885
 31
0.0
  0
LINE
  8
LC-006-005-----0
  6
CONTINUOUS
  5
18B
 10
590.119955
 20
278.992971
 30
0.0
 11
592.550473
 21
281.423489
 31
0.0
  0
LINE
  8
LC-006-005-----0
  6
CONTINUOUS
  5
18C
 10
590.092841
 20
281.794285
 30
0.0
 11
592.415709
 21
284.117152
 31
0.0
  0
LINE
  8
LC-006-005-----0
  6
CONTINUOUS
  5
18D
 10
589.933383
 20
284.463254
 30
0.0
 11
592.157141
 21
286.687011
 31
0.0
  0
LINE
  8
LC-006-005-----0
  6
CONTINUOUS
  5
18E
 10
589.647423
 20
287.005721
 30
0.0
 11
591.788909
 21
289.147207
 31
0.0
  0
LINE
  8
LC-006-005-----0
  6
CONTINUOUS
  5
18F
 10
589.249625
 20
289.436349
 30
0.0
 11
591.322007
 21
291.508732
 31
0.0
  0
LINE
  8
LC-006-005-----0
  6
CONTINUOUS
  5
190
 10
588.75131
 20
291.766462
 30
0.0
 11
590.765154
 21
293.780306
 31
0.0
  0
LINE
  8
LC-006-005-----0
  6
CONTINUOUS
  5
191
 10
588.161404
 20
294.004983
 30
0.0
 11
590.125375
 21
295.968954
 31
0.0
  0
LINE
  8
LC-006-005-----0
  6
CONTINUOUS
  5
192
 10
548.822019
 20
257.494025
 30
0.0
 11
550.119955
 21
258.791961
 31
0.0
  0
LINE
  8
LC-006-005-----0
  6
CONTINUOUS
  5
193
 10
587.487056
 20
296.159062
 30
0.0
 11
589.408396
 21
298.080402
 31
0.0
  0
LINE
  8
LC-006-005-----0
  6
CONTINUOUS
  5
194
 10
547.819955
 20
259.320388
 30
0.0
 11
550.119955
 21
261.620388
 31
0.0
  0
LINE
  8
LC-006-005-----0
  6
CONTINUOUS
  5
195
 10
586.734059
 20
298.234492
 30
0.0
 11
588.618933
 21
300.119366
 31
0.0
  0
LINE
  8
LC-006-005-----0
  6
CONTINUOUS
  5
196
 10
546.580106
 20
260.908966
 30
0.0
 11
550.119955
 21
264.448816
 31
0.0
  0
LINE
  8
LC-006-005-----0
  6
CONTINUOUS
  5
197
 10
585.90715
 20
300.23601
 30
0.0
 11
587.760885
 21
302.089746
 31
0.0
  0
LINE
  8
LC-006-005-----0
  6
CONTINUOUS
  5
198
 10
545.119955
 20
262.277243
 30
0.0
 11
546.251679
 21
263.408966
 31
0.0
  0
LINE
  8
LC-006-005-----0
  6
CONTINUOUS
  5
199
 10
547.819955
 20
264.977243
 30
0.0
 11
550.119955
 21
267.277243
 31
0.0
  0
LINE
  8
LC-006-005-----0
  6
CONTINUOUS
  5
19A
 10
585.010223
 20
302.16751
 30
0.0
 11
586.837496
 21
303.994784
 31
0.0
  0
LINE
  8
LC-006-005-----0
  6
CONTINUOUS
  5
19B
 10
547.819955
 20
267.80567
 30
0.0
 11
550.119955
 21
270.10567
 31
0.0
  0
LINE
  8
LC-006-005-----0
  6
CONTINUOUS
  5
19C
 10
584.046481
 20
304.032196
 30
0.0
 11
585.851457
 21
305.837171
 31
0.0
  0
LINE
  8
LC-006-005-----0
  6
CONTINUOUS
  5
19D
 10
547.207424
 20
270.021565
 30
0.0
 11
550.119955
 21
272.934097
 31
0.0
  0
LINE
  8
LC-006-005-----0
  6
CONTINUOUS
  5
19E
 10
583.018559
 20
305.832701
 30
0.0
 11
584.804996
 21
307.619138
 31
0.0
  0
LINE
  8
LC-006-005-----0
  6
CONTINUOUS
  5
19F
 10
544.766465
 20
270.409034
 30
0.0
 11
550.119955
 21
275.762524
 31
0.0
  0
LINE
  8
LC-006-005-----0
  6
CONTINUOUS
  5
1A0
 10
581.928605
 20
307.571174
 30
0.0
 11
583.699945
 21
309.342514
 31
0.0
  0
LINE
  8
LC-006-005-----0
  6
CONTINUOUS
  5
1A1
 10
543.169955
 20
271.640951
 30
0.0
 11
544.438038
 21
272.909034
 31
0.0
  0
LINE
  8
LC-006-005-----0
  6
CONTINUOUS
  5
1A2
 10
547.815979
 20
276.286975
 30
0.0
 11
549.974835
 21
278.445831
 31
0.0
  0
LINE
  8
LC-006-005-----0
  6
CONTINUOUS
  5
1A3
 10
580.778349
 20
309.249345
 30
0.0
 11
582.537787
 21
311.008783
 31
0.0
  0
LINE
  8
LC-006-005-----0
  6
CONTINUOUS
  5
1A4
 10
545.898462
 20
277.197885
 30
0.0
 11
548.381312
 21
279.680735
 31
0.0
  0
LINE
  8
LC-006-005-----0
  6
CONTINUOUS
  5
1A5
 10
579.569153
 20
310.868576
 30
0.0
 11
581.319691
 21
312.619114
 31
0.0
  0
LINE
  8
LC-006-005-----0
  6
CONTINUOUS
  5
1A6
 10
543.070035
 20
277.197885
 30
0.0
 11
545.520035
 21
279.647885
 31
0.0
  0
LINE
  8
LC-006-005-----0
  6
CONTINUOUS
  5
1A7
 10
578.302044
 20
312.429894
 30
0.0
 11
580.046548
 21
314.174398
 31
0.0
  0
LINE
  8
LC-006-005-----0
  6
CONTINUOUS
  5
1A8
 10
540.241608
 20
277.197885
 30
0.0
 11
542.691608
 21
279.647885
 31
0.0
  0
LINE
  8
LC-006-005-----0
  6
CONTINUOUS
  5
1A9
 10
576.977747
 20
313.934024
 30
0.0
 11
578.718985
 21
315.675263
 31
0.0
  0
LINE
  8
LC-006-005-----0
  6
CONTINUOUS
  5
1AA
 10
537.413181
 20
277.197885
 30
0.0
 11
539.863181
 21
279.647885
 31
0.0
  0
LINE
  8
LC-006-005-----0
  6
CONTINUOUS
  5
1AB
 10
575.596698
 20
315.381402
 30
0.0
 11
577.337385
 21
317.12209
 31
0.0
  0
LINE
  8
LC-006-005-----0
  6
CONTINUOUS
  5
1AC
 10
534.584754
 20
277.197885
 30
0.0
 11
537.034754
 21
279.647885
 31
0.0
  0
LINE
  8
LC-006-005-----0
  6
CONTINUOUS
  5
1AD
 10
574.159057
 20
316.772188
 30
0.0
 11
575.901889
 21
318.515021
 31
0.0
  0
LINE
  8
LC-006-005-----0
  6
CONTINUOUS
  5
1AE
 10
531.756326
 20
277.197885
 30
0.0
 11
534.206326
 21
279.647885
 31
0.0
  0
LINE
  8
LC-006-005-----0
  6
CONTINUOUS
  5
1AF
 10
572.66471
 20
318.106269
 30
0.0
 11
574.412404
 21
319.853963
 31
0.0
  0
LINE
  8
LC-006-005-----0
  6
CONTINUOUS
  5
1B0
 10
528.927899
 20
277.197885
 30
0.0
 11
531.377899
 21
279.647885
 31
0.0
  0
LINE
  8
LC-006-005-----0
  6
CONTINUOUS
  5
1B1
 10
571.113271
 20
319.383257
 30
0.0
 11
572.8686
 21
321.138586
 31
0.0
  0
LINE
  8
LC-006-005-----0
  6
CONTINUOUS
  5
1B2
 10
526.099472
 20
277.197885
 30
0.0
 11
528.549472
 21
279.647885
 31
0.0
  0
LINE
  8
LC-006-005-----0
  6
CONTINUOUS
  5
1B3
 10
569.504065
 20
320.602478
 30
0.0
 11
571.269902
 21
322.368315
 31
0.0
  0
LINE
  8
LC-006-005-----0
  6
CONTINUOUS
  5
1B4
 10
523.271045
 20
277.197885
 30
0.0
 11
525.721045
 21
279.647885
 31
0.0
  0
LINE
  8
LC-006-005-----0
  6
CONTINUOUS
  5
1B5
 10
567.836118
 20
321.762958
 30
0.0
 11
569.615477
 21
323.542317
 31
0.0
  0
LINE
  8
LC-006-005-----0
  6
CONTINUOUS
  5
1B6
 10
520.442618
 20
277.197885
 30
0.0
 11
522.892618
 21
279.647885
 31
0.0
  0
LINE
  8
LC-006-005-----0
  6
CONTINUOUS
  5
1B7
 10
566.108129
 20
322.863396
 30
0.0
 11
567.904215
 21
324.659482
 31
0.0
  0
LINE
  8
LC-006-005-----0
  6
CONTINUOUS
  5
1B8
 10
517.614191
 20
277.197885
 30
0.0
 11
520.064191
 21
279.647885
 31
0.0
  0
LINE
  8
LC-006-005-----0
  6
CONTINUOUS
  5
1B9
 10
564.318433
 20
323.902127
 30
0.0
 11
566.134701
 21
325.718395
 31
0.0
  0
LINE
  8
LC-006-005-----0
  6
CONTINUOUS
  5
1BA
 10
514.785764
 20
277.197885
 30
0.0
 11
517.235764
 21
279.647885
 31
0.0
  0
LINE
  8
LC-006-005-----0
  6
CONTINUOUS
  5
1BB
 10
562.464958
 20
324.87708
 30
0.0
 11
564.305182
 21
326.717303
 31
0.0
  0
LINE
  8
LC-006-005-----0
  6
CONTINUOUS
  5
1BC
 10
511.957337
 20
277.197885
 30
0.0
 11
514.407337
 21
279.647885
 31
0.0
  0
LINE
  8
LC-006-005-----0
  6
CONTINUOUS
  5
1BD
 10
560.545161
 20
325.785709
 30
0.0
 11
562.413517
 21
327.654066
 31
0.0
  0
LINE
  8
LC-006-005-----0
  6
CONTINUOUS
  5
1BE
 10
509.128909
 20
277.197885
 30
0.0
 11
511.578909
 21
279.647885
 31
0.0
  0
LINE
  8
LC-006-005-----0
  6
CONTINUOUS
  5
1BF
 10
558.555941
 20
326.624916
 30
0.0
 11
560.457119
 21
328.526095
 31
0.0
  0
LINE
  8
LC-006-005-----0
  6
CONTINUOUS
  5
1C0
 10
506.300482
 20
277.197885
 30
0.0
 11
508.750482
 21
279.647885
 31
0.0
  0
LINE
  8
LC-006-005-----0
  6
CONTINUOUS
  5
1C1
 10
556.493534
 20
327.390937
 30
0.0
 11
558.432869
 21
329.330271
 31
0.0
  0
LINE
  8
LC-006-005-----0
  6
CONTINUOUS
  5
1C2
 10
503.472055
 20
277.197885
 30
0.0
 11
505.922055
 21
279.647885
 31
0.0
  0
LINE
  8
LC-006-005-----0
  6
CONTINUOUS
  5
1C3
 10
554.353362
 20
328.079192
 30
0.0
 11
556.337015
 21
330.062845
 31
0.0
  0
LINE
  8
LC-006-005-----0
  6
CONTINUOUS
  5
1C4
 10
500.643628
 20
277.197885
 30
0.0
 11
503.093628
 21
279.647885
 31
0.0
  0
LINE
  8
LC-006-005-----0
  6
CONTINUOUS
  5
1C5
 10
552.12983
 20
328.684087
 30
0.0
 11
554.165029
 21
330.719286
 31
0.0
  0
LINE
  8
LC-006-005-----0
  6
CONTINUOUS
  5
1C6
 10
493.015201
 20
272.397885
 30
0.0
 11
495.619955
 21
275.002639
 31
0.0
  0
LINE
  8
LC-006-005-----0
  6
CONTINUOUS
  5
1C7
 10
497.815201
 20
277.197885
 30
0.0
 11
500.265201
 21
279.647885
 31
0.0
  0
LINE
  8
LC-006-005-----0
  6
CONTINUOUS
  5
1C8
 10
549.81605
 20
329.198734
 30
0.0
 11
551.911417
 21
331.294101
 31
0.0
  0
LINE
  8
LC-006-005-----0
  6
CONTINUOUS
  5
1C9
 10
490.186774
 20
272.397885
 30
0.0
 11
492.686774
 21
274.897885
 31
0.0
  0
LINE
  8
LC-006-005-----0
  6
CONTINUOUS
  5
1CA
 10
493.619955
 20
275.831067
 30
0.0
 11
497.436774
 21
279.647885
 31
0.0
  0
LINE
  8
LC-006-005-----0
  6
CONTINUOUS
  5
1CB
 10
547.403438
 20
329.61455
 30
0.0
 11
549.569455
 21
331.780567
 31
0.0
  0
LINE
  8
LC-006-005-----0
  6
CONTINUOUS
  5
1CC
 10
487.358347
 20
272.397885
 30
0.0
 11
489.858347
 21
274.897885
 31
0.0
  0
LINE
  8
LC-006-005-----0
  6
CONTINUOUS
  5
1CD
 10
493.619955
 20
278.659494
 30
0.0
 11
494.608347
 21
279.647885
 31
0.0
  0
LINE
  8
LC-006-005-----0
  6
CONTINUOUS
  5
1CE
 10
544.881142
 20
329.92068
 30
0.0
 11
547.130822
 21
332.17036
 31
0.0
  0
LINE
  8
LC-006-005-----0
  6
CONTINUOUS
  5
1CF
 10
484.533651
 20
272.401616
 30
0.0
 11
487.02992
 21
274.897885
 31
0.0
  0
LINE
  8
LC-006-005-----0
  6
CONTINUOUS
  5
1D0
 10
542.235159
 20
330.103124
 30
0.0
 11
544.585061
 21
332.453027
 31
0.0
  0
LINE
  8
LC-006-005-----0
  6
CONTINUOUS
  5
1D1
 10
483.619955
 20
274.316348
 30
0.0
 11
485.135724
 21
275.832117
 31
0.0
  0
LINE
  8
LC-006-005-----0
  6
CONTINUOUS
  5
1D2
 10
539.451492
 20
330.147885
 30
0.0
 11
541.918788
 21
332.615181
 31
0.0
  0
LINE
  8
LC-006-005-----0
  6
CONTINUOUS
  5
1D3
 10
482.37151
 20
275.89633
 30
0.0
 11
483.72151
 21
277.24633
 31
0.0
  0
LINE
  8
LC-006-005-----0
  6
CONTINUOUS
  5
1D4
 10
536.623065
 20
330.147885
 30
0.0
 11
539.123065
 21
332.647885
 31
0.0
  0
LINE
  8
LC-006-005-----0
  6
CONTINUOUS
  5
1D5
 10
480.794638
 20
277.147885
 30
0.0
 11
482.307297
 21
278.660544
 31
0.0
  0
LINE
  8
LC-006-005-----0
  6
CONTINUOUS
  5
1D6
 10
533.794638
 20
330.147885
 30
0.0
 11
536.294638
 21
332.647885
 31
0.0
  0
LINE
  8
LC-006-005-----0
  6
CONTINUOUS
  5
1D7
 10
477.966211
 20
277.147885
 30
0.0
 11
480.466211
 21
279.647885
 31
0.0
  0
LINE
  8
LC-006-005-----0
  6
CONTINUOUS
  5
1D8
 10
530.966211
 20
330.147885
 30
0.0
 11
533.466211
 21
332.647885
 31
0.0
  0
LINE
  8
LC-006-005-----0
  6
CONTINUOUS
  5
1D9
 10
477.119955
 20
279.130056
 30
0.0
 11
477.637784
 21
279.647885
 31
0.0
  0
LINE
  8
LC-006-005-----0
  6
CONTINUOUS
  5
1DA
 10
528.137784
 20
330.147885
 30
0.0
 11
530.637784
 21
332.647885
 31
0.0
  0
LINE
  8
LC-006-005-----0
  6
CONTINUOUS
  5
1DB
 10
525.309357
 20
330.147885
 30
0.0
 11
527.809357
 21
332.647885
 31
0.0
  0
LINE
  8
LC-006-005-----0
  6
CONTINUOUS
  5
1DC
 10
522.48093
 20
330.147885
 30
0.0
 11
524.98093
 21
332.647885
 31
0.0
  0
LINE
  8
LC-006-005-----0
  6
CONTINUOUS
  5
1DD
 10
519.652503
 20
330.147885
 30
0.0
 11
522.152503
 21
332.647885
 31
0.0
  0
LINE
  8
LC-006-005-----0
  6
CONTINUOUS
  5
1DE
 10
516.824075
 20
330.147885
 30
0.0
 11
519.324075
 21
332.647885
 31
0.0
  0
LINE
  8
LC-006-005-----0
  6
CONTINUOUS
  5
1DF
 10
513.995648
 20
330.147885
 30
0.0
 11
516.495648
 21
332.647885
 31
0.0
  0
LINE
  8
LC-006-005-----0
  6
CONTINUOUS
  5
1E0
 10
511.167221
 20
330.147885
 30
0.0
 11
513.667221
 21
332.647885
 31
0.0
  0
LINE
  8
LC-006-005-----0
  6
CONTINUOUS
  5
1E1
 10
508.338794
 20
330.147885
 30
0.0
 11
510.838794
 21
332.647885
 31
0.0
  0
LINE
  8
LC-006-005-----0
  6
CONTINUOUS
  5
1E2
 10
505.510367
 20
330.147885
 30
0.0
 11
508.010367
 21
332.647885
 31
0.0
  0
LINE
  8
LC-006-005-----0
  6
CONTINUOUS
  5
1E3
 10
502.68194
 20
330.147885
 30
0.0
 11
505.18194
 21
332.647885
 31
0.0
  0
LINE
  8
LC-006-005-----0
  6
CONTINUOUS
  5
1E4
 10
499.853513
 20
330.147885
 30
0.0
 11
502.353513
 21
332.647885
 31
0.0
  0
LINE
  8
LC-006-005-----0
  6
CONTINUOUS
  5
1E5
 10
497.025086
 20
330.147885
 30
0.0
 11
499.525086
 21
332.647885
 31
0.0
  0
LINE
  8
LC-006-005-----0
  6
CONTINUOUS
  5
1E6
 10
494.196658
 20
330.147885
 30
0.0
 11
496.696658
 21
332.647885
 31
0.0
  0
LINE
  8
LC-006-005-----0
  6
CONTINUOUS
  5
1E7
 10
493.619955
 20
332.399609
 30
0.0
 11
495.619955
 21
334.399609
 31
0.0
  0
LINE
  8
LC-006-005-----0
  6
CONTINUOUS
  5
1E8
 10
493.26753
 20
334.875611
 30
0.0
 11
495.406868
 21
337.014949
 31
0.0
  0
LINE
  8
LC-006-005-----0
  6
CONTINUOUS
  5
1E9
 10
490.461377
 20
334.897885
 30
0.0
 11
492.961377
 21
337.397885
 31
0.0
  0
LINE
  8
LC-006-005-----0
  6
CONTINUOUS
  5
1EA
 10
487.63295
 20
334.897885
 30
0.0
 11
490.13295
 21
337.397885
 31
0.0
  0
LINE
  8
LC-006-005-----0
  6
CONTINUOUS
  5
1EB
 10
480.054523
 20
330.147885
 30
0.0
 11
487.304523
 21
337.397885
 31
0.0
  0
LINE
  8
LC-006-005-----0
  6
CONTINUOUS
  5
1EC
 10
477.226096
 20
330.147885
 30
0.0
 11
479.726096
 21
332.647885
 31
0.0
  0
LINE
  8
LC-006-005-----0
  6
CONTINUOUS
  5
1ED
 10
483.632217
 20
336.554007
 30
0.0
 11
484.463834
 21
337.385623
 31
0.0
  0
ENDBLK
  8
0
  5
1EE
  0
BLOCK
  8
0
  5
1F0
  2
*X7
 70
    65
 10
540.6654
 20
231.810879
 30
0.0
  3
*X7
  0
LINE
  8
LC-006-005-----0
  6
CONTINUOUS
  5
1F1
 10
605.195904
 20
231.843524
 30
0.0
 11
607.449309
 21
234.096928
 31
0.0
  0
LINE
  8
LC-006-005-----0
  6
CONTINUOUS
  5
1F2
 10
604.096859
 20
233.572905
 30
0.0
 11
606.354017
 21
235.830064
 31
0.0
  0
LINE
  8
LC-006-005-----0
  6
CONTINUOUS
  5
1F3
 10
601.506368
 20
233.810842
 30
0.0
 11
604.506313
 21
236.810786
 31
0.0
  0
LINE
  8
LC-006-005-----0
  6
CONTINUOUS
  5
1F4
 10
598.677941
 20
233.810842
 30
0.0
 11
601.677885
 21
236.810786
 31
0.0
  0
LINE
  8
LC-006-005-----0
  6
CONTINUOUS
  5
1F5
 10
595.849514
 20
233.810842
 30
0.0
 11
598.849458
 21
236.810786
 31
0.0
  0
LINE
  8
LC-006-005-----0
  6
CONTINUOUS
  5
1F6
 10
593.021087
 20
233.810842
 30
0.0
 11
596.021031
 21
236.810786
 31
0.0
  0
LINE
  8
LC-006-005-----0
  6
CONTINUOUS
  5
1F7
 10
590.19266
 20
233.810842
 30
0.0
 11
593.192604
 21
236.810786
 31
0.0
  0
LINE
  8
LC-006-005-----0
  6
CONTINUOUS
  5
1F8
 10
587.364233
 20
233.810842
 30
0.0
 11
590.364177
 21
236.810786
 31
0.0
  0
LINE
  8
LC-006-005-----0
  6
CONTINUOUS
  5
1F9
 10
584.535806
 20
233.810842
 30
0.0
 11
587.53575
 21
236.810786
 31
0.0
  0
LINE
  8
LC-006-005-----0
  6
CONTINUOUS
  5
1FA
 10
581.707379
 20
233.810842
 30
0.0
 11
584.707323
 21
236.810786
 31
0.0
  0
LINE
  8
LC-006-005-----0
  6
CONTINUOUS
  5
1FB
 10
578.878951
 20
233.810842
 30
0.0
 11
581.878896
 21
236.810786
 31
0.0
  0
LINE
  8
LC-006-005-----0
  6
CONTINUOUS
  5
1FC
 10
576.050524
 20
233.810842
 30
0.0
 11
579.050468
 21
236.810786
 31
0.0
  0
LINE
  8
LC-006-005-----0
  6
CONTINUOUS
  5
1FD
 10
573.222097
 20
233.810842
 30
0.0
 11
576.222041
 21
236.810786
 31
0.0
  0
LINE
  8
LC-006-005-----0
  6
CONTINUOUS
  5
1FE
 10
570.39367
 20
233.810842
 30
0.0
 11
573.393614
 21
236.810786
 31
0.0
  0
LINE
  8
LC-006-005-----0
  6
CONTINUOUS
  5
1FF
 10
594.763996
 20
258.181168
 30
0.0
 11
594.779499
 21
258.196671
 31
0.0
  0
LINE
  8
LC-006-005-----0
  6
CONTINUOUS
  5
200
 10
567.565243
 20
233.810842
 30
0.0
 11
570.565187
 21
236.810786
 31
0.0
  0
LINE
  8
LC-006-005-----0
  6
CONTINUOUS
  5
201
 10
591.935569
 20
258.181168
 30
0.0
 11
591.949292
 21
258.194892
 31
0.0
  0
LINE
  8
LC-006-005-----0
  6
CONTINUOUS
  5
202
 10
564.736816
 20
233.810842
 30
0.0
 11
567.73676
 21
236.810786
 31
0.0
  0
LINE
  8
LC-006-005-----0
  6
CONTINUOUS
  5
203
 10
589.107142
 20
258.181168
 30
0.0
 11
589.119086
 21
258.193112
 31
0.0
  0
LINE
  8
LC-006-005-----0
  6
CONTINUOUS
  5
204
 10
561.908389
 20
233.810842
 30
0.0
 11
564.908333
 21
236.810786
 31
0.0
  0
LINE
  8
LC-006-005-----0
  6
CONTINUOUS
  5
205
 10
586.278715
 20
258.181168
 30
0.0
 11
586.28888
 21
258.191333
 31
0.0
  0
LINE
  8
LC-006-005-----0
  6
CONTINUOUS
  5
206
 10
559.079962
 20
233.810842
 30
0.0
 11
562.079906
 21
236.810786
 31
0.0
  0
LINE
  8
LC-006-005-----0
  6
CONTINUOUS
  5
207
 10
583.450287
 20
258.181168
 30
0.0
 11
583.458673
 21
258.189554
 31
0.0
  0
LINE
  8
LC-006-005-----0
  6
CONTINUOUS
  5
208
 10
556.251534
 20
233.810842
 30
0.0
 11
559.251479
 21
236.810786
 31
0.0
  0
LINE
  8
LC-006-005-----0
  6
CONTINUOUS
  5
209
 10
580.62186
 20
258.181168
 30
0.0
 11
580.628467
 21
258.187775
 31
0.0
  0
LINE
  8
LC-006-005-----0
  6
CONTINUOUS
  5
20A
 10
553.454783
 20
233.842518
 30
0.0
 11
556.423051
 21
236.810786
 31
0.0
  0
LINE
  8
LC-006-005-----0
  6
CONTINUOUS
  5
20B
 10
577.793433
 20
258.181168
 30
0.0
 11
577.79826
 21
258.185995
 31
0.0
  0
LINE
  8
LC-006-005-----0
  6
CONTINUOUS
  5
20C
 10
551.222496
 20
234.438658
 30
0.0
 11
553.778058
 21
236.99422
 31
0.0
  0
LINE
  8
LC-006-005-----0
  6
CONTINUOUS
  5
20D
 10
574.965006
 20
258.181168
 30
0.0
 11
574.968054
 21
258.184216
 31
0.0
  0
LINE
  8
LC-006-005-----0
  6
CONTINUOUS
  5
20E
 10
549.503916
 20
235.548506
 30
0.0
 11
551.922339
 21
237.966928
 31
0.0
  0
LINE
  8
LC-006-005-----0
  6
CONTINUOUS
  5
20F
 10
572.136579
 20
258.181168
 30
0.0
 11
572.137848
 21
258.182437
 31
0.0
  0
LINE
  8
LC-006-005-----0
  6
CONTINUOUS
  5
210
 10
548.200891
 20
237.073907
 30
0.0
 11
550.6659
 21
239.538916
 31
0.0
  0
LINE
  8
LC-006-005-----0
  6
CONTINUOUS
  5
211
 10
547.345768
 20
239.047212
 30
0.0
 11
550.119955
 21
241.821399
 31
0.0
  0
LINE
  8
LC-006-005-----0
  6
CONTINUOUS
  5
212
 10
547.119955
 20
241.649826
 30
0.0
 11
550.119955
 21
244.649826
 31
0.0
  0
LINE
  8
LC-006-005-----0
  6
CONTINUOUS
  5
213
 10
547.119955
 20
244.478253
 30
0.0
 11
550.119955
 21
247.478253
 31
0.0
  0
LINE
  8
LC-006-005-----0
  6
CONTINUOUS
  5
214
 10
547.119955
 20
247.30668
 30
0.0
 11
550.119955
 21
250.30668
 31
0.0
  0
LINE
  8
LC-006-005-----0
  6
CONTINUOUS
  5
215
 10
547.119955
 20
250.135107
 30
0.0
 11
550.119955
 21
253.135107
 31
0.0
  0
LINE
  8
LC-006-005-----0
  6
CONTINUOUS
  5
216
 10
547.117257
 20
252.960836
 30
0.0
 11
550.119955
 21
255.963534
 31
0.0
  0
LINE
  8
LC-006-005-----0
  6
CONTINUOUS
  5
217
 10
544.875005
 20
253.547011
 30
0.0
 11
547.736957
 21
256.408963
 31
0.0
  0
LINE
  8
LC-006-005-----0
  6
CONTINUOUS
  5
218
 10
543.21002
 20
254.710453
 30
0.0
 11
546.680735
 21
258.181168
 31
0.0
  0
LINE
  8
LC-006-005-----0
  6
CONTINUOUS
  5
219
 10
541.121918
 20
255.450778
 30
0.0
 11
543.852308
 21
258.181168
 31
0.0
  0
LINE
  8
LC-006-005-----0
  6
CONTINUOUS
  5
21A
 10
540.684536
 20
257.841824
 30
0.0
 11
543.020459
 21
260.177747
 31
0.0
  0
LINE
  8
LC-006-005-----0
  6
CONTINUOUS
  5
21B
 10
540.734784
 20
260.720499
 30
0.0
 11
543.020459
 21
263.006174
 31
0.0
  0
LINE
  8
LC-006-005-----0
  6
CONTINUOUS
  5
21C
 10
540.785031
 20
263.599173
 30
0.0
 11
543.020459
 21
265.834601
 31
0.0
  0
LINE
  8
LC-006-005-----0
  6
CONTINUOUS
  5
21D
 10
540.835279
 20
266.477848
 30
0.0
 11
543.020459
 21
268.663028
 31
0.0
  0
LINE
  8
LC-006-005-----0
  6
CONTINUOUS
  5
21E
 10
540.885526
 20
269.356522
 30
0.0
 11
543.020459
 21
271.491455
 31
0.0
  0
LINE
  8
LC-006-005-----0
  6
CONTINUOUS
  5
21F
 10
540.935774
 20
272.235197
 30
0.0
 11
543.715009
 21
275.014432
 31
0.0
  0
LINE
  8
LC-006-005-----0
  6
CONTINUOUS
  5
220
 10
540.986021
 20
275.113871
 30
0.0
 11
542.300795
 21
276.428646
 31
0.0
  0
ENDBLK
  8
0
  5
221
  0
BLOCK
  8
0
  5
223
  2
*X8
 70
    65
 10
590.119955
 20
251.800508
 30
0.0
  3
*X8
  0
LINE
  8
LC-006-005-----0
  6
CONTINUOUS
  5
224
 10
607.353861
 20
253.80047
 30
0.0
 11
607.449309
 21
253.895918
 31
0.0
  0
LINE
  8
LC-006-005-----0
  6
CONTINUOUS
  5
225
 10
603.525452
 20
252.800489
 30
0.0
 11
607.449309
 21
256.724345
 31
0.0
  0
LINE
  8
LC-006-005-----0
  6
CONTINUOUS
  5
226
 10
600.697025
 20
252.800489
 30
0.0
 11
605.696932
 21
257.800396
 31
0.0
  0
LINE
  8
LC-006-005-----0
  6
CONTINUOUS
  5
227
 10
597.868598
 20
252.800489
 30
0.0
 11
601.778525
 21
256.710416
 31
0.0
  0
LINE
  8
LC-006-005-----0
  6
CONTINUOUS
  5
228
 10
595.040171
 20
252.800489
 30
0.0
 11
599.5644
 21
257.324718
 31
0.0
  0
LINE
  8
LC-006-005-----0
  6
CONTINUOUS
  5
229
 10
592.211744
 20
252.800489
 30
0.0
 11
599.515877
 21
260.104622
 31
0.0
  0
LINE
  8
LC-006-005-----0
  6
CONTINUOUS
  5
22A
 10
590.119955
 20
253.537127
 30
0.0
 11
594.763996
 21
258.181168
 31
0.0
  0
LINE
  8
LC-006-005-----0
  6
CONTINUOUS
  5
22B
 10
597.219451
 20
260.636623
 30
0.0
 11
599.467353
 21
262.884525
 31
0.0
  0
LINE
  8
LC-006-005-----0
  6
CONTINUOUS
  5
22C
 10
590.119955
 20
256.365554
 30
0.0
 11
590.163364
 21
256.408963
 31
0.0
  0
LINE
  8
LC-006-005-----0
  6
CONTINUOUS
  5
22D
 10
597.219451
 20
263.46505
 30
0.0
 11
599.41883
 21
265.664429
 31
0.0
  0
LINE
  8
LC-006-005-----0
  6
CONTINUOUS
  5
22E
 10
597.219451
 20
266.293477
 30
0.0
 11
599.370306
 21
268.444333
 31
0.0
  0
LINE
  8
LC-006-005-----0
  6
CONTINUOUS
  5
22F
 10
597.219451
 20
269.121905
 30
0.0
 11
599.321783
 21
271.224236
 31
0.0
  0
LINE
  8
LC-006-005-----0
  6
CONTINUOUS
  5
230
 10
597.219451
 20
271.950332
 30
0.0
 11
599.27326
 21
274.00414
 31
0.0
  0
LINE
  8
LC-006-005-----0
  6
CONTINUOUS
  5
231
 10
595.723998
 20
273.283306
 30
0.0
 11
599.036366
 21
276.595674
 31
0.0
  0
ENDBLK
  8
0
  5
232
  0
BLOCK
  8
0
  5
234
  2
*X9
 70
    65
 10
484.529046
 20
274.78425
 30
0.0
  3
*X9
  0
LINE
  8
LC-006-005-----0
  6
CONTINUOUS
  5
235
 10
491.313555
 20
280.84705
 30
0.0
 11
491.296384
 21
280.864221
 31
0.0
  0
LINE
  8
LC-006-005-----0
  6
CONTINUOUS
  5
236
 10
493.619955
 20
275.712223
 30
0.0
 11
491.355451
 21
277.976727
 31
0.0
  0
LINE
  8
LC-006-005-----0
  6
CONTINUOUS
  5
237
 10
490.073533
 20
279.258645
 30
0.0
 11
489.424043
 21
279.908135
 31
0.0
  0
LINE
  8
LC-006-005-----0
  6
CONTINUOUS
  5
238
 10
491.719501
 20
274.78425
 30
0.0
 11
487.551702
 21
278.952049
 31
0.0
  0
LINE
  8
LC-006-005-----0
  6
CONTINUOUS
  5
239
 10
488.640508
 20
275.034816
 30
0.0
 11
485.679361
 21
277.995962
 31
0.0
  0
ENDBLK
  8
0
  5
23A
  0
BLOCK
  8
0
  5
23C
  2
*X10
 70
    65
 10
484.529046
 20
328.905586
 30
0.0
  3
*X10
  0
LINE
  8
LC-006-005-----0
  6
CONTINUOUS
  5
23D
 10
493.619955
 20
332.280765
 30
0.0
 11
490.8892
 21
335.011521
 31
0.0
  0
LINE
  8
LC-006-005-----0
  6
CONTINUOUS
  5
23E
 10
491.253728
 20
331.818565
 30
0.0
 11
488.431823
 21
334.64047
 31
0.0
  0
LINE
  8
LC-006-005-----0
  6
CONTINUOUS
  5
23F
 10
491.328943
 20
328.914923
 30
0.0
 11
486.638672
 21
333.605194
 31
0.0
  0
LINE
  8
LC-006-005-----0
  6
CONTINUOUS
  5
240
 10
485.54913
 20
331.866309
 30
0.0
 11
484.845521
 21
332.569918
 31
0.0
  0
ENDBLK
  8
0
  5
241
  0
BLOCK
  8
0
  5
243
  2
BLK1
 70
    64
 10
0.0
 20
0.0
 30
0.0
  3
BLK1
  0
ENDBLK
  8
0
  5
244
  0
BLOCK
  8
0
  5
246
  2
BLK2
 70
    64
 10
0.0
 20
0.0
 30
0.0
  3
BLK2
  0
ENDBLK
  8
0
  5
247
  0
BLOCK
  8
0
  5
249
  2
BLK3
 70
    64
 10
0.0
 20
0.0
 30
0.0
  3
BLK3
  0
ENDBLK
  8
0
  5
24A
  0
BLOCK
  8
0
  5
24C
  2
BLK4
 70
    64
 10
0.0
 20
0.0
 30
0.0
  3
BLK4
  0
ENDBLK
  8
0
  5
24D
  0
BLOCK
  8
0
  5
24F
  2
BLK5
 70
    64
 10
0.0
 20
0.0
 30
0.0
  3
BLK5
  0
ENDBLK
  8
0
  5
250
  0
BLOCK
  8
0
  5
252
  2
BLK6
 70
    64
 10
0.0
 20
0.0
 30
0.0
  3
BLK6
  0
ENDBLK
  8
0
  5
253
  0
BLOCK
  8
0
  5
255
  2
BLK7
 70
    64
 10
0.0
 20
0.0
 30
0.0
  3
BLK7
  0
ENDBLK
  8
0
  5
256
  0
BLOCK
  8
0
  5
258
  2
*D18
 70
    65
 10
0.0
 20
0.0
 30
0.0
  3
*D18
  0
LINE
  8
LC-011-003-MTH-0
  6
CONTINUOUS
  5
25A
 10
536.971053
 20
340.095899
 30
0.0
 11
536.971053
 21
408.8
 31
0.0
  0
LINE
  8
LC-011-003-MTH-0
  6
CONTINUOUS
  5
25B
 10
837.271901
 20
340.095899
 30
0.0
 11
837.271901
 21
408.8
 31
0.0
  0
LINE
  8
LC-012-003-MTG-0
  6
CONTINUOUS
  5
25D
 10
536.971053
 20
392.0
 30
0.0
 11
837.271901
 21
392.0
 31
0.0
  0
LINE
  8
LC-010-003-----0
  6
CONTINUOUS
  5
25F
 10
564.731509
 20
395.654733
 30
0.0
 11
536.971053
 21
392.0
 31
0.0
  0
LINE
  8
LC-010-003-----0
  6
CONTINUOUS
  5
260
 10
536.971053
 20
392.0
 30
0.0
 11
564.731509
 21
388.345267
 31
0.0
  0
LINE
  8
LC-010-003-----0
  6
CONTINUOUS
  5
261
 10
564.731509
 20
388.345267
 30
0.0
 11
564.731509
 21
395.654733
 31
0.0
  0
LINE
  8
LC-010-003-----0
  6
CONTINUOUS
  5
262
 10
564.79379
 20
394.704503
 30
0.0
 11
544.251053
 21
392.0
 31
0.0
  0
LINE
  8
LC-010-003-----0
  6
CONTINUOUS
  5
263
 10
544.251053
 20
392.0
 30
0.0
 11
564.79379
 21
389.295497
 31
0.0
  0
LINE
  8
LC-010-003-----0
  6
CONTINUOUS
  5
264
 10
564.856072
 20
393.754272
 30
0.0
 11
551.531053
 21
392.0
 31
0.0
  0
LINE
  8
LC-010-003-----0
  6
CONTINUOUS
  5
265
 10
551.531053
 20
392.0
 30
0.0
 11
564.856072
 21
390.245728
 31
0.0
  0
LINE
  8
LC-010-003-----0
  6
CONTINUOUS
  5
266
 10
564.918353
 20
392.804041
 30
0.0
 11
558.811053
 21
392.0
 31
0.0
  0
LINE
  8
LC-010-003-----0
  6
CONTINUOUS
  5
267
 10
558.811053
 20
392.0
 30
0.0
 11
564.918353
 21
391.195959
 31
0.0
  0
LINE
  8
LC-010-003-----0
  6
CONTINUOUS
  5
268
 10
809.511445
 20
388.345267
 30
0.0
 11
837.271901
 21
392.0
 31
0.0
  0
LINE
  8
LC-010-003-----0
  6
CONTINUOUS
  5
269
 10
837.271901
 20
392.0
 30
0.0
 11
809.511445
 21
395.654733
 31
0.0
  0
LINE
  8
LC-010-003-----0
  6
CONTINUOUS
  5
26A
 10
809.511445
 20
395.654733
 30
0.0
 11
809.511445
 21
388.345267
 31
0.0
  0
LINE
  8
LC-010-003-----0
  6
CONTINUOUS
  5
26B
 10
809.449163
 20
389.295497
 30
0.0
 11
829.991901
 21
392.0
 31
0.0
  0
LINE
  8
LC-010-003-----0
  6
CONTINUOUS
  5
26C
 10
829.991901
 20
392.0
 30
0.0
 11
809.449163
 21
394.704503
 31
0.0
  0
LINE
  8
LC-010-003-----0
  6
CONTINUOUS
  5
26D
 10
809.386882
 20
390.245728
 30
0.0
 11
822.711901
 21
392.0
 31
0.0
  0
LINE
  8
LC-010-003-----0
  6
CONTINUOUS
  5
26E
 10
822.711901
 20
392.0
 30
0.0
 11
809.386882
 21
393.754272
 31
0.0
  0
LINE
  8
LC-010-003-----0
  6
CONTINUOUS
  5
26F
 10
809.324601
 20
391.195959
 30
0.0
 11
815.431901
 21
392.0
 31
0.0
  0
LINE
  8
LC-010-003-----0
  6
CONTINUOUS
  5
270
 10
815.431901
 20
392.0
 30
0.0
 11
809.324601
 21
392.804041
 31
0.0
  0
TEXT
  8
LC-010-003-----0
  6
CONTINUOUS
 62
     8
  5
272
 10
653.371999
 20
399.827554
 30
0.0
 40
28.0
  1
Ø300
 41
0.9
 51
15.0
  7
LC-TXTSTYLE-150-400-0-0-D0
 72
     1
 11
691.469637
 21
399.827554
 31
0.0
  0
ENDBLK
  8
0
  5
273
  0
BLOCK
  8
0
  5
275
  2
*D19
 70
    65
 10
0.0
 20
0.0
 30
0.0
  3
*D19
  0
LINE
  8
LC-011-003-MTH-0
  6
CONTINUOUS
  5
276
 10
592.620438
 20
330.845412
 30
0.0
 11
592.620438
 21
369.6
 31
0.0
  0
LINE
  8
LC-011-003-MTH-0
  6
CONTINUOUS
  5
277
 10
781.622515
 20
330.845412
 30
0.0
 11
781.622515
 21
369.6
 31
0.0
  0
LINE
  8
LC-012-003-MTG-0
  6
CONTINUOUS
  5
278
 10
592.620438
 20
352.8
 30
0.0
 11
781.622515
 21
352.8
 31
0.0
  0
LINE
  8
LC-010-003-----0
  6
CONTINUOUS
  5
279
 10
620.380894
 20
356.454733
 30
0.0
 11
592.620438
 21
352.8
 31
0.0
  0
LINE
  8
LC-010-003-----0
  6
CONTINUOUS
  5
27A
 10
592.620438
 20
352.8
 30
0.0
 11
620.380894
 21
349.145267
 31
0.0
  0
LINE
  8
LC-010-003-----0
  6
CONTINUOUS
  5
27B
 10
620.380894
 20
349.145267
 30
0.0
 11
620.380894
 21
356.454733
 31
0.0
  0
LINE
  8
LC-010-003-----0
  6
CONTINUOUS
  5
27C
 10
620.443176
 20
355.504503
 30
0.0
 11
599.900438
 21
352.8
 31
0.0
  0
LINE
  8
LC-010-003-----0
  6
CONTINUOUS
  5
27D
 10
599.900438
 20
352.8
 30
0.0
 11
620.443176
 21
350.095497
 31
0.0
  0
LINE
  8
LC-010-003-----0
  6
CONTINUOUS
  5
27E
 10
620.505457
 20
354.554272
 30
0.0
 11
607.180438
 21
352.8
 31
0.0
  0
LINE
  8
LC-010-003-----0
  6
CONTINUOUS
  5
27F
 10
607.180438
 20
352.8
 30
0.0
 11
620.505457
 21
351.045728
 31
0.0
  0
LINE
  8
LC-010-003-----0
  6
CONTINUOUS
  5
280
 10
620.567738
 20
353.604041
 30
0.0
 11
614.460438
 21
352.8
 31
0.0
  0
LINE
  8
LC-010-003-----0
  6
CONTINUOUS
  5
281
 10
614.460438
 20
352.8
 30
0.0
 11
620.567738
 21
351.995959
 31
0.0
  0
LINE
  8
LC-010-003-----0
  6
CONTINUOUS
  5
282
 10
753.862059
 20
349.145267
 30
0.0
 11
781.622515
 21
352.8
 31
0.0
  0
LINE
  8
LC-010-003-----0
  6
CONTINUOUS
  5
283
 10
781.622515
 20
352.8
 30
0.0
 11
753.862059
 21
356.454733
 31
0.0
  0
LINE
  8
LC-010-003-----0
  6
CONTINUOUS
  5
284
 10
753.862059
 20
356.454733
 30
0.0
 11
753.862059
 21
349.145267
 31
0.0
  0
LINE
  8
LC-010-003-----0
  6
CONTINUOUS
  5
285
 10
753.799778
 20
350.095497
 30
0.0
 11
774.342515
 21
352.8
 31
0.0
  0
LINE
  8
LC-010-003-----0
  6
CONTINUOUS
  5
286
 10
774.342515
 20
352.8
 30
0.0
 11
753.799778
 21
355.504503
 31
0.0
  0
LINE
  8
LC-010-003-----0
  6
CONTINUOUS
  5
287
 10
753.737496
 20
351.045728
 30
0.0
 11
767.062515
 21
352.8
 31
0.0
  0
LINE
  8
LC-010-003-----0
  6
CONTINUOUS
  5
288
 10
767.062515
 20
352.8
 30
0.0
 11
753.737496
 21
354.554272
 31
0.0
  0
LINE
  8
LC-010-003-----0
  6
CONTINUOUS
  5
289
 10
753.675215
 20
351.995959
 30
0.0
 11
759.782515
 21
352.8
 31
0.0
  0
LINE
  8
LC-010-003-----0
  6
CONTINUOUS
  5
28A
 10
759.782515
 20
352.8
 30
0.0
 11
753.675215
 21
353.604041
 31
0.0
  0
TEXT
  8
LC-010-003-----0
  6
CONTINUOUS
 62
     8
  5
28B
 10
653.371999
 20
360.627554
 30
0.0
 40
28.0
  1
Ø190
 51
15.0
  7
LC-TXTSTYLE-150-400-0-0-D0
 72
     1
 11
691.469637
 21
360.627554
 31
0.0
  0
ENDBLK
  8
0
  5
28C
  0
BLOCK
  8
0
  5
28E
  2
*D20
 70
    65
 10
0.0
 20
0.0
 30
0.0
  3
*D20
  0
LINE
  8
LC-011-003-MTH-0
  6
CONTINUOUS
  5
28F
 10
662.117613
 20
180.712126
 30
0.0
 11
662.117613
 21
140.0
 31
0.0
  0
LINE
  8
LC-011-003-MTH-0
  6
CONTINUOUS
  5
290
 10
712.117614
 20
180.712126
 30
0.0
 11
712.117614
 21
140.0
 31
0.0
  0
LINE
  8
LC-010-003-----0
  6
CONTINUOUS
  5
291
 10
634.357157
 20
153.145267
 30
0.0
 11
662.117613
 21
156.8
 31
0.0
  0
LINE
  8
LC-010-003-----0
  6
CONTINUOUS
  5
292
 10
662.117613
 20
156.8
 30
0.0
 11
634.357157
 21
160.454733
 31
0.0
  0
LINE
  8
LC-010-003-----0
  6
CONTINUOUS
  5
293
 10
634.357157
 20
160.454733
 30
0.0
 11
634.357157
 21
153.145267
 31
0.0
  0
LINE
  8
LC-010-003-----0
  6
CONTINUOUS
  5
294
 10
634.294876
 20
154.095497
 30
0.0
 11
654.837613
 21
156.8
 31
0.0
  0
LINE
  8
LC-010-003-----0
  6
CONTINUOUS
  5
295
 10
654.837613
 20
156.8
 30
0.0
 11
634.294876
 21
159.504503
 31
0.0
  0
LINE
  8
LC-010-003-----0
  6
CONTINUOUS
  5
296
 10
634.232594
 20
155.045728
 30
0.0
 11
647.557613
 21
156.8
 31
0.0
  0
LINE
  8
LC-010-003-----0
  6
CONTINUOUS
  5
297
 10
647.557613
 20
156.8
 30
0.0
 11
634.232594
 21
158.554272
 31
0.0
  0
LINE
  8
LC-010-003-----0
  6
CONTINUOUS
  5
298
 10
634.170313
 20
155.995959
 30
0.0
 11
640.277613
 21
156.8
 31
0.0
  0
LINE
  8
LC-010-003-----0
  6
CONTINUOUS
  5
299
 10
640.277613
 20
156.8
 30
0.0
 11
634.170313
 21
157.604041
 31
0.0
  0
LINE
  8
LC-010-003-----0
  6
CONTINUOUS
  5
29A
 10
739.87807
 20
160.454733
 30
0.0
 11
712.117614
 21
156.8
 31
0.0
  0
LINE
  8
LC-010-003-----0
  6
CONTINUOUS
  5
29B
 10
712.117614
 20
156.8
 30
0.0
 11
739.87807
 21
153.145267
 31
0.0
  0
LINE
  8
LC-010-003-----0
  6
CONTINUOUS
  5
29C
 10
739.87807
 20
153.145267
 30
0.0
 11
739.87807
 21
160.454733
 31
0.0
  0
LINE
  8
LC-010-003-----0
  6
CONTINUOUS
  5
29D
 10
739.940352
 20
159.504503
 30
0.0
 11
719.397614
 21
156.8
 31
0.0
  0
LINE
  8
LC-010-003-----0
  6
CONTINUOUS
  5
29E
 10
719.397614
 20
156.8
 30
0.0
 11
739.940352
 21
154.095497
 31
0.0
  0
LINE
  8
LC-010-003-----0
  6
CONTINUOUS
  5
29F
 10
740.002633
 20
158.554272
 30
0.0
 11
726.677614
 21
156.8
 31
0.0
  0
LINE
  8
LC-010-003-----0
  6
CONTINUOUS
  5
2A0
 10
726.677614
 20
156.8
 30
0.0
 11
740.002633
 21
155.045728
 31
0.0
  0
LINE
  8
LC-010-003-----0
  6
CONTINUOUS
  5
2A1
 10
740.064915
 20
157.604041
 30
0.0
 11
733.957614
 21
156.8
 31
0.0
  0
LINE
  8
LC-010-003-----0
  6
CONTINUOUS
  5
2A2
 10
733.957614
 20
156.8
 30
0.0
 11
740.064915
 21
155.995959
 31
0.0
  0
LINE
  8
LC-012-003-MTG-0
  6
CONTINUOUS
  5
2A3
 10
622.917613
 20
156.8
 30
0.0
 11
856.245384
 21
156.8
 31
0.0
  0
TEXT
  8
LC-010-003-----0
  6
CONTINUOUS
 62
     8
  5
2A4
 10
769.703444
 20
164.627554
 30
0.0
 40
28.0
  1
DN50
 51
15.0
  7
LC-TXTSTYLE-150-400-0-0-D0
  0
ENDBLK
  8
0
  5
2A5
  0
BLOCK
  8
0
  5
2A7
  2
*D21
 70
    65
 10
0.0
 20
0.0
 30
0.0
  3
*D21
  0
LINE
  8
LC-011-003-MTH-0
  6
CONTINUOUS
  5
2A8
 10
649.617753
 20
174.796866
 30
0.0
 11
649.617753
 21
103.2
 31
0.0
  0
LINE
  8
LC-011-003-MTH-0
  6
CONTINUOUS
  5
2A9
 10
724.150451
 20
173.053847
 30
0.0
 11
724.150451
 21
103.2
 31
0.0
  0
LINE
  8
LC-010-003-----0
  6
CONTINUOUS
  5
2AA
 10
621.857297
 20
116.345267
 30
0.0
 11
649.617753
 21
120.0
 31
0.0
  0
LINE
  8
LC-010-003-----0
  6
CONTINUOUS
  5
2AB
 10
649.617753
 20
120.0
 30
0.0
 11
621.857297
 21
123.654733
 31
0.0
  0
LINE
  8
LC-010-003-----0
  6
CONTINUOUS
  5
2AC
 10
621.857297
 20
123.654733
 30
0.0
 11
621.857297
 21
116.345267
 31
0.0
  0
LINE
  8
LC-010-003-----0
  6
CONTINUOUS
  5
2AD
 10
621.795016
 20
117.295497
 30
0.0
 11
642.337753
 21
120.0
 31
0.0
  0
LINE
  8
LC-010-003-----0
  6
CONTINUOUS
  5
2AE
 10
642.337753
 20
120.0
 30
0.0
 11
621.795016
 21
122.704503
 31
0.0
  0
LINE
  8
LC-010-003-----0
  6
CONTINUOUS
  5
2AF
 10
621.732734
 20
118.245728
 30
0.0
 11
635.057753
 21
120.0
 31
0.0
  0
LINE
  8
LC-010-003-----0
  6
CONTINUOUS
  5
2B0
 10
635.057753
 20
120.0
 30
0.0
 11
621.732734
 21
121.754272
 31
0.0
  0
LINE
  8
LC-010-003-----0
  6
CONTINUOUS
  5
2B1
 10
621.670453
 20
119.195959
 30
0.0
 11
627.777753
 21
120.0
 31
0.0
  0
LINE
  8
LC-010-003-----0
  6
CONTINUOUS
  5
2B2
 10
627.777753
 20
120.0
 30
0.0
 11
621.670453
 21
120.804041
 31
0.0
  0
LINE
  8
LC-010-003-----0
  6
CONTINUOUS
  5
2B3
 10
751.910907
 20
123.654733
 30
0.0
 11
724.150451
 21
120.0
 31
0.0
  0
LINE
  8
LC-010-003-----0
  6
CONTINUOUS
  5
2B4
 10
724.150451
 20
120.0
 30
0.0
 11
751.910907
 21
116.345267
 31
0.0
  0
LINE
  8
LC-010-003-----0
  6
CONTINUOUS
  5
2B5
 10
751.910907
 20
116.345267
 30
0.0
 11
751.910907
 21
123.654733
 31
0.0
  0
LINE
  8
LC-010-003-----0
  6
CONTINUOUS
  5
2B6
 10
751.973189
 20
122.704503
 30
0.0
 11
731.430451
 21
120.0
 31
0.0
  0
LINE
  8
LC-010-003-----0
  6
CONTINUOUS
  5
2B7
 10
731.430451
 20
120.0
 30
0.0
 11
751.973189
 21
117.295497
 31
0.0
  0
LINE
  8
LC-010-003-----0
  6
CONTINUOUS
  5
2B8
 10
752.03547
 20
121.754272
 30
0.0
 11
738.710451
 21
120.0
 31
0.0
  0
LINE
  8
LC-010-003-----0
  6
CONTINUOUS
  5
2B9
 10
738.710451
 20
120.0
 30
0.0
 11
752.03547
 21
118.245728
 31
0.0
  0
LINE
  8
LC-010-003-----0
  6
CONTINUOUS
  5
2BA
 10
752.097752
 20
120.804041
 30
0.0
 11
745.990451
 21
120.0
 31
0.0
  0
LINE
  8
LC-010-003-----0
  6
CONTINUOUS
  5
2BB
 10
745.990451
 20
120.0
 30
0.0
 11
752.097752
 21
119.195959
 31
0.0
  0
LINE
  8
LC-012-003-MTG-0
  6
CONTINUOUS
  5
2BC
 10
610.417753
 20
120.0
 30
0.0
 11
853.120551
 21
120.0
 31
0.0
  0
TEXT
  8
LC-010-003-----0
  6
CONTINUOUS
 62
     8
  5
2BD
 10
766.578611
 20
127.827554
 30
0.0
 40
28.0
  1
DN70
 51
15.0
  7
LC-TXTSTYLE-150-400-0-0-D0
  0
ENDBLK
  8
0
  5
2BE
  0
BLOCK
  8
0
  5
2C0
  2
*D22
 70
    65
 10
0.0
 20
0.0
 30
0.0
  3
*D22
  0
LINE
  8
LC-011-003-MTH-0
  6
CONTINUOUS
  5
2C1
 10
475.619955
 20
304.897885
 30
0.0
 11
375.2
 21
304.897885
 31
0.0
  0
LINE
  8
LC-011-003-MTH-0
  6
CONTINUOUS
  5
2C2
 10
536.971053
 20
340.095899
 30
0.0
 11
375.2
 21
340.095899
 31
0.0
  0
LINE
  8
LC-010-003-----0
  6
CONTINUOUS
  5
2C3
 10
395.654733
 20
277.137429
 30
0.0
 11
392.0
 21
304.897885
 31
0.0
  0
LINE
  8
LC-010-003-----0
  6
CONTINUOUS
  5
2C4
 10
392.0
 20
304.897885
 30
0.0
 11
388.345267
 21
277.137429
 31
0.0
  0
LINE
  8
LC-010-003-----0
  6
CONTINUOUS
  5
2C5
 10
388.345267
 20
277.137429
 30
0.0
 11
395.654733
 21
277.137429
 31
0.0
  0
LINE
  8
LC-010-003-----0
  6
CONTINUOUS
  5
2C6
 10
394.704503
 20
277.075148
 30
0.0
 11
392.0
 21
297.617885
 31
0.0
  0
LINE
  8
LC-010-003-----0
  6
CONTINUOUS
  5
2C7
 10
392.0
 20
297.617885
 30
0.0
 11
389.295497
 21
277.075148
 31
0.0
  0
LINE
  8
LC-010-003-----0
  6
CONTINUOUS
  5
2C8
 10
393.754272
 20
277.012866
 30
0.0
 11
392.0
 21
290.337885
 31
0.0
  0
LINE
  8
LC-010-003-----0
  6
CONTINUOUS
  5
2C9
 10
392.0
 20
290.337885
 30
0.0
 11
390.245728
 21
277.012866
 31
0.0
  0
LINE
  8
LC-010-003-----0
  6
CONTINUOUS
  5
2CA
 10
392.804041
 20
276.950585
 30
0.0
 11
392.0
 21
283.057885
 31
0.0
  0
LINE
  8
LC-010-003-----0
  6
CONTINUOUS
  5
2CB
 10
392.0
 20
283.057885
 30
0.0
 11
391.195959
 21
276.950585
 31
0.0
  0
LINE
  8
LC-010-003-----0
  6
CONTINUOUS
  5
2CC
 10
388.345267
 20
367.856356
 30
0.0
 11
392.0
 21
340.095899
 31
0.0
  0
LINE
  8
LC-010-003-----0
  6
CONTINUOUS
  5
2CD
 10
392.0
 20
340.095899
 30
0.0
 11
395.654733
 21
367.856356
 31
0.0
  0
LINE
  8
LC-010-003-----0
  6
CONTINUOUS
  5
2CE
 10
395.654733
 20
367.856356
 30
0.0
 11
388.345267
 21
367.856356
 31
0.0
  0
LINE
  8
LC-010-003-----0
  6
CONTINUOUS
  5
2CF
 10
389.295497
 20
367.918637
 30
0.0
 11
392.0
 21
347.375899
 31
0.0
  0
LINE
  8
LC-010-003-----0
  6
CONTINUOUS
  5
2D0
 10
392.0
 20
347.375899
 30
0.0
 11
394.704503
 21
367.918637
 31
0.0
  0
LINE
  8
LC-010-003-----0
  6
CONTINUOUS
  5
2D1
 10
390.245728
 20
367.980918
 30
0.0
 11
392.0
 21
354.655899
 31
0.0
  0
LINE
  8
LC-010-003-----0
  6
CONTINUOUS
  5
2D2
 10
392.0
 20
354.655899
 30
0.0
 11
393.754272
 21
367.980918
 31
0.0
  0
LINE
  8
LC-010-003-----0
  6
CONTINUOUS
  5
2D3
 10
391.195959
 20
368.0432
 30
0.0
 11
392.0
 21
361.935899
 31
0.0
  0
LINE
  8
LC-010-003-----0
  6
CONTINUOUS
  5
2D4
 10
392.0
 20
361.935899
 30
0.0
 11
392.804041
 21
368.0432
 31
0.0
  0
LINE
  8
LC-012-003-MTG-0
  6
CONTINUOUS
  5
2D5
 10
392.0
 20
265.697885
 30
0.0
 11
392.0
 21
423.460299
 31
0.0
  0
TEXT
  8
LC-010-003-----0
  6
CONTINUOUS
 62
     8
  5
2D6
 10
384.172446
 20
382.524059
 30
0.0
 40
28.0
  1
35
 50
90.0
 51
15.0
  7
LC-TXTSTYLE-150-400-0-0-D0
  0
ENDBLK
  8
0
  5
2D7
  0
BLOCK
  8
0
  5
2D9
  2
*D23
 70
    65
 10
0.0
 20
0.0
 30
0.0
  3
*D23
  0
LINE
  8
LC-011-003-MTH-0
  6
CONTINUOUS
  5
2DA
 10
477.119955
 20
278.522885
 30
0.0
 11
414.4
 21
278.522885
 31
0.0
  0
LINE
  8
LC-011-003-MTH-0
  6
CONTINUOUS
  5
2DB
 10
477.119955
 20
330.147885
 30
0.0
 11
414.4
 21
330.147885
 31
0.0
  0
LINE
  8
LC-010-003-----0
  6
CONTINUOUS
  5
2DC
 10
434.854733
 20
250.762429
 30
0.0
 11
431.2
 21
278.522885
 31
0.0
  0
LINE
  8
LC-010-003-----0
  6
CONTINUOUS
  5
2DD
 10
431.2
 20
278.522885
 30
0.0
 11
427.545267
 21
250.762429
 31
0.0
  0
LINE
  8
LC-010-003-----0
  6
CONTINUOUS
  5
2DE
 10
427.545267
 20
250.762429
 30
0.0
 11
434.854733
 21
250.762429
 31
0.0
  0
LINE
  8
LC-010-003-----0
  6
CONTINUOUS
  5
2DF
 10
433.904503
 20
250.700148
 30
0.0
 11
431.2
 21
271.242885
 31
0.0
  0
LINE
  8
LC-010-003-----0
  6
CONTINUOUS
  5
2E0
 10
431.2
 20
271.242885
 30
0.0
 11
428.495497
 21
250.700148
 31
0.0
  0
LINE
  8
LC-010-003-----0
  6
CONTINUOUS
  5
2E1
 10
432.954272
 20
250.637866
 30
0.0
 11
431.2
 21
263.962885
 31
0.0
  0
LINE
  8
LC-010-003-----0
  6
CONTINUOUS
  5
2E2
 10
431.2
 20
263.962885
 30
0.0
 11
429.445728
 21
250.637866
 31
0.0
  0
LINE
  8
LC-010-003-----0
  6
CONTINUOUS
  5
2E3
 10
432.004041
 20
250.575585
 30
0.0
 11
431.2
 21
256.682885
 31
0.0
  0
LINE
  8
LC-010-003-----0
  6
CONTINUOUS
  5
2E4
 10
431.2
 20
256.682885
 30
0.0
 11
430.395959
 21
250.575585
 31
0.0
  0
LINE
  8
LC-010-003-----0
  6
CONTINUOUS
  5
2E5
 10
427.545267
 20
357.908341
 30
0.0
 11
431.2
 21
330.147885
 31
0.0
  0
LINE
  8
LC-010-003-----0
  6
CONTINUOUS
  5
2E6
 10
431.2
 20
330.147885
 30
0.0
 11
434.854733
 21
357.908341
 31
0.0
  0
LINE
  8
LC-010-003-----0
  6
CONTINUOUS
  5
2E7
 10
434.854733
 20
357.908341
 30
0.0
 11
427.545267
 21
357.908341
 31
0.0
  0
LINE
  8
LC-010-003-----0
  6
CONTINUOUS
  5
2E8
 10
428.495497
 20
357.970623
 30
0.0
 11
431.2
 21
337.427885
 31
0.0
  0
LINE
  8
LC-010-003-----0
  6
CONTINUOUS
  5
2E9
 10
431.2
 20
337.427885
 30
0.0
 11
433.904503
 21
357.970623
 31
0.0
  0
LINE
  8
LC-010-003-----0
  6
CONTINUOUS
  5
2EA
 10
429.445728
 20
358.032904
 30
0.0
 11
431.2
 21
344.707885
 31
0.0
  0
LINE
  8
LC-010-003-----0
  6
CONTINUOUS
  5
2EB
 10
431.2
 20
344.707885
 30
0.0
 11
432.954272
 21
358.032904
 31
0.0
  0
LINE
  8
LC-010-003-----0
  6
CONTINUOUS
  5
2EC
 10
430.395959
 20
358.095186
 30
0.0
 11
431.2
 21
351.987885
 31
0.0
  0
LINE
  8
LC-010-003-----0
  6
CONTINUOUS
  5
2ED
 10
431.2
 20
351.987885
 30
0.0
 11
432.004041
 21
358.095186
 31
0.0
  0
LINE
  8
LC-012-003-MTG-0
  6
CONTINUOUS
  5
2EE
 10
431.2
 20
239.322885
 30
0.0
 11
431.2
 21
459.117985
 31
0.0
  0
TEXT
  8
LC-010-003-----0
  6
CONTINUOUS
 62
     8
  5
2EF
 10
423.372446
 20
372.576045
 30
0.0
 40
28.0
  1
DN50
 50
90.0
 51
15.0
  7
LC-TXTSTYLE-150-400-0-0-D0
  0
ENDBLK
  8
0
  5
2F0
  0
BLOCK
  8
0
  5
2F2
  2
*D24
 70
    65
 10
0.0
 20
0.0
 30
0.0
  3
*D24
  0
LINE
  8
LC-011-003-MTH-0
  6
CONTINUOUS
  5
2F3
 10
728.867782
 20
252.798678
 30
0.0
 11
840.0
 21
252.798678
 31
0.0
  0
LINE
  8
LC-011-003-MTH-0
  6
CONTINUOUS
  5
2F4
 10
717.499909
 20
301.298686
 30
0.0
 11
840.0
 21
301.298686
 31
0.0
  0
LINE
  8
LC-010-003-----0
  6
CONTINUOUS
  5
2F5
 10
826.854733
 20
225.038222
 30
0.0
 11
823.2
 21
252.798678
 31
0.0
  0
LINE
  8
LC-010-003-----0
  6
CONTINUOUS
  5
2F6
 10
823.2
 20
252.798678
 30
0.0
 11
819.545267
 21
225.038222
 31
0.0
  0
LINE
  8
LC-010-003-----0
  6
CONTINUOUS
  5
2F7
 10
819.545267
 20
225.038222
 30
0.0
 11
826.854733
 21
225.038222
 31
0.0
  0
LINE
  8
LC-010-003-----0
  6
CONTINUOUS
  5
2F8
 10
825.904503
 20
224.97594
 30
0.0
 11
823.2
 21
245.518678
 31
0.0
  0
LINE
  8
LC-010-003-----0
  6
CONTINUOUS
  5
2F9
 10
823.2
 20
245.518678
 30
0.0
 11
820.495497
 21
224.97594
 31
0.0
  0
LINE
  8
LC-010-003-----0
  6
CONTINUOUS
  5
2FA
 10
824.954272
 20
224.913659
 30
0.0
 11
823.2
 21
238.238678
 31
0.0
  0
LINE
  8
LC-010-003-----0
  6
CONTINUOUS
  5
2FB
 10
823.2
 20
238.238678
 30
0.0
 11
821.445728
 21
224.913659
 31
0.0
  0
LINE
  8
LC-010-003-----0
  6
CONTINUOUS
  5
2FC
 10
824.004041
 20
224.851377
 30
0.0
 11
823.2
 21
230.958678
 31
0.0
  0
LINE
  8
LC-010-003-----0
  6
CONTINUOUS
  5
2FD
 10
823.2
 20
230.958678
 30
0.0
 11
822.395959
 21
224.851377
 31
0.0
  0
LINE
  8
LC-010-003-----0
  6
CONTINUOUS
  5
2FE
 10
819.545267
 20
329.059142
 30
0.0
 11
823.2
 21
301.298686
 31
0.0
  0
LINE
  8
LC-010-003-----0
  6
CONTINUOUS
  5
2FF
 10
823.2
 20
301.298686
 30
0.0
 11
826.854733
 21
329.059142
 31
0.0
  0
LINE
  8
LC-010-003-----0
  6
CONTINUOUS
  5
300
 10
826.854733
 20
329.059142
 30
0.0
 11
819.545267
 21
329.059142
 31
0.0
  0
LINE
  8
LC-010-003-----0
  6
CONTINUOUS
  5
301
 10
820.495497
 20
329.121424
 30
0.0
 11
823.2
 21
308.578686
 31
0.0
  0
LINE
  8
LC-010-003-----0
  6
CONTINUOUS
  5
302
 10
823.2
 20
308.578686
 30
0.0
 11
825.904503
 21
329.121424
 31
0.0
  0
LINE
  8
LC-010-003-----0
  6
CONTINUOUS
  5
303
 10
821.445728
 20
329.183705
 30
0.0
 11
823.2
 21
315.858686
 31
0.0
  0
LINE
  8
LC-010-003-----0
  6
CONTINUOUS
  5
304
 10
823.2
 20
315.858686
 30
0.0
 11
824.954272
 21
329.183705
 31
0.0
  0
LINE
  8
LC-010-003-----0
  6
CONTINUOUS
  5
305
 10
822.395959
 20
329.245986
 30
0.0
 11
823.2
 21
323.138686
 31
0.0
  0
LINE
  8
LC-010-003-----0
  6
CONTINUOUS
  5
306
 10
823.2
 20
323.138686
 30
0.0
 11
824.004041
 21
329.245986
 31
0.0
  0
LINE
  8
LC-012-003-MTG-0
  6
CONTINUOUS
  5
307
 10
823.2
 20
213.598678
 30
0.0
 11
823.2
 21
340.498686
 31
0.0
  0
TEXT
  8
LC-010-003-----0
  6
CONTINUOUS
 62
     8
  5
308
 10
815.372446
 20
266.018889
 30
0.0
 40
28.0
  1
50
 50
90.0
 51
15.0
  7
LC-TXTSTYLE-150-400-0-0-D0
 72
     1
 11
815.372446
 21
281.396842
 31
0.0
  0
ENDBLK
  8
0
  5
309
  0
BLOCK
  8
0
  5
30B
  2
*D25
 70
    65
 10
0.0
 20
0.0
 30
0.0
  3
*D25
  0
LINE
  8
LC-011-003-MTH-0
  6
CONTINUOUS
  5
30C
 10
755.167681
 20
230.310653
 30
0.0
 11
879.2
 21
230.310653
 31
0.0
  0
LINE
  8
LC-011-003-MTH-0
  6
CONTINUOUS
  5
30D
 10
837.271901
 20
340.095899
 30
0.0
 11
879.2
 21
340.095899
 31
0.0
  0
LINE
  8
LC-012-003-MTG-0
  6
CONTINUOUS
  5
30E
 10
862.4
 20
230.310653
 30
0.0
 11
862.4
 21
340.095899
 31
0.0
  0
LINE
  8
LC-010-003-----0
  6
CONTINUOUS
  5
30F
 10
858.745267
 20
258.071109
 30
0.0
 11
862.4
 21
230.310653
 31
0.0
  0
LINE
  8
LC-010-003-----0
  6
CONTINUOUS
  5
310
 10
862.4
 20
230.310653
 30
0.0
 11
866.054733
 21
258.071109
 31
0.0
  0
LINE
  8
LC-010-003-----0
  6
CONTINUOUS
  5
311
 10
866.054733
 20
258.071109
 30
0.0
 11
858.745267
 21
258.071109
 31
0.0
  0
LINE
  8
LC-010-003-----0
  6
CONTINUOUS
  5
312
 10
859.695497
 20
258.13339
 30
0.0
 11
862.4
 21
237.590653
 31
0.0
  0
LINE
  8
LC-010-003-----0
  6
CONTINUOUS
  5
313
 10
862.4
 20
237.590653
 30
0.0
 11
865.104503
 21
258.13339
 31
0.0
  0
LINE
  8
LC-010-003-----0
  6
CONTINUOUS
  5
314
 10
860.645728
 20
258.195671
 30
0.0
 11
862.4
 21
244.870653
 31
0.0
  0
LINE
  8
LC-010-003-----0
  6
CONTINUOUS
  5
315
 10
862.4
 20
244.870653
 30
0.0
 11
864.154272
 21
258.195671
 31
0.0
  0
LINE
  8
LC-010-003-----0
  6
CONTINUOUS
  5
316
 10
861.595959
 20
258.257953
 30
0.0
 11
862.4
 21
252.150653
 31
0.0
  0
LINE
  8
LC-010-003-----0
  6
CONTINUOUS
  5
317
 10
862.4
 20
252.150653
 30
0.0
 11
863.204041
 21
258.257953
 31
0.0
  0
LINE
  8
LC-010-003-----0
  6
CONTINUOUS
  5
318
 10
866.054733
 20
312.335443
 30
0.0
 11
862.4
 21
340.095899
 31
0.0
  0
LINE
  8
LC-010-003-----0
  6
CONTINUOUS
  5
319
 10
862.4
 20
340.095899
 30
0.0
 11
858.745267
 21
312.335443
 31
0.0
  0
LINE
  8
LC-010-003-----0
  6
CONTINUOUS
  5
31A
 10
858.745267
 20
312.335443
 30
0.0
 11
866.054733
 21
312.335443
 31
0.0
  0
LINE
  8
LC-010-003-----0
  6
CONTINUOUS
  5
31B
 10
865.104503
 20
312.273162
 30
0.0
 11
862.4
 21
332.815899
 31
0.0
  0
LINE
  8
LC-010-003-----0
  6
CONTINUOUS
  5
31C
 10
862.4
 20
332.815899
 30
0.0
 11
859.695497
 21
312.273162
 31
0.0
  0
LINE
  8
LC-010-003-----0
  6
CONTINUOUS
  5
31D
 10
864.154272
 20
312.210881
 30
0.0
 11
862.4
 21
325.535899
 31
0.0
  0
LINE
  8
LC-010-003-----0
  6
CONTINUOUS
  5
31E
 10
862.4
 20
325.535899
 30
0.0
 11
860.645728
 21
312.210881
 31
0.0
  0
LINE
  8
LC-010-003-----0
  6
CONTINUOUS
  5
31F
 10
863.204041
 20
312.148599
 30
0.0
 11
862.4
 21
318.255899
 31
0.0
  0
LINE
  8
LC-010-003-----0
  6
CONTINUOUS
  5
320
 10
862.4
 20
318.255899
 30
0.0
 11
861.595959
 21
312.148599
 31
0.0
  0
TEXT
  8
LC-010-003-----0
  6
CONTINUOUS
 62
     8
  5
321
 10
854.572446
 20
259.787656
 30
0.0
 40
28.0
  1
110
 50
90.0
 51
15.0
  7
LC-TXTSTYLE-150-400-0-0-D0
 72
     1
 11
854.572446
 21
289.551436
 31
0.0
  0
ENDBLK
  8
0
  5
322
  0
BLOCK
  8
0
  5
324
  2
*D26
 70
    65
 10
0.0
 20
0.0
 30
0.0
  3
*D26
  0
LINE
  8
LC-011-003-MTH-0
  6
CONTINUOUS
  5
325
 10
607.184598
 20
275.310788
 30
0.0
 11
607.184598
 21
63.2
 31
0.0
  0
LINE
  8
LC-011-003-MTH-0
  6
CONTINUOUS
  5
326
 10
767.119816
 20
152.124
 30
0.0
 11
767.119816
 21
63.2
 31
0.0
  0
LINE
  8
LC-012-003-MTG-0
  6
CONTINUOUS
  5
327
 10
607.184598
 20
80.0
 30
0.0
 11
767.119816
 21
80.0
 31
0.0
  0
LINE
  8
LC-010-003-----0
  6
CONTINUOUS
  5
328
 10
634.945054
 20
83.654733
 30
0.0
 11
607.184598
 21
80.0
 31
0.0
  0
LINE
  8
LC-010-003-----0
  6
CONTINUOUS
  5
329
 10
607.184598
 20
80.0
 30
0.0
 11
634.945054
 21
76.345267
 31
0.0
  0
LINE
  8
LC-010-003-----0
  6
CONTINUOUS
  5
32A
 10
634.945054
 20
76.345267
 30
0.0
 11
634.945054
 21
83.654733
 31
0.0
  0
LINE
  8
LC-010-003-----0
  6
CONTINUOUS
  5
32B
 10
635.007336
 20
82.704503
 30
0.0
 11
614.464598
 21
80.0
 31
0.0
  0
LINE
  8
LC-010-003-----0
  6
CONTINUOUS
  5
32C
 10
614.464598
 20
80.0
 30
0.0
 11
635.007336
 21
77.295497
 31
0.0
  0
LINE
  8
LC-010-003-----0
  6
CONTINUOUS
  5
32D
 10
635.069617
 20
81.754272
 30
0.0
 11
621.744598
 21
80.0
 31
0.0
  0
LINE
  8
LC-010-003-----0
  6
CONTINUOUS
  5
32E
 10
621.744598
 20
80.0
 30
0.0
 11
635.069617
 21
78.245728
 31
0.0
  0
LINE
  8
LC-010-003-----0
  6
CONTINUOUS
  5
32F
 10
635.131899
 20
80.804041
 30
0.0
 11
629.024598
 21
80.0
 31
0.0
  0
LINE
  8
LC-010-003-----0
  6
CONTINUOUS
  5
330
 10
629.024598
 20
80.0
 30
0.0
 11
635.131899
 21
79.195959
 31
0.0
  0
LINE
  8
LC-010-003-----0
  6
CONTINUOUS
  5
331
 10
739.359359
 20
76.345267
 30
0.0
 11
767.119816
 21
80.0
 31
0.0
  0
LINE
  8
LC-010-003-----0
  6
CONTINUOUS
  5
332
 10
767.119816
 20
80.0
 30
0.0
 11
739.359359
 21
83.654733
 31
0.0
  0
LINE
  8
LC-010-003-----0
  6
CONTINUOUS
  5
333
 10
739.359359
 20
83.654733
 30
0.0
 11
739.359359
 21
76.345267
 31
0.0
  0
LINE
  8
LC-010-003-----0
  6
CONTINUOUS
  5
334
 10
739.297078
 20
77.295497
 30
0.0
 11
759.839816
 21
80.0
 31
0.0
  0
LINE
  8
LC-010-003-----0
  6
CONTINUOUS
  5
335
 10
759.839816
 20
80.0
 30
0.0
 11
739.297078
 21
82.704503
 31
0.0
  0
LINE
  8
LC-010-003-----0
  6
CONTINUOUS
  5
336
 10
739.234797
 20
78.245728
 30
0.0
 11
752.559816
 21
80.0
 31
0.0
  0
LINE
  8
LC-010-003-----0
  6
CONTINUOUS
  5
337
 10
752.559816
 20
80.0
 30
0.0
 11
739.234797
 21
81.754272
 31
0.0
  0
LINE
  8
LC-010-003-----0
  6
CONTINUOUS
  5
338
 10
739.172515
 20
79.195959
 30
0.0
 11
745.279816
 21
80.0
 31
0.0
  0
LINE
  8
LC-010-003-----0
  6
CONTINUOUS
  5
339
 10
745.279816
 20
80.0
 30
0.0
 11
739.172515
 21
80.804041
 31
0.0
  0
TEXT
  8
LC-010-003-----0
  6
CONTINUOUS
 62
     8
  5
33A
 10
653.402729
 20
87.827554
 30
0.0
 40
28.0
  1
Ø160
 51
15.0
  7
LC-TXTSTYLE-150-400-0-0-D0
 72
     1
 11
691.500367
 21
87.827554
 31
0.0
  0
ENDBLK
  8
0
  5
33B
  0
BLOCK
  8
0
  5
33D
  2
*X27
 70
    65
 10
577.775186
 20
311.954729
 30
0.0
  3
*X27
  0
LINE
  8
LC-006-005-----0
  6
CONTINUOUS
  5
33E
 10
611.768005
 20
311.954729
 30
0.0
 11
612.468005
 21
312.654729
 31
0.0
  0
LINE
  8
LC-006-005-----0
  6
CONTINUOUS
  5
33F
 10
609.955083
 20
312.970235
 30
0.0
 11
610.588706
 21
313.603858
 31
0.0
  0
LINE
  8
LC-006-005-----0
  6
CONTINUOUS
  5
340
 10
611.225555
 20
314.240707
 30
0.0
 11
612.374684
 21
315.389836
 31
0.0
  0
LINE
  8
LC-006-005-----0
  6
CONTINUOUS
  5
341
 10
611.674684
 20
317.518263
 30
0.0
 11
612.230033
 21
318.073612
 31
0.0
  0
LINE
  8
LC-006-005-----0
  6
CONTINUOUS
  5
342
 10
609.641811
 20
318.313817
 30
0.0
 11
610.159945
 21
318.831951
 31
0.0
  0
LINE
  8
LC-006-005-----0
  6
CONTINUOUS
  5
343
 10
608.259261
 20
319.759694
 30
0.0
 11
608.786347
 21
320.286781
 31
0.0
  0
LINE
  8
LC-006-005-----0
  6
CONTINUOUS
  5
344
 10
607.874684
 20
322.203544
 30
0.0
 11
608.574684
 21
322.903544
 31
0.0
  0
LINE
  8
LC-006-005-----0
  6
CONTINUOUS
  5
345
 10
607.874684
 20
325.031971
 30
0.0
 11
608.574684
 21
325.731971
 31
0.0
  0
LINE
  8
LC-006-005-----0
  6
CONTINUOUS
  5
346
 10
607.874684
 20
327.860398
 30
0.0
 11
608.574684
 21
328.560398
 31
0.0
  0
LINE
  8
LC-006-005-----0
  6
CONTINUOUS
  5
347
 10
607.874684
 20
330.688826
 30
0.0
 11
608.574684
 21
331.388826
 31
0.0
  0
LINE
  8
LC-006-005-----0
  6
CONTINUOUS
  5
348
 10
607.874684
 20
333.517253
 30
0.0
 11
608.574684
 21
334.217253
 31
0.0
  0
LINE
  8
LC-006-005-----0
  6
CONTINUOUS
  5
349
 10
607.761355
 20
336.232351
 30
0.0
 11
608.343881
 21
336.814877
 31
0.0
  0
LINE
  8
LC-006-005-----0
  6
CONTINUOUS
  5
34A
 10
606.979806
 20
338.279229
 30
0.0
 11
607.484427
 21
338.78385
 31
0.0
  0
LINE
  8
LC-006-005-----0
  6
CONTINUOUS
  5
34B
 10
605.687345
 20
339.815195
 30
0.0
 11
606.1779
 21
340.30575
 31
0.0
  0
LINE
  8
LC-006-005-----0
  6
CONTINUOUS
  5
34C
 10
603.929753
 20
340.88603
 30
0.0
 11
604.455597
 21
341.411875
 31
0.0
  0
LINE
  8
LC-006-005-----0
  6
CONTINUOUS
  5
34D
 10
601.573533
 20
341.358237
 30
0.0
 11
602.217876
 21
342.00258
 31
0.0
  0
LINE
  8
LC-006-005-----0
  6
CONTINUOUS
  5
34E
 10
598.929962
 20
341.543094
 30
0.0
 11
599.575922
 21
342.189053
 31
0.0
  0
LINE
  8
LC-006-005-----0
  6
CONTINUOUS
  5
34F
 10
596.286392
 20
341.72795
 30
0.0
 11
596.932351
 21
342.37391
 31
0.0
  0
LINE
  8
LC-006-005-----0
  6
CONTINUOUS
  5
350
 10
593.642821
 20
341.912807
 30
0.0
 11
594.28878
 21
342.558766
 31
0.0
  0
LINE
  8
LC-006-005-----0
  6
CONTINUOUS
  5
351
 10
590.99925
 20
342.097663
 30
0.0
 11
591.64521
 21
342.743623
 31
0.0
  0
LINE
  8
LC-006-005-----0
  6
CONTINUOUS
  5
352
 10
588.35568
 20
342.28252
 30
0.0
 11
589.001639
 21
342.928479
 31
0.0
  0
LINE
  8
LC-006-005-----0
  6
CONTINUOUS
  5
353
 10
585.712109
 20
342.467376
 30
0.0
 11
586.358068
 21
343.113336
 31
0.0
  0
LINE
  8
LC-006-005-----0
  6
CONTINUOUS
  5
354
 10
583.156108
 20
342.739803
 30
0.0
 11
583.750227
 21
343.333921
 31
0.0
  0
LINE
  8
LC-006-005-----0
  6
CONTINUOUS
  5
355
 10
581.149817
 20
343.561939
 30
0.0
 11
581.661244
 21
344.073366
 31
0.0
  0
LINE
  8
LC-006-005-----0
  6
CONTINUOUS
  5
356
 10
579.598045
 20
344.838594
 30
0.0
 11
579.903539
 21
345.144087
 31
0.0
  0
ENDBLK
  8
0
  5
357
  0
BLOCK
  8
0
  5
359
  2
*X28
 70
    65
 10
437.327471
 20
343.165213
 30
0.0
  3
*X28
  0
LINE
  8
LC-006-005-----0
  6
CONTINUOUS
  5
35A
 10
447.251331
 20
343.165213
 30
0.0
 11
447.327471
 21
343.241353
 31
0.0
  0
LINE
  8
LC-006-005-----0
  6
CONTINUOUS
  5
35B
 10
446.685646
 20
343.165213
 30
0.0
 11
447.327471
 21
343.807038
 31
0.0
  0
LINE
  8
LC-006-005-----0
  6
CONTINUOUS
  5
35C
 10
446.11996
 20
343.165213
 30
0.0
 11
447.327471
 21
344.372724
 31
0.0
  0
LINE
  8
LC-006-005-----0
  6
CONTINUOUS
  5
35D
 10
445.554275
 20
343.165213
 30
0.0
 11
447.327471
 21
344.938409
 31
0.0
  0
LINE
  8
LC-006-005-----0
  6
CONTINUOUS
  5
35E
 10
444.988589
 20
343.165213
 30
0.0
 11
447.327471
 21
345.504094
 31
0.0
  0
LINE
  8
LC-006-005-----0
  6
CONTINUOUS
  5
35F
 10
444.422904
 20
343.165213
 30
0.0
 11
447.327471
 21
346.06978
 31
0.0
  0
LINE
  8
LC-006-005-----0
  6
CONTINUOUS
  5
360
 10
443.857219
 20
343.165213
 30
0.0
 11
447.327471
 21
346.635465
 31
0.0
  0
LINE
  8
LC-006-005-----0
  6
CONTINUOUS
  5
361
 10
443.291533
 20
343.165213
 30
0.0
 11
447.327471
 21
347.201151
 31
0.0
  0
LINE
  8
LC-006-005-----0
  6
CONTINUOUS
  5
362
 10
442.725848
 20
343.165213
 30
0.0
 11
447.327471
 21
347.766836
 31
0.0
  0
LINE
  8
LC-006-005-----0
  6
CONTINUOUS
  5
363
 10
442.160162
 20
343.165213
 30
0.0
 11
446.860162
 21
347.865213
 31
0.0
  0
LINE
  8
LC-006-005-----0
  6
CONTINUOUS
  5
364
 10
441.594477
 20
343.165213
 30
0.0
 11
446.294477
 21
347.865213
 31
0.0
  0
LINE
  8
LC-006-005-----0
  6
CONTINUOUS
  5
365
 10
441.028791
 20
343.165213
 30
0.0
 11
445.728791
 21
347.865213
 31
0.0
  0
LINE
  8
LC-006-005-----0
  6
CONTINUOUS
  5
366
 10
440.463106
 20
343.165213
 30
0.0
 11
445.163106
 21
347.865213
 31
0.0
  0
LINE
  8
LC-006-005-----0
  6
CONTINUOUS
  5
367
 10
439.897421
 20
343.165213
 30
0.0
 11
444.597421
 21
347.865213
 31
0.0
  0
LINE
  8
LC-006-005-----0
  6
CONTINUOUS
  5
368
 10
439.331735
 20
343.165213
 30
0.0
 11
444.031735
 21
347.865213
 31
0.0
  0
LINE
  8
LC-006-005-----0
  6
CONTINUOUS
  5
369
 10
438.76605
 20
343.165213
 30
0.0
 11
443.46605
 21
347.865213
 31
0.0
  0
LINE
  8
LC-006-005-----0
  6
CONTINUOUS
  5
36A
 10
438.200364
 20
343.165213
 30
0.0
 11
442.900364
 21
347.865213
 31
0.0
  0
LINE
  8
LC-006-005-----0
  6
CONTINUOUS
  5
36B
 10
437.634679
 20
343.165213
 30
0.0
 11
442.334679
 21
347.865213
 31
0.0
  0
LINE
  8
LC-006-005-----0
  6
CONTINUOUS
  5
36C
 10
437.327471
 20
343.42369
 30
0.0
 11
441.768993
 21
347.865213
 31
0.0
  0
LINE
  8
LC-006-005-----0
  6
CONTINUOUS
  5
36D
 10
437.327471
 20
343.989376
 30
0.0
 11
441.203308
 21
347.865213
 31
0.0
  0
LINE
  8
LC-006-005-----0
  6
CONTINUOUS
  5
36E
 10
437.327471
 20
344.555061
 30
0.0
 11
440.637623
 21
347.865213
 31
0.0
  0
LINE
  8
LC-006-005-----0
  6
CONTINUOUS
  5
36F
 10
437.327471
 20
345.120747
 30
0.0
 11
440.071937
 21
347.865213
 31
0.0
  0
LINE
  8
LC-006-005-----0
  6
CONTINUOUS
  5
370
 10
437.327471
 20
345.686432
 30
0.0
 11
439.506252
 21
347.865213
 31
0.0
  0
LINE
  8
LC-006-005-----0
  6
CONTINUOUS
  5
371
 10
437.327471
 20
346.252117
 30
0.0
 11
438.940566
 21
347.865213
 31
0.0
  0
LINE
  8
LC-006-005-----0
  6
CONTINUOUS
  5
372
 10
437.327471
 20
346.817803
 30
0.0
 11
438.374881
 21
347.865213
 31
0.0
  0
LINE
  8
LC-006-005-----0
  6
CONTINUOUS
  5
373
 10
437.327471
 20
347.383488
 30
0.0
 11
437.809196
 21
347.865213
 31
0.0
  0
ENDBLK
  8
0
  5
374
  0
BLOCK
  8
0
  5
376
  2
*X29
 70
    65
 10
457.327471
 20
343.165213
 30
0.0
  3
*X29
  0
LINE
  8
LC-006-005-----0
  6
CONTINUOUS
  5
377
 10
467.050321
 20
343.165213
 30
0.0
 11
467.327471
 21
343.442363
 31
0.0
  0
LINE
  8
LC-006-005-----0
  6
CONTINUOUS
  5
378
 10
466.484636
 20
343.165213
 30
0.0
 11
467.327471
 21
344.008048
 31
0.0
  0
LINE
  8
LC-006-005-----0
  6
CONTINUOUS
  5
379
 10
465.91895
 20
343.165213
 30
0.0
 11
467.327471
 21
344.573734
 31
0.0
  0
LINE
  8
LC-006-005-----0
  6
CONTINUOUS
  5
37A
 10
465.353265
 20
343.165213
 30
0.0
 11
467.327471
 21
345.139419
 31
0.0
  0
LINE
  8
LC-006-005-----0
  6
CONTINUOUS
  5
37B
 10
464.787579
 20
343.165213
 30
0.0
 11
467.327471
 21
345.705105
 31
0.0
  0
LINE
  8
LC-006-005-----0
  6
CONTINUOUS
  5
37C
 10
464.221894
 20
343.165213
 30
0.0
 11
467.327471
 21
346.27079
 31
0.0
  0
LINE
  8
LC-006-005-----0
  6
CONTINUOUS
  5
37D
 10
463.656208
 20
343.165213
 30
0.0
 11
467.327471
 21
346.836475
 31
0.0
  0
LINE
  8
LC-006-005-----0
  6
CONTINUOUS
  5
37E
 10
463.090523
 20
343.165213
 30
0.0
 11
467.327471
 21
347.402161
 31
0.0
  0
LINE
  8
LC-006-005-----0
  6
CONTINUOUS
  5
37F
 10
462.524838
 20
343.165213
 30
0.0
 11
467.224838
 21
347.865213
 31
0.0
  0
LINE
  8
LC-006-005-----0
  6
CONTINUOUS
  5
380
 10
461.959152
 20
343.165213
 30
0.0
 11
466.659152
 21
347.865213
 31
0.0
  0
LINE
  8
LC-006-005-----0
  6
CONTINUOUS
  5
381
 10
461.393467
 20
343.165213
 30
0.0
 11
466.093467
 21
347.865213
 31
0.0
  0
LINE
  8
LC-006-005-----0
  6
CONTINUOUS
  5
382
 10
460.827781
 20
343.165213
 30
0.0
 11
465.527781
 21
347.865213
 31
0.0
  0
LINE
  8
LC-006-005-----0
  6
CONTINUOUS
  5
383
 10
460.262096
 20
343.165213
 30
0.0
 11
464.962096
 21
347.865213
 31
0.0
  0
LINE
  8
LC-006-005-----0
  6
CONTINUOUS
  5
384
 10
459.69641
 20
343.165213
 30
0.0
 11
464.39641
 21
347.865213
 31
0.0
  0
LINE
  8
LC-006-005-----0
  6
CONTINUOUS
  5
385
 10
459.130725
 20
343.165213
 30
0.0
 11
463.830725
 21
347.865213
 31
0.0
  0
LINE
  8
LC-006-005-----0
  6
CONTINUOUS
  5
386
 10
458.56504
 20
343.165213
 30
0.0
 11
463.26504
 21
347.865213
 31
0.0
  0
LINE
  8
LC-006-005-----0
  6
CONTINUOUS
  5
387
 10
457.999354
 20
343.165213
 30
0.0
 11
462.699354
 21
347.865213
 31
0.0
  0
LINE
  8
LC-006-005-----0
  6
CONTINUOUS
  5
388
 10
457.433669
 20
343.165213
 30
0.0
 11
462.133669
 21
347.865213
 31
0.0
  0
LINE
  8
LC-006-005-----0
  6
CONTINUOUS
  5
389
 10
457.327471
 20
343.6247
 30
0.0
 11
461.567983
 21
347.865213
 31
0.0
  0
LINE
  8
LC-006-005-----0
  6
CONTINUOUS
  5
38A
 10
457.327471
 20
344.190386
 30
0.0
 11
461.002298
 21
347.865213
 31
0.0
  0
LINE
  8
LC-006-005-----0
  6
CONTINUOUS
  5
38B
 10
457.327471
 20
344.756071
 30
0.0
 11
460.436612
 21
347.865213
 31
0.0
  0
LINE
  8
LC-006-005-----0
  6
CONTINUOUS
  5
38C
 10
457.327471
 20
345.321757
 30
0.0
 11
459.870927
 21
347.865213
 31
0.0
  0
LINE
  8
LC-006-005-----0
  6
CONTINUOUS
  5
38D
 10
457.327471
 20
345.887442
 30
0.0
 11
459.305242
 21
347.865213
 31
0.0
  0
LINE
  8
LC-006-005-----0
  6
CONTINUOUS
  5
38E
 10
457.327471
 20
346.453128
 30
0.0
 11
458.739556
 21
347.865213
 31
0.0
  0
LINE
  8
LC-006-005-----0
  6
CONTINUOUS
  5
38F
 10
457.327471
 20
347.018813
 30
0.0
 11
458.173871
 21
347.865213
 31
0.0
  0
LINE
  8
LC-006-005-----0
  6
CONTINUOUS
  5
390
 10
457.327471
 20
347.584498
 30
0.0
 11
457.608185
 21
347.865213
 31
0.0
  0
ENDBLK
  8
0
  5
391
  0
BLOCK
  8
0
  5
393
  2
*X30
 70
    65
 10
477.327471
 20
343.165213
 30
0.0
  3
*X30
  0
LINE
  8
LC-006-005-----0
  6
CONTINUOUS
  5
394
 10
486.849311
 20
343.165213
 30
0.0
 11
487.327471
 21
343.643373
 31
0.0
  0
LINE
  8
LC-006-005-----0
  6
CONTINUOUS
  5
395
 10
486.283625
 20
343.165213
 30
0.0
 11
487.327471
 21
344.209058
 31
0.0
  0
LINE
  8
LC-006-005-----0
  6
CONTINUOUS
  5
396
 10
485.71794
 20
343.165213
 30
0.0
 11
487.327471
 21
344.774744
 31
0.0
  0
LINE
  8
LC-006-005-----0
  6
CONTINUOUS
  5
397
 10
485.152255
 20
343.165213
 30
0.0
 11
487.327471
 21
345.340429
 31
0.0
  0
LINE
  8
LC-006-005-----0
  6
CONTINUOUS
  5
398
 10
484.586569
 20
343.165213
 30
0.0
 11
487.327471
 21
345.906115
 31
0.0
  0
LINE
  8
LC-006-005-----0
  6
CONTINUOUS
  5
399
 10
484.020884
 20
343.165213
 30
0.0
 11
487.327471
 21
346.4718
 31
0.0
  0
LINE
  8
LC-006-005-----0
  6
CONTINUOUS
  5
39A
 10
483.455198
 20
343.165213
 30
0.0
 11
487.327471
 21
347.037485
 31
0.0
  0
LINE
  8
LC-006-005-----0
  6
CONTINUOUS
  5
39B
 10
482.889513
 20
343.165213
 30
0.0
 11
487.327471
 21
347.603171
 31
0.0
  0
LINE
  8
LC-006-005-----0
  6
CONTINUOUS
  5
39C
 10
482.323827
 20
343.165213
 30
0.0
 11
487.023827
 21
347.865213
 31
0.0
  0
LINE
  8
LC-006-005-----0
  6
CONTINUOUS
  5
39D
 10
481.758142
 20
343.165213
 30
0.0
 11
486.458142
 21
347.865213
 31
0.0
  0
LINE
  8
LC-006-005-----0
  6
CONTINUOUS
  5
39E
 10
481.192457
 20
343.165213
 30
0.0
 11
485.892457
 21
347.865213
 31
0.0
  0
LINE
  8
LC-006-005-----0
  6
CONTINUOUS
  5
39F
 10
480.626771
 20
343.165213
 30
0.0
 11
485.326771
 21
347.865213
 31
0.0
  0
LINE
  8
LC-006-005-----0
  6
CONTINUOUS
  5
3A0
 10
480.061086
 20
343.165213
 30
0.0
 11
484.761086
 21
347.865213
 31
0.0
  0
LINE
  8
LC-006-005-----0
  6
CONTINUOUS
  5
3A1
 10
479.4954
 20
343.165213
 30
0.0
 11
484.1954
 21
347.865213
 31
0.0
  0
LINE
  8
LC-006-005-----0
  6
CONTINUOUS
  5
3A2
 10
478.929715
 20
343.165213
 30
0.0
 11
483.629715
 21
347.865213
 31
0.0
  0
LINE
  8
LC-006-005-----0
  6
CONTINUOUS
  5
3A3
 10
478.364029
 20
343.165213
 30
0.0
 11
483.064029
 21
347.865213
 31
0.0
  0
LINE
  8
LC-006-005-----0
  6
CONTINUOUS
  5
3A4
 10
477.798344
 20
343.165213
 30
0.0
 11
482.498344
 21
347.865213
 31
0.0
  0
LINE
  8
LC-006-005-----0
  6
CONTINUOUS
  5
3A5
 10
477.327471
 20
343.260025
 30
0.0
 11
481.932659
 21
347.865213
 31
0.0
  0
LINE
  8
LC-006-005-----0
  6
CONTINUOUS
  5
3A6
 10
477.327471
 20
343.825711
 30
0.0
 11
481.366973
 21
347.865213
 31
0.0
  0
LINE
  8
LC-006-005-----0
  6
CONTINUOUS
  5
3A7
 10
477.327471
 20
344.391396
 30
0.0
 11
480.801288
 21
347.865213
 31
0.0
  0
LINE
  8
LC-006-005-----0
  6
CONTINUOUS
  5
3A8
 10
477.327471
 20
344.957081
 30
0.0
 11
480.235602
 21
347.865213
 31
0.0
  0
LINE
  8
LC-006-005-----0
  6
CONTINUOUS
  5
3A9
 10
477.327471
 20
345.522767
 30
0.0
 11
479.669917
 21
347.865213
 31
0.0
  0
LINE
  8
LC-006-005-----0
  6
CONTINUOUS
  5
3AA
 10
477.327471
 20
346.088452
 30
0.0
 11
479.104232
 21
347.865213
 31
0.0
  0
LINE
  8
LC-006-005-----0
  6
CONTINUOUS
  5
3AB
 10
477.327471
 20
346.654138
 30
0.0
 11
478.538546
 21
347.865213
 31
0.0
  0
LINE
  8
LC-006-005-----0
  6
CONTINUOUS
  5
3AC
 10
477.327471
 20
347.219823
 30
0.0
 11
477.972861
 21
347.865213
 31
0.0
  0
LINE
  8
LC-006-005-----0
  6
CONTINUOUS
  5
3AD
 10
477.327471
 20
347.785509
 30
0.0
 11
477.407175
 21
347.865213
 31
0.0
  0
ENDBLK
  8
0
  5
3AE
  0
BLOCK
  8
0
  5
3B0
  2
*X31
 70
    65
 10
497.327471
 20
343.165213
 30
0.0
  3
*X31
  0
LINE
  8
LC-006-005-----0
  6
CONTINUOUS
  5
3B1
 10
507.213986
 20
343.165213
 30
0.0
 11
507.327471
 21
343.278698
 31
0.0
  0
LINE
  8
LC-006-005-----0
  6
CONTINUOUS
  5
3B2
 10
506.648301
 20
343.165213
 30
0.0
 11
507.327471
 21
343.844383
 31
0.0
  0
LINE
  8
LC-006-005-----0
  6
CONTINUOUS
  5
3B3
 10
506.082615
 20
343.165213
 30
0.0
 11
507.327471
 21
344.410068
 31
0.0
  0
LINE
  8
LC-006-005-----0
  6
CONTINUOUS
  5
3B4
 10
505.51693
 20
343.165213
 30
0.0
 11
507.327471
 21
344.975754
 31
0.0
  0
LINE
  8
LC-006-005-----0
  6
CONTINUOUS
  5
3B5
 10
504.951244
 20
343.165213
 30
0.0
 11
507.327471
 21
345.541439
 31
0.0
  0
LINE
  8
LC-006-005-----0
  6
CONTINUOUS
  5
3B6
 10
504.385559
 20
343.165213
 30
0.0
 11
507.327471
 21
346.107125
 31
0.0
  0
LINE
  8
LC-006-005-----0
  6
CONTINUOUS
  5
3B7
 10
503.819874
 20
343.165213
 30
0.0
 11
507.327471
 21
346.67281
 31
0.0
  0
LINE
  8
LC-006-005-----0
  6
CONTINUOUS
  5
3B8
 10
503.254188
 20
343.165213
 30
0.0
 11
507.327471
 21
347.238496
 31
0.0
  0
LINE
  8
LC-006-005-----0
  6
CONTINUOUS
  5
3B9
 10
502.688503
 20
343.165213
 30
0.0
 11
507.327471
 21
347.804181
 31
0.0
  0
LINE
  8
LC-006-005-----0
  6
CONTINUOUS
  5
3BA
 10
502.122817
 20
343.165213
 30
0.0
 11
506.822817
 21
347.865213
 31
0.0
  0
LINE
  8
LC-006-005-----0
  6
CONTINUOUS
  5
3BB
 10
501.557132
 20
343.165213
 30
0.0
 11
506.257132
 21
347.865213
 31
0.0
  0
LINE
  8
LC-006-005-----0
  6
CONTINUOUS
  5
3BC
 10
500.991446
 20
343.165213
 30
0.0
 11
505.691446
 21
347.865213
 31
0.0
  0
LINE
  8
LC-006-005-----0
  6
CONTINUOUS
  5
3BD
 10
500.425761
 20
343.165213
 30
0.0
 11
505.125761
 21
347.865213
 31
0.0
  0
LINE
  8
LC-006-005-----0
  6
CONTINUOUS
  5
3BE
 10
499.860076
 20
343.165213
 30
0.0
 11
504.560076
 21
347.865213
 31
0.0
  0
LINE
  8
LC-006-005-----0
  6
CONTINUOUS
  5
3BF
 10
499.29439
 20
343.165213
 30
0.0
 11
503.99439
 21
347.865213
 31
0.0
  0
LINE
  8
LC-006-005-----0
  6
CONTINUOUS
  5
3C0
 10
498.728705
 20
343.165213
 30
0.0
 11
503.428705
 21
347.865213
 31
0.0
  0
LINE
  8
LC-006-005-----0
  6
CONTINUOUS
  5
3C1
 10
498.163019
 20
343.165213
 30
0.0
 11
502.863019
 21
347.865213
 31
0.0
  0
LINE
  8
LC-006-005-----0
  6
CONTINUOUS
  5
3C2
 10
497.597334
 20
343.165213
 30
0.0
 11
502.297334
 21
347.865213
 31
0.0
  0
LINE
  8
LC-006-005-----0
  6
CONTINUOUS
  5
3C3
 10
497.327471
 20
343.461035
 30
0.0
 11
501.731649
 21
347.865213
 31
0.0
  0
LINE
  8
LC-006-005-----0
  6
CONTINUOUS
  5
3C4
 10
497.327471
 20
344.026721
 30
0.0
 11
501.165963
 21
347.865213
 31
0.0
  0
LINE
  8
LC-006-005-----0
  6
CONTINUOUS
  5
3C5
 10
497.327471
 20
344.592406
 30
0.0
 11
500.600278
 21
347.865213
 31
0.0
  0
LINE
  8
LC-006-005-----0
  6
CONTINUOUS
  5
3C6
 10
497.327471
 20
345.158092
 30
0.0
 11
500.034592
 21
347.865213
 31
0.0
  0
LINE
  8
LC-006-005-----0
  6
CONTINUOUS
  5
3C7
 10
497.327471
 20
345.723777
 30
0.0
 11
499.468907
 21
347.865213
 31
0.0
  0
LINE
  8
LC-006-005-----0
  6
CONTINUOUS
  5
3C8
 10
497.327471
 20
346.289462
 30
0.0
 11
498.903221
 21
347.865213
 31
0.0
  0
LINE
  8
LC-006-005-----0
  6
CONTINUOUS
  5
3C9
 10
497.327471
 20
346.855148
 30
0.0
 11
498.337536
 21
347.865213
 31
0.0
  0
LINE
  8
LC-006-005-----0
  6
CONTINUOUS
  5
3CA
 10
497.327471
 20
347.420833
 30
0.0
 11
497.771851
 21
347.865213
 31
0.0
  0
ENDBLK
  8
0
  5
3CB
  0
BLOCK
  8
0
  5
3CD
  2
*X32
 70
    65
 10
517.327471
 20
343.165213
 30
0.0
  3
*X32
  0
LINE
  8
LC-006-005-----0
  6
CONTINUOUS
  5
3CE
 10
527.012976
 20
343.165213
 30
0.0
 11
527.327471
 21
343.479708
 31
0.0
  0
LINE
  8
LC-006-005-----0
  6
CONTINUOUS
  5
3CF
 10
526.447291
 20
343.165213
 30
0.0
 11
527.327471
 21
344.045393
 31
0.0
  0
LINE
  8
LC-006-005-----0
  6
CONTINUOUS
  5
3D0
 10
525.881605
 20
343.165213
 30
0.0
 11
527.327471
 21
344.611079
 31
0.0
  0
LINE
  8
LC-006-005-----0
  6
CONTINUOUS
  5
3D1
 10
525.31592
 20
343.165213
 30
0.0
 11
527.327471
 21
345.176764
 31
0.0
  0
LINE
  8
LC-006-005-----0
  6
CONTINUOUS
  5
3D2
 10
524.750234
 20
343.165213
 30
0.0
 11
527.327471
 21
345.742449
 31
0.0
  0
LINE
  8
LC-006-005-----0
  6
CONTINUOUS
  5
3D3
 10
524.184549
 20
343.165213
 30
0.0
 11
527.327471
 21
346.308135
 31
0.0
  0
LINE
  8
LC-006-005-----0
  6
CONTINUOUS
  5
3D4
 10
523.618863
 20
343.165213
 30
0.0
 11
527.327471
 21
346.87382
 31
0.0
  0
LINE
  8
LC-006-005-----0
  6
CONTINUOUS
  5
3D5
 10
523.053178
 20
343.165213
 30
0.0
 11
527.327471
 21
347.439506
 31
0.0
  0
LINE
  8
LC-006-005-----0
  6
CONTINUOUS
  5
3D6
 10
522.487493
 20
343.165213
 30
0.0
 11
527.187493
 21
347.865213
 31
0.0
  0
LINE
  8
LC-006-005-----0
  6
CONTINUOUS
  5
3D7
 10
521.921807
 20
343.165213
 30
0.0
 11
526.621807
 21
347.865213
 31
0.0
  0
LINE
  8
LC-006-005-----0
  6
CONTINUOUS
  5
3D8
 10
521.356122
 20
343.165213
 30
0.0
 11
526.056122
 21
347.865213
 31
0.0
  0
LINE
  8
LC-006-005-----0
  6
CONTINUOUS
  5
3D9
 10
520.790436
 20
343.165213
 30
0.0
 11
525.490436
 21
347.865213
 31
0.0
  0
LINE
  8
LC-006-005-----0
  6
CONTINUOUS
  5
3DA
 10
520.224751
 20
343.165213
 30
0.0
 11
524.924751
 21
347.865213
 31
0.0
  0
LINE
  8
LC-006-005-----0
  6
CONTINUOUS
  5
3DB
 10
519.659066
 20
343.165213
 30
0.0
 11
524.359066
 21
347.865213
 31
0.0
  0
LINE
  8
LC-006-005-----0
  6
CONTINUOUS
  5
3DC
 10
519.09338
 20
343.165213
 30
0.0
 11
523.79338
 21
347.865213
 31
0.0
  0
LINE
  8
LC-006-005-----0
  6
CONTINUOUS
  5
3DD
 10
518.527695
 20
343.165213
 30
0.0
 11
523.227695
 21
347.865213
 31
0.0
  0
LINE
  8
LC-006-005-----0
  6
CONTINUOUS
  5
3DE
 10
517.962009
 20
343.165213
 30
0.0
 11
522.662009
 21
347.865213
 31
0.0
  0
LINE
  8
LC-006-005-----0
  6
CONTINUOUS
  5
3DF
 10
517.396324
 20
343.165213
 30
0.0
 11
522.096324
 21
347.865213
 31
0.0
  0
LINE
  8
LC-006-005-----0
  6
CONTINUOUS
  5
3E0
 10
517.327471
 20
343.662045
 30
0.0
 11
521.530638
 21
347.865213
 31
0.0
  0
LINE
  8
LC-006-005-----0
  6
CONTINUOUS
  5
3E1
 10
517.327471
 20
344.227731
 30
0.0
 11
520.964953
 21
347.865213
 31
0.0
  0
LINE
  8
LC-006-005-----0
  6
CONTINUOUS
  5
3E2
 10
517.327471
 20
344.793416
 30
0.0
 11
520.399268
 21
347.865213
 31
0.0
  0
LINE
  8
LC-006-005-----0
  6
CONTINUOUS
  5
3E3
 10
517.327471
 20
345.359102
 30
0.0
 11
519.833582
 21
347.865213
 31
0.0
  0
LINE
  8
LC-006-005-----0
  6
CONTINUOUS
  5
3E4
 10
517.327471
 20
345.924787
 30
0.0
 11
519.267897
 21
347.865213
 31
0.0
  0
LINE
  8
LC-006-005-----0
  6
CONTINUOUS
  5
3E5
 10
517.327471
 20
346.490473
 30
0.0
 11
518.702211
 21
347.865213
 31
0.0
  0
LINE
  8
LC-006-005-----0
  6
CONTINUOUS
  5
3E6
 10
517.327471
 20
347.056158
 30
0.0
 11
518.136526
 21
347.865213
 31
0.0
  0
LINE
  8
LC-006-005-----0
  6
CONTINUOUS
  5
3E7
 10
517.327471
 20
347.621843
 30
0.0
 11
517.57084
 21
347.865213
 31
0.0
  0
ENDBLK
  8
0
  5
3E8
  0
BLOCK
  8
0
  5
3EA
  2
*X33
 70
    65
 10
537.327471
 20
342.389701
 30
0.0
  3
*X33
  0
LINE
  8
LC-006-005-----0
  6
CONTINUOUS
  5
3EB
 10
547.178036
 20
342.399912
 30
0.0
 11
547.327471
 21
342.549347
 31
0.0
  0
LINE
  8
LC-006-005-----0
  6
CONTINUOUS
  5
3EC
 10
546.649019
 20
342.436581
 30
0.0
 11
547.327471
 21
343.115032
 31
0.0
  0
LINE
  8
LC-006-005-----0
  6
CONTINUOUS
  5
3ED
 10
546.120002
 20
342.473249
 30
0.0
 11
547.327471
 21
343.680718
 31
0.0
  0
LINE
  8
LC-006-005-----0
  6
CONTINUOUS
  5
3EE
 10
545.590986
 20
342.509918
 30
0.0
 11
547.327471
 21
344.246403
 31
0.0
  0
LINE
  8
LC-006-005-----0
  6
CONTINUOUS
  5
3EF
 10
545.061969
 20
342.546587
 30
0.0
 11
547.327471
 21
344.812089
 31
0.0
  0
LINE
  8
LC-006-005-----0
  6
CONTINUOUS
  5
3F0
 10
544.532952
 20
342.583255
 30
0.0
 11
547.327471
 21
345.377774
 31
0.0
  0
LINE
  8
LC-006-005-----0
  6
CONTINUOUS
  5
3F1
 10
544.003935
 20
342.619924
 30
0.0
 11
547.327471
 21
345.94346
 31
0.0
  0
LINE
  8
LC-006-005-----0
  6
CONTINUOUS
  5
3F2
 10
543.474919
 20
342.656593
 30
0.0
 11
547.327471
 21
346.509145
 31
0.0
  0
LINE
  8
LC-006-005-----0
  6
CONTINUOUS
  5
3F3
 10
542.945902
 20
342.693261
 30
0.0
 11
547.327471
 21
347.07483
 31
0.0
  0
LINE
  8
LC-006-005-----0
  6
CONTINUOUS
  5
3F4
 10
542.416885
 20
342.72993
 30
0.0
 11
546.82277
 21
347.135815
 31
0.0
  0
LINE
  8
LC-006-005-----0
  6
CONTINUOUS
  5
3F5
 10
541.887868
 20
342.766599
 30
0.0
 11
546.293753
 21
347.172483
 31
0.0
  0
LINE
  8
LC-006-005-----0
  6
CONTINUOUS
  5
3F6
 10
541.358851
 20
342.803267
 30
0.0
 11
545.764736
 21
347.209152
 31
0.0
  0
LINE
  8
LC-006-005-----0
  6
CONTINUOUS
  5
3F7
 10
540.829835
 20
342.839936
 30
0.0
 11
545.235719
 21
347.24582
 31
0.0
  0
LINE
  8
LC-006-005-----0
  6
CONTINUOUS
  5
3F8
 10
540.300818
 20
342.876605
 30
0.0
 11
544.706702
 21
347.282489
 31
0.0
  0
LINE
  8
LC-006-005-----0
  6
CONTINUOUS
  5
3F9
 10
539.771801
 20
342.913273
 30
0.0
 11
544.177686
 21
347.319158
 31
0.0
  0
LINE
  8
LC-006-005-----0
  6
CONTINUOUS
  5
3FA
 10
539.242784
 20
342.949942
 30
0.0
 11
543.648669
 21
347.355826
 31
0.0
  0
LINE
  8
LC-006-005-----0
  6
CONTINUOUS
  5
3FB
 10
538.713768
 20
342.98661
 30
0.0
 11
543.119652
 21
347.392495
 31
0.0
  0
LINE
  8
LC-006-005-----0
  6
CONTINUOUS
  5
3FC
 10
538.184751
 20
343.023279
 30
0.0
 11
542.590635
 21
347.429164
 31
0.0
  0
LINE
  8
LC-006-005-----0
  6
CONTINUOUS
  5
3FD
 10
537.655734
 20
343.059948
 30
0.0
 11
542.061618
 21
347.465832
 31
0.0
  0
LINE
  8
LC-006-005-----0
  6
CONTINUOUS
  5
3FE
 10
537.327471
 20
343.29737
 30
0.0
 11
541.532602
 21
347.502501
 31
0.0
  0
LINE
  8
LC-006-005-----0
  6
CONTINUOUS
  5
3FF
 10
537.327471
 20
343.863056
 30
0.0
 11
541.003585
 21
347.53917
 31
0.0
  0
LINE
  8
LC-006-005-----0
  6
CONTINUOUS
  5
400
 10
537.327471
 20
344.428741
 30
0.0
 11
540.474568
 21
347.575838
 31
0.0
  0
LINE
  8
LC-006-005-----0
  6
CONTINUOUS
  5
401
 10
537.327471
 20
344.994426
 30
0.0
 11
539.945551
 21
347.612507
 31
0.0
  0
LINE
  8
LC-006-005-----0
  6
CONTINUOUS
  5
402
 10
537.327471
 20
345.560112
 30
0.0
 11
539.416535
 21
347.649175
 31
0.0
  0
LINE
  8
LC-006-005-----0
  6
CONTINUOUS
  5
403
 10
537.327471
 20
346.125797
 30
0.0
 11
538.887518
 21
347.685844
 31
0.0
  0
LINE
  8
LC-006-005-----0
  6
CONTINUOUS
  5
404
 10
537.327471
 20
346.691483
 30
0.0
 11
538.358501
 21
347.722513
 31
0.0
  0
LINE
  8
LC-006-005-----0
  6
CONTINUOUS
  5
405
 10
537.327471
 20
347.257168
 30
0.0
 11
537.829484
 21
347.759181
 31
0.0
  0
ENDBLK
  8
0
  5
406
  0
BLOCK
  8
0
  5
408
  2
*X34
 70
    65
 10
557.327471
 20
341.003407
 30
0.0
  3
*X34
  0
LINE
  8
LC-006-005-----0
  6
CONTINUOUS
  5
409
 10
567.280674
 20
341.006504
 30
0.0
 11
567.327471
 21
341.053301
 31
0.0
  0
LINE
  8
LC-006-005-----0
  6
CONTINUOUS
  5
40A
 10
566.751657
 20
341.043172
 30
0.0
 11
567.327471
 21
341.618986
 31
0.0
  0
LINE
  8
LC-006-005-----0
  6
CONTINUOUS
  5
40B
 10
566.22264
 20
341.079841
 30
0.0
 11
567.327471
 21
342.184672
 31
0.0
  0
LINE
  8
LC-006-005-----0
  6
CONTINUOUS
  5
40C
 10
565.693623
 20
341.11651
 30
0.0
 11
567.327471
 21
342.750357
 31
0.0
  0
LINE
  8
LC-006-005-----0
  6
CONTINUOUS
  5
40D
 10
565.164607
 20
341.153178
 30
0.0
 11
567.327471
 21
343.316043
 31
0.0
  0
LINE
  8
LC-006-005-----0
  6
CONTINUOUS
  5
40E
 10
564.63559
 20
341.189847
 30
0.0
 11
567.327471
 21
343.881728
 31
0.0
  0
LINE
  8
LC-006-005-----0
  6
CONTINUOUS
  5
40F
 10
564.106573
 20
341.226516
 30
0.0
 11
567.327471
 21
344.447413
 31
0.0
  0
LINE
  8
LC-006-005-----0
  6
CONTINUOUS
  5
410
 10
563.577556
 20
341.263184
 30
0.0
 11
567.327471
 21
345.013099
 31
0.0
  0
LINE
  8
LC-006-005-----0
  6
CONTINUOUS
  5
411
 10
563.04854
 20
341.299853
 30
0.0
 11
567.327471
 21
345.578784
 31
0.0
  0
LINE
  8
LC-006-005-----0
  6
CONTINUOUS
  5
412
 10
562.519523
 20
341.336522
 30
0.0
 11
566.925407
 21
345.742406
 31
0.0
  0
LINE
  8
LC-006-005-----0
  6
CONTINUOUS
  5
413
 10
561.990506
 20
341.37319
 30
0.0
 11
566.39639
 21
345.779075
 31
0.0
  0
LINE
  8
LC-006-005-----0
  6
CONTINUOUS
  5
414
 10
561.461489
 20
341.409859
 30
0.0
 11
565.867374
 21
345.815743
 31
0.0
  0
LINE
  8
LC-006-005-----0
  6
CONTINUOUS
  5
415
 10
560.932472
 20
341.446527
 30
0.0
 11
565.338357
 21
345.852412
 31
0.0
  0
LINE
  8
LC-006-005-----0
  6
CONTINUOUS
  5
416
 10
560.403456
 20
341.483196
 30
0.0
 11
564.80934
 21
345.889081
 31
0.0
  0
LINE
  8
LC-006-005-----0
  6
CONTINUOUS
  5
417
 10
559.874439
 20
341.519865
 30
0.0
 11
564.280323
 21
345.925749
 31
0.0
  0
LINE
  8
LC-006-005-----0
  6
CONTINUOUS
  5
418
 10
559.345422
 20
341.556533
 30
0.0
 11
563.751307
 21
345.962418
 31
0.0
  0
LINE
  8
LC-006-005-----0
  6
CONTINUOUS
  5
419
 10
558.816405
 20
341.593202
 30
0.0
 11
563.22229
 21
345.999087
 31
0.0
  0
LINE
  8
LC-006-005-----0
  6
CONTINUOUS
  5
41A
 10
558.287388
 20
341.629871
 30
0.0
 11
562.693273
 21
346.035755
 31
0.0
  0
LINE
  8
LC-006-005-----0
  6
CONTINUOUS
  5
41B
 10
557.758372
 20
341.666539
 30
0.0
 11
562.164256
 21
346.072424
 31
0.0
  0
LINE
  8
LC-006-005-----0
  6
CONTINUOUS
  5
41C
 10
557.327471
 20
341.801324
 30
0.0
 11
561.635239
 21
346.109093
 31
0.0
  0
LINE
  8
LC-006-005-----0
  6
CONTINUOUS
  5
41D
 10
557.327471
 20
342.367009
 30
0.0
 11
561.106223
 21
346.145761
 31
0.0
  0
LINE
  8
LC-006-005-----0
  6
CONTINUOUS
  5
41E
 10
557.327471
 20
342.932695
 30
0.0
 11
560.577206
 21
346.18243
 31
0.0
  0
LINE
  8
LC-006-005-----0
  6
CONTINUOUS
  5
41F
 10
557.327471
 20
343.49838
 30
0.0
 11
560.048189
 21
346.219098
 31
0.0
  0
LINE
  8
LC-006-005-----0
  6
CONTINUOUS
  5
420
 10
557.327471
 20
344.064066
 30
0.0
 11
559.519172
 21
346.255767
 31
0.0
  0
LINE
  8
LC-006-005-----0
  6
CONTINUOUS
  5
421
 10
557.327471
 20
344.629751
 30
0.0
 11
558.990156
 21
346.292436
 31
0.0
  0
LINE
  8
LC-006-005-----0
  6
CONTINUOUS
  5
422
 10
557.327471
 20
345.195437
 30
0.0
 11
558.461139
 21
346.329104
 31
0.0
  0
LINE
  8
LC-006-005-----0
  6
CONTINUOUS
  5
423
 10
557.327471
 20
345.761122
 30
0.0
 11
557.932122
 21
346.365773
 31
0.0
  0
LINE
  8
LC-006-005-----0
  6
CONTINUOUS
  5
424
 10
557.327471
 20
346.326807
 30
0.0
 11
557.403105
 21
346.402442
 31
0.0
  0
ENDBLK
  8
0
  5
425
  0
BLOCK
  8
0
  5
427
  2
*X35
 70
    65
 10
563.515249
 20
337.545758
 30
0.0
  3
*X35
  0
LINE
  8
LC-006-005-----0
  6
CONTINUOUS
  5
428
 10
587.080162
 20
337.612889
 30
0.0
 11
587.327471
 21
337.860198
 31
0.0
  0
LINE
  8
LC-006-005-----0
  6
CONTINUOUS
  5
429
 10
586.5528
 20
337.651213
 30
0.0
 11
587.327471
 21
338.425884
 31
0.0
  0
LINE
  8
LC-006-005-----0
  6
CONTINUOUS
  5
42A
 10
586.025437
 20
337.689536
 30
0.0
 11
587.327471
 21
338.991569
 31
0.0
  0
LINE
  8
LC-006-005-----0
  6
CONTINUOUS
  5
42B
 10
585.498075
 20
337.727859
 30
0.0
 11
587.327471
 21
339.557255
 31
0.0
  0
LINE
  8
LC-006-005-----0
  6
CONTINUOUS
  5
42C
 10
584.970713
 20
337.766182
 30
0.0
 11
587.327471
 21
340.12294
 31
0.0
  0
LINE
  8
LC-006-005-----0
  6
CONTINUOUS
  5
42D
 10
584.44335
 20
337.804505
 30
0.0
 11
587.327471
 21
340.688626
 31
0.0
  0
LINE
  8
LC-006-005-----0
  6
CONTINUOUS
  5
42E
 10
583.915988
 20
337.842828
 30
0.0
 11
587.327471
 21
341.254311
 31
0.0
  0
LINE
  8
LC-006-005-----0
  6
CONTINUOUS
  5
42F
 10
583.388626
 20
337.881151
 30
0.0
 11
587.327471
 21
341.819996
 31
0.0
  0
LINE
  8
LC-006-005-----0
  6
CONTINUOUS
  5
430
 10
582.861263
 20
337.919474
 30
0.0
 11
587.252689
 21
342.3109
 31
0.0
  0
LINE
  8
LC-006-005-----0
  6
CONTINUOUS
  5
431
 10
582.362221
 20
337.986117
 30
0.0
 11
586.725326
 21
342.349223
 31
0.0
  0
LINE
  8
LC-006-005-----0
  6
CONTINUOUS
  5
432
 10
581.89379
 20
338.083372
 30
0.0
 11
586.197964
 21
342.387546
 31
0.0
  0
LINE
  8
LC-006-005-----0
  6
CONTINUOUS
  5
433
 10
581.433485
 20
338.188752
 30
0.0
 11
585.670602
 21
342.425869
 31
0.0
  0
LINE
  8
LC-006-005-----0
  6
CONTINUOUS
  5
434
 10
580.981001
 20
338.301953
 30
0.0
 11
585.143239
 21
342.464192
 31
0.0
  0
LINE
  8
LC-006-005-----0
  6
CONTINUOUS
  5
435
 10
580.536062
 20
338.4227
 30
0.0
 11
584.615877
 21
342.502515
 31
0.0
  0
LINE
  8
LC-006-005-----0
  6
CONTINUOUS
  5
436
 10
580.098417
 20
338.550741
 30
0.0
 11
584.088515
 21
342.540838
 31
0.0
  0
LINE
  8
LC-006-005-----0
  6
CONTINUOUS
  5
437
 10
579.667836
 20
338.685845
 30
0.0
 11
583.561152
 21
342.579161
 31
0.0
  0
LINE
  8
LC-006-005-----0
  6
CONTINUOUS
  5
438
 10
579.244107
 20
338.827801
 30
0.0
 11
583.058413
 21
342.642107
 31
0.0
  0
LINE
  8
LC-006-005-----0
  6
CONTINUOUS
  5
439
 10
578.827038
 20
338.976417
 30
0.0
 11
582.595626
 21
342.745006
 31
0.0
  0
LINE
  8
LC-006-005-----0
  6
CONTINUOUS
  5
43A
 10
578.41645
 20
339.131515
 30
0.0
 11
582.1427
 21
342.857765
 31
0.0
  0
LINE
  8
LC-006-005-----0
  6
CONTINUOUS
  5
43B
 10
578.012182
 20
339.292932
 30
0.0
 11
581.699199
 21
342.979949
 31
0.0
  0
LINE
  8
LC-006-005-----0
  6
CONTINUOUS
  5
43C
 10
577.614083
 20
339.460519
 30
0.0
 11
581.264735
 21
343.111171
 31
0.0
  0
LINE
  8
LC-006-005-----0
  6
CONTINUOUS
  5
43D
 10
577.327471
 20
339.739592
 30
0.0
 11
580.838961
 21
343.251082
 31
0.0
  0
LINE
  8
LC-006-005-----0
  6
CONTINUOUS
  5
43E
 10
577.327471
 20
340.305278
 30
0.0
 11
580.421566
 21
343.399373
 31
0.0
  0
LINE
  8
LC-006-005-----0
  6
CONTINUOUS
  5
43F
 10
577.327471
 20
340.870963
 30
0.0
 11
580.012271
 21
343.555764
 31
0.0
  0
LINE
  8
LC-006-005-----0
  6
CONTINUOUS
  5
440
 10
577.327471
 20
341.436649
 30
0.0
 11
579.610825
 21
343.720002
 31
0.0
  0
LINE
  8
LC-006-005-----0
  6
CONTINUOUS
  5
441
 10
577.327471
 20
342.002334
 30
0.0
 11
579.217
 21
343.891863
 31
0.0
  0
LINE
  8
LC-006-005-----0
  6
CONTINUOUS
  5
442
 10
577.327471
 20
342.56802
 30
0.0
 11
578.830594
 21
344.071142
 31
0.0
  0
LINE
  8
LC-006-005-----0
  6
CONTINUOUS
  5
443
 10
577.327471
 20
343.133705
 30
0.0
 11
578.451421
 21
344.257656
 31
0.0
  0
LINE
  8
LC-006-005-----0
  6
CONTINUOUS
  5
444
 10
577.327471
 20
343.69939
 30
0.0
 11
578.079318
 21
344.451237
 31
0.0
  0
LINE
  8
LC-006-005-----0
  6
CONTINUOUS
  5
445
 10
577.327471
 20
344.265076
 30
0.0
 11
577.714134
 21
344.651739
 31
0.0
  0
LINE
  8
LC-006-005-----0
  6
CONTINUOUS
  5
446
 10
577.327471
 20
344.830761
 30
0.0
 11
577.355736
 21
344.859027
 31
0.0
  0
ENDBLK
  8
0
  5
447
  0
BLOCK
  8
0
  5
449
  2
*X36
 70
    65
 10
755.637078
 20
318.555396
 30
0.0
  3
*X36
  0
LINE
  8
LC-006-005-----0
  6
CONTINUOUS
  5
44A
 10
762.618455
 20
318.555396
 30
0.0
 11
765.637078
 21
321.57402
 31
0.0
  0
LINE
  8
LC-006-005-----0
  6
CONTINUOUS
  5
44B
 10
759.790028
 20
318.555396
 30
0.0
 11
762.290028
 21
321.055396
 31
0.0
  0
LINE
  8
LC-006-005-----0
  6
CONTINUOUS
  5
44C
 10
763.137078
 20
321.902447
 30
0.0
 11
765.637078
 21
324.402447
 31
0.0
  0
LINE
  8
LC-006-005-----0
  6
CONTINUOUS
  5
44D
 10
756.961601
 20
318.555396
 30
0.0
 11
759.461601
 21
321.055396
 31
0.0
  0
LINE
  8
LC-006-005-----0
  6
CONTINUOUS
  5
44E
 10
763.137078
 20
324.730874
 30
0.0
 11
765.637078
 21
327.230874
 31
0.0
  0
LINE
  8
LC-006-005-----0
  6
CONTINUOUS
  5
44F
 10
755.637078
 20
320.059301
 30
0.0
 11
756.633174
 21
321.055396
 31
0.0
  0
LINE
  8
LC-006-005-----0
  6
CONTINUOUS
  5
450
 10
763.137078
 20
327.559301
 30
0.0
 11
765.637078
 21
330.059301
 31
0.0
  0
LINE
  8
LC-006-005-----0
  6
CONTINUOUS
  5
451
 10
763.137078
 20
330.387728
 30
0.0
 11
765.637078
 21
332.887728
 31
0.0
  0
LINE
  8
LC-006-005-----0
  6
CONTINUOUS
  5
452
 10
763.137078
 20
333.216155
 30
0.0
 11
765.637078
 21
335.716155
 31
0.0
  0
LINE
  8
LC-006-005-----0
  6
CONTINUOUS
  5
453
 10
763.137078
 20
336.044582
 30
0.0
 11
765.637078
 21
338.544582
 31
0.0
  0
ENDBLK
  8
0
  5
454
  0
BLOCK
  8
0
  5
456
  2
*X37
 70
    65
 10
608.637078
 20
318.555396
 30
0.0
  3
*X37
  0
LINE
  8
LC-006-005-----0
  6
CONTINUOUS
  5
457
 10
618.368672
 20
318.555396
 30
0.0
 11
618.637078
 21
318.823803
 31
0.0
  0
LINE
  8
LC-006-005-----0
  6
CONTINUOUS
  5
458
 10
615.540245
 20
318.555396
 30
0.0
 11
618.040245
 21
321.055396
 31
0.0
  0
LINE
  8
LC-006-005-----0
  6
CONTINUOUS
  5
459
 10
612.711817
 20
318.555396
 30
0.0
 11
615.211817
 21
321.055396
 31
0.0
  0
LINE
  8
LC-006-005-----0
  6
CONTINUOUS
  5
45A
 10
610.760234
 20
319.43224
 30
0.0
 11
612.38339
 21
321.055396
 31
0.0
  0
LINE
  8
LC-006-005-----0
  6
CONTINUOUS
  5
45B
 10
609.346021
 20
320.846454
 30
0.0
 11
611.137078
 21
322.637512
 31
0.0
  0
LINE
  8
LC-006-005-----0
  6
CONTINUOUS
  5
45C
 10
608.637078
 20
322.965939
 30
0.0
 11
611.137078
 21
325.465939
 31
0.0
  0
LINE
  8
LC-006-005-----0
  6
CONTINUOUS
  5
45D
 10
608.637078
 20
325.794366
 30
0.0
 11
611.137078
 21
328.294366
 31
0.0
  0
LINE
  8
LC-006-005-----0
  6
CONTINUOUS
  5
45E
 10
608.637078
 20
328.622793
 30
0.0
 11
611.137078
 21
331.122793
 31
0.0
  0
LINE
  8
LC-006-005-----0
  6
CONTINUOUS
  5
45F
 10
608.637078
 20
331.45122
 30
0.0
 11
611.137078
 21
333.95122
 31
0.0
  0
LINE
  8
LC-006-005-----0
  6
CONTINUOUS
  5
460
 10
608.637078
 20
334.279647
 30
0.0
 11
611.137078
 21
336.779647
 31
0.0
  0
LINE
  8
LC-006-005-----0
  6
CONTINUOUS
  5
461
 10
608.637078
 20
337.108074
 30
0.0
 11
610.084045
 21
338.555041
 31
0.0
  0
ENDBLK
  8
0
  5
462
  0
BLOCK
  8
0
  5
464
  2
*X38
 70
    65
 10
926.946686
 20
343.165213
 30
0.0
  3
*X38
  0
LINE
  8
LC-006-005-----0
  6
CONTINUOUS
  5
465
 10
936.569224
 20
343.165213
 30
0.0
 11
936.946686
 21
343.542675
 31
0.0
  0
LINE
  8
LC-006-005-----0
  6
CONTINUOUS
  5
466
 10
936.003538
 20
343.165213
 30
0.0
 11
936.946686
 21
344.10836
 31
0.0
  0
LINE
  8
LC-006-005-----0
  6
CONTINUOUS
  5
467
 10
935.437853
 20
343.165213
 30
0.0
 11
936.946686
 21
344.674046
 31
0.0
  0
LINE
  8
LC-006-005-----0
  6
CONTINUOUS
  5
468
 10
934.872167
 20
343.165213
 30
0.0
 11
936.946686
 21
345.239731
 31
0.0
  0
LINE
  8
LC-006-005-----0
  6
CONTINUOUS
  5
469
 10
934.306482
 20
343.165213
 30
0.0
 11
936.946686
 21
345.805416
 31
0.0
  0
LINE
  8
LC-006-005-----0
  6
CONTINUOUS
  5
46A
 10
933.740797
 20
343.165213
 30
0.0
 11
936.946686
 21
346.371102
 31
0.0
  0
LINE
  8
LC-006-005-----0
  6
CONTINUOUS
  5
46B
 10
933.175111
 20
343.165213
 30
0.0
 11
936.946686
 21
346.936787
 31
0.0
  0
LINE
  8
LC-006-005-----0
  6
CONTINUOUS
  5
46C
 10
932.609426
 20
343.165213
 30
0.0
 11
936.946686
 21
347.502473
 31
0.0
  0
LINE
  8
LC-006-005-----0
  6
CONTINUOUS
  5
46D
 10
932.04374
 20
343.165213
 30
0.0
 11
936.74374
 21
347.865213
 31
0.0
  0
LINE
  8
LC-006-005-----0
  6
CONTINUOUS
  5
46E
 10
931.478055
 20
343.165213
 30
0.0
 11
936.178055
 21
347.865213
 31
0.0
  0
LINE
  8
LC-006-005-----0
  6
CONTINUOUS
  5
46F
 10
930.912369
 20
343.165213
 30
0.0
 11
935.612369
 21
347.865213
 31
0.0
  0
LINE
  8
LC-006-005-----0
  6
CONTINUOUS
  5
470
 10
930.346684
 20
343.165213
 30
0.0
 11
935.046684
 21
347.865213
 31
0.0
  0
LINE
  8
LC-006-005-----0
  6
CONTINUOUS
  5
471
 10
929.780999
 20
343.165213
 30
0.0
 11
934.480999
 21
347.865213
 31
0.0
  0
LINE
  8
LC-006-005-----0
  6
CONTINUOUS
  5
472
 10
929.215313
 20
343.165213
 30
0.0
 11
933.915313
 21
347.865213
 31
0.0
  0
LINE
  8
LC-006-005-----0
  6
CONTINUOUS
  5
473
 10
928.649628
 20
343.165213
 30
0.0
 11
933.349628
 21
347.865213
 31
0.0
  0
LINE
  8
LC-006-005-----0
  6
CONTINUOUS
  5
474
 10
928.083942
 20
343.165213
 30
0.0
 11
932.783942
 21
347.865213
 31
0.0
  0
LINE
  8
LC-006-005-----0
  6
CONTINUOUS
  5
475
 10
927.518257
 20
343.165213
 30
0.0
 11
932.218257
 21
347.865213
 31
0.0
  0
LINE
  8
LC-006-005-----0
  6
CONTINUOUS
  5
476
 10
926.952571
 20
343.165213
 30
0.0
 11
931.652571
 21
347.865213
 31
0.0
  0
LINE
  8
LC-006-005-----0
  6
CONTINUOUS
  5
477
 10
926.946686
 20
343.725012
 30
0.0
 11
931.086886
 21
347.865213
 31
0.0
  0
LINE
  8
LC-006-005-----0
  6
CONTINUOUS
  5
478
 10
926.946686
 20
344.290698
 30
0.0
 11
930.521201
 21
347.865213
 31
0.0
  0
LINE
  8
LC-006-005-----0
  6
CONTINUOUS
  5
479
 10
926.946686
 20
344.856383
 30
0.0
 11
929.955515
 21
347.865213
 31
0.0
  0
LINE
  8
LC-006-005-----0
  6
CONTINUOUS
  5
47A
 10
926.946686
 20
345.422069
 30
0.0
 11
929.38983
 21
347.865213
 31
0.0
  0
LINE
  8
LC-006-005-----0
  6
CONTINUOUS
  5
47B
 10
926.946686
 20
345.987754
 30
0.0
 11
928.824144
 21
347.865213
 31
0.0
  0
LINE
  8
LC-006-005-----0
  6
CONTINUOUS
  5
47C
 10
926.946686
 20
346.55344
 30
0.0
 11
928.258459
 21
347.865213
 31
0.0
  0
LINE
  8
LC-006-005-----0
  6
CONTINUOUS
  5
47D
 10
926.946686
 20
347.119125
 30
0.0
 11
927.692774
 21
347.865213
 31
0.0
  0
LINE
  8
LC-006-005-----0
  6
CONTINUOUS
  5
47E
 10
926.946686
 20
347.68481
 30
0.0
 11
927.127088
 21
347.865213
 31
0.0
  0
ENDBLK
  8
0
  5
47F
  0
BLOCK
  8
0
  5
481
  2
*X39
 70
    65
 10
906.946686
 20
343.165213
 30
0.0
  3
*X39
  0
LINE
  8
LC-006-005-----0
  6
CONTINUOUS
  5
482
 10
916.770234
 20
343.165213
 30
0.0
 11
916.946686
 21
343.341665
 31
0.0
  0
LINE
  8
LC-006-005-----0
  6
CONTINUOUS
  5
483
 10
916.204548
 20
343.165213
 30
0.0
 11
916.946686
 21
343.90735
 31
0.0
  0
LINE
  8
LC-006-005-----0
  6
CONTINUOUS
  5
484
 10
915.638863
 20
343.165213
 30
0.0
 11
916.946686
 21
344.473036
 31
0.0
  0
LINE
  8
LC-006-005-----0
  6
CONTINUOUS
  5
485
 10
915.073178
 20
343.165213
 30
0.0
 11
916.946686
 21
345.038721
 31
0.0
  0
LINE
  8
LC-006-005-----0
  6
CONTINUOUS
  5
486
 10
914.507492
 20
343.165213
 30
0.0
 11
916.946686
 21
345.604406
 31
0.0
  0
LINE
  8
LC-006-005-----0
  6
CONTINUOUS
  5
487
 10
913.941807
 20
343.165213
 30
0.0
 11
916.946686
 21
346.170092
 31
0.0
  0
LINE
  8
LC-006-005-----0
  6
CONTINUOUS
  5
488
 10
913.376121
 20
343.165213
 30
0.0
 11
916.946686
 21
346.735777
 31
0.0
  0
LINE
  8
LC-006-005-----0
  6
CONTINUOUS
  5
489
 10
912.810436
 20
343.165213
 30
0.0
 11
916.946686
 21
347.301463
 31
0.0
  0
LINE
  8
LC-006-005-----0
  6
CONTINUOUS
  5
48A
 10
912.24475
 20
343.165213
 30
0.0
 11
916.94475
 21
347.865213
 31
0.0
  0
LINE
  8
LC-006-005-----0
  6
CONTINUOUS
  5
48B
 10
911.679065
 20
343.165213
 30
0.0
 11
916.379065
 21
347.865213
 31
0.0
  0
LINE
  8
LC-006-005-----0
  6
CONTINUOUS
  5
48C
 10
911.11338
 20
343.165213
 30
0.0
 11
915.81338
 21
347.865213
 31
0.0
  0
LINE
  8
LC-006-005-----0
  6
CONTINUOUS
  5
48D
 10
910.547694
 20
343.165213
 30
0.0
 11
915.247694
 21
347.865213
 31
0.0
  0
LINE
  8
LC-006-005-----0
  6
CONTINUOUS
  5
48E
 10
909.982009
 20
343.165213
 30
0.0
 11
914.682009
 21
347.865213
 31
0.0
  0
LINE
  8
LC-006-005-----0
  6
CONTINUOUS
  5
48F
 10
909.416323
 20
343.165213
 30
0.0
 11
914.116323
 21
347.865213
 31
0.0
  0
LINE
  8
LC-006-005-----0
  6
CONTINUOUS
  5
490
 10
908.850638
 20
343.165213
 30
0.0
 11
913.550638
 21
347.865213
 31
0.0
  0
LINE
  8
LC-006-005-----0
  6
CONTINUOUS
  5
491
 10
908.284952
 20
343.165213
 30
0.0
 11
912.984952
 21
347.865213
 31
0.0
  0
LINE
  8
LC-006-005-----0
  6
CONTINUOUS
  5
492
 10
907.719267
 20
343.165213
 30
0.0
 11
912.419267
 21
347.865213
 31
0.0
  0
LINE
  8
LC-006-005-----0
  6
CONTINUOUS
  5
493
 10
907.153582
 20
343.165213
 30
0.0
 11
911.853582
 21
347.865213
 31
0.0
  0
LINE
  8
LC-006-005-----0
  6
CONTINUOUS
  5
494
 10
906.946686
 20
343.524002
 30
0.0
 11
911.287896
 21
347.865213
 31
0.0
  0
LINE
  8
LC-006-005-----0
  6
CONTINUOUS
  5
495
 10
906.946686
 20
344.089688
 30
0.0
 11
910.722211
 21
347.865213
 31
0.0
  0
LINE
  8
LC-006-005-----0
  6
CONTINUOUS
  5
496
 10
906.946686
 20
344.655373
 30
0.0
 11
910.156525
 21
347.865213
 31
0.0
  0
LINE
  8
LC-006-005-----0
  6
CONTINUOUS
  5
497
 10
906.946686
 20
345.221059
 30
0.0
 11
909.59084
 21
347.865213
 31
0.0
  0
LINE
  8
LC-006-005-----0
  6
CONTINUOUS
  5
498
 10
906.946686
 20
345.786744
 30
0.0
 11
909.025154
 21
347.865213
 31
0.0
  0
LINE
  8
LC-006-005-----0
  6
CONTINUOUS
  5
499
 10
906.946686
 20
346.352429
 30
0.0
 11
908.459469
 21
347.865213
 31
0.0
  0
LINE
  8
LC-006-005-----0
  6
CONTINUOUS
  5
49A
 10
906.946686
 20
346.918115
 30
0.0
 11
907.893784
 21
347.865213
 31
0.0
  0
LINE
  8
LC-006-005-----0
  6
CONTINUOUS
  5
49B
 10
906.946686
 20
347.4838
 30
0.0
 11
907.328098
 21
347.865213
 31
0.0
  0
ENDBLK
  8
0
  5
49C
  0
BLOCK
  8
0
  5
49E
  2
*X40
 70
    65
 10
886.946686
 20
343.165213
 30
0.0
  3
*X40
  0
LINE
  8
LC-006-005-----0
  6
CONTINUOUS
  5
49F
 10
896.405559
 20
343.165213
 30
0.0
 11
896.946686
 21
343.70634
 31
0.0
  0
LINE
  8
LC-006-005-----0
  6
CONTINUOUS
  5
4A0
 10
895.839873
 20
343.165213
 30
0.0
 11
896.946686
 21
344.272025
 31
0.0
  0
LINE
  8
LC-006-005-----0
  6
CONTINUOUS
  5
4A1
 10
895.274188
 20
343.165213
 30
0.0
 11
896.946686
 21
344.837711
 31
0.0
  0
LINE
  8
LC-006-005-----0
  6
CONTINUOUS
  5
4A2
 10
894.708502
 20
343.165213
 30
0.0
 11
896.946686
 21
345.403396
 31
0.0
  0
LINE
  8
LC-006-005-----0
  6
CONTINUOUS
  5
4A3
 10
894.142817
 20
343.165213
 30
0.0
 11
896.946686
 21
345.969082
 31
0.0
  0
LINE
  8
LC-006-005-----0
  6
CONTINUOUS
  5
4A4
 10
893.577131
 20
343.165213
 30
0.0
 11
896.946686
 21
346.534767
 31
0.0
  0
LINE
  8
LC-006-005-----0
  6
CONTINUOUS
  5
4A5
 10
893.011446
 20
343.165213
 30
0.0
 11
896.946686
 21
347.100453
 31
0.0
  0
LINE
  8
LC-006-005-----0
  6
CONTINUOUS
  5
4A6
 10
892.445761
 20
343.165213
 30
0.0
 11
896.946686
 21
347.666138
 31
0.0
  0
LINE
  8
LC-006-005-----0
  6
CONTINUOUS
  5
4A7
 10
891.880075
 20
343.165213
 30
0.0
 11
896.580075
 21
347.865213
 31
0.0
  0
LINE
  8
LC-006-005-----0
  6
CONTINUOUS
  5
4A8
 10
891.31439
 20
343.165213
 30
0.0
 11
896.01439
 21
347.865213
 31
0.0
  0
LINE
  8
LC-006-005-----0
  6
CONTINUOUS
  5
4A9
 10
890.748704
 20
343.165213
 30
0.0
 11
895.448704
 21
347.865213
 31
0.0
  0
LINE
  8
LC-006-005-----0
  6
CONTINUOUS
  5
4AA
 10
890.183019
 20
343.165213
 30
0.0
 11
894.883019
 21
347.865213
 31
0.0
  0
LINE
  8
LC-006-005-----0
  6
CONTINUOUS
  5
4AB
 10
889.617333
 20
343.165213
 30
0.0
 11
894.317333
 21
347.865213
 31
0.0
  0
LINE
  8
LC-006-005-----0
  6
CONTINUOUS
  5
4AC
 10
889.051648
 20
343.165213
 30
0.0
 11
893.751648
 21
347.865213
 31
0.0
  0
LINE
  8
LC-006-005-----0
  6
CONTINUOUS
  5
4AD
 10
888.485963
 20
343.165213
 30
0.0
 11
893.185963
 21
347.865213
 31
0.0
  0
LINE
  8
LC-006-005-----0
  6
CONTINUOUS
  5
4AE
 10
887.920277
 20
343.165213
 30
0.0
 11
892.620277
 21
347.865213
 31
0.0
  0
LINE
  8
LC-006-005-----0
  6
CONTINUOUS
  5
4AF
 10
887.354592
 20
343.165213
 30
0.0
 11
892.054592
 21
347.865213
 31
0.0
  0
LINE
  8
LC-006-005-----0
  6
CONTINUOUS
  5
4B0
 10
886.946686
 20
343.322992
 30
0.0
 11
891.488906
 21
347.865213
 31
0.0
  0
LINE
  8
LC-006-005-----0
  6
CONTINUOUS
  5
4B1
 10
886.946686
 20
343.888678
 30
0.0
 11
890.923221
 21
347.865213
 31
0.0
  0
LINE
  8
LC-006-005-----0
  6
CONTINUOUS
  5
4B2
 10
886.946686
 20
344.454363
 30
0.0
 11
890.357535
 21
347.865213
 31
0.0
  0
LINE
  8
LC-006-005-----0
  6
CONTINUOUS
  5
4B3
 10
886.946686
 20
345.020048
 30
0.0
 11
889.79185
 21
347.865213
 31
0.0
  0
LINE
  8
LC-006-005-----0
  6
CONTINUOUS
  5
4B4
 10
886.946686
 20
345.585734
 30
0.0
 11
889.226165
 21
347.865213
 31
0.0
  0
LINE
  8
LC-006-005-----0
  6
CONTINUOUS
  5
4B5
 10
886.946686
 20
346.151419
 30
0.0
 11
888.660479
 21
347.865213
 31
0.0
  0
LINE
  8
LC-006-005-----0
  6
CONTINUOUS
  5
4B6
 10
886.946686
 20
346.717105
 30
0.0
 11
888.094794
 21
347.865213
 31
0.0
  0
LINE
  8
LC-006-005-----0
  6
CONTINUOUS
  5
4B7
 10
886.946686
 20
347.28279
 30
0.0
 11
887.529108
 21
347.865213
 31
0.0
  0
LINE
  8
LC-006-005-----0
  6
CONTINUOUS
  5
4B8
 10
886.946686
 20
347.848476
 30
0.0
 11
886.963423
 21
347.865213
 31
0.0
  0
ENDBLK
  8
0
  5
4B9
  0
BLOCK
  8
0
  5
4BB
  2
*X41
 70
    65
 10
866.946686
 20
343.165213
 30
0.0
  3
*X41
  0
LINE
  8
LC-006-005-----0
  6
CONTINUOUS
  5
4BC
 10
876.606569
 20
343.165213
 30
0.0
 11
876.946686
 21
343.50533
 31
0.0
  0
LINE
  8
LC-006-005-----0
  6
CONTINUOUS
  5
4BD
 10
876.040883
 20
343.165213
 30
0.0
 11
876.946686
 21
344.071015
 31
0.0
  0
LINE
  8
LC-006-005-----0
  6
CONTINUOUS
  5
4BE
 10
875.475198
 20
343.165213
 30
0.0
 11
876.946686
 21
344.636701
 31
0.0
  0
LINE
  8
LC-006-005-----0
  6
CONTINUOUS
  5
4BF
 10
874.909512
 20
343.165213
 30
0.0
 11
876.946686
 21
345.202386
 31
0.0
  0
LINE
  8
LC-006-005-----0
  6
CONTINUOUS
  5
4C0
 10
874.343827
 20
343.165213
 30
0.0
 11
876.946686
 21
345.768072
 31
0.0
  0
LINE
  8
LC-006-005-----0
  6
CONTINUOUS
  5
4C1
 10
873.778142
 20
343.165213
 30
0.0
 11
876.946686
 21
346.333757
 31
0.0
  0
LINE
  8
LC-006-005-----0
  6
CONTINUOUS
  5
4C2
 10
873.212456
 20
343.165213
 30
0.0
 11
876.946686
 21
346.899442
 31
0.0
  0
LINE
  8
LC-006-005-----0
  6
CONTINUOUS
  5
4C3
 10
872.646771
 20
343.165213
 30
0.0
 11
876.946686
 21
347.465128
 31
0.0
  0
LINE
  8
LC-006-005-----0
  6
CONTINUOUS
  5
4C4
 10
872.081085
 20
343.165213
 30
0.0
 11
876.781085
 21
347.865213
 31
0.0
  0
LINE
  8
LC-006-005-----0
  6
CONTINUOUS
  5
4C5
 10
871.5154
 20
343.165213
 30
0.0
 11
876.2154
 21
347.865213
 31
0.0
  0
LINE
  8
LC-006-005-----0
  6
CONTINUOUS
  5
4C6
 10
870.949714
 20
343.165213
 30
0.0
 11
875.649714
 21
347.865213
 31
0.0
  0
LINE
  8
LC-006-005-----0
  6
CONTINUOUS
  5
4C7
 10
870.384029
 20
343.165213
 30
0.0
 11
875.084029
 21
347.865213
 31
0.0
  0
LINE
  8
LC-006-005-----0
  6
CONTINUOUS
  5
4C8
 10
869.818344
 20
343.165213
 30
0.0
 11
874.518344
 21
347.865213
 31
0.0
  0
LINE
  8
LC-006-005-----0
  6
CONTINUOUS
  5
4C9
 10
869.252658
 20
343.165213
 30
0.0
 11
873.952658
 21
347.865213
 31
0.0
  0
LINE
  8
LC-006-005-----0
  6
CONTINUOUS
  5
4CA
 10
868.686973
 20
343.165213
 30
0.0
 11
873.386973
 21
347.865213
 31
0.0
  0
LINE
  8
LC-006-005-----0
  6
CONTINUOUS
  5
4CB
 10
868.121287
 20
343.165213
 30
0.0
 11
872.821287
 21
347.865213
 31
0.0
  0
LINE
  8
LC-006-005-----0
  6
CONTINUOUS
  5
4CC
 10
867.555602
 20
343.165213
 30
0.0
 11
872.255602
 21
347.865213
 31
0.0
  0
LINE
  8
LC-006-005-----0
  6
CONTINUOUS
  5
4CD
 10
866.989916
 20
343.165213
 30
0.0
 11
871.689916
 21
347.865213
 31
0.0
  0
LINE
  8
LC-006-005-----0
  6
CONTINUOUS
  5
4CE
 10
866.946686
 20
343.687667
 30
0.0
 11
871.124231
 21
347.865213
 31
0.0
  0
LINE
  8
LC-006-005-----0
  6
CONTINUOUS
  5
4CF
 10
866.946686
 20
344.253353
 30
0.0
 11
870.558546
 21
347.865213
 31
0.0
  0
LINE
  8
LC-006-005-----0
  6
CONTINUOUS
  5
4D0
 10
866.946686
 20
344.819038
 30
0.0
 11
869.99286
 21
347.865213
 31
0.0
  0
LINE
  8
LC-006-005-----0
  6
CONTINUOUS
  5
4D1
 10
866.946686
 20
345.384724
 30
0.0
 11
869.427175
 21
347.865213
 31
0.0
  0
LINE
  8
LC-006-005-----0
  6
CONTINUOUS
  5
4D2
 10
866.946686
 20
345.950409
 30
0.0
 11
868.861489
 21
347.865213
 31
0.0
  0
LINE
  8
LC-006-005-----0
  6
CONTINUOUS
  5
4D3
 10
866.946686
 20
346.516095
 30
0.0
 11
868.295804
 21
347.865213
 31
0.0
  0
LINE
  8
LC-006-005-----0
  6
CONTINUOUS
  5
4D4
 10
866.946686
 20
347.08178
 30
0.0
 11
867.730118
 21
347.865213
 31
0.0
  0
LINE
  8
LC-006-005-----0
  6
CONTINUOUS
  5
4D5
 10
866.946686
 20
347.647465
 30
0.0
 11
867.164433
 21
347.865213
 31
0.0
  0
ENDBLK
  8
0
  5
4D6
  0
BLOCK
  8
0
  5
4D8
  2
*X42
 70
    65
 10
846.946686
 20
343.165213
 30
0.0
  3
*X42
  0
LINE
  8
LC-006-005-----0
  6
CONTINUOUS
  5
4D9
 10
856.807579
 20
343.165213
 30
0.0
 11
856.946686
 21
343.30432
 31
0.0
  0
LINE
  8
LC-006-005-----0
  6
CONTINUOUS
  5
4DA
 10
856.241893
 20
343.165213
 30
0.0
 11
856.946686
 21
343.870005
 31
0.0
  0
LINE
  8
LC-006-005-----0
  6
CONTINUOUS
  5
4DB
 10
855.676208
 20
343.165213
 30
0.0
 11
856.946686
 21
344.435691
 31
0.0
  0
LINE
  8
LC-006-005-----0
  6
CONTINUOUS
  5
4DC
 10
855.110523
 20
343.165213
 30
0.0
 11
856.946686
 21
345.001376
 31
0.0
  0
LINE
  8
LC-006-005-----0
  6
CONTINUOUS
  5
4DD
 10
854.544837
 20
343.165213
 30
0.0
 11
856.946686
 21
345.567061
 31
0.0
  0
LINE
  8
LC-006-005-----0
  6
CONTINUOUS
  5
4DE
 10
853.979152
 20
343.165213
 30
0.0
 11
856.946686
 21
346.132747
 31
0.0
  0
LINE
  8
LC-006-005-----0
  6
CONTINUOUS
  5
4DF
 10
853.413466
 20
343.165213
 30
0.0
 11
856.946686
 21
346.698432
 31
0.0
  0
LINE
  8
LC-006-005-----0
  6
CONTINUOUS
  5
4E0
 10
852.847781
 20
343.165213
 30
0.0
 11
856.946686
 21
347.264118
 31
0.0
  0
LINE
  8
LC-006-005-----0
  6
CONTINUOUS
  5
4E1
 10
852.282095
 20
343.165213
 30
0.0
 11
856.946686
 21
347.829803
 31
0.0
  0
LINE
  8
LC-006-005-----0
  6
CONTINUOUS
  5
4E2
 10
851.71641
 20
343.165213
 30
0.0
 11
856.41641
 21
347.865213
 31
0.0
  0
LINE
  8
LC-006-005-----0
  6
CONTINUOUS
  5
4E3
 10
851.150725
 20
343.165213
 30
0.0
 11
855.850725
 21
347.865213
 31
0.0
  0
LINE
  8
LC-006-005-----0
  6
CONTINUOUS
  5
4E4
 10
850.585039
 20
343.165213
 30
0.0
 11
855.285039
 21
347.865213
 31
0.0
  0
LINE
  8
LC-006-005-----0
  6
CONTINUOUS
  5
4E5
 10
850.019354
 20
343.165213
 30
0.0
 11
854.719354
 21
347.865213
 31
0.0
  0
LINE
  8
LC-006-005-----0
  6
CONTINUOUS
  5
4E6
 10
849.453668
 20
343.165213
 30
0.0
 11
854.153668
 21
347.865213
 31
0.0
  0
LINE
  8
LC-006-005-----0
  6
CONTINUOUS
  5
4E7
 10
848.887983
 20
343.165213
 30
0.0
 11
853.587983
 21
347.865213
 31
0.0
  0
LINE
  8
LC-006-005-----0
  6
CONTINUOUS
  5
4E8
 10
848.322297
 20
343.165213
 30
0.0
 11
853.022297
 21
347.865213
 31
0.0
  0
LINE
  8
LC-006-005-----0
  6
CONTINUOUS
  5
4E9
 10
847.756612
 20
343.165213
 30
0.0
 11
852.456612
 21
347.865213
 31
0.0
  0
LINE
  8
LC-006-005-----0
  6
CONTINUOUS
  5
4EA
 10
847.190927
 20
343.165213
 30
0.0
 11
851.890927
 21
347.865213
 31
0.0
  0
LINE
  8
LC-006-005-----0
  6
CONTINUOUS
  5
4EB
 10
846.946686
 20
343.486657
 30
0.0
 11
851.325241
 21
347.865213
 31
0.0
  0
LINE
  8
LC-006-005-----0
  6
CONTINUOUS
  5
4EC
 10
846.946686
 20
344.052343
 30
0.0
 11
850.759556
 21
347.865213
 31
0.0
  0
LINE
  8
LC-006-005-----0
  6
CONTINUOUS
  5
4ED
 10
846.946686
 20
344.618028
 30
0.0
 11
850.19387
 21
347.865213
 31
0.0
  0
LINE
  8
LC-006-005-----0
  6
CONTINUOUS
  5
4EE
 10
846.946686
 20
345.183714
 30
0.0
 11
849.628185
 21
347.865213
 31
0.0
  0
LINE
  8
LC-006-005-----0
  6
CONTINUOUS
  5
4EF
 10
846.946686
 20
345.749399
 30
0.0
 11
849.062499
 21
347.865213
 31
0.0
  0
LINE
  8
LC-006-005-----0
  6
CONTINUOUS
  5
4F0
 10
846.946686
 20
346.315084
 30
0.0
 11
848.496814
 21
347.865213
 31
0.0
  0
LINE
  8
LC-006-005-----0
  6
CONTINUOUS
  5
4F1
 10
846.946686
 20
346.88077
 30
0.0
 11
847.931129
 21
347.865213
 31
0.0
  0
LINE
  8
LC-006-005-----0
  6
CONTINUOUS
  5
4F2
 10
846.946686
 20
347.446455
 30
0.0
 11
847.365443
 21
347.865213
 31
0.0
  0
ENDBLK
  8
0
  5
4F3
  0
BLOCK
  8
0
  5
4F5
  2
*X43
 70
    65
 10
826.946686
 20
342.389701
 30
0.0
  3
*X43
  0
LINE
  8
LC-006-005-----0
  6
CONTINUOUS
  5
4F6
 10
836.316726
 20
343.039036
 30
0.0
 11
836.946686
 21
343.668995
 31
0.0
  0
LINE
  8
LC-006-005-----0
  6
CONTINUOUS
  5
4F7
 10
835.70891
 20
342.996905
 30
0.0
 11
836.946686
 21
344.23468
 31
0.0
  0
LINE
  8
LC-006-005-----0
  6
CONTINUOUS
  5
4F8
 10
835.101094
 20
342.954775
 30
0.0
 11
836.946686
 21
344.800366
 31
0.0
  0
LINE
  8
LC-006-005-----0
  6
CONTINUOUS
  5
4F9
 10
834.493278
 20
342.912644
 30
0.0
 11
836.946686
 21
345.366051
 31
0.0
  0
LINE
  8
LC-006-005-----0
  6
CONTINUOUS
  5
4FA
 10
833.885462
 20
342.870513
 30
0.0
 11
836.946686
 21
345.931737
 31
0.0
  0
LINE
  8
LC-006-005-----0
  6
CONTINUOUS
  5
4FB
 10
833.277646
 20
342.828383
 30
0.0
 11
836.946686
 21
346.497422
 31
0.0
  0
LINE
  8
LC-006-005-----0
  6
CONTINUOUS
  5
4FC
 10
832.66983
 20
342.786252
 30
0.0
 11
836.946686
 21
347.063108
 31
0.0
  0
LINE
  8
LC-006-005-----0
  6
CONTINUOUS
  5
4FD
 10
832.062014
 20
342.744122
 30
0.0
 11
836.946686
 21
347.628793
 31
0.0
  0
LINE
  8
LC-006-005-----0
  6
CONTINUOUS
  5
4FE
 10
831.454198
 20
342.701991
 30
0.0
 11
836.516357
 21
347.76415
 31
0.0
  0
LINE
  8
LC-006-005-----0
  6
CONTINUOUS
  5
4FF
 10
830.846382
 20
342.65986
 30
0.0
 11
835.908541
 21
347.72202
 31
0.0
  0
LINE
  8
LC-006-005-----0
  6
CONTINUOUS
  5
500
 10
830.238566
 20
342.61773
 30
0.0
 11
835.300725
 21
347.679889
 31
0.0
  0
LINE
  8
LC-006-005-----0
  6
CONTINUOUS
  5
501
 10
829.63075
 20
342.575599
 30
0.0
 11
834.692909
 21
347.637758
 31
0.0
  0
LINE
  8
LC-006-005-----0
  6
CONTINUOUS
  5
502
 10
829.022934
 20
342.533469
 30
0.0
 11
834.085093
 21
347.595628
 31
0.0
  0
LINE
  8
LC-006-005-----0
  6
CONTINUOUS
  5
503
 10
828.415118
 20
342.491338
 30
0.0
 11
833.477277
 21
347.553497
 31
0.0
  0
LINE
  8
LC-006-005-----0
  6
CONTINUOUS
  5
504
 10
827.807302
 20
342.449208
 30
0.0
 11
832.869461
 21
347.511367
 31
0.0
  0
LINE
  8
LC-006-005-----0
  6
CONTINUOUS
  5
505
 10
827.199486
 20
342.407077
 30
0.0
 11
832.261645
 21
347.469236
 31
0.0
  0
LINE
  8
LC-006-005-----0
  6
CONTINUOUS
  5
506
 10
826.946686
 20
342.719962
 30
0.0
 11
831.653829
 21
347.427106
 31
0.0
  0
LINE
  8
LC-006-005-----0
  6
CONTINUOUS
  5
507
 10
826.946686
 20
343.285647
 30
0.0
 11
831.046013
 21
347.384975
 31
0.0
  0
LINE
  8
LC-006-005-----0
  6
CONTINUOUS
  5
508
 10
826.946686
 20
343.851333
 30
0.0
 11
830.438197
 21
347.342844
 31
0.0
  0
LINE
  8
LC-006-005-----0
  6
CONTINUOUS
  5
509
 10
826.946686
 20
344.417018
 30
0.0
 11
829.830381
 21
347.300714
 31
0.0
  0
LINE
  8
LC-006-005-----0
  6
CONTINUOUS
  5
50A
 10
826.946686
 20
344.982704
 30
0.0
 11
829.222565
 21
347.258583
 31
0.0
  0
LINE
  8
LC-006-005-----0
  6
CONTINUOUS
  5
50B
 10
826.946686
 20
345.548389
 30
0.0
 11
828.614749
 21
347.216453
 31
0.0
  0
LINE
  8
LC-006-005-----0
  6
CONTINUOUS
  5
50C
 10
826.946686
 20
346.114074
 30
0.0
 11
828.006933
 21
347.174322
 31
0.0
  0
LINE
  8
LC-006-005-----0
  6
CONTINUOUS
  5
50D
 10
826.946686
 20
346.67976
 30
0.0
 11
827.399117
 21
347.132191
 31
0.0
  0
ENDBLK
  8
0
  5
50E
  0
BLOCK
  8
0
  5
510
  2
*X44
 70
    65
 10
806.946686
 20
341.003407
 30
0.0
  3
*X44
  0
LINE
  8
LC-006-005-----0
  6
CONTINUOUS
  5
511
 10
816.866614
 20
341.690857
 30
0.0
 11
816.946686
 21
341.770929
 31
0.0
  0
LINE
  8
LC-006-005-----0
  6
CONTINUOUS
  5
512
 10
816.258798
 20
341.648726
 30
0.0
 11
816.946686
 21
342.336614
 31
0.0
  0
LINE
  8
LC-006-005-----0
  6
CONTINUOUS
  5
513
 10
815.650982
 20
341.606596
 30
0.0
 11
816.946686
 21
342.902299
 31
0.0
  0
LINE
  8
LC-006-005-----0
  6
CONTINUOUS
  5
514
 10
815.043166
 20
341.564465
 30
0.0
 11
816.946686
 21
343.467985
 31
0.0
  0
LINE
  8
LC-006-005-----0
  6
CONTINUOUS
  5
515
 10
814.43535
 20
341.522335
 30
0.0
 11
816.946686
 21
344.03367
 31
0.0
  0
LINE
  8
LC-006-005-----0
  6
CONTINUOUS
  5
516
 10
813.827534
 20
341.480204
 30
0.0
 11
816.946686
 21
344.599356
 31
0.0
  0
LINE
  8
LC-006-005-----0
  6
CONTINUOUS
  5
517
 10
813.219718
 20
341.438073
 30
0.0
 11
816.946686
 21
345.165041
 31
0.0
  0
LINE
  8
LC-006-005-----0
  6
CONTINUOUS
  5
518
 10
812.611902
 20
341.395943
 30
0.0
 11
816.946686
 21
345.730727
 31
0.0
  0
LINE
  8
LC-006-005-----0
  6
CONTINUOUS
  5
519
 10
812.004086
 20
341.353812
 30
0.0
 11
816.946686
 21
346.296412
 31
0.0
  0
LINE
  8
LC-006-005-----0
  6
CONTINUOUS
  5
51A
 10
811.39627
 20
341.311682
 30
0.0
 11
816.458429
 21
346.373841
 31
0.0
  0
LINE
  8
LC-006-005-----0
  6
CONTINUOUS
  5
51B
 10
810.788454
 20
341.269551
 30
0.0
 11
815.850613
 21
346.33171
 31
0.0
  0
LINE
  8
LC-006-005-----0
  6
CONTINUOUS
  5
51C
 10
810.180638
 20
341.227421
 30
0.0
 11
815.242797
 21
346.28958
 31
0.0
  0
LINE
  8
LC-006-005-----0
  6
CONTINUOUS
  5
51D
 10
809.572822
 20
341.18529
 30
0.0
 11
814.634981
 21
346.247449
 31
0.0
  0
LINE
  8
LC-006-005-----0
  6
CONTINUOUS
  5
51E
 10
808.965006
 20
341.143159
 30
0.0
 11
814.027165
 21
346.205319
 31
0.0
  0
LINE
  8
LC-006-005-----0
  6
CONTINUOUS
  5
51F
 10
808.35719
 20
341.101029
 30
0.0
 11
813.419349
 21
346.163188
 31
0.0
  0
LINE
  8
LC-006-005-----0
  6
CONTINUOUS
  5
520
 10
807.749374
 20
341.058898
 30
0.0
 11
812.811533
 21
346.121057
 31
0.0
  0
LINE
  8
LC-006-005-----0
  6
CONTINUOUS
  5
521
 10
807.141558
 20
341.016768
 30
0.0
 11
812.203717
 21
346.078927
 31
0.0
  0
LINE
  8
LC-006-005-----0
  6
CONTINUOUS
  5
522
 10
806.946686
 20
341.387581
 30
0.0
 11
811.595901
 21
346.036796
 31
0.0
  0
LINE
  8
LC-006-005-----0
  6
CONTINUOUS
  5
523
 10
806.946686
 20
341.953266
 30
0.0
 11
810.988085
 21
345.994666
 31
0.0
  0
LINE
  8
LC-006-005-----0
  6
CONTINUOUS
  5
524
 10
806.946686
 20
342.518952
 30
0.0
 11
810.380269
 21
345.952535
 31
0.0
  0
LINE
  8
LC-006-005-----0
  6
CONTINUOUS
  5
525
 10
806.946686
 20
343.084637
 30
0.0
 11
809.772453
 21
345.910404
 31
0.0
  0
LINE
  8
LC-006-005-----0
  6
CONTINUOUS
  5
526
 10
806.946686
 20
343.650323
 30
0.0
 11
809.164637
 21
345.868274
 31
0.0
  0
LINE
  8
LC-006-005-----0
  6
CONTINUOUS
  5
527
 10
806.946686
 20
344.216008
 30
0.0
 11
808.556821
 21
345.826143
 31
0.0
  0
LINE
  8
LC-006-005-----0
  6
CONTINUOUS
  5
528
 10
806.946686
 20
344.781693
 30
0.0
 11
807.949005
 21
345.784013
 31
0.0
  0
LINE
  8
LC-006-005-----0
  6
CONTINUOUS
  5
529
 10
806.946686
 20
345.347379
 30
0.0
 11
807.341189
 21
345.741882
 31
0.0
  0
ENDBLK
  8
0
  5
52A
  0
BLOCK
  8
0
  5
52C
  2
*X45
 70
    65
 10
764.0359
 20
337.545758
 30
0.0
  3
*X45
  0
LINE
  8
LC-006-005-----0
  6
CONTINUOUS
  5
52D
 10
796.441082
 20
339.367259
 30
0.0
 11
796.946686
 21
339.872862
 31
0.0
  0
LINE
  8
LC-006-005-----0
  6
CONTINUOUS
  5
52E
 10
795.506409
 20
338.998271
 30
0.0
 11
796.946686
 21
340.438548
 31
0.0
  0
LINE
  8
LC-006-005-----0
  6
CONTINUOUS
  5
52F
 10
794.63889
 20
338.696437
 30
0.0
 11
796.946686
 21
341.004233
 31
0.0
  0
LINE
  8
LC-006-005-----0
  6
CONTINUOUS
  5
530
 10
793.823819
 20
338.447051
 30
0.0
 11
796.946686
 21
341.569918
 31
0.0
  0
LINE
  8
LC-006-005-----0
  6
CONTINUOUS
  5
531
 10
793.051345
 20
338.240264
 30
0.0
 11
796.946686
 21
342.135604
 31
0.0
  0
LINE
  8
LC-006-005-----0
  6
CONTINUOUS
  5
532
 10
792.314484
 20
338.069088
 30
0.0
 11
796.946686
 21
342.701289
 31
0.0
  0
LINE
  8
LC-006-005-----0
  6
CONTINUOUS
  5
533
 10
791.613784
 20
337.934073
 30
0.0
 11
796.946686
 21
343.266975
 31
0.0
  0
LINE
  8
LC-006-005-----0
  6
CONTINUOUS
  5
534
 10
791.003769
 20
337.889743
 30
0.0
 11
796.946686
 21
343.83266
 31
0.0
  0
LINE
  8
LC-006-005-----0
  6
CONTINUOUS
  5
535
 10
790.393754
 20
337.845414
 30
0.0
 11
796.946686
 21
344.398346
 31
0.0
  0
LINE
  8
LC-006-005-----0
  6
CONTINUOUS
  5
536
 10
789.783739
 20
337.801085
 30
0.0
 11
796.733272
 21
344.750617
 31
0.0
  0
LINE
  8
LC-006-005-----0
  6
CONTINUOUS
  5
537
 10
789.173724
 20
337.756755
 30
0.0
 11
795.529407
 21
344.112437
 31
0.0
  0
LINE
  8
LC-006-005-----0
  6
CONTINUOUS
  5
538
 10
788.563709
 20
337.712426
 30
0.0
 11
794.505353
 21
343.654069
 31
0.0
  0
LINE
  8
LC-006-005-----0
  6
CONTINUOUS
  5
539
 10
787.953695
 20
337.668096
 30
0.0
 11
793.590584
 21
343.304986
 31
0.0
  0
LINE
  8
LC-006-005-----0
  6
CONTINUOUS
  5
53A
 10
787.34368
 20
337.623767
 30
0.0
 11
792.751919
 21
343.032006
 31
0.0
  0
LINE
  8
LC-006-005-----0
  6
CONTINUOUS
  5
53B
 10
786.946686
 20
337.792458
 30
0.0
 11
791.970556
 21
342.816328
 31
0.0
  0
LINE
  8
LC-006-005-----0
  6
CONTINUOUS
  5
53C
 10
786.946686
 20
338.358144
 30
0.0
 11
791.234601
 21
342.646059
 31
0.0
  0
LINE
  8
LC-006-005-----0
  6
CONTINUOUS
  5
53D
 10
786.946686
 20
338.923829
 30
0.0
 11
790.593321
 21
342.570464
 31
0.0
  0
LINE
  8
LC-006-005-----0
  6
CONTINUOUS
  5
53E
 10
786.946686
 20
339.489514
 30
0.0
 11
789.983306
 21
342.526135
 31
0.0
  0
LINE
  8
LC-006-005-----0
  6
CONTINUOUS
  5
53F
 10
786.946686
 20
340.0552
 30
0.0
 11
789.373291
 21
342.481805
 31
0.0
  0
LINE
  8
LC-006-005-----0
  6
CONTINUOUS
  5
540
 10
786.946686
 20
340.620885
 30
0.0
 11
788.763276
 21
342.437476
 31
0.0
  0
LINE
  8
LC-006-005-----0
  6
CONTINUOUS
  5
541
 10
786.946686
 20
341.186571
 30
0.0
 11
788.153261
 21
342.393147
 31
0.0
  0
LINE
  8
LC-006-005-----0
  6
CONTINUOUS
  5
542
 10
786.946686
 20
341.752256
 30
0.0
 11
787.543247
 21
342.348817
 31
0.0
  0
ENDBLK
  8
0
  5
543
  0
BLOCK
  8
0
  5
545
  2
*X46
 70
    65
 10
759.399473
 20
311.954729
 30
0.0
  3
*X46
  0
LINE
  8
LC-006-005-----0
  6
CONTINUOUS
  5
546
 10
761.674642
 20
311.954729
 30
0.0
 11
762.374642
 21
312.654729
 31
0.0
  0
LINE
  8
LC-006-005-----0
  6
CONTINUOUS
  5
547
 10
763.585756
 20
313.865843
 30
0.0
 11
764.088756
 21
314.368843
 31
0.0
  0
LINE
  8
LC-006-005-----0
  6
CONTINUOUS
  5
548
 10
793.589297
 20
343.869384
 30
0.0
 11
794.864
 21
345.144087
 31
0.0
  0
LINE
  8
LC-006-005-----0
  6
CONTINUOUS
  5
549
 10
761.924387
 20
315.032901
 30
0.0
 11
762.599473
 21
315.707987
 31
0.0
  0
LINE
  8
LC-006-005-----0
  6
CONTINUOUS
  5
54A
 10
789.41877
 20
342.527284
 30
0.0
 11
790.178193
 21
343.286707
 31
0.0
  0
LINE
  8
LC-006-005-----0
  6
CONTINUOUS
  5
54B
 10
761.959114
 20
317.896056
 30
0.0
 11
762.558235
 21
318.495176
 31
0.0
  0
LINE
  8
LC-006-005-----0
  6
CONTINUOUS
  5
54C
 10
765.699473
 20
321.636414
 30
0.0
 11
766.399473
 21
322.336414
 31
0.0
  0
LINE
  8
LC-006-005-----0
  6
CONTINUOUS
  5
54D
 10
786.37769
 20
342.314631
 30
0.0
 11
787.120781
 21
343.057722
 31
0.0
  0
LINE
  8
LC-006-005-----0
  6
CONTINUOUS
  5
54E
 10
765.699473
 20
324.464841
 30
0.0
 11
766.399473
 21
325.164841
 31
0.0
  0
LINE
  8
LC-006-005-----0
  6
CONTINUOUS
  5
54F
 10
783.336609
 20
342.101978
 30
0.0
 11
784.079701
 21
342.845069
 31
0.0
  0
LINE
  8
LC-006-005-----0
  6
CONTINUOUS
  5
550
 10
765.699473
 20
327.293268
 30
0.0
 11
766.399473
 21
327.993268
 31
0.0
  0
LINE
  8
LC-006-005-----0
  6
CONTINUOUS
  5
551
 10
780.295529
 20
341.889325
 30
0.0
 11
781.03862
 21
342.632416
 31
0.0
  0
LINE
  8
LC-006-005-----0
  6
CONTINUOUS
  5
552
 10
765.699473
 20
330.121695
 30
0.0
 11
766.399473
 21
330.821695
 31
0.0
  0
LINE
  8
LC-006-005-----0
  6
CONTINUOUS
  5
553
 10
777.254449
 20
341.676672
 30
0.0
 11
777.99754
 21
342.419763
 31
0.0
  0
LINE
  8
LC-006-005-----0
  6
CONTINUOUS
  5
554
 10
765.699473
 20
332.950123
 30
0.0
 11
766.399473
 21
333.650123
 31
0.0
  0
LINE
  8
LC-006-005-----0
  6
CONTINUOUS
  5
555
 10
774.213369
 20
341.464019
 30
0.0
 11
774.95646
 21
342.20711
 31
0.0
  0
LINE
  8
LC-006-005-----0
  6
CONTINUOUS
  5
556
 10
765.744332
 20
335.823409
 30
0.0
 11
766.621507
 21
336.700584
 31
0.0
  0
LINE
  8
LC-006-005-----0
  6
CONTINUOUS
  5
557
 10
771.041661
 20
341.120738
 30
0.0
 11
771.908256
 21
341.987333
 31
0.0
  0
ENDBLK
  8
0
  5
558
  0
BLOCK
  8
0
  5
55A
  2
BLK8
 70
    64
 10
0.0
 20
0.0
 30
0.0
  3
BLK8
  0
ENDBLK
  8
0
  5
55B
  0
BLOCK
  8
0
  5
55D
  2
*D48
 70
    65
 10
0.0
 20
0.0
 30
0.0
  3
*D48
  0
LINE
  8
LC-011-003-MTH-0
  6
CONTINUOUS
  5
55E
 10
437.327471
 20
347.865213
 30
0.0
 11
437.327471
 21
448.0
 31
0.0
  0
LINE
  8
LC-011-003-MTH-0
  6
CONTINUOUS
  5
55F
 10
936.946686
 20
347.865213
 30
0.0
 11
936.946686
 21
448.0
 31
0.0
  0
LINE
  8
LC-012-003-MTG-0
  6
CONTINUOUS
  5
560
 10
437.327471
 20
431.2
 30
0.0
 11
936.946686
 21
431.2
 31
0.0
  0
LINE
  8
LC-010-003-----0
  6
CONTINUOUS
  5
561
 10
465.087927
 20
434.854733
 30
0.0
 11
437.327471
 21
431.2
 31
0.0
  0
LINE
  8
LC-010-003-----0
  6
CONTINUOUS
  5
562
 10
437.327471
 20
431.2
 30
0.0
 11
465.087927
 21
427.545267
 31
0.0
  0
LINE
  8
LC-010-003-----0
  6
CONTINUOUS
  5
563
 10
465.087927
 20
427.545267
 30
0.0
 11
465.087927
 21
434.854733
 31
0.0
  0
LINE
  8
LC-010-003-----0
  6
CONTINUOUS
  5
564
 10
465.150208
 20
433.904503
 30
0.0
 11
444.607471
 21
431.2
 31
0.0
  0
LINE
  8
LC-010-003-----0
  6
CONTINUOUS
  5
565
 10
444.607471
 20
431.2
 30
0.0
 11
465.150208
 21
428.495497
 31
0.0
  0
LINE
  8
LC-010-003-----0
  6
CONTINUOUS
  5
566
 10
465.21249
 20
432.954272
 30
0.0
 11
451.887471
 21
431.2
 31
0.0
  0
LINE
  8
LC-010-003-----0
  6
CONTINUOUS
  5
567
 10
451.887471
 20
431.2
 30
0.0
 11
465.21249
 21
429.445728
 31
0.0
  0
LINE
  8
LC-010-003-----0
  6
CONTINUOUS
  5
568
 10
465.274771
 20
432.004041
 30
0.0
 11
459.167471
 21
431.2
 31
0.0
  0
LINE
  8
LC-010-003-----0
  6
CONTINUOUS
  5
569
 10
459.167471
 20
431.2
 30
0.0
 11
465.274771
 21
430.395959
 31
0.0
  0
LINE
  8
LC-010-003-----0
  6
CONTINUOUS
  5
56A
 10
909.186229
 20
427.545267
 30
0.0
 11
936.946686
 21
431.2
 31
0.0
  0
LINE
  8
LC-010-003-----0
  6
CONTINUOUS
  5
56B
 10
936.946686
 20
431.2
 30
0.0
 11
909.186229
 21
434.854733
 31
0.0
  0
LINE
  8
LC-010-003-----0
  6
CONTINUOUS
  5
56C
 10
909.186229
 20
434.854733
 30
0.0
 11
909.186229
 21
427.545267
 31
0.0
  0
LINE
  8
LC-010-003-----0
  6
CONTINUOUS
  5
56D
 10
909.123948
 20
428.495497
 30
0.0
 11
929.666686
 21
431.2
 31
0.0
  0
LINE
  8
LC-010-003-----0
  6
CONTINUOUS
  5
56E
 10
929.666686
 20
431.2
 30
0.0
 11
909.123948
 21
433.904503
 31
0.0
  0
LINE
  8
LC-010-003-----0
  6
CONTINUOUS
  5
56F
 10
909.061667
 20
429.445728
 30
0.0
 11
922.386686
 21
431.2
 31
0.0
  0
LINE
  8
LC-010-003-----0
  6
CONTINUOUS
  5
570
 10
922.386686
 20
431.2
 30
0.0
 11
909.061667
 21
432.954272
 31
0.0
  0
LINE
  8
LC-010-003-----0
  6
CONTINUOUS
  5
571
 10
908.999385
 20
430.395959
 30
0.0
 11
915.106686
 21
431.2
 31
0.0
  0
LINE
  8
LC-010-003-----0
  6
CONTINUOUS
  5
572
 10
915.106686
 20
431.2
 30
0.0
 11
908.999385
 21
432.004041
 31
0.0
  0
TEXT
  8
LC-010-003-----0
  6
CONTINUOUS
 62
     8
  5
573
 10
653.3876
 20
439.027554
 30
0.0
 40
28.0
  1
Ø500
 51
15.0
  7
LC-TXTSTYLE-150-400-0-0-D0
 72
     1
 11
691.485238
 21
439.027554
 31
0.0
  0
ENDBLK
  8
0
  5
574
  0
BLOCK
  8
0
  5
576
  2
*X49
 70
    65
 10
766.516617
 20
321.572832
 30
0.0
  3
*X49
  0
LINE
  8
LC-006-005-----0
  6
CONTINUOUS
  5
577
 10
771.533066
 20
321.813153
 30
0.0
 11
773.789719
 21
324.069806
 31
0.0
  0
LINE
  8
LC-006-005-----0
  6
CONTINUOUS
  5
578
 10
771.424895
 20
324.533409
 30
0.0
 11
773.789719
 21
326.898234
 31
0.0
  0
LINE
  8
LC-006-005-----0
  6
CONTINUOUS
  5
579
 10
775.507662
 20
328.616177
 30
0.0
 11
778.649044
 21
331.757559
 31
0.0
  0
LINE
  8
LC-006-005-----0
  6
CONTINUOUS
  5
57A
 10
768.427814
 20
324.364756
 30
0.0
 11
773.789719
 21
329.726661
 31
0.0
  0
LINE
  8
LC-006-005-----0
  6
CONTINUOUS
  5
57B
 10
775.507662
 20
331.444604
 30
0.0
 11
778.649044
 21
334.585986
 31
0.0
  0
LINE
  8
LC-006-005-----0
  6
CONTINUOUS
  5
57C
 10
771.533275
 20
330.298643
 30
0.0
 11
773.789719
 21
332.555088
 31
0.0
  0
LINE
  8
LC-006-005-----0
  6
CONTINUOUS
  5
57D
 10
775.507662
 20
334.273031
 30
0.0
 11
778.511085
 21
337.276454
 31
0.0
  0
LINE
  8
LC-006-005-----0
  6
CONTINUOUS
  5
57E
 10
770.492499
 20
332.086294
 30
0.0
 11
775.470076
 21
337.063872
 31
0.0
  0
LINE
  8
LC-006-005-----0
  6
CONTINUOUS
  5
57F
 10
766.550357
 20
330.97258
 30
0.0
 11
772.417196
 21
336.839419
 31
0.0
  0
ENDBLK
  8
0
  5
580
  0
BLOCK
  8
0
  5
582
  2
BLK9
 70
    64
 10
0.0
 20
0.0
 30
0.0
  3
BLK9
  0
ENDBLK
  8
0
  5
583
  0
BLOCK
  8
0
  5
585
  2
*X51
 70
    65
 10
595.586181
 20
321.572832
 30
0.0
  3
*X51
  0
LINE
  8
LC-006-005-----0
  6
CONTINUOUS
  5
586
 10
606.833886
 20
323.991173
 30
0.0
 11
607.397149
 21
324.554436
 31
0.0
  0
LINE
  8
LC-006-005-----0
  6
CONTINUOUS
  5
587
 10
601.587117
 20
321.572832
 30
0.0
 11
602.702133
 21
322.687848
 31
0.0
  0
LINE
  8
LC-006-005-----0
  6
CONTINUOUS
  5
588
 10
604.760179
 20
324.745893
 30
0.0
 11
606.032292
 21
326.018007
 31
0.0
  0
LINE
  8
LC-006-005-----0
  6
CONTINUOUS
  5
589
 10
600.445506
 20
323.259648
 30
0.0
 11
604.667435
 21
327.481577
 31
0.0
  0
LINE
  8
LC-006-005-----0
  6
CONTINUOUS
  5
58A
 10
600.445506
 20
326.088075
 30
0.0
 11
603.302578
 21
328.945147
 31
0.0
  0
LINE
  8
LC-006-005-----0
  6
CONTINUOUS
  5
58B
 10
605.756477
 20
331.399046
 30
0.0
 11
606.687974
 21
332.330543
 31
0.0
  0
LINE
  8
LC-006-005-----0
  6
CONTINUOUS
  5
58C
 10
600.445506
 20
328.916502
 30
0.0
 11
602.704884
 21
331.17588
 31
0.0
  0
LINE
  8
LC-006-005-----0
  6
CONTINUOUS
  5
58D
 10
603.61375
 20
332.084746
 30
0.0
 11
605.323117
 21
333.794113
 31
0.0
  0
LINE
  8
LC-006-005-----0
  6
CONTINUOUS
  5
58E
 10
597.249617
 20
328.54904
 30
0.0
 11
598.727563
 21
330.026986
 31
0.0
  0
LINE
  8
LC-006-005-----0
  6
CONTINUOUS
  5
58F
 10
600.445506
 20
331.744929
 30
0.0
 11
603.95826
 21
335.257683
 31
0.0
  0
LINE
  8
LC-006-005-----0
  6
CONTINUOUS
  5
590
 10
595.586181
 20
329.714031
 30
0.0
 11
598.727563
 21
332.855413
 31
0.0
  0
LINE
  8
LC-006-005-----0
  6
CONTINUOUS
  5
591
 10
600.2974
 20
334.425251
 30
0.0
 11
602.538351
 21
336.666202
 31
0.0
  0
LINE
  8
LC-006-005-----0
  6
CONTINUOUS
  5
592
 10
595.586181
 20
332.542459
 30
0.0
 11
600.019882
 21
336.976159
 31
0.0
  0
LINE
  8
LC-006-005-----0
  6
CONTINUOUS
  5
593
 10
595.586181
 20
335.370886
 30
0.0
 11
597.376258
 21
337.160962
 31
0.0
  0
ENDBLK
  8
0
  5
594
  0
BLOCK
  8
0
  5
596
  2
BLK10
 70
    64
 10
0.0
 20
0.0
 30
0.0
  3
BLK10
  0
ENDBLK
  8
0
  5
597
  0
BLOCK
  8
0
  5
599
  2
*X53
 70
    65
 10
643.367613
 20
252.798513
 30
0.0
  3
*X53
  0
LINE
  8
LC-006-005-----0
  6
CONTINUOUS
  5
59A
 10
730.399438
 20
316.118599
 30
0.0
 11
722.187736
 21
324.3303
 31
0.0
  0
LINE
  8
LC-006-005-----0
  6
CONTINUOUS
  5
59B
 10
730.867799
 20
312.82181
 30
0.0
 11
728.602443
 21
315.087166
 31
0.0
  0
LINE
  8
LC-006-005-----0
  6
CONTINUOUS
  5
59C
 10
721.156304
 20
322.533305
 30
0.0
 11
718.890947
 21
324.798662
 31
0.0
  0
LINE
  8
LC-006-005-----0
  6
CONTINUOUS
  5
59D
 10
730.86782
 20
309.993362
 30
0.0
 11
728.867821
 21
311.993361
 31
0.0
  0
LINE
  8
LC-006-005-----0
  6
CONTINUOUS
  5
59E
 10
718.062498
 20
322.798684
 30
0.0
 11
716.062496
 21
324.798686
 31
0.0
  0
LINE
  8
LC-006-005-----0
  6
CONTINUOUS
  5
59F
 10
730.867818
 20
307.164937
 30
0.0
 11
728.867819
 21
309.164936
 31
0.0
  0
LINE
  8
LC-006-005-----0
  6
CONTINUOUS
  5
5A0
 10
715.234071
 20
322.798684
 30
0.0
 11
713.234067
 21
324.798688
 31
0.0
  0
LINE
  8
LC-006-005-----0
  6
CONTINUOUS
  5
5A1
 10
730.867816
 20
304.336512
 30
0.0
 11
728.867817
 21
306.33651
 31
0.0
  0
LINE
  8
LC-006-005-----0
  6
CONTINUOUS
  5
5A2
 10
712.405643
 20
322.798684
 30
0.0
 11
710.405638
 21
324.79869
 31
0.0
  0
LINE
  8
LC-006-005-----0
  6
CONTINUOUS
  5
5A3
 10
730.867814
 20
301.508086
 30
0.0
 11
728.867815
 21
303.508085
 31
0.0
  0
LINE
  8
LC-006-005-----0
  6
CONTINUOUS
  5
5A4
 10
709.577216
 20
322.798684
 30
0.0
 11
707.577209
 21
324.798692
 31
0.0
  0
LINE
  8
LC-006-005-----0
  6
CONTINUOUS
  5
5A5
 10
730.867812
 20
298.679661
 30
0.0
 11
728.867814
 21
300.67966
 31
0.0
  0
LINE
  8
LC-006-005-----0
  6
CONTINUOUS
  5
5A6
 10
706.748789
 20
322.798684
 30
0.0
 11
704.74878
 21
324.798693
 31
0.0
  0
LINE
  8
LC-006-005-----0
  6
CONTINUOUS
  5
5A7
 10
700.09103
 20
329.456443
 30
0.0
 11
695.525573
 21
334.021901
 31
0.0
  0
LINE
  8
LC-006-005-----0
  6
CONTINUOUS
  5
5A8
 10
730.86781
 20
295.851236
 30
0.0
 11
728.867812
 21
297.851234
 31
0.0
  0
LINE
  8
LC-006-005-----0
  6
CONTINUOUS
  5
5A9
 10
703.920362
 20
322.798684
 30
0.0
 11
701.920351
 21
324.798695
 31
0.0
  0
LINE
  8
LC-006-005-----0
  6
CONTINUOUS
  5
5AA
 10
700.86768
 20
325.851366
 30
0.0
 11
691.920495
 21
334.798551
 31
0.0
  0
LINE
  8
LC-006-005-----0
  6
CONTINUOUS
  5
5AB
 10
730.867809
 20
293.022811
 30
0.0
 11
728.86781
 21
295.022809
 31
0.0
  0
LINE
  8
LC-006-005-----0
  6
CONTINUOUS
  5
5AC
 10
701.091935
 20
322.798684
 30
0.0
 11
696.657732
 21
327.232887
 31
0.0
  0
LINE
  8
LC-006-005-----0
  6
CONTINUOUS
  5
5AD
 10
693.302016
 20
330.588603
 30
0.0
 11
689.091915
 21
334.798705
 31
0.0
  0
LINE
  8
LC-006-005-----0
  6
CONTINUOUS
  5
5AE
 10
730.867807
 20
290.194385
 30
0.0
 11
728.867808
 21
292.194384
 31
0.0
  0
LINE
  8
LC-006-005-----0
  6
CONTINUOUS
  5
5AF
 10
698.263508
 20
322.798684
 30
0.0
 11
696.263493
 21
324.798699
 31
0.0
  0
LINE
  8
LC-006-005-----0
  6
CONTINUOUS
  5
5B0
 10
690.263487
 20
330.798705
 30
0.0
 11
686.263488
 21
334.798704
 31
0.0
  0
LINE
  8
LC-006-005-----0
  6
CONTINUOUS
  5
5B1
 10
730.867805
 20
287.36596
 30
0.0
 11
728.867806
 21
289.365959
 31
0.0
  0
LINE
  8
LC-006-005-----0
  6
CONTINUOUS
  5
5B2
 10
695.435081
 20
322.798684
 30
0.0
 11
693.435064
 21
324.798701
 31
0.0
  0
LINE
  8
LC-006-005-----0
  6
CONTINUOUS
  5
5B3
 10
687.43506
 20
330.798704
 30
0.0
 11
683.43506
 21
334.798704
 31
0.0
  0
LINE
  8
LC-006-005-----0
  6
CONTINUOUS
  5
5B4
 10
730.867803
 20
284.537535
 30
0.0
 11
728.867804
 21
286.537533
 31
0.0
  0
LINE
  8
LC-006-005-----0
  6
CONTINUOUS
  5
5B5
 10
692.606654
 20
322.798684
 30
0.0
 11
690.606635
 21
324.798703
 31
0.0
  0
LINE
  8
LC-006-005-----0
  6
CONTINUOUS
  5
5B6
 10
684.606633
 20
330.798704
 30
0.0
 11
680.752738
 21
334.652599
 31
0.0
  0
LINE
  8
LC-006-005-----0
  6
CONTINUOUS
  5
5B7
 10
730.867799
 20
278.880684
 30
0.0
 11
728.867801
 21
280.880683
 31
0.0
  0
LINE
  8
LC-006-005-----0
  6
CONTINUOUS
  5
5B8
 10
688.559761
 20
321.188723
 30
0.0
 11
684.949971
 21
324.798513
 31
0.0
  0
LINE
  8
LC-006-005-----0
  6
CONTINUOUS
  5
5B9
 10
679.712888
 20
330.035595
 30
0.0
 11
676.844193
 21
332.90429
 31
0.0
  0
LINE
  8
LC-006-005-----0
  6
CONTINUOUS
  5
5BA
 10
730.867798
 20
276.052259
 30
0.0
 11
728.867799
 21
278.052258
 31
0.0
  0
LINE
  8
LC-006-005-----0
  6
CONTINUOUS
  5
5BB
 10
688.558995
 20
318.361061
 30
0.0
 11
682.121544
 21
324.798513
 31
0.0
  0
LINE
  8
LC-006-005-----0
  6
CONTINUOUS
  5
5BC
 10
678.264427
 20
328.65563
 30
0.0
 11
675.411225
 21
331.508831
 31
0.0
  0
LINE
  8
LC-006-005-----0
  6
CONTINUOUS
  5
5BD
 10
730.867796
 20
273.223834
 30
0.0
 11
728.867797
 21
275.223832
 31
0.0
  0
LINE
  8
LC-006-005-----0
  6
CONTINUOUS
  5
5BE
 10
688.55823
 20
315.533399
 30
0.0
 11
679.293116
 21
324.798513
 31
0.0
  0
LINE
  8
LC-006-005-----0
  6
CONTINUOUS
  5
5BF
 10
677.440957
 20
326.650672
 30
0.0
 11
674.301387
 21
329.790242
 31
0.0
  0
LINE
  8
LC-006-005-----0
  6
CONTINUOUS
  5
5C0
 10
730.867794
 20
270.395408
 30
0.0
 11
728.867795
 21
272.395407
 31
0.0
  0
LINE
  8
LC-006-005-----0
  6
CONTINUOUS
  5
5C1
 10
688.557465
 20
312.705738
 30
0.0
 11
673.569582
 21
327.69362
 31
0.0
  0
LINE
  8
LC-006-005-----0
  6
CONTINUOUS
  5
5C2
 10
730.867792
 20
267.566983
 30
0.0
 11
728.867793
 21
269.566982
 31
0.0
  0
LINE
  8
LC-006-005-----0
  6
CONTINUOUS
  5
5C3
 10
688.556699
 20
309.878076
 30
0.0
 11
673.367837
 21
325.066938
 31
0.0
  0
LINE
  8
LC-006-005-----0
  6
CONTINUOUS
  5
5C4
 10
730.86779
 20
264.738558
 30
0.0
 11
728.867791
 21
266.738556
 31
0.0
  0
LINE
  8
LC-006-005-----0
  6
CONTINUOUS
  5
5C5
 10
688.555934
 20
307.050414
 30
0.0
 11
670.807835
 21
324.798513
 31
0.0
  0
LINE
  8
LC-006-005-----0
  6
CONTINUOUS
  5
5C6
 10
730.867788
 20
261.910132
 30
0.0
 11
728.86779
 21
263.910131
 31
0.0
  0
LINE
  8
LC-006-005-----0
  6
CONTINUOUS
  5
5C7
 10
688.555168
 20
304.222752
 30
0.0
 11
667.979408
 21
324.798513
 31
0.0
  0
LINE
  8
LC-006-005-----0
  6
CONTINUOUS
  5
5C8
 10
730.867786
 20
259.081707
 30
0.0
 11
728.867788
 21
261.081706
 31
0.0
  0
LINE
  8
LC-006-005-----0
  6
CONTINUOUS
  5
5C9
 10
688.554403
 20
301.395091
 30
0.0
 11
665.150981
 21
324.798513
 31
0.0
  0
LINE
  8
LC-006-005-----0
  6
CONTINUOUS
  5
5CA
 10
730.867785
 20
256.253282
 30
0.0
 11
728.867786
 21
258.253281
 31
0.0
  0
LINE
  8
LC-006-005-----0
  6
CONTINUOUS
  5
5CB
 10
688.553638
 20
298.567429
 30
0.0
 11
662.322554
 21
324.798513
 31
0.0
  0
LINE
  8
LC-006-005-----0
  6
CONTINUOUS
  5
5CC
 10
730.180872
 20
254.111767
 30
0.0
 11
728.867784
 21
255.424855
 31
0.0
  0
LINE
  8
LC-006-005-----0
  6
CONTINUOUS
  5
5CD
 10
688.552872
 20
295.739767
 30
0.0
 11
659.494127
 21
324.798513
 31
0.0
  0
LINE
  8
LC-006-005-----0
  6
CONTINUOUS
  5
5CE
 10
687.665699
 20
293.798513
 30
0.0
 11
656.665699
 21
324.798513
 31
0.0
  0
LINE
  8
LC-006-005-----0
  6
CONTINUOUS
  5
5CF
 10
684.837272
 20
293.798513
 30
0.0
 11
653.924377
 21
324.711408
 31
0.0
  0
LINE
  8
LC-006-005-----0
  6
CONTINUOUS
  5
5D0
 10
682.008845
 20
293.798513
 30
0.0
 11
655.367613
 21
320.439745
 31
0.0
  0
LINE
  8
LC-006-005-----0
  6
CONTINUOUS
  5
5D1
 10
653.238196
 20
322.569162
 30
0.0
 11
651.611759
 21
324.195599
 31
0.0
  0
LINE
  8
LC-006-005-----0
  6
CONTINUOUS
  5
5D2
 10
679.180418
 20
293.798513
 30
0.0
 11
655.367613
 21
317.611318
 31
0.0
  0
LINE
  8
LC-006-005-----0
  6
CONTINUOUS
  5
5D3
 10
651.125013
 20
321.853917
 30
0.0
 11
649.63711
 21
323.341821
 31
0.0
  0
LINE
  8
LC-006-005-----0
  6
CONTINUOUS
  5
5D4
 10
676.351991
 20
293.798513
 30
0.0
 11
655.367613
 21
314.782891
 31
0.0
  0
LINE
  8
LC-006-005-----0
  6
CONTINUOUS
  5
5D5
 10
649.35869
 20
320.791813
 30
0.0
 11
647.932729
 21
322.217775
 31
0.0
  0
LINE
  8
LC-006-005-----0
  6
CONTINUOUS
  5
5D6
 10
673.523564
 20
293.798513
 30
0.0
 11
655.367613
 21
311.954464
 31
0.0
  0
LINE
  8
LC-006-005-----0
  6
CONTINUOUS
  5
5D7
 10
647.887126
 20
319.434951
 30
0.0
 11
646.470808
 21
320.851268
 31
0.0
  0
LINE
  8
LC-006-005-----0
  6
CONTINUOUS
  5
5D8
 10
670.695137
 20
293.798513
 30
0.0
 11
655.367613
 21
309.126037
 31
0.0
  0
LINE
  8
LC-006-005-----0
  6
CONTINUOUS
  5
5D9
 10
646.702888
 20
317.790761
 30
0.0
 11
645.247159
 21
319.246491
 31
0.0
  0
LINE
  8
LC-006-005-----0
  6
CONTINUOUS
  5
5DA
 10
667.86671
 20
293.798513
 30
0.0
 11
658.867613
 21
302.79761
 31
0.0
  0
LINE
  8
LC-006-005-----0
  6
CONTINUOUS
  5
5DB
 10
658.86671
 20
302.798513
 30
0.0
 11
655.367613
 21
306.29761
 31
0.0
  0
LINE
  8
LC-006-005-----0
  6
CONTINUOUS
  5
5DC
 10
645.837467
 20
315.827756
 30
0.0
 11
644.279141
 21
317.386082
 31
0.0
  0
LINE
  8
LC-006-005-----0
  6
CONTINUOUS
  5
5DD
 10
665.038282
 20
293.798513
 30
0.0
 11
659.379503
 21
299.457293
 31
0.0
  0
LINE
  8
LC-006-005-----0
  6
CONTINUOUS
  5
5DE
 10
656.038282
 20
302.798513
 30
0.0
 11
655.367613
 21
303.469183
 31
0.0
  0
LINE
  8
LC-006-005-----0
  6
CONTINUOUS
  5
5DF
 10
645.388731
 20
313.448064
 30
0.0
 11
643.614866
 21
315.221929
 31
0.0
  0
LINE
  8
LC-006-005-----0
  6
CONTINUOUS
  5
5E0
 10
645.367613
 20
310.640755
 30
0.0
 11
643.367613
 21
312.640755
 31
0.0
  0
LINE
  8
LC-006-005-----0
  6
CONTINUOUS
  5
5E1
 10
645.367613
 20
307.812328
 30
0.0
 11
643.367613
 21
309.812328
 31
0.0
  0
LINE
  8
LC-006-005-----0
  6
CONTINUOUS
  5
5E2
 10
645.367613
 20
304.983901
 30
0.0
 11
643.367613
 21
306.983901
 31
0.0
  0
LINE
  8
LC-006-005-----0
  6
CONTINUOUS
  5
5E3
 10
645.367613
 20
302.155474
 30
0.0
 11
643.367613
 21
304.155474
 31
0.0
  0
LINE
  8
LC-006-005-----0
  6
CONTINUOUS
  5
5E4
 10
645.367613
 20
299.327047
 30
0.0
 11
643.367613
 21
301.327047
 31
0.0
  0
LINE
  8
LC-006-005-----0
  6
CONTINUOUS
  5
5E5
 10
645.367613
 20
296.49862
 30
0.0
 11
643.367613
 21
298.49862
 31
0.0
  0
LINE
  8
LC-006-005-----0
  6
CONTINUOUS
  5
5E6
 10
645.367613
 20
293.670193
 30
0.0
 11
643.367613
 21
295.670193
 31
0.0
  0
LINE
  8
LC-006-005-----0
  6
CONTINUOUS
  5
5E7
 10
645.367613
 20
290.841766
 30
0.0
 11
643.367613
 21
292.841766
 31
0.0
  0
LINE
  8
LC-006-005-----0
  6
CONTINUOUS
  5
5E8
 10
645.367613
 20
288.013338
 30
0.0
 11
643.367613
 21
290.013338
 31
0.0
  0
LINE
  8
LC-006-005-----0
  6
CONTINUOUS
  5
5E9
 10
645.367613
 20
285.184911
 30
0.0
 11
643.367613
 21
287.184911
 31
0.0
  0
LINE
  8
LC-006-005-----0
  6
CONTINUOUS
  5
5EA
 10
645.367613
 20
282.356484
 30
0.0
 11
643.367613
 21
284.356484
 31
0.0
  0
LINE
  8
LC-006-005-----0
  6
CONTINUOUS
  5
5EB
 10
645.367613
 20
279.528057
 30
0.0
 11
643.367613
 21
281.528057
 31
0.0
  0
LINE
  8
LC-006-005-----0
  6
CONTINUOUS
  5
5EC
 10
645.367613
 20
276.69963
 30
0.0
 11
643.367613
 21
278.69963
 31
0.0
  0
LINE
  8
LC-006-005-----0
  6
CONTINUOUS
  5
5ED
 10
645.367613
 20
273.871203
 30
0.0
 11
643.367613
 21
275.871203
 31
0.0
  0
LINE
  8
LC-006-005-----0
  6
CONTINUOUS
  5
5EE
 10
645.367613
 20
271.042776
 30
0.0
 11
643.367613
 21
273.042776
 31
0.0
  0
LINE
  8
LC-006-005-----0
  6
CONTINUOUS
  5
5EF
 10
645.367613
 20
268.214349
 30
0.0
 11
643.367613
 21
270.214349
 31
0.0
  0
LINE
  8
LC-006-005-----0
  6
CONTINUOUS
  5
5F0
 10
645.367613
 20
265.385921
 30
0.0
 11
643.367613
 21
267.385921
 31
0.0
  0
LINE
  8
LC-006-005-----0
  6
CONTINUOUS
  5
5F1
 10
645.367613
 20
262.557494
 30
0.0
 11
643.367613
 21
264.557494
 31
0.0
  0
LINE
  8
LC-006-005-----0
  6
CONTINUOUS
  5
5F2
 10
645.367613
 20
259.729067
 30
0.0
 11
643.367613
 21
261.729067
 31
0.0
  0
LINE
  8
LC-006-005-----0
  6
CONTINUOUS
  5
5F3
 10
645.367613
 20
256.90064
 30
0.0
 11
643.367613
 21
258.90064
 31
0.0
  0
LINE
  8
LC-006-005-----0
  6
CONTINUOUS
  5
5F4
 10
645.367613
 20
254.072213
 30
0.0
 11
643.367613
 21
256.072213
 31
0.0
  0
ENDBLK
  8
0
  5
5F5
  0
BLOCK
  8
0
  5
5F7
  2
BLK11
 70
    64
 10
0.0
 20
0.0
 30
0.0
  3
BLK11
  0
ENDBLK
  8
0
  5
5F8
  0
ENDSEC
  0
SECTION
  2
ENTITIES
  0
VIEWPORT
  8
LC-000
  5
884
 67
     1
 68
     1
 10
420.0
 20
297.0
 30
0.0
 40
840.0
 41
594.0
 69
     1
1001
ACAD
1000
MVIEW
1002
{
1070
    16
1010
0.0
1020
0.0
1030
0.0
1010
0.0
1020
0.0
1030
1.0
1040
0.0
1040
594.0
1040
420.0
1040
297.0
1040
50.0
1040
0.0
1040
0.0
1070
     0
1070
   100
1070
     1
1070
     1
1070
     0
1070
     0
1070
     0
1070
     0
1040
0.0
1040
0.0
1040
0.0
1040
1.0
1040
1.0
1040
0.0
1040
0.0
1070
     0
1002
{
1002
}
1002
}
  0
VIEWPORT
  8
0
  5
885
 67
     1
 68
     1
 10
0.0
 20
0.0
 30
0.0
 40
0.0
 41
0.0
 69
     1
1001
ACAD
1000
MVIEW
1002
{
1070
    16
1010
0.0
1020
0.0
1030
0.0
1010
0.0
1020
0.0
1030
1.0
1040
0.0
1040
594.0
1040
0.0
1040
0.0
1040
50.0
1040
0.0
1040
0.0
1070
     0
1070
   100
1070
     0
1070
     1
1070
     0
1070
     0
1070
     0
1070
     0
1040
0.0
1040
0.0
1040
0.0
1040
0.5
1040
0.5
1040
0.5
1040
0.5
1070
     0
1002
{
1002
}
1002
}
  0
INSERT
  8
0
  5
5F9
  2
*X0
 10
605.684598
 20
171.310829
 30
0.0
  0
INSERT
  8
0
  5
5FA
  2
*X1
 10
536.971053
 20
253.810786
 30
0.0
  0
INSERT
  8
0
  5
5FB
  2
*X2
 10
707.120037
 20
171.310652
 30
0.0
  0
INSERT
  8
0
  5
5FC
  2
*X3
 10
475.619955
 20
272.897885
 30
0.0
  0
INSERT
  8
0
  5
5FD
  2
*X4
 10
542.333943
 20
263.953064
 30
0.0
  0
INSERT
  8
0
  5
5FE
  2
*X5
 10
591.905967
 20
263.953064
 30
0.0
  0
INSERT
  8
0
  5
5FF
  2
*X6
 10
477.119955
 20
227.647885
 30
0.0
  0
INSERT
  8
0
  5
600
  2
*X7
 10
540.6654
 20
231.810879
 30
0.0
  0
INSERT
  8
0
  5
601
  2
*X8
 10
590.119955
 20
251.800508
 30
0.0
  0
INSERT
  8
0
  5
602
  2
*X9
 10
484.529046
 20
274.78425
 30
0.0
  0
INSERT
  8
0
  5
603
  2
*X10
 10
484.529046
 20
328.905586
 30
0.0
  0
INSERT
  8
0
  5
605
  2
BLK1
 10
0.0
 20
0.0
 30
0.0
  0
INSERT
  8
0
  5
606
  2
BLK2
 10
0.0
 20
0.0
 30
0.0
  0
INSERT
  8
0
  5
607
  2
BLK3
 10
0.0
 20
0.0
 30
0.0
  0
INSERT
  8
0
  5
609
  2
BLK4
 10
0.0
 20
0.0
 30
0.0
  0
INSERT
  8
0
  5
60A
  2
BLK5
 10
0.0
 20
0.0
 30
0.0
  0
INSERT
  8
0
  5
60B
  2
BLK6
 10
0.0
 20
0.0
 30
0.0
  0
INSERT
  8
0
  5
60C
  2
BLK7
 10
0.0
 20
0.0
 30
0.0
  0
DIMENSION
  8
0
  5
60D
  2
*D18
 10
687.121477
 20
392.0
 30
0.0
 11
687.121477
 21
392.0
 31
0.0
  1
%%c300
 13
536.971053
 23
340.095899
 33
0.0
 14
837.271901
 24
340.095899
 34
0.0
  3
LC-DIM-L-0140-02-02
  0
DIMENSION
  8
0
  5
60E
  2
*D19
 10
687.121477
 20
352.8
 30
0.0
 11
687.121477
 21
352.8
 31
0.0
  1
%%c190
 13
592.620438
 23
330.845412
 33
0.0
 14
781.622515
 24
330.845412
 34
0.0
  3
LC-DIM-L-0140-02-02
  0
DIMENSION
  8
0
  5
60F
  2
*D20
 10
805.760334
 20
156.8
 30
0.0
 11
805.760334
 21
156.8
 31
0.0
  1
DN50
 13
662.117613
 23
180.712126
 33
0.0
 14
712.117614
 24
180.712126
 34
0.0
  3
LC-DIM-L-0140-02-02
  0
DIMENSION
  8
0
  5
610
  2
*D21
 10
686.884102
 20
120.0
 30
0.0
 11
686.884102
 21
120.0
 31
0.0
  1
DN70
 13
649.617753
 23
174.796866
 33
0.0
 14
724.150451
 24
173.053847
 34
0.0
  3
LC-DIM-L-0140-02-02
  0
DIMENSION
  8
0
  5
611
  2
*D22
 10
392.0
 20
322.496892
 30
0.0
 11
392.0
 21
322.496892
 31
0.0
  1
35
 13
536.971053
 23
340.095899
 33
0.0
 14
475.619955
 24
304.897885
 34
0.0
 50
90.0
  3
LC-DIM-L-0140-02-02
  0
DIMENSION
  8
0
  5
612
  2
*D23
 10
431.2
 20
304.335385
 30
0.0
 11
431.2
 21
304.335385
 31
0.0
  1
DN50
 13
477.119955
 23
330.147885
 33
0.0
 14
477.119955
 24
278.522885
 34
0.0
 50
90.0
  3
LC-DIM-L-0140-02-02
  0
DIMENSION
  8
0
  5
613
  2
*D24
 10
823.2
 20
277.048682
 30
0.0
 11
823.2
 21
277.048682
 31
0.0
  1
50
 13
728.867782
 23
252.798678
 33
0.0
 14
717.499909
 24
301.298686
 34
0.0
 50
90.0
  3
LC-DIM-L-0140-02-02
  0
DIMENSION
  8
0
  5
614
  2
*D25
 10
862.4
 20
285.203276
 30
0.0
 11
862.4
 21
285.203276
 31
0.0
  1
110
 13
755.167681
 23
230.310653
 33
0.0
 14
837.271901
 24
340.095899
 34
0.0
 50
90.0
  3
LC-DIM-L-0140-02-02
  0
DIMENSION
  8
0
  5
615
  2
*D26
 10
687.152207
 20
80.0
 30
0.0
 11
687.152207
 21
80.0
 31
0.0
  1
%%c160
 13
607.184598
 23
275.310788
 33
0.0
 14
767.119816
 24
152.124
 34
0.0
  3
LC-DIM-L-0140-02-02
  0
INSERT
  8
0
  5
616
  2
*X27
 10
577.775186
 20
311.954729
 30
0.0
  0
INSERT
  8
0
  5
617
  2
*X28
 10
437.327471
 20
343.165213
 30
0.0
  0
INSERT
  8
0
  5
618
  2
*X29
 10
457.327471
 20
343.165213
 30
0.0
  0
INSERT
  8
0
  5
619
  2
*X30
 10
477.327471
 20
343.165213
 30
0.0
  0
INSERT
  8
0
  5
61A
  2
*X31
 10
497.327471
 20
343.165213
 30
0.0
  0
INSERT
  8
0
  5
61B
  2
*X32
 10
517.327471
 20
343.165213
 30
0.0
  0
INSERT
  8
0
  5
61C
  2
*X33
 10
537.327471
 20
342.389701
 30
0.0
  0
INSERT
  8
0
  5
61D
  2
*X34
 10
557.327471
 20
341.003407
 30
0.0
  0
INSERT
  8
0
  5
61E
  2
*X35
 10
563.515249
 20
337.545758
 30
0.0
  0
INSERT
  8
0
  5
61F
  2
*X36
 10
755.637078
 20
318.555396
 30
0.0
  0
INSERT
  8
0
  5
620
  2
*X37
 10
608.637078
 20
318.555396
 30
0.0
  0
INSERT
  8
0
  5
621
  2
*X38
 10
926.946686
 20
343.165213
 30
0.0
  0
INSERT
  8
0
  5
622
  2
*X39
 10
906.946686
 20
343.165213
 30
0.0
  0
INSERT
  8
0
  5
623
  2
*X40
 10
886.946686
 20
343.165213
 30
0.0
  0
INSERT
  8
0
  5
624
  2
*X41
 10
866.946686
 20
343.165213
 30
0.0
  0
INSERT
  8
0
  5
625
  2
*X42
 10
846.946686
 20
343.165213
 30
0.0
  0
INSERT
  8
0
  5
626
  2
*X43
 10
826.946686
 20
342.389701
 30
0.0
  0
INSERT
  8
0
  5
627
  2
*X44
 10
806.946686
 20
341.003407
 30
0.0
  0
INSERT
  8
0
  5
628
  2
*X45
 10
764.0359
 20
337.545758
 30
0.0
  0
INSERT
  8
0
  5
629
  2
*X46
 10
759.399473
 20
311.954729
 30
0.0
  0
INSERT
  8
0
  5
62A
  2
BLK8
 10
0.0
 20
0.0
 30
0.0
  0
DIMENSION
  8
0
  5
62B
  2
*D48
 10
687.137078
 20
431.2
 30
0.0
 11
687.137078
 21
431.2
 31
0.0
  1
%%c500
 13
437.327471
 23
347.865213
 33
0.0
 14
936.946686
 24
347.865213
 34
0.0
  3
LC-DIM-L-0140-02-02
  0
INSERT
  8
0
  5
62C
  2
*X49
 10
766.516617
 20
321.572832
 30
0.0
  0
INSERT
  8
0
  5
62D
  2
BLK9
 10
0.0
 20
0.0
 30
0.0
  0
INSERT
  8
0
  5
62E
  2
*X51
 10
595.586181
 20
321.572832
 30
0.0
  0
INSERT
  8
0
  5
62F
  2
BLK10
 10
0.0
 20
0.0
 30
0.0
  0
INSERT
  8
0
  5
630
  2
*X53
 10
643.367613
 20
252.798513
 30
0.0
  0
INSERT
  8
0
  5
631
  2
BLK11
 10
0.0
 20
0.0
 30
0.0
  0
ARC
  8
LC-001-002-RND-0
  6
CONTINUOUS
  5
633
 10
718.867822
 20
312.798684
 30
0.0
 40
10.0
 50
359.999963
 51
90.0
  0
ARC
  8
LC-001-002-RND-0
  6
CONTINUOUS
  5
634
 10
718.867822
 20
312.798684
 30
0.0
 40
12.0
 50
359.999963
 51
89.999963
  0
ARC
  8
LC-001-002-RND-0
  6
CONTINUOUS
  5
635
 10
691.867834
 20
325.798705
 30
0.0
 40
9.0
 50
0.000006
 51
90.000006
  0
LINE
  8
LC-002-002-----0
  6
CONTINUOUS
  5
637
 10
691.867834
 20
330.798705
 30
0.0
 11
687.117835
 21
330.798704
 31
0.0
  0
LINE
  8
LC-002-002-----0
  6
CONTINUOUS
  5
638
 10
696.867834
 20
324.798705
 30
0.0
 11
696.867834
 21
325.798705
 31
0.0
  0
ARC
  8
LC-002-002-----0
  6
CONTINUOUS
  5
639
 10
691.867834
 20
325.798705
 30
0.0
 40
5.0
 50
0.000005
 51
90.000006
  0
ARC
  8
LC-001-002-RND-0
  6
CONTINUOUS
  5
63A
 10
682.367837
 20
325.798704
 30
0.0
 40
9.0
 50
90.0
 51
180.000001
  0
LINE
  8
LC-002-002-----0
  6
CONTINUOUS
  5
63B
 10
682.367837
 20
330.798704
 30
0.0
 11
687.117836
 21
330.798704
 31
0.0
  0
LINE
  8
LC-002-002-----0
  6
CONTINUOUS
  5
63C
 10
677.367837
 20
324.798704
 30
0.0
 11
677.367837
 21
325.798704
 31
0.0
  0
LINE
  8
LC-002-002-----0
  6
CONTINUOUS
  5
63D
 10
691.867833
 20
334.798705
 30
0.0
 11
687.117835
 21
334.798704
 31
0.0
  0
LINE
  8
LC-002-002-----0
  6
CONTINUOUS
  5
63E
 10
700.867834
 20
324.798706
 30
0.0
 11
700.867834
 21
325.798706
 31
0.0
  0
ARC
  8
LC-002-002-----0
  6
CONTINUOUS
  5
63F
 10
682.367837
 20
325.798704
 30
0.0
 40
5.0
 50
90.0
 51
180.000001
  0
LINE
  8
LC-002-002-----0
  6
CONTINUOUS
  5
640
 10
682.367837
 20
334.798704
 30
0.0
 11
687.117836
 21
334.798704
 31
0.0
  0
LINE
  8
LC-002-002-----0
  6
CONTINUOUS
  5
641
 10
673.367837
 20
324.798704
 30
0.0
 11
673.367837
 21
325.798704
 31
0.0
  0
LINE
  8
LC-002-002-----0
  6
CONTINUOUS
  5
642
 10
645.367613
 20
252.798513
 30
0.0
 11
656.742974
 21
252.798513
 31
0.0
  0
LINE
  8
LC-002-002-----0
  6
CONTINUOUS
  5
643
 10
655.367613
 20
324.798513
 30
0.0
 11
673.367837
 21
324.798513
 31
0.0
  0
ARC
  8
LC-002-002-----0
  6
CONTINUOUS
  5
644
 10
655.367613
 20
312.798513
 30
0.0
 40
12.0
 50
90.0
 51
179.999848
  0
LINE
  8
LC-002-002-----0
  6
CONTINUOUS
  5
645
 10
643.367613
 20
312.798545
 30
0.0
 11
643.367613
 21
254.798513
 31
0.0
  0
ARC
  8
LC-002-002-----0
  6
CONTINUOUS
  5
646
 10
655.367613
 20
312.798513
 30
0.0
 40
10.0
 50
90.0
 51
179.999848
  0
LINE
  8
LC-002-002-----0
  6
CONTINUOUS
  5
647
 10
645.367613
 20
313.261186
 30
0.0
 11
645.367613
 21
252.798513
 31
0.0
  0
LINE
  8
LC-002-002-----0
  6
CONTINUOUS
  5
648
 10
655.367613
 20
302.798513
 30
0.0
 11
658.367613
 21
302.798513
 31
0.0
  0
LINE
  8
LC-002-002-----0
  6
CONTINUOUS
  5
649
 10
655.367613
 20
302.798513
 30
0.0
 11
655.367613
 21
322.798513
 31
0.0
  0
LINE
  8
LC-002-002-----0
  6
CONTINUOUS
  5
64A
 10
658.367613
 20
302.798513
 30
0.0
 11
658.867613
 21
302.798513
 31
0.0
  0
LINE
  8
LC-002-002-----0
  6
CONTINUOUS
  5
64B
 10
701.609162
 20
293.798513
 30
0.0
 11
662.367616
 21
293.798513
 31
0.0
  0
LINE
  8
LC-002-002-----0
  6
CONTINUOUS
  5
64C
 10
658.867613
 20
301.50562
 30
0.0
 11
658.867613
 21
302.798513
 31
0.0
  0
LINE
  8
LC-002-002-----0
  6
CONTINUOUS
  5
64D
 10
658.867616
 20
300.091407
 30
0.0
 11
658.867616
 21
297.298513
 31
0.0
  0
LINE
  8
LC-002-002-----0
  6
CONTINUOUS
  5
64E
 10
658.867616
 20
297.298513
 30
0.0
 11
662.367616
 21
293.798513
 31
0.0
  0
ARC
  8
LC-002-002-----0
  6
CONTINUOUS
  5
64F
 10
658.617613
 20
300.798513
 30
0.0
 40
0.75
 50
289.471622
 51
70.528779
  0
LINE
  8
LC-002-002-----0
  6
CONTINUOUS
  5
650
 10
718.867829
 20
324.798684
 30
0.0
 11
700.867834
 21
324.798696
 31
0.0
  0
LINE
  8
LC-002-002-----0
  6
CONTINUOUS
  5
651
 10
730.867822
 20
312.798676
 30
0.0
 11
730.867784
 21
254.798679
 31
0.0
  0
LINE
  8
LC-002-002-----0
  6
CONTINUOUS
  5
652
 10
728.867822
 20
312.798678
 30
0.0
 11
728.867782
 21
252.798678
 31
0.0
  0
LINE
  8
LC-002-002-----0
  6
CONTINUOUS
  5
653
 10
728.867782
 20
252.798678
 30
0.0
 11
717.499909
 21
252.798685
 31
0.0
  0
LINE
  8
LC-002-002-----0
  6
CONTINUOUS
  5
654
 10
718.867822
 20
322.798684
 30
0.0
 11
688.560197
 21
322.798684
 31
0.0
  0
LINE
  8
LC-002-002-----0
  6
CONTINUOUS
  5
655
 10
645.367613
 20
252.798513
 30
0.0
 11
643.367613
 21
254.798513
 31
0.0
  0
LINE
  8
LC-002-002-----0
  6
CONTINUOUS
  5
656
 10
728.867782
 20
252.798678
 30
0.0
 11
730.867784
 21
254.798679
 31
0.0
  0
LINE
  8
LC-003-103-D00-1
  6
CONTINUOUS
  5
658
 10
662.117613
 20
180.712126
 30
0.0
 11
663.051707
 21
177.226086
 31
0.0
  0
ARC
  8
LC-002-002-----0
  6
CONTINUOUS
  5
659
 10
619.136733
 20
242.262934
 30
0.0
 40
11.952134
 50
228.503781
 51
270.000037
  0
LINE
  8
LC-002-002-----0
  6
CONTINUOUS
  5
65A
 10
652.709072
 20
230.310839
 30
0.0
 11
652.709072
 21
230.363542
 31
0.0
  0
ARC
  8
LC-001-002-RND-0
  6
CONTINUOUS
  5
65B
 10
835.271901
 20
340.946493
 30
0.0
 40
2.0
 50
0.0
 51
93.999997
  0
LINE
  8
LC-002-002-----0
  6
CONTINUOUS
  5
65C
 10
649.617754
 20
230.310829
 30
0.0
 11
649.617753
 21
174.796866
 31
0.0
  0
LINE
  8
LC-002-002-----0
  6
CONTINUOUS
  5
65D
 10
721.533723
 20
233.298686
 30
0.0
 11
720.487911
 21
233.298686
 31
0.0
  0
LINE
  8
LC-002-002-----0
  6
CONTINUOUS
  5
65E
 10
649.617753
 20
174.796866
 30
0.0
 11
650.551834
 21
171.310829
 31
0.0
  0
LINE
  8
LC-002-002-----0
  6
CONTINUOUS
  5
65F
 10
724.617516
 20
230.310653
 30
0.0
 11
724.617515
 21
174.796866
 31
0.0
  0
LINE
  8
LC-002-002-----0
  6
CONTINUOUS
  5
660
 10
724.617515
 20
174.796866
 30
0.0
 11
723.683387
 21
171.310828
 31
0.0
  0
LINE
  8
LC-002-002-----0
  6
CONTINUOUS
  5
661
 10
652.70907
 20
233.298686
 30
0.0
 11
652.70907
 21
233.298686
 31
0.0
  0
LINE
  8
LC-002-002-----0
  6
CONTINUOUS
  5
662
 10
773.523368
 20
327.954731
 30
0.0
 11
773.523368
 21
334.428804
 31
0.0
  0
LINE
  8
LC-002-002-----0
  6
CONTINUOUS
  5
663
 10
775.515391
 20
334.428804
 30
0.0
 11
773.523368
 21
334.428804
 31
0.0
  0
LINE
  8
LC-002-002-----0
  6
CONTINUOUS
  5
664
 10
600.719585
 20
327.954731
 30
0.0
 11
600.719585
 21
334.428804
 31
0.0
  0
LINE
  8
LC-002-002-----0
  6
CONTINUOUS
  5
665
 10
598.727563
 20
334.428804
 30
0.0
 11
600.719585
 21
334.428804
 31
0.0
  0
LINE
  8
LC-002-002-----0
  6
CONTINUOUS
  5
666
 10
598.727563
 20
328.452737
 30
0.0
 11
598.727563
 21
334.428804
 31
0.0
  0
LINE
  8
LC-002-002-----0
  6
CONTINUOUS
  5
667
 10
775.515391
 20
328.452737
 30
0.0
 11
775.515391
 21
334.428804
 31
0.0
  0
LINE
  8
LC-002-002-----0
  6
CONTINUOUS
  5
668
 10
777.507413
 20
328.452737
 30
0.0
 11
775.515391
 21
328.452737
 31
0.0
  0
LINE
  8
LC-002-002-----0
  6
CONTINUOUS
  5
669
 10
764.31164
 20
242.262787
 30
0.0
 11
764.31164
 21
307.781951
 31
0.0
  0
ARC
  8
LC-002-002-----0
  6
CONTINUOUS
  5
66A
 10
755.167681
 20
242.262787
 30
0.0
 40
11.952134
 50
270.0
 51
0.0
  0
LINE
  8
LC-002-002-----0
  6
CONTINUOUS
  5
66B
 10
652.709106
 20
171.310829
 30
0.0
 11
652.709081
 21
230.310829
 31
0.0
  0
LINE
  8
LC-002-002-----0
  6
CONTINUOUS
  5
66C
 10
650.551834
 20
171.310829
 30
0.0
 11
687.12135
 21
171.310844
 31
0.0
  0
LINE
  8
LC-002-002-----0
  6
CONTINUOUS
  5
66D
 10
764.859447
 20
316.198246
 30
0.0
 11
764.660244
 21
316.198246
 31
0.0
  0
LINE
  8
LC-002-002-----0
  6
CONTINUOUS
  5
66E
 10
773.524744
 20
317.49306
 30
0.0
 11
773.524744
 21
334.425251
 31
0.0
  0
LINE
  8
LC-002-002-----0
  6
CONTINUOUS
  5
66F
 10
596.735541
 20
328.452737
 30
0.0
 11
598.727563
 21
328.452737
 31
0.0
  0
LINE
  8
LC-002-002-----0
  6
CONTINUOUS
  5
670
 10
764.859447
 20
312.712206
 30
0.0
 11
764.859447
 21
314.206223
 31
0.0
  0
LINE
  8
LC-002-002-----0
  6
CONTINUOUS
  5
671
 10
764.859447
 20
309.275968
 30
0.0
 11
764.859447
 21
309.773973
 31
0.0
  0
LINE
  8
LC-002-002-----0
  6
CONTINUOUS
  5
672
 10
764.859447
 20
307.781951
 30
0.0
 11
764.859447
 21
310.720184
 31
0.0
  0
LINE
  8
LC-002-002-----0
  6
CONTINUOUS
  5
673
 10
764.859447
 20
307.781951
 30
0.0
 11
764.31164
 21
307.781951
 31
0.0
  0
LINE
  8
LC-002-002-----0
  6
CONTINUOUS
  5
674
 10
764.859447
 20
310.720184
 30
0.0
 11
764.660244
 21
310.720184
 31
0.0
  0
LINE
  8
LC-002-002-----0
  6
CONTINUOUS
  5
675
 10
763.863435
 20
311.516993
 30
0.0
 11
763.863435
 21
311.915397
 31
0.0
  0
LINE
  8
LC-002-002-----0
  6
CONTINUOUS
  5
676
 10
763.863435
 20
315.003032
 30
0.0
 11
763.863435
 21
315.401437
 31
0.0
  0
LINE
  8
LC-002-002-----0
  6
CONTINUOUS
  5
677
 10
764.859447
 20
314.206223
 30
0.0
 11
764.660244
 21
314.206223
 31
0.0
  0
ARC
  8
LC-002-002-----0
  6
CONTINUOUS
  5
678
 10
764.660244
 20
315.401437
 30
0.0
 40
0.796809
 50
90.0
 51
180.0
  0
ARC
  8
LC-002-002-----0
  6
CONTINUOUS
  5
679
 10
764.660244
 20
311.915397
 30
0.0
 40
0.796809
 50
90.0
 51
180.0
  0
LINE
  8
LC-002-002-----0
  6
CONTINUOUS
  5
67A
 10
797.061003
 20
338.343357
 30
0.0
 11
778.953786
 21
337.016346
 31
0.0
  0
LINE
  8
LC-002-002-----0
  6
CONTINUOUS
  5
67B
 10
777.559621
 20
328.449183
 30
0.0
 11
775.516766
 21
328.449183
 31
0.0
  0
ARC
  8
LC-002-002-----0
  6
CONTINUOUS
  5
67C
 10
764.660244
 20
311.516993
 30
0.0
 40
0.796809
 50
180.0
 51
270.0
  0
ARC
  8
LC-002-002-----0
  6
CONTINUOUS
  5
67D
 10
764.660244
 20
315.003032
 30
0.0
 40
0.796809
 50
180.0
 51
270.0
  0
LINE
  8
LC-002-002-----0
  6
CONTINUOUS
  5
67E
 10
609.931313
 20
253.81079
 30
0.0
 11
609.931313
 21
307.781951
 31
0.0
  0
ARC
  8
LC-002-002-----0
  6
CONTINUOUS
  5
67F
 10
773.026738
 20
317.49306
 30
0.0
 40
0.498006
 50
270.0
 51
0.0
  0
LINE
  8
LC-002-002-----0
  6
CONTINUOUS
  5
680
 10
775.516766
 20
328.449183
 30
0.0
 11
775.516766
 21
334.425251
 31
0.0
  0
LINE
  8
LC-002-002-----0
  6
CONTINUOUS
  5
681
 10
835.132388
 20
342.941621
 30
0.0
 11
802.931077
 21
340.689888
 31
0.0
  0
ARC
  8
LC-002-002-----0
  6
CONTINUOUS
  5
682
 10
777.559621
 20
329.445195
 30
0.0
 40
0.996011
 50
270.0
 51
357.0
  0
LINE
  8
LC-002-002-----0
  6
CONTINUOUS
  5
683
 10
837.271901
 20
340.095899
 30
0.0
 11
804.081446
 21
337.774999
 31
0.0
  0
LINE
  8
LC-002-002-----0
  6
CONTINUOUS
  5
684
 10
778.953786
 20
337.016346
 30
0.0
 11
778.554267
 21
329.393067
 31
0.0
  0
LINE
  8
LC-002-002-----0
  6
CONTINUOUS
  5
685
 10
837.271901
 20
340.946493
 30
0.0
 11
837.271901
 21
340.095899
 31
0.0
  0
LINE
  8
LC-002-002-----0
  6
CONTINUOUS
  5
686
 10
609.383507
 20
316.198246
 30
0.0
 11
609.582709
 21
316.198246
 31
0.0
  0
LINE
  8
LC-002-002-----0
  6
CONTINUOUS
  5
687
 10
781.730193
 20
332.900016
 30
0.0
 11
781.514838
 21
328.790807
 31
0.0
  0
LINE
  8
LC-002-002-----0
  6
CONTINUOUS
  5
688
 10
804.081446
 20
337.774999
 30
0.0
 11
798.211372
 21
335.428468
 31
0.0
  0
ARC
  8
LC-001-002-RND-0
  6
CONTINUOUS
  5
689
 10
538.971053
 20
340.946493
 30
0.0
 40
2.0
 50
86.000004
 51
180.0
  0
LINE
  8
LC-002-002-----0
  6
CONTINUOUS
  5
68A
 10
721.533723
 20
171.310652
 30
0.0
 11
721.533723
 21
230.36352
 31
0.0
  0
LINE
  8
LC-002-002-----0
  6
CONTINUOUS
  5
68B
 10
764.859447
 20
312.712206
 30
0.0
 11
764.660244
 21
312.712206
 31
0.0
  0
LINE
  8
LC-002-002-----0
  6
CONTINUOUS
  5
68C
 10
723.68334
 20
171.310652
 30
0.0
 11
687.121476
 21
171.310652
 31
0.0
  0
LINE
  8
LC-002-002-----0
  6
CONTINUOUS
  5
68D
 10
600.71821
 20
317.49306
 30
0.0
 11
600.71821
 21
334.425251
 31
0.0
  0
LINE
  8
LC-002-002-----0
  6
CONTINUOUS
  5
68E
 10
609.383507
 20
312.712206
 30
0.0
 11
609.383507
 21
314.206223
 31
0.0
  0
LINE
  8
LC-002-002-----0
  6
CONTINUOUS
  5
68F
 10
609.383507
 20
309.275968
 30
0.0
 11
609.383507
 21
309.773973
 31
0.0
  0
LINE
  8
LC-002-002-----0
  6
CONTINUOUS
  5
690
 10
609.383507
 20
307.781951
 30
0.0
 11
609.383507
 21
310.720184
 31
0.0
  0
ARC
  8
LC-002-002-----0
  6
CONTINUOUS
  5
691
 10
755.34754
 20
242.262787
 30
0.0
 40
8.964101
 50
270.0
 51
0.0
  0
ARC
  8
LC-004-001-RND-0
  6
CONTINUOUS
  5
693
 10
783.222163
 20
332.821825
 30
0.0
 40
1.494017
 50
93.999997
 51
177.0
  0
LINE
  8
LC-002-002-----0
  6
CONTINUOUS
  5
694
 10
609.383507
 20
307.781951
 30
0.0
 11
609.931313
 21
307.781951
 31
0.0
  0
LINE
  8
LC-002-002-----0
  6
CONTINUOUS
  5
695
 10
609.383507
 20
310.720184
 30
0.0
 11
609.582709
 21
310.720184
 31
0.0
  0
LINE
  8
LC-002-002-----0
  6
CONTINUOUS
  5
696
 10
610.379518
 20
311.516993
 30
0.0
 11
610.379518
 21
311.915397
 31
0.0
  0
LINE
  8
LC-002-002-----0
  6
CONTINUOUS
  5
697
 10
610.379518
 20
315.003032
 30
0.0
 11
610.379518
 21
315.401437
 31
0.0
  0
LINE
  8
LC-002-002-----0
  6
CONTINUOUS
  5
698
 10
609.383507
 20
314.206223
 30
0.0
 11
609.582709
 21
314.206223
 31
0.0
  0
LINE
  8
LC-002-002-----0
  6
CONTINUOUS
  5
699
 10
577.761148
 20
338.300393
 30
0.0
 11
595.289167
 21
337.016346
 31
0.0
  0
ARC
  8
LC-002-002-----0
  6
CONTINUOUS
  5
69A
 10
609.582709
 20
315.401437
 30
0.0
 40
0.796809
 50
0.0
 51
90.0
  0
ARC
  8
LC-002-002-----0
  6
CONTINUOUS
  5
69B
 10
609.582709
 20
311.915397
 30
0.0
 40
0.796809
 50
0.0
 51
90.0
  0
LINE
  8
LC-002-002-----0
  6
CONTINUOUS
  5
69C
 10
596.683332
 20
328.449183
 30
0.0
 11
598.726187
 21
328.449183
 31
0.0
  0
LINE
  8
LC-002-002-----0
  6
CONTINUOUS
  5
69D
 10
598.726187
 20
328.449183
 30
0.0
 11
598.726187
 21
334.425251
 31
0.0
  0
ARC
  8
LC-002-002-----0
  6
CONTINUOUS
  5
69E
 10
609.582709
 20
311.516993
 30
0.0
 40
0.796809
 50
270.0
 51
0.0
  0
ARC
  8
LC-002-002-----0
  6
CONTINUOUS
  5
69F
 10
609.582709
 20
315.003032
 30
0.0
 40
0.796809
 50
270.0
 51
0.0
  0
LINE
  8
LC-002-002-----0
  6
CONTINUOUS
  5
6A0
 10
539.110566
 20
342.941621
 30
0.0
 11
570.588286
 21
340.740486
 31
0.0
  0
ARC
  8
LC-002-002-----0
  6
CONTINUOUS
  5
6A1
 10
601.216215
 20
317.49306
 30
0.0
 40
0.498006
 50
180.0
 51
270.0
  0
LINE
  8
LC-002-002-----0
  6
CONTINUOUS
  5
6A2
 10
536.971053
 20
340.095899
 30
0.0
 11
569.437916
 21
337.825598
 31
0.0
  0
LINE
  8
LC-002-002-----0
  6
CONTINUOUS
  5
6A3
 10
595.289167
 20
337.016346
 30
0.0
 11
595.688687
 21
329.393067
 31
0.0
  0
ARC
  8
LC-002-002-----0
  6
CONTINUOUS
  5
6A4
 10
596.683332
 20
329.445195
 30
0.0
 40
0.996011
 50
183.0
 51
270.0
  0
LINE
  8
LC-002-002-----0
  6
CONTINUOUS
  5
6A5
 10
536.971053
 20
340.946493
 30
0.0
 11
536.971053
 21
340.095899
 31
0.0
  0
LINE
  8
LC-002-002-----0
  6
CONTINUOUS
  5
6A6
 10
592.512761
 20
332.900016
 30
0.0
 11
592.728115
 21
328.790807
 31
0.0
  0
LINE
  8
LC-002-002-----0
  6
CONTINUOUS
  5
6A7
 10
569.437916
 20
337.825598
 30
0.0
 11
575.291635
 21
335.479702
 31
0.0
  0
LINE
  8
LC-002-002-----0
  6
CONTINUOUS
  5
6A8
 10
609.383507
 20
312.712206
 30
0.0
 11
609.582709
 21
312.712206
 31
0.0
  0
LINE
  8
LC-002-002-----0
  6
CONTINUOUS
  5
6A9
 10
597.979179
 20
317.991066
 30
0.0
 11
607.184598
 21
304.844364
 31
0.0
  0
LINE
  8
LC-002-002-----0
  6
CONTINUOUS
  5
6AA
 10
595.712054
 20
325.959155
 30
0.0
 11
595.987157
 21
325.959155
 31
0.0
  0
LINE
  8
LC-002-002-----0
  6
CONTINUOUS
  5
6AB
 10
776.332919
 20
317.991066
 30
0.0
 11
767.119816
 21
304.833391
 31
0.0
  0
LINE
  8
LC-005-001-----0
  6
CONTINUOUS
  5
6AD
 10
575.291635
 20
335.479702
 30
0.0
 11
591.125009
 21
334.312202
 31
0.0
  0
ARC
  8
LC-002-002-----0
  6
CONTINUOUS
  5
6AE
 10
618.895414
 20
242.262787
 30
0.0
 40
8.964101
 50
226.034602
 51
270.0
  0
ARC
  8
LC-004-001-RND-0
  6
CONTINUOUS
  5
6AF
 10
591.020791
 20
332.821825
 30
0.0
 40
1.494017
 50
3.0
 51
86.000003
  0
LINE
  8
LC-002-002-----0
  6
CONTINUOUS
  5
6B0
 10
778.5309
 20
325.959155
 30
0.0
 11
778.255797
 21
325.959155
 31
0.0
  0
LINE
  8
LC-005-001-----0
  6
CONTINUOUS
  5
6B1
 10
798.211372
 20
335.428468
 30
0.0
 11
783.117944
 21
334.312202
 31
0.0
  0
LINE
  8
LC-002-002-----0
  6
CONTINUOUS
  5
6B2
 10
776.332919
 20
317.991066
 30
0.0
 11
776.263775
 21
323.967133
 31
0.0
  0
LINE
  8
LC-002-002-----0
  6
CONTINUOUS
  5
6B3
 10
773.026738
 20
316.995055
 30
0.0
 11
765.656256
 21
316.995055
 31
0.0
  0
LINE
  8
LC-002-002-----0
  6
CONTINUOUS
  5
6B4
 10
773.524744
 20
318.489071
 30
0.0
 11
773.524744
 21
319.783271
 31
0.0
  0
LINE
  8
LC-002-002-----0
  6
CONTINUOUS
  5
6B5
 10
597.979179
 20
317.991066
 30
0.0
 11
597.979179
 21
323.967133
 31
0.0
  0
ARC
  8
LC-002-002-----0
  6
CONTINUOUS
  5
6B6
 10
778.5309
 20
328.947189
 30
0.0
 40
2.988034
 50
270.0
 51
357.0
  0
ARC
  8
LC-002-002-----0
  6
CONTINUOUS
  5
6B7
 10
778.255797
 20
323.967133
 30
0.0
 40
1.992022
 50
90.0
 51
180.0
  0
LINE
  8
LC-002-002-----0
  6
CONTINUOUS
  5
6B8
 10
775.516766
 20
334.425251
 30
0.0
 11
773.524744
 21
334.425251
 31
0.0
  0
LINE
  8
LC-002-002-----0
  6
CONTINUOUS
  5
6B9
 10
764.859447
 20
309.026965
 30
0.0
 11
764.859447
 21
309.524971
 31
0.0
  0
LINE
  8
LC-002-002-----0
  6
CONTINUOUS
  5
6BA
 10
773.524744
 20
318.489071
 30
0.0
 11
773.524744
 21
319.783271
 31
0.0
  0
ARC
  8
LC-002-002-----0
  6
CONTINUOUS
  5
6BB
 10
595.712054
 20
328.947189
 30
0.0
 40
2.988034
 50
183.0
 51
270.0
  0
LINE
  8
LC-002-002-----0
  6
CONTINUOUS
  5
6BC
 10
601.216215
 20
316.995055
 30
0.0
 11
608.586698
 21
316.995055
 31
0.0
  0
ARC
  8
LC-002-002-----0
  6
CONTINUOUS
  5
6BD
 10
595.987157
 20
323.967133
 30
0.0
 40
1.992022
 50
0.0
 51
90.0
  0
LINE
  8
LC-002-002-----0
  6
CONTINUOUS
  5
6BE
 10
764.859447
 20
309.226167
 30
0.0
 11
764.859447
 21
309.724173
 31
0.0
  0
LINE
  8
LC-002-002-----0
  6
CONTINUOUS
  5
6BF
 10
600.71821
 20
318.489071
 30
0.0
 11
600.71821
 21
319.783271
 31
0.0
  0
LINE
  8
LC-002-002-----0
  6
CONTINUOUS
  5
6C0
 10
598.726187
 20
334.425251
 30
0.0
 11
600.71821
 21
334.425251
 31
0.0
  0
LINE
  8
LC-002-002-----0
  6
CONTINUOUS
  5
6C1
 10
609.383507
 20
309.026965
 30
0.0
 11
609.383507
 21
309.524971
 31
0.0
  0
LINE
  8
LC-002-002-----0
  6
CONTINUOUS
  5
6C2
 10
802.931077
 20
340.689888
 30
0.0
 11
797.061003
 21
338.343357
 31
0.0
  0
LINE
  8
LC-002-002-----0
  6
CONTINUOUS
  5
6C3
 10
600.71821
 20
318.489071
 30
0.0
 11
600.71821
 21
319.783271
 31
0.0
  0
LINE
  8
LC-002-002-----0
  6
CONTINUOUS
  5
6C4
 10
609.383507
 20
309.226167
 30
0.0
 11
609.383507
 21
309.724173
 31
0.0
  0
LINE
  8
LC-002-002-----0
  6
CONTINUOUS
  5
6C5
 10
570.588286
 20
340.740486
 30
0.0
 11
577.761148
 21
338.300393
 31
0.0
  0
LINE
  8
LC-002-002-----0
  6
CONTINUOUS
  5
6C6
 10
619.13674
 20
230.310799
 30
0.0
 11
649.617754
 21
230.310829
 31
0.0
  0
LINE
  8
LC-002-002-----0
  6
CONTINUOUS
  5
6C7
 10
724.617516
 20
230.310653
 30
0.0
 11
755.167681
 21
230.310653
 31
0.0
  0
ARC
  8
LC-002-002-----0
  6
CONTINUOUS
  5
6C8
 10
765.656256
 20
316.198246
 30
0.0
 40
0.796809
 50
90.0
 51
180.0
  0
LINE
  8
LC-002-002-----0
  6
CONTINUOUS
  5
6C9
 10
755.34754
 20
233.298686
 30
0.0
 11
721.533723
 21
233.298686
 31
0.0
  0
ARC
  8
LC-002-002-----0
  6
CONTINUOUS
  5
6CA
 10
608.586698
 20
316.198246
 30
0.0
 40
0.796809
 50
0.0
 51
90.0
  0
LINE
  8
LC-002-002-----0
  6
CONTINUOUS
  5
6CB
 10
618.895414
 20
233.298686
 30
0.0
 11
653.754914
 21
233.298686
 31
0.0
  0
LINE
  8
LC-003-103-D00-1
  6
CONTINUOUS
  5
6CC
 10
663.051707
 20
177.226086
 30
0.0
 11
665.208988
 21
177.226086
 31
0.0
  0
LINE
  8
LC-003-103-D00-1
  6
CONTINUOUS
  5
6CD
 10
665.208988
 20
177.226086
 30
0.0
 11
665.208906
 21
229.298686
 31
0.0
  0
LINE
  8
LC-002-002-----0
  6
CONTINUOUS
  5
6CE
 10
665.208988
 20
177.226086
 30
0.0
 11
709.026237
 21
177.226086
 31
0.0
  0
LINE
  8
LC-002-002-----0
  6
CONTINUOUS
  5
6CF
 10
609.931313
 20
307.781951
 30
0.0
 11
643.367613
 21
307.781951
 31
0.0
  0
LINE
  8
LC-002-002-----0
  6
CONTINUOUS
  5
6D0
 10
665.208906
 20
229.298686
 30
0.0
 11
709.033783
 21
229.298672
 31
0.0
  0
LINE
  8
LC-002-002-----0
  6
CONTINUOUS
  5
6D1
 10
667.120037
 20
232.005635
 30
0.0
 11
661.914322
 21
233.400502
 31
0.0
  0
LINE
  8
LC-002-002-----0
  6
CONTINUOUS
  5
6D2
 10
607.184598
 20
275.310788
 30
0.0
 11
605.684598
 21
275.310786
 31
0.0
  0
LINE
  8
LC-003-103-D00-1
  6
CONTINUOUS
  5
6D3
 10
712.117614
 20
180.712126
 30
0.0
 11
711.183519
 21
177.226086
 31
0.0
  0
LINE
  8
LC-002-002-----0
  6
CONTINUOUS
  5
6D4
 10
605.684598
 20
275.310786
 30
0.0
 11
605.684598
 21
257.800396
 31
0.0
  0
LINE
  8
LC-003-103-D00-1
  6
CONTINUOUS
  5
6D5
 10
711.183519
 20
177.226086
 30
0.0
 11
709.026237
 21
177.226086
 31
0.0
  0
LINE
  8
LC-002-002-----0
  6
CONTINUOUS
  5
6D6
 10
605.684598
 20
253.810786
 30
0.0
 11
605.684598
 21
235.810786
 31
0.0
  0
LINE
  8
LC-003-103-D00-1
  6
CONTINUOUS
  5
6D7
 10
709.026237
 20
177.226086
 30
0.0
 11
709.026335
 21
229.298672
 31
0.0
  0
LINE
  8
LC-002-002-----0
  6
CONTINUOUS
  5
6D8
 10
605.684598
 20
235.810786
 30
0.0
 11
605.684598
 21
233.310786
 31
0.0
  0
LINE
  8
LC-002-002-----0
  6
CONTINUOUS
  5
6D9
 10
605.684598
 20
233.310786
 30
0.0
 11
611.217599
 21
233.310792
 31
0.0
  0
LINE
  8
LC-002-002-----0
  6
CONTINUOUS
  5
6DA
 10
612.672322
 20
235.810793
 30
0.0
 11
605.684598
 21
235.810786
 31
0.0
  0
LINE
  8
LC-002-002-----0
  6
CONTINUOUS
  5
6DB
 10
609.931313
 20
253.81079
 30
0.0
 11
605.684598
 21
253.810786
 31
0.0
  0
LINE
  8
LC-002-002-----0
  6
CONTINUOUS
  5
6DC
 10
607.184598
 20
275.310788
 30
0.0
 11
607.184598
 21
304.844364
 31
0.0
  0
LINE
  8
LC-002-002-----0
  6
CONTINUOUS
  5
6DD
 10
712.320922
 20
233.400487
 30
0.0
 11
707.120037
 21
232.006914
 31
0.0
  0
LINE
  8
LC-002-002-----0
  6
CONTINUOUS
  5
6DE
 10
707.120037
 20
232.006914
 30
0.0
 11
667.120037
 21
232.006914
 31
0.0
  0
LINE
  8
LC-002-002-----0
  6
CONTINUOUS
  5
6DF
 10
717.499909
 20
301.298686
 30
0.0
 11
701.609162
 21
301.298686
 31
0.0
  0
ARC
  8
LC-003-103-D00-1
  6
CONTINUOUS
  5
6E0
 10
653.754914
 20
236.286732
 30
0.0
 40
2.988044
 50
269.999929
 51
0.0
  0
ARC
  8
LC-003-103-D00-1
  6
CONTINUOUS
  5
6E1
 10
720.487911
 20
236.286732
 30
0.0
 40
2.988046
 50
180.0
 51
270.0
  0
LINE
  8
LC-003-103-D00-1
  6
CONTINUOUS
 62
     4
  5
6E2
 10
665.208937
 20
230.31085
 30
0.0
 11
665.208921
 21
230.31085
 31
0.0
  0
ARC
  8
LC-003-103-D00-1
  6
CONTINUOUS
  5
6E3
 10
662.687685
 20
236.286732
 30
0.0
 40
2.988045
 50
180.605225
 51
255.0
  0
ARC
  8
LC-002-002-----0
  6
CONTINUOUS
  5
6E4
 10
620.315196
 20
242.262787
 30
0.0
 40
8.964101
 50
180.0
 51
226.034602
  0
LINE
  8
LC-002-002-----0
  6
CONTINUOUS
  5
6E5
 10
612.672322
 20
235.810793
 30
0.0
 11
614.092104
 21
235.810793
 31
0.0
  0
LINE
  8
LC-002-002-----0
  6
CONTINUOUS
  5
6E6
 10
611.351095
 20
242.262787
 30
0.0
 11
611.351095
 21
253.81079
 31
0.0
  0
LINE
  8
LC-002-002-----0
  6
CONTINUOUS
  5
6E7
 10
611.351095
 20
253.81079
 30
0.0
 11
609.931313
 21
253.81079
 31
0.0
  0
LINE
  8
LC-002-002-----0
  6
CONTINUOUS
  5
6E8
 10
667.115265
 20
232.006914
 30
0.0
 11
667.115265
 21
229.298685
 31
0.0
  0
LINE
  8
LC-002-002-----0
  6
CONTINUOUS
  5
6E9
 10
707.120037
 20
232.006914
 30
0.0
 11
707.120037
 21
229.298673
 31
0.0
  0
LINE
  8
LC-002-002-----0
  6
CONTINUOUS
  5
6EA
 10
662.117613
 20
230.75784
 30
0.0
 11
658.76223
 21
231.656912
 31
0.0
  0
LINE
  8
LC-002-002-----0
  6
CONTINUOUS
  5
6EB
 10
715.473014
 20
231.656897
 30
0.0
 11
712.117627
 21
230.757823
 31
0.0
  0
LINE
  8
LC-002-002-----0
  6
CONTINUOUS
  5
6EC
 10
721.533723
 20
230.310653
 30
0.0
 11
721.533723
 21
230.310653
 31
0.0
  0
LINE
  8
LC-002-002-----0
  6
CONTINUOUS
  5
6ED
 10
652.709081
 20
230.310829
 30
0.0
 11
652.709072
 21
230.310839
 31
0.0
  0
LINE
  8
LC-002-002-----0
  6
CONTINUOUS
  5
6EE
 10
715.12586
 20
298.798686
 30
0.0
 11
702.078073
 21
298.798686
 31
0.0
  0
ARC
  8
LC-002-002-----0
  6
CONTINUOUS
  5
6EF
 10
657.6609
 20
300.033742
 30
0.0
 40
1.812703
 50
317.052024
 51
44.25254
  0
LINE
  8
LC-002-002-----0
  6
CONTINUOUS
  5
6F0
 10
658.959286
 20
301.298686
 30
0.0
 11
656.742974
 21
301.298686
 31
0.0
  0
ARC
  8
LC-002-002-----0
  6
CONTINUOUS
  5
6F1
 10
716.450197
 20
300.036342
 30
0.0
 40
1.812638
 50
135.860092
 51
223.062235
  0
LINE
  8
LC-003-103-D00-1
  6
CONTINUOUS
  5
6F2
 10
662.117613
 20
230.75784
 30
0.0
 11
662.117613
 21
180.712126
 31
0.0
  0
LINE
  8
LC-003-103-D00-1
  6
CONTINUOUS
  5
6F3
 10
655.710863
 20
230.363542
 30
0.0
 11
652.709081
 21
230.363542
 31
0.0
  0
ARC
  8
LC-003-103-D00-1
  6
CONTINUOUS
  5
6F4
 10
657.667671
 20
232.416829
 30
0.0
 40
0.489202
 50
33.690094
 51
146.30999
  0
LINE
  8
LC-003-103-D00-1
  6
CONTINUOUS
  5
6F5
 10
658.76223
 20
231.656912
 30
0.0
 11
658.074711
 21
232.688192
 31
0.0
  0
LINE
  8
LC-003-103-D00-1
  6
CONTINUOUS
  5
6F6
 10
655.710863
 20
230.363542
 30
0.0
 11
657.260629
 21
232.688192
 31
0.0
  0
CIRCLE
  8
LC-002-002-----0
  6
CONTINUOUS
  5
6F7
 10
545.333943
 20
266.953064
 30
0.0
 40
3.0
  0
CIRCLE
  8
LC-002-002-----0
  6
CONTINUOUS
  5
6F8
 10
594.905967
 20
266.953064
 30
0.0
 40
3.0
  0
ARC
  8
LC-003-103-D00-1
  6
CONTINUOUS
  5
6F9
 10
711.547559
 20
236.286716
 30
0.0
 40
2.988045
 50
285.0
 51
359.394745
  0
LINE
  8
LC-003-103-D00-1
  6
CONTINUOUS
  5
6FA
 10
718.524377
 20
230.36352
 30
0.0
 11
721.533723
 21
230.36352
 31
0.0
  0
ARC
  8
LC-003-103-D00-1
  6
CONTINUOUS
  5
6FB
 10
716.567571
 20
232.416808
 30
0.0
 40
0.489202
 50
33.689972
 51
146.30986
  0
LINE
  8
LC-003-103-D00-1
  6
CONTINUOUS
  5
6FC
 10
715.473014
 20
231.656897
 30
0.0
 11
716.160531
 21
232.688169
 31
0.0
  0
LINE
  8
LC-003-103-D00-1
  6
CONTINUOUS
  5
6FD
 10
718.524377
 20
230.36352
 30
0.0
 11
716.974613
 21
232.688169
 31
0.0
  0
LINE
  8
LC-003-103-D00-1
  6
CONTINUOUS
  5
6FE
 10
712.117627
 20
230.757823
 30
0.0
 11
712.117614
 21
180.712126
 31
0.0
  0
LINE
  8
LC-003-103-D00-1
  6
CONTINUOUS
  5
6FF
 10
658.987748
 20
298.798686
 30
0.0
 11
659.699803
 21
236.255201
 31
0.0
  0
LINE
  8
LC-003-103-D00-1
  6
CONTINUOUS
  5
700
 10
656.742974
 20
301.298686
 30
0.0
 11
656.742974
 21
236.286732
 31
0.0
  0
LINE
  8
LC-003-103-D00-1
  6
CONTINUOUS
  5
701
 10
717.499909
 20
301.298686
 30
0.0
 11
717.499909
 21
236.286732
 31
0.0
  0
LINE
  8
LC-003-103-D00-1
  6
CONTINUOUS
  5
702
 10
715.12586
 20
298.798686
 30
0.0
 11
714.537707
 21
236.260695
 31
0.0
  0
LINE
  8
LC-002-002-----0
  6
CONTINUOUS
  5
703
 10
477.119955
 20
279.897885
 30
0.0
 11
477.119955
 21
272.897885
 31
0.0
  0
LINE
  8
LC-002-002-----0
  6
CONTINUOUS
  5
704
 10
482.619955
 20
326.897885
 30
0.0
 11
483.619955
 21
327.897885
 31
0.0
  0
LINE
  8
LC-002-002-----0
  6
CONTINUOUS
  5
705
 10
475.619955
 20
281.897885
 30
0.0
 11
498.119955
 21
281.897885
 31
0.0
  0
LINE
  8
LC-002-002-----0
  6
CONTINUOUS
  5
706
 10
481.619955
 20
327.897885
 30
0.0
 11
482.619955
 21
326.897885
 31
0.0
  0
LINE
  8
LC-002-002-----0
  6
CONTINUOUS
  5
707
 10
475.619955
 20
327.897885
 30
0.0
 11
481.619955
 21
327.897885
 31
0.0
  0
LINE
  8
LC-002-002-----0
  6
CONTINUOUS
  5
708
 10
483.619955
 20
327.897885
 30
0.0
 11
498.119955
 21
327.897885
 31
0.0
  0
LINE
  8
LC-002-002-----0
  6
CONTINUOUS
  5
709
 10
481.619955
 20
281.897885
 30
0.0
 11
482.619955
 21
282.897885
 31
0.0
  0
LINE
  8
LC-002-002-----0
  6
CONTINUOUS
  5
70A
 10
482.619955
 20
282.897885
 30
0.0
 11
483.619955
 21
281.897885
 31
0.0
  0
LINE
  8
LC-002-002-----0
  6
CONTINUOUS
  5
70B
 10
475.619955
 20
272.897885
 30
0.0
 11
475.619955
 21
336.897885
 31
0.0
  0
LINE
  8
LC-002-002-----0
  6
CONTINUOUS
  5
70C
 10
477.119955
 20
329.897885
 30
0.0
 11
477.119955
 21
336.897885
 31
0.0
  0
LINE
  8
LC-002-002-----0
  6
CONTINUOUS
  5
70D
 10
503.619955
 20
281.371606
 30
0.0
 11
503.619955
 21
328.424165
 31
0.0
  0
LINE
  8
LC-002-002-----0
  6
CONTINUOUS
  5
70E
 10
475.619955
 20
336.897885
 30
0.0
 11
477.119955
 21
336.897885
 31
0.0
  0
LINE
  8
LC-002-002-----0
  6
CONTINUOUS
  5
70F
 10
477.119955
 20
329.897885
 30
0.0
 11
498.119955
 21
329.897885
 31
0.0
  0
LINE
  8
LC-002-002-----0
  6
CONTINUOUS
  5
710
 10
477.119955
 20
279.897885
 30
0.0
 11
498.119955
 21
279.897885
 31
0.0
  0
LINE
  8
LC-002-002-----0
  6
CONTINUOUS
  5
711
 10
475.619955
 20
272.897885
 30
0.0
 11
477.119955
 21
272.897885
 31
0.0
  0
LINE
  8
LC-002-002-----0
  6
CONTINUOUS
  5
712
 10
498.119955
 20
279.897885
 30
0.0
 11
503.619955
 21
281.371606
 31
0.0
  0
LINE
  8
LC-002-002-----0
  6
CONTINUOUS
  5
713
 10
498.119955
 20
281.897885
 30
0.0
 11
502.119955
 21
282.969682
 31
0.0
  0
LINE
  8
LC-002-002-----0
  6
CONTINUOUS
  5
714
 10
498.119955
 20
327.897885
 30
0.0
 11
502.119955
 21
326.826088
 31
0.0
  0
LINE
  8
LC-002-002-----0
  6
CONTINUOUS
  5
715
 10
498.119955
 20
329.897885
 30
0.0
 11
503.619955
 21
328.424165
 31
0.0
  0
LINE
  8
LC-002-002-----0
  6
CONTINUOUS
  5
716
 10
653.117635
 20
233.298686
 30
0.0
 11
652.70907
 21
233.298686
 31
0.0
  0
LINE
  8
LC-002-002-----0
  6
CONTINUOUS
  5
717
 10
502.119955
 20
282.969682
 30
0.0
 11
502.119955
 21
326.826088
 31
0.0
  0
LINE
  8
LC-007-206-----0
  6
CONTINUOUS
  5
719
 10
599.219955
 20
279.697885
 30
0.0
 11
599.219955
 21
277.197885
 31
0.0
  0
LINE
  8
LC-007-206-----0
  6
CONTINUOUS
  5
71A
 10
540.119955
 20
330.147885
 30
0.0
 11
493.619955
 21
330.147885
 31
0.0
  0
LINE
  8
LC-007-206-----0
  6
CONTINUOUS
  5
71B
 10
550.119955
 20
257.408966
 30
0.0
 11
590.119955
 21
257.408966
 31
0.0
  0
LINE
  8
LC-007-206-----0
  6
CONTINUOUS
  5
71C
 10
547.819955
 20
258.908966
 30
0.0
 11
547.819955
 21
260.908966
 31
0.0
  0
LINE
  8
LC-002-002-----0
  6
CONTINUOUS
  5
71D
 10
481.319955
 20
329.897885
 30
0.0
 11
481.319955
 21
330.147885
 31
0.0
  0
LINE
  8
LC-007-206-----0
  6
CONTINUOUS
  5
71E
 10
546.319955
 20
272.909034
 30
0.0
 11
543.669955
 21
272.909034
 31
0.0
  0
LINE
  8
LC-007-206-----0
  6
CONTINUOUS
  5
71F
 10
483.619955
 20
335.147885
 30
0.0
 11
481.119955
 21
332.647885
 31
0.0
  0
LINE
  8
LC-007-206-----0
  6
CONTINUOUS
  5
720
 10
481.119955
 20
332.647885
 30
0.0
 11
477.119955
 21
332.647885
 31
0.0
  0
LINE
  8
LC-007-206-----0
  6
CONTINUOUS
  5
721
 10
547.819955
 20
276.197885
 30
0.0
 11
547.819955
 21
274.409034
 31
0.0
  0
ARC
  8
LC-007-206-----0
  6
CONTINUOUS
  5
722
 10
548.119955
 20
277.697885
 30
0.0
 40
2.0
 50
360.0
 51
90.0
  0
ARC
  8
LC-007-206-----0
  6
CONTINUOUS
  5
723
 10
546.819955
 20
276.197885
 30
0.0
 40
1.0
 50
360.0
 51
90.0
  0
ARC
  8
LC-007-206-----0
  6
CONTINUOUS
  5
724
 10
546.319955
 20
274.409034
 30
0.0
 40
1.5
 50
270.0
 51
360.0
  0
LINE
  8
LC-007-206-----0
  6
CONTINUOUS
  5
725
 10
550.119955
 20
277.697885
 30
0.0
 11
550.119955
 21
257.408966
 31
0.0
  0
LINE
  8
LC-007-206-----0
  6
CONTINUOUS
  5
726
 10
546.819955
 20
277.197885
 30
0.0
 11
496.119955
 21
277.197885
 31
0.0
  0
LINE
  8
LC-007-206-----0
  6
CONTINUOUS
  5
727
 10
593.065949
 20
279.697885
 30
0.0
 11
599.219955
 21
279.697885
 31
0.0
  0
LINE
  8
LC-007-206-----0
  6
CONTINUOUS
  5
728
 10
592.919955
 20
277.197885
 30
0.0
 11
599.219955
 21
277.197885
 31
0.0
  0
LINE
  8
LC-007-206-----0
  6
CONTINUOUS
  5
729
 10
543.669955
 20
270.409034
 30
0.0
 11
546.819955
 21
270.409034
 31
0.0
  0
ARC
  8
LC-007-206-----0
  6
CONTINUOUS
  5
72A
 10
593.065949
 20
280.197885
 30
0.0
 40
0.5
 50
180.054053
 51
270.0
  0
ARC
  8
LC-007-206-----0
  6
CONTINUOUS
  5
72B
 10
549.319955
 20
258.908966
 30
0.0
 40
1.5
 50
180.0
 51
270.0
  0
LINE
  8
LC-007-206-----0
  6
CONTINUOUS
  5
72C
 10
481.119955
 20
277.147885
 30
0.0
 11
483.619955
 21
274.647885
 31
0.0
  0
LINE
  8
LC-002-002-----0
  6
CONTINUOUS
  5
72D
 10
485.923508
 20
275.044332
 30
0.0
 11
481.319955
 21
279.647885
 31
0.0
  0
ARC
  8
LC-007-206-----0
  6
CONTINUOUS
  5
72E
 10
540.065972
 20
280.147885
 30
0.0
 40
52.5
 50
0.054053
 51
17.036286
  0
ARC
  8
LC-007-206-----0
  6
CONTINUOUS
  5
72F
 10
590.919955
 20
258.908966
 30
0.0
 40
1.5
 50
270.0
 51
360.0
  0
LINE
  8
LC-007-206-----0
  6
CONTINUOUS
  5
730
 10
590.119955
 20
257.408966
 30
0.0
 11
590.919955
 21
257.408966
 31
0.0
  0
LINE
  8
LC-007-206-----0
  6
CONTINUOUS
  5
731
 10
592.419955
 20
258.908966
 30
0.0
 11
592.419955
 21
260.908966
 31
0.0
  0
LINE
  8
LC-007-206-----0
  6
CONTINUOUS
  5
732
 10
590.119955
 20
280.147885
 30
0.0
 11
590.119955
 21
257.408966
 31
0.0
  0
LINE
  8
LC-007-206-----0
  6
CONTINUOUS
  5
733
 10
596.569955
 20
270.409034
 30
0.0
 11
593.419955
 21
270.409034
 31
0.0
  0
LINE
  8
LC-002-002-----0
  6
CONTINUOUS
  5
734
 10
485.923508
 20
334.751439
 30
0.0
 11
481.319955
 21
330.147885
 31
0.0
  0
ARC
  8
LC-007-206-----0
  6
CONTINUOUS
  5
735
 10
596.569955
 20
270.909034
 30
0.0
 40
0.5
 50
270.0
 51
360.0
  0
LINE
  8
LC-007-206-----0
  6
CONTINUOUS
  5
736
 10
493.619955
 20
334.397885
 30
0.0
 11
493.619955
 21
329.897885
 31
0.0
  0
ARC
  8
LC-007-206-----0
  6
CONTINUOUS
  5
737
 10
596.569955
 20
272.409034
 30
0.0
 40
0.5
 50
360.0
 51
90.0
  0
LINE
  8
LC-007-206-----0
  6
CONTINUOUS
  5
738
 10
593.919955
 20
272.909034
 30
0.0
 11
596.569955
 21
272.909034
 31
0.0
  0
ARC
  8
LC-007-206-----0
  6
CONTINUOUS
  5
739
 10
540.065972
 20
280.147885
 30
0.0
 40
52.5
 50
17.036286
 51
90.0
  0
ARC
  8
LC-007-206-----0
  6
CONTINUOUS
  5
73A
 10
593.919955
 20
274.409034
 30
0.0
 40
1.5
 50
180.0
 51
270.0
  0
ARC
  8
LC-007-206-----0
  6
CONTINUOUS
  5
73B
 10
540.119955
 20
280.147885
 30
0.0
 40
50.0
 50
360.0
 51
90.0
  0
LINE
  8
LC-007-206-----0
  6
CONTINUOUS
  5
73C
 10
597.069955
 20
272.409034
 30
0.0
 11
597.069955
 21
270.909034
 31
0.0
  0
LINE
  8
LC-007-206-----0
  6
CONTINUOUS
  5
73D
 10
550.119955
 20
257.408966
 30
0.0
 11
549.319955
 21
257.408966
 31
0.0
  0
ARC
  8
LC-007-206-----0
  6
CONTINUOUS
  5
73E
 10
543.669955
 20
270.909034
 30
0.0
 40
0.5
 50
180.0
 51
270.0
  0
ARC
  8
LC-007-206-----0
  6
CONTINUOUS
  5
73F
 10
543.669955
 20
272.409034
 30
0.0
 40
0.5
 50
90.0
 51
180.0
  0
LINE
  8
LC-007-206-----0
  6
CONTINUOUS
  5
740
 10
543.169955
 20
272.409034
 30
0.0
 11
543.169955
 21
270.909034
 31
0.0
  0
ARC
  8
LC-007-206-----0
  6
CONTINUOUS
  5
741
 10
592.919955
 20
276.697885
 30
0.0
 40
0.5
 50
90.0
 51
180.0
  0
LINE
  8
LC-007-206-----0
  6
CONTINUOUS
  5
742
 10
592.419955
 20
276.697885
 30
0.0
 11
592.419955
 21
274.409034
 31
0.0
  0
ARC
  8
LC-007-206-----0
  6
CONTINUOUS
  5
743
 10
486.277062
 20
334.397885
 30
0.0
 40
0.5
 50
90.0
 51
135.0
  0
LINE
  8
LC-007-206-----0
  6
CONTINUOUS
  5
744
 10
493.119955
 20
334.897885
 30
0.0
 11
486.277062
 21
334.897885
 31
0.0
  0
LINE
  8
LC-007-206-----0
  6
CONTINUOUS
  5
745
 10
494.619955
 20
337.397885
 30
0.0
 11
484.619955
 21
337.397885
 31
0.0
  0
LINE
  8
LC-007-206-----0
  6
CONTINUOUS
  5
746
 10
481.319955
 20
330.147885
 30
0.0
 11
477.119955
 21
330.147885
 31
0.0
  0
LINE
  8
LC-007-206-----0
  6
CONTINUOUS
  5
747
 10
496.119955
 20
332.647885
 30
0.0
 11
540.065972
 21
332.647885
 31
0.0
  0
ARC
  8
LC-007-206-----0
  6
CONTINUOUS
  5
748
 10
484.619955
 20
336.397885
 30
0.0
 40
1.0
 50
90.0
 51
180.0
  0
ARC
  8
LC-007-206-----0
  6
CONTINUOUS
  5
749
 10
494.619955
 20
336.397885
 30
0.0
 40
1.0
 50
360.0
 51
90.0
  0
ARC
  8
LC-007-206-----0
  6
CONTINUOUS
  5
74A
 10
496.119955
 20
333.147885
 30
0.0
 40
0.5
 50
180.0
 51
270.0
  0
ARC
  8
LC-007-206-----0
  6
CONTINUOUS
  5
74B
 10
493.119955
 20
334.397885
 30
0.0
 40
0.5
 50
360.0
 51
90.0
  0
LINE
  8
LC-007-206-----0
  6
CONTINUOUS
  5
74C
 10
477.119955
 20
277.147885
 30
0.0
 11
477.119955
 21
279.897885
 31
0.0
  0
LINE
  8
LC-007-206-----0
  6
CONTINUOUS
  5
74D
 10
495.619955
 20
336.397885
 30
0.0
 11
495.619955
 21
333.147885
 31
0.0
  0
LINE
  8
LC-007-206-----0
  6
CONTINUOUS
  5
74E
 10
483.619955
 20
336.397885
 30
0.0
 11
483.619955
 21
335.147885
 31
0.0
  0
LINE
  8
LC-007-206-----0
  6
CONTINUOUS
  5
74F
 10
548.119955
 20
279.647885
 30
0.0
 11
493.619955
 21
279.647885
 31
0.0
  0
LINE
  8
LC-007-206-----0
  6
CONTINUOUS
  5
750
 10
477.119955
 20
332.647885
 30
0.0
 11
477.119955
 21
329.897885
 31
0.0
  0
LINE
  8
LC-007-206-----0
  6
CONTINUOUS
  5
751
 10
477.119955
 20
277.147885
 30
0.0
 11
481.119955
 21
277.147885
 31
0.0
  0
ARC
  8
LC-007-206-----0
  6
CONTINUOUS
  5
752
 10
486.277062
 20
275.397885
 30
0.0
 40
0.5
 50
225.0
 51
270.0
  0
LINE
  8
LC-007-206-----0
  6
CONTINUOUS
  5
753
 10
493.119955
 20
274.897885
 30
0.0
 11
486.277062
 21
274.897885
 31
0.0
  0
LINE
  8
LC-007-206-----0
  6
CONTINUOUS
  5
754
 10
494.619955
 20
272.397885
 30
0.0
 11
484.619955
 21
272.397885
 31
0.0
  0
LINE
  8
LC-007-206-----0
  6
CONTINUOUS
  5
755
 10
481.319955
 20
279.647885
 30
0.0
 11
477.119955
 21
279.647885
 31
0.0
  0
LINE
  8
LC-002-002-----0
  6
CONTINUOUS
  5
756
 10
545.119955
 20
261.908966
 30
0.0
 11
546.119955
 21
260.908966
 31
0.0
  0
ARC
  8
LC-007-206-----0
  6
CONTINUOUS
  5
757
 10
484.619955
 20
273.397885
 30
0.0
 40
1.0
 50
180.0
 51
270.0
  0
ARC
  8
LC-007-206-----0
  6
CONTINUOUS
  5
758
 10
494.619955
 20
273.397885
 30
0.0
 40
1.0
 50
270.0
 51
360.0
  0
ARC
  8
LC-007-206-----0
  6
CONTINUOUS
  5
759
 10
496.119955
 20
276.697885
 30
0.0
 40
0.5
 50
90.0
 51
180.0
  0
ARC
  8
LC-007-206-----0
  6
CONTINUOUS
  5
75A
 10
493.119955
 20
275.397885
 30
0.0
 40
0.5
 50
270.0
 51
360.0
  0
LINE
  8
LC-007-206-----0
  6
CONTINUOUS
  5
75B
 10
495.619955
 20
273.397885
 30
0.0
 11
495.619955
 21
276.697885
 31
0.0
  0
LINE
  8
LC-007-206-----0
  6
CONTINUOUS
  5
75C
 10
483.619955
 20
274.647885
 30
0.0
 11
483.619955
 21
273.397885
 31
0.0
  0
LINE
  8
LC-002-002-----0
  6
CONTINUOUS
  5
75D
 10
595.119955
 20
261.908966
 30
0.0
 11
594.119955
 21
260.908966
 31
0.0
  0
LINE
  8
LC-002-002-----0
  6
CONTINUOUS
  5
75E
 10
546.119955
 20
260.908966
 30
0.0
 11
547.819955
 21
260.908966
 31
0.0
  0
LINE
  8
LC-002-002-----0
  6
CONTINUOUS
  5
75F
 10
545.119955
 20
263.408966
 30
0.0
 11
545.119955
 21
261.908966
 31
0.0
  0
LINE
  8
LC-002-002-----0
  6
CONTINUOUS
  5
760
 10
545.119955
 20
263.408966
 30
0.0
 11
547.819955
 21
263.408966
 31
0.0
  0
LINE
  8
LC-002-002-----0
  6
CONTINUOUS
  5
761
 10
594.119955
 20
260.908966
 30
0.0
 11
592.419955
 21
260.908966
 31
0.0
  0
LINE
  8
LC-002-002-----0
  6
CONTINUOUS
  5
762
 10
595.119955
 20
263.408966
 30
0.0
 11
595.119955
 21
261.908966
 31
0.0
  0
LINE
  8
LC-002-002-----0
  6
CONTINUOUS
  5
763
 10
595.119955
 20
263.408966
 30
0.0
 11
592.419955
 21
263.408966
 31
0.0
  0
LINE
  8
LC-007-206-----0
  6
CONTINUOUS
  5
764
 10
592.419955
 20
269.409034
 30
0.0
 11
592.419955
 21
263.408966
 31
0.0
  0
LINE
  8
LC-007-206-----0
  6
CONTINUOUS
  5
765
 10
547.819955
 20
269.409034
 30
0.0
 11
547.819955
 21
263.408966
 31
0.0
  0
LINE
  8
LC-007-206-----0
  6
CONTINUOUS
  5
766
 10
546.819955
 20
270.409034
 30
0.0
 11
547.819955
 21
269.409034
 31
0.0
  0
LINE
  8
LC-007-206-----0
  6
CONTINUOUS
  5
767
 10
593.419955
 20
270.409034
 30
0.0
 11
592.419955
 21
269.409034
 31
0.0
  0
LINE
  8
LC-007-206-----0
  6
CONTINUOUS
  5
768
 10
493.619955
 20
275.397885
 30
0.0
 11
493.619955
 21
279.897885
 31
0.0
  0
LINE
  8
LC-002-002-----0
  6
CONTINUOUS
  5
769
 10
481.319955
 20
279.647885
 30
0.0
 11
481.319955
 21
279.897885
 31
0.0
  0
LINE
  8
LC-002-002-----0
  6
CONTINUOUS
  5
76A
 10
555.119955
 20
236.810786
 30
0.0
 11
605.549344
 21
236.810786
 31
0.0
  0
ARC
  8
LC-001-002-RND-0
  6
CONTINUOUS
  5
76B
 10
555.119955
 20
241.810786
 30
0.0
 40
5.0
 50
180.0
 51
270.0
  0
LINE
  8
LC-002-002-----0
  6
CONTINUOUS
  5
76C
 10
554.119955
 20
233.810842
 30
0.0
 11
570.119955
 21
233.810842
 31
0.0
  0
LINE
  8
LC-002-002-----0
  6
CONTINUOUS
  5
76D
 10
541.005141
 20
276.209241
 30
0.0
 11
540.6654
 21
256.7455
 31
0.0
  0
LINE
  8
LC-002-002-----0
  6
CONTINUOUS
  5
76E
 10
544.520431
 20
273.039765
 30
0.0
 11
544.520431
 21
274.20901
 31
0.0
  0
LINE
  8
LC-002-002-----0
  6
CONTINUOUS
  5
76F
 10
597.219451
 20
258.198205
 30
0.0
 11
597.219451
 21
272.909034
 31
0.0
  0
ARC
  8
LC-002-002-----0
  6
CONTINUOUS
  5
770
 10
542.675353
 20
256.710416
 30
0.0
 40
1.999963
 50
179.0
 51
270.0
  0
LINE
  8
LC-002-002-----0
  6
CONTINUOUS
  5
771
 10
543.020459
 20
272.909034
 30
0.0
 11
544.514723
 21
273.039765
 31
0.0
  0
LINE
  8
LC-002-002-----0
  6
CONTINUOUS
  5
772
 10
542.020478
 20
276.708963
 30
0.0
 11
541.520487
 21
276.708963
 31
0.0
  0
LINE
  8
LC-002-002-----0
  6
CONTINUOUS
  5
773
 10
595.719479
 20
273.039765
 30
0.0
 11
593.307499
 21
273.039765
 31
0.0
  0
LINE
  8
LC-002-002-----0
  6
CONTINUOUS
  5
774
 10
592.231561
 20
258.181168
 30
0.0
 11
592.519955
 21
258.181168
 31
0.0
  0
LINE
  8
LC-002-002-----0
  6
CONTINUOUS
  5
775
 10
598.219432
 20
276.708963
 30
0.0
 11
592.419955
 21
276.708963
 31
0.0
  0
LINE
  8
LC-002-002-----0
  6
CONTINUOUS
  5
776
 10
595.719479
 20
274.20901
 30
0.0
 11
598.219432
 21
276.708963
 31
0.0
  0
LINE
  8
LC-002-002-----0
  6
CONTINUOUS
  5
777
 10
595.719479
 20
273.039765
 30
0.0
 11
595.719479
 21
274.20901
 31
0.0
  0
LINE
  8
LC-002-002-----0
  6
CONTINUOUS
  5
778
 10
597.219451
 20
272.909034
 30
0.0
 11
595.725187
 21
273.039765
 31
0.0
  0
LINE
  8
LC-002-002-----0
  6
CONTINUOUS
  5
779
 10
599.234769
 20
276.209241
 30
0.0
 11
599.575123
 21
256.710416
 31
0.0
  0
ARC
  8
LC-002-002-----0
  6
CONTINUOUS
  5
77A
 10
541.520487
 20
276.208973
 30
0.0
 40
0.499991
 50
90.0
 51
180.0
  0
LINE
  8
LC-002-002-----0
  6
CONTINUOUS
  5
77B
 10
543.020459
 20
258.181168
 30
0.0
 11
543.020459
 21
272.909034
 31
0.0
  0
LINE
  8
LC-002-002-----0
  6
CONTINUOUS
  5
77C
 10
599.575123
 20
256.710416
 30
0.0
 11
604.449344
 21
256.710416
 31
0.0
  0
ARC
  8
LC-002-002-----0
  6
CONTINUOUS
  5
77D
 10
598.719423
 20
276.208973
 30
0.0
 40
0.499991
 50
0.0
 51
90.0
  0
LINE
  8
LC-002-002-----0
  6
CONTINUOUS
  5
77E
 10
605.449326
 20
231.810879
 30
0.0
 11
607.449309
 21
231.810879
 31
0.0
  0
LINE
  8
LC-002-002-----0
  6
CONTINUOUS
  5
77F
 10
598.219432
 20
276.708963
 30
0.0
 11
598.719423
 21
276.708963
 31
0.0
  0
ARC
  8
LC-002-002-----0
  6
CONTINUOUS
  5
780
 10
606.549326
 20
252.800489
 30
0.0
 40
0.999981
 50
90.0
 51
180.0
  0
LINE
  8
LC-002-002-----0
  6
CONTINUOUS
  5
781
 10
606.549326
 20
253.80047
 30
0.0
 11
607.449309
 21
253.80047
 31
0.0
  0
LINE
  8
LC-002-002-----0
  6
CONTINUOUS
  5
782
 10
606.549326
 20
235.810805
 30
0.0
 11
607.449309
 21
235.810805
 31
0.0
  0
ARC
  8
LC-002-002-----0
  6
CONTINUOUS
  5
783
 10
605.449326
 20
232.810861
 30
0.0
 40
0.999981
 50
180.0
 51
270.0
  0
LINE
  8
LC-002-002-----0
  6
CONTINUOUS
  5
784
 10
570.119955
 20
233.810842
 30
0.0
 11
603.449363
 21
233.810842
 31
0.0
  0
ARC
  8
LC-002-002-----0
  6
CONTINUOUS
  5
785
 10
606.549326
 20
236.810786
 30
0.0
 40
0.999981
 50
180.0
 51
270.0
  0
ARC
  8
LC-002-002-----0
  6
CONTINUOUS
  5
786
 10
603.449363
 20
232.810861
 30
0.0
 40
0.999981
 50
360.0
 51
90.0
  0
LINE
  8
LC-002-002-----0
  6
CONTINUOUS
  5
787
 10
544.520431
 20
274.20901
 30
0.0
 11
542.020478
 21
276.708963
 31
0.0
  0
LINE
  8
LC-002-002-----0
  6
CONTINUOUS
  5
788
 10
547.119955
 20
251.710453
 30
0.0
 11
547.119955
 21
240.810842
 31
0.0
  0
LINE
  8
LC-002-002-----0
  6
CONTINUOUS
  5
789
 10
607.449309
 20
276.708963
 30
0.0
 11
607.449309
 21
257.800396
 31
0.0
  0
LINE
  8
LC-002-002-----0
  6
CONTINUOUS
  5
78A
 10
590.119955
 20
252.800489
 30
0.0
 11
605.549344
 21
252.800489
 31
0.0
  0
LINE
  8
LC-002-002-----0
  6
CONTINUOUS
  5
78B
 10
595.719479
 20
274.20901
 30
0.0
 11
592.433351
 21
274.20901
 31
0.0
  0
LINE
  8
LC-002-002-----0
  6
CONTINUOUS
  5
78C
 10
597.219451
 20
272.909034
 30
0.0
 11
593.919955
 21
272.909034
 31
0.0
  0
LINE
  8
LC-002-002-----0
  6
CONTINUOUS
  5
78D
 10
542.675353
 20
254.710453
 30
0.0
 11
544.119955
 21
254.710453
 31
0.0
  0
ARC
  8
LC-001-002-RND-0
  6
CONTINUOUS
  5
78E
 10
554.119955
 20
240.810842
 30
0.0
 40
7.0
 50
180.0
 51
270.0
  0
ARC
  8
LC-002-002-----0
  6
CONTINUOUS
  5
78F
 10
605.449326
 20
256.800415
 30
0.0
 40
0.999981
 50
90.0
 51
185.163607
  0
LINE
  8
LC-002-002-----0
  6
CONTINUOUS
  5
790
 10
605.549344
 20
236.810786
 30
0.0
 11
605.549344
 21
252.800489
 31
0.0
  0
LINE
  8
LC-002-002-----0
  6
CONTINUOUS
  5
791
 10
605.449326
 20
257.800396
 30
0.0
 11
607.449309
 21
257.800396
 31
0.0
  0
LINE
  8
LC-002-002-----0
  6
CONTINUOUS
  5
792
 10
550.119955
 20
256.408963
 30
0.0
 11
550.119955
 21
241.810786
 31
0.0
  0
LINE
  8
LC-002-002-----0
  6
CONTINUOUS
  5
793
 10
547.719955
 20
256.408963
 30
0.0
 11
592.519955
 21
256.408963
 31
0.0
  0
LINE
  8
LC-002-002-----0
  6
CONTINUOUS
  5
794
 10
592.519955
 20
258.181168
 30
0.0
 11
592.519955
 21
256.408963
 31
0.0
  0
LINE
  8
LC-002-002-----0
  6
CONTINUOUS
  5
795
 10
592.519955
 20
258.181168
 30
0.0
 11
597.219451
 21
258.181168
 31
0.0
  0
LINE
  8
LC-002-002-----0
  6
CONTINUOUS
  5
796
 10
590.119955
 20
256.408963
 30
0.0
 11
590.119955
 21
252.800489
 31
0.0
  0
LINE
  8
LC-002-002-----0
  6
CONTINUOUS
  5
797
 10
548.008349
 20
258.181168
 30
0.0
 11
543.020459
 21
258.181168
 31
0.0
  0
ARC
  8
LC-001-002-RND-0
  6
CONTINUOUS
  5
798
 10
544.119955
 20
251.710453
 30
0.0
 40
3.0
 50
360.0
 51
90.0
  0
LINE
  8
LC-002-002-----0
  6
CONTINUOUS
  5
799
 10
547.719955
 20
258.181168
 30
0.0
 11
547.719955
 21
256.408963
 31
0.0
  0
LINE
  8
LC-002-002-----0
  6
CONTINUOUS
  5
79A
 10
542.020478
 20
276.708963
 30
0.0
 11
547.679489
 21
276.708963
 31
0.0
  0
LINE
  8
LC-002-002-----0
  6
CONTINUOUS
  5
79B
 10
544.520431
 20
274.20901
 30
0.0
 11
547.806559
 21
274.20901
 31
0.0
  0
LINE
  8
LC-002-002-----0
  6
CONTINUOUS
  5
79C
 10
543.020459
 20
272.909034
 30
0.0
 11
546.319955
 21
272.909034
 31
0.0
  0
LINE
  8
LC-002-002-----0
  6
CONTINUOUS
  5
79D
 10
544.520431
 20
273.039765
 30
0.0
 11
546.932412
 21
273.039765
 31
0.0
  0
LINE
  8
LC-002-002-----0
  6
CONTINUOUS
  5
79E
 10
484.529046
 20
277.408569
 30
0.0
 11
489.074501
 21
274.78425
 31
0.0
  0
LINE
  8
LC-002-002-----0
  6
CONTINUOUS
  5
79F
 10
484.529046
 20
277.408569
 30
0.0
 11
491.347228
 21
280.890184
 31
0.0
  0
LINE
  8
LC-002-002-----0
  6
CONTINUOUS
  5
7A0
 10
489.074501
 20
274.78425
 30
0.0
 11
493.619955
 21
274.78425
 31
0.0
  0
LINE
  8
LC-002-002-----0
  6
CONTINUOUS
  5
7A1
 10
489.081133
 20
277.987432
 30
0.0
 11
493.619955
 21
277.966068
 31
0.0
  0
LINE
  8
LC-002-002-----0
  6
CONTINUOUS
  5
7A2
 10
491.347228
 20
280.890184
 30
0.0
 11
489.081133
 21
277.987432
 31
0.0
  0
LINE
  8
LC-002-002-----0
  6
CONTINUOUS
  5
7A3
 10
493.619955
 20
329.897885
 30
0.0
 11
493.619955
 21
335.011521
 31
0.0
  0
LINE
  8
LC-002-002-----0
  6
CONTINUOUS
  5
7A4
 10
484.529046
 20
332.387201
 30
0.0
 11
489.074501
 21
335.011521
 31
0.0
  0
LINE
  8
LC-002-002-----0
  6
CONTINUOUS
  5
7A5
 10
484.529046
 20
332.387201
 30
0.0
 11
491.347228
 21
328.905586
 31
0.0
  0
LINE
  8
LC-002-002-----0
  6
CONTINUOUS
  5
7A6
 10
489.074501
 20
335.011521
 30
0.0
 11
493.619955
 21
335.011521
 31
0.0
  0
LINE
  8
LC-002-002-----0
  6
CONTINUOUS
  5
7A7
 10
489.081133
 20
331.808339
 30
0.0
 11
493.619955
 21
331.829703
 31
0.0
  0
LINE
  8
LC-002-002-----0
  6
CONTINUOUS
  5
7A8
 10
491.347228
 20
328.905586
 30
0.0
 11
489.081133
 21
331.808339
 31
0.0
  0
LINE
  8
LC-002-002-----0
  6
CONTINUOUS
  5
7A9
 10
607.449309
 20
233.310788
 30
0.0
 11
607.449309
 21
231.810879
 31
0.0
  0
LINE
  8
LC-002-002-----0
  6
CONTINUOUS
  5
7AA
 10
607.449309
 20
253.810788
 30
0.0
 11
607.449309
 21
253.80047
 31
0.0
  0
LINE
  8
LC-002-002-----0
  6
CONTINUOUS
  5
7AB
 10
767.119816
 20
304.833391
 30
0.0
 11
767.119816
 21
242.262787
 31
0.0
  0
LINE
  8
LC-002-002-----0
  6
CONTINUOUS
  5
7AC
 10
730.867818
 20
307.781951
 30
0.0
 11
764.31164
 21
307.781951
 31
0.0
  0
LINE
  8
LC-002-002-----0
  6
DASHDOT
 62
     2
  5
7AE
 10
475.619955
 20
304.897885
 30
0.0
 11
542.619955
 21
304.897885
 31
0.0
  0
LINE
  8
LC-002-002-----0
  6
DASHDOT
 62
     2
  5
7AF
 10
570.119955
 20
277.397885
 30
0.0
 11
570.119955
 21
257.408966
 31
0.0
  0
ARC
  8
LC-001-002-RND-0
  6
DASHDOT
 62
     2
  5
7B0
 10
542.619955
 20
277.397885
 30
0.0
 40
27.5
 50
0.0
 51
90.0
  0
LINE
  8
LC-002-002-----0
  6
DASHDOT
 62
     2
  5
7B1
 10
687.117613
 20
345.144087
 30
0.0
 11
687.117613
 21
171.310844
 31
0.0
  0
LINE
  8
LC-002-002-----0
  6
CONTINUOUS
  5
7B2
 10
607.449309
 20
276.708963
 30
0.0
 11
607.184598
 21
276.708963
 31
0.0
  0
LINE
  8
LC-002-002-----0
  6
CONTINUOUS
 62
     2
  5
7B3
 10
767.119816
 20
242.262787
 30
0.0
 11
767.119816
 21
196.08
 31
0.0
  0
LINE
  8
LC-002-002-----0
  6
CONTINUOUS
  5
7B4
 10
536.670639
 20
343.128229
 30
0.0
 11
547.325357
 21
342.389701
 31
0.0
  0
LINE
  8
LC-002-002-----0
  6
CONTINUOUS
  5
7B5
 10
595.289167
 20
337.016346
 30
0.0
 11
587.327471
 21
337.594918
 31
0.0
  0
LINE
  8
LC-002-002-----0
  6
CONTINUOUS
  5
7B6
 10
838.137078
 20
343.165213
 30
0.0
 11
802.92866
 21
340.724752
 31
0.0
  0
LINE
  8
LC-002-002-----0
  6
CONTINUOUS
  5
7B7
 10
778.984989
 20
337.016346
 30
0.0
 11
791.655564
 21
337.937109
 31
0.0
  0
LINE
  8
LC-006-005-----0
  6
CONTINUOUS
  5
7B8
 10
609.950175
 20
313.714322
 30
0.0
 11
610.128201
 21
313.892347
 31
0.0
  0
LINE
  8
LC-002-002-----0
  6
CONTINUOUS
  5
7B9
 10
437.327471
 20
347.865213
 30
0.0
 11
437.327471
 21
343.165213
 31
0.0
  0
LINE
  8
LC-002-002-----0
  6
CONTINUOUS
  5
7BA
 10
447.327471
 20
347.865213
 30
0.0
 11
447.327471
 21
343.165213
 31
0.0
  0
LINE
  8
LC-002-002-----0
  6
CONTINUOUS
  5
7BB
 10
457.327471
 20
347.865213
 30
0.0
 11
457.327471
 21
343.165213
 31
0.0
  0
LINE
  8
LC-002-002-----0
  6
CONTINUOUS
  5
7BC
 10
467.327471
 20
347.865213
 30
0.0
 11
467.327471
 21
343.165213
 31
0.0
  0
LINE
  8
LC-002-002-----0
  6
CONTINUOUS
  5
7BD
 10
477.327471
 20
347.865213
 30
0.0
 11
477.327471
 21
343.165213
 31
0.0
  0
LINE
  8
LC-002-002-----0
  6
CONTINUOUS
  5
7BE
 10
487.327471
 20
347.865213
 30
0.0
 11
487.327471
 21
343.165213
 31
0.0
  0
LINE
  8
LC-002-002-----0
  6
CONTINUOUS
  5
7BF
 10
497.327471
 20
347.865213
 30
0.0
 11
497.327471
 21
343.165213
 31
0.0
  0
LINE
  8
LC-002-002-----0
  6
CONTINUOUS
  5
7C0
 10
507.327471
 20
347.865213
 30
0.0
 11
507.327471
 21
343.165213
 31
0.0
  0
LINE
  8
LC-002-002-----0
  6
CONTINUOUS
  5
7C1
 10
517.327471
 20
347.865213
 30
0.0
 11
517.327471
 21
343.165213
 31
0.0
  0
LINE
  8
LC-002-002-----0
  6
CONTINUOUS
  5
7C2
 10
527.327471
 20
347.865213
 30
0.0
 11
527.327471
 21
343.165213
 31
0.0
  0
LINE
  8
LC-002-002-----0
  6
CONTINUOUS
  5
7C3
 10
536.673202
 20
343.165213
 30
0.0
 11
437.327471
 21
343.165213
 31
0.0
  0
LINE
  8
LC-002-002-----0
  6
CONTINUOUS
  5
7C4
 10
537.327471
 20
347.793978
 30
0.0
 11
537.327471
 21
343.119462
 31
0.0
  0
LINE
  8
LC-002-002-----0
  6
CONTINUOUS
  5
7C5
 10
547.327471
 20
347.100831
 30
0.0
 11
547.327471
 21
342.420195
 31
0.0
  0
LINE
  8
LC-002-002-----0
  6
CONTINUOUS
  5
7C6
 10
557.327471
 20
346.407684
 30
0.0
 11
557.327471
 21
341.720927
 31
0.0
  0
LINE
  8
LC-002-002-----0
  6
CONTINUOUS
  5
7C7
 10
567.327471
 20
345.714537
 30
0.0
 11
567.327471
 21
341.021659
 31
0.0
  0
LINE
  8
LC-002-002-----0
  6
CONTINUOUS
  5
7C8
 10
587.327471
 20
342.305465
 30
0.0
 11
587.327471
 21
337.594918
 31
0.0
  0
LINE
  8
LC-002-002-----0
  6
CONTINUOUS
  5
7C9
 10
579.335695
 20
345.144087
 30
0.0
 11
794.938462
 21
345.144087
 31
0.0
  0
ARC
  8
LC-002-002-----0
  6
CONTINUOUS
  5
7CA
 10
584.775186
 20
349.549986
 30
0.0
 40
7.0
 50
219.006904
 51
266.0
  0
ARC
  8
LC-002-002-----0
  6
CONTINUOUS
  5
7CB
 10
584.775186
 20
349.549986
 30
0.0
 40
6.3
 50
224.378071
 51
266.0
  0
LINE
  8
LC-002-002-----0
  6
CONTINUOUS
  5
7CC
 10
584.28689
 20
342.567037
 30
0.0
 11
602.01415
 21
341.327426
 31
0.0
  0
LINE
  8
LC-002-002-----0
  6
CONTINUOUS
  5
7CD
 10
584.333504
 20
343.254907
 30
0.0
 11
602.062979
 21
342.015141
 31
0.0
  0
ARC
  8
LC-001-002-RND-0
  6
CONTINUOUS
  5
7CE
 10
601.574684
 20
335.032193
 30
0.0
 40
7.0
 50
0.0
 51
86.0
  0
ARC
  8
LC-001-002-RND-0
  6
CONTINUOUS
  5
7CF
 10
601.574684
 20
335.042773
 30
0.0
 40
6.3
 50
0.0
 51
86.0
  0
LINE
  8
LC-002-002-----0
  6
CONTINUOUS
  5
7D0
 10
607.874684
 20
335.042773
 30
0.0
 11
607.874684
 21
321.354729
 31
0.0
  0
ARC
  8
LC-002-002-----0
  6
CONTINUOUS
  5
7D1
 10
611.374684
 20
321.354729
 30
0.0
 40
3.5
 50
180.0
 51
270.0
  0
ARC
  8
LC-002-002-----0
  6
CONTINUOUS
  5
7D2
 10
611.374684
 20
321.354729
 30
0.0
 40
2.8
 50
180.0
 51
270.0
  0
ARC
  8
LC-002-002-----0
  6
CONTINUOUS
  5
7D3
 10
611.374964
 20
317.555097
 30
0.0
 40
1.0
 50
359.99972
 51
89.99972
  0
ARC
  8
LC-002-002-----0
  6
CONTINUOUS
  5
7D4
 10
611.374964
 20
317.555097
 30
0.0
 40
0.3
 50
359.99972
 51
89.99972
  0
LINE
  8
LC-002-002-----0
  6
CONTINUOUS
  5
7D5
 10
611.674684
 20
317.554729
 30
0.0
 11
611.674684
 21
315.254729
 31
0.0
  0
LINE
  8
LC-002-002-----0
  6
CONTINUOUS
  5
7D6
 10
612.374684
 20
317.554729
 30
0.0
 11
612.374684
 21
315.254729
 31
0.0
  0
ARC
  8
LC-002-002-----0
  6
CONTINUOUS
  5
7D7
 10
611.375206
 20
315.254729
 30
0.0
 40
0.3
 50
270.0
 51
0.0
  0
ARC
  8
LC-002-002-----0
  6
CONTINUOUS
  5
7D8
 10
611.374684
 20
315.254729
 30
0.0
 40
1.0
 50
270.0
 51
0.0
  0
ARC
  8
LC-002-002-----0
  6
CONTINUOUS
  5
7D9
 10
611.374684
 20
313.454729
 30
0.0
 40
1.5
 50
90.0
 51
180.0
  0
ARC
  8
LC-002-002-----0
  6
CONTINUOUS
  5
7DA
 10
611.374684
 20
313.454729
 30
0.0
 40
0.8
 50
90.0
 51
180.0
  0
ARC
  8
LC-002-002-----0
  6
CONTINUOUS
  5
7DB
 10
611.374684
 20
313.454729
 30
0.0
 40
1.5
 50
180.0
 51
270.0
  0
ARC
  8
LC-002-002-----0
  6
CONTINUOUS
  5
7DC
 10
611.374684
 20
313.454729
 30
0.0
 40
0.8
 50
180.0
 51
270.0
  0
LINE
  8
LC-002-002-----0
  6
CONTINUOUS
  5
7DD
 10
611.374684
 20
312.654729
 30
0.0
 11
614.174684
 21
312.654729
 31
0.0
  0
LINE
  8
LC-002-002-----0
  6
CONTINUOUS
  5
7DE
 10
611.374684
 20
311.954729
 30
0.0
 11
614.174684
 21
311.954729
 31
0.0
  0
LINE
  8
LC-002-002-----0
  6
CONTINUOUS
  5
7DF
 10
614.174684
 20
311.954729
 30
0.0
 11
614.174684
 21
312.654729
 31
0.0
  0
LINE
  8
LC-002-002-----0
  6
CONTINUOUS
  5
7E0
 10
595.289663
 20
341.726858
 30
0.0
 11
587.327471
 21
342.305465
 31
0.0
  0
LINE
  8
LC-002-002-----0
  6
CONTINUOUS
  5
7E1
 10
577.327471
 20
344.87583
 30
0.0
 11
577.327471
 21
338.447923
 31
0.0
  0
LINE
  8
LC-002-002-----0
  6
CONTINUOUS
  5
7E2
 10
587.327471
 20
342.305465
 30
0.0
 11
583.260621
 21
342.601001
 31
0.0
  0
LINE
  8
LC-002-002-----0
  6
CONTINUOUS
  5
7E3
 10
587.327471
 20
337.594918
 30
0.0
 11
582.618592
 21
337.937109
 31
0.0
  0
LINE
  8
LC-002-002-----0
  6
CONTINUOUS
  5
7E4
 10
536.299773
 20
347.865213
 30
0.0
 11
437.327471
 21
347.865213
 31
0.0
  0
LINE
  8
LC-002-002-----0
  6
CONTINUOUS
  5
7E5
 10
536.299773
 20
347.865213
 30
0.0
 11
547.327471
 21
347.100831
 31
0.0
  0
ARC
  8
LC-002-002-----0
  6
CONTINUOUS
  5
7E6
 10
586.876753
 20
360.907262
 30
0.0
 40
18.66
 50
238.247327
 51
258.82592
  0
LINE
  8
LC-002-002-----0
  6
CONTINUOUS
  5
7E7
 10
547.327471
 20
347.100831
 30
0.0
 11
577.056861
 21
345.040147
 31
0.0
  0
LINE
  8
LC-002-002-----0
  6
CONTINUOUS
  5
7E8
 10
547.325357
 20
342.389701
 30
0.0
 11
570.590821
 21
340.777062
 31
0.0
  0
LINE
  8
LC-002-002-----0
  6
CONTINUOUS
  5
7E9
 10
765.637078
 20
321.555396
 30
0.0
 11
762.637078
 21
318.555396
 31
0.0
  0
LINE
  8
LC-002-002-----0
  6
CONTINUOUS
  5
7EA
 10
755.637078
 20
318.555396
 30
0.0
 11
755.637078
 21
321.055396
 31
0.0
  0
LINE
  8
LC-002-002-----0
  6
CONTINUOUS
  5
7EB
 10
763.137078
 20
337.555041
 30
0.0
 11
761.637078
 21
337.555041
 31
0.0
  0
LINE
  8
LC-002-002-----0
  6
CONTINUOUS
  5
7EC
 10
763.137078
 20
321.055396
 30
0.0
 11
763.137078
 21
338.555041
 31
0.0
  0
ARC
  8
LC-001-002-RND-0
  6
CONTINUOUS
  5
7ED
 10
761.637078
 20
335.555041
 30
0.0
 40
2.0
 50
90.0
 51
180.0
  0
LINE
  8
LC-002-002-----0
  6
CONTINUOUS
  5
7EE
 10
750.209818
 20
318.555396
 30
0.0
 11
750.209818
 21
321.055396
 31
0.0
  0
LINE
  8
LC-002-002-----0
  6
CONTINUOUS
  5
7EF
 10
742.709861
 20
321.055396
 30
0.0
 11
763.137078
 21
321.055396
 31
0.0
  0
LINE
  8
LC-002-002-----0
  6
CONTINUOUS
  5
7F0
 10
608.637078
 20
321.555396
 30
0.0
 11
611.637078
 21
318.555396
 31
0.0
  0
LINE
  8
LC-002-002-----0
  6
CONTINUOUS
  5
7F1
 10
618.637078
 20
318.555396
 30
0.0
 11
618.637078
 21
321.055396
 31
0.0
  0
LINE
  8
LC-002-002-----0
  6
CONTINUOUS
  5
7F2
 10
611.137078
 20
337.555041
 30
0.0
 11
612.637078
 21
337.555041
 31
0.0
  0
LINE
  8
LC-002-002-----0
  6
CONTINUOUS
  5
7F3
 10
611.137078
 20
337.555041
 30
0.0
 11
611.137078
 21
338.555041
 31
0.0
  0
ARC
  8
LC-001-002-RND-0
  6
CONTINUOUS
  5
7F4
 10
612.637078
 20
335.555041
 30
0.0
 40
2.0
 50
0.0
 51
90.0
  0
LINE
  8
LC-002-002-----0
  6
CONTINUOUS
  5
7F5
 10
624.064338
 20
318.555396
 30
0.0
 11
624.064338
 21
321.055396
 31
0.0
  0
LINE
  8
LC-002-002-----0
  6
CONTINUOUS
  5
7F6
 10
631.564338
 20
318.555396
 30
0.0
 11
631.564338
 21
321.055396
 31
0.0
  0
LINE
  8
LC-002-002-----0
  6
CONTINUOUS
  5
7F7
 10
642.827373
 20
318.555396
 30
0.0
 11
642.827373
 21
321.055396
 31
0.0
  0
LINE
  8
LC-002-002-----0
  6
CONTINUOUS
  5
7F8
 10
646.882343
 20
321.055396
 30
0.0
 11
642.827373
 21
321.055396
 31
0.0
  0
LINE
  8
LC-002-002-----0
  6
CONTINUOUS
  5
7F9
 10
631.564338
 20
321.055396
 30
0.0
 11
611.374684
 21
321.055396
 31
0.0
  0
LINE
  8
LC-002-002-----0
  6
CONTINUOUS
  5
7FA
 10
614.637078
 20
335.555041
 30
0.0
 11
614.637078
 21
321.055396
 31
0.0
  0
LINE
  8
LC-002-002-----0
  6
CONTINUOUS
  5
7FB
 10
608.637078
 20
338.555041
 30
0.0
 11
608.637078
 21
321.555396
 31
0.0
  0
LINE
  8
LC-002-002-----0
  6
CONTINUOUS
  5
7FC
 10
616.887078
 20
318.555396
 30
0.0
 11
644.838686
 21
318.555396
 31
0.0
  0
LINE
  8
LC-002-002-----0
  6
CONTINUOUS
  5
7FD
 10
608.637078
 20
338.555041
 30
0.0
 11
687.137078
 21
338.555041
 31
0.0
  0
LINE
  8
LC-002-002-----0
  6
CONTINUOUS
  5
7FE
 10
616.887078
 20
318.555396
 30
0.0
 11
611.637078
 21
318.555396
 31
0.0
  0
LINE
  8
LC-002-002-----0
  6
CONTINUOUS
  5
7FF
 10
759.637078
 20
335.555041
 30
0.0
 11
759.637078
 21
321.055396
 31
0.0
  0
LINE
  8
LC-002-002-----0
  6
CONTINUOUS
  5
800
 10
765.637078
 20
338.555041
 30
0.0
 11
765.637078
 21
321.555396
 31
0.0
  0
LINE
  8
LC-002-002-----0
  6
CONTINUOUS
  5
801
 10
757.387078
 20
318.555396
 30
0.0
 11
729.396842
 21
318.555396
 31
0.0
  0
LINE
  8
LC-002-002-----0
  6
CONTINUOUS
  5
802
 10
765.637078
 20
338.555041
 30
0.0
 11
687.137078
 21
338.555041
 31
0.0
  0
LINE
  8
LC-002-002-----0
  6
CONTINUOUS
  5
803
 10
757.387078
 20
318.555396
 30
0.0
 11
762.637078
 21
318.555396
 31
0.0
  0
LINE
  8
LC-002-002-----0
  6
CONTINUOUS
  5
804
 10
608.574684
 20
335.032193
 30
0.0
 11
608.574684
 21
321.354729
 31
0.0
  0
LINE
  8
LC-002-002-----0
  6
CONTINUOUS
  5
805
 10
611.137078
 20
321.055396
 30
0.0
 11
611.137078
 21
338.555041
 31
0.0
  0
LINE
  8
LC-002-002-----0
  6
CONTINUOUS
  5
806
 10
936.946686
 20
347.865213
 30
0.0
 11
936.946686
 21
343.165213
 31
0.0
  0
LINE
  8
LC-002-002-----0
  6
CONTINUOUS
  5
807
 10
926.946686
 20
347.865213
 30
0.0
 11
926.946686
 21
343.165213
 31
0.0
  0
LINE
  8
LC-002-002-----0
  6
CONTINUOUS
  5
808
 10
916.946686
 20
347.865213
 30
0.0
 11
916.946686
 21
343.165213
 31
0.0
  0
LINE
  8
LC-002-002-----0
  6
CONTINUOUS
  5
809
 10
906.946686
 20
347.865213
 30
0.0
 11
906.946686
 21
343.165213
 31
0.0
  0
LINE
  8
LC-002-002-----0
  6
CONTINUOUS
  5
80A
 10
896.946686
 20
347.865213
 30
0.0
 11
896.946686
 21
343.165213
 31
0.0
  0
LINE
  8
LC-002-002-----0
  6
CONTINUOUS
  5
80B
 10
886.946686
 20
347.865213
 30
0.0
 11
886.946686
 21
343.165213
 31
0.0
  0
LINE
  8
LC-002-002-----0
  6
CONTINUOUS
  5
80C
 10
876.946686
 20
347.865213
 30
0.0
 11
876.946686
 21
343.165213
 31
0.0
  0
LINE
  8
LC-002-002-----0
  6
CONTINUOUS
  5
80D
 10
866.946686
 20
347.865213
 30
0.0
 11
866.946686
 21
343.165213
 31
0.0
  0
LINE
  8
LC-002-002-----0
  6
CONTINUOUS
  5
80E
 10
856.946686
 20
347.865213
 30
0.0
 11
856.946686
 21
343.165213
 31
0.0
  0
LINE
  8
LC-002-002-----0
  6
CONTINUOUS
  5
80F
 10
846.946686
 20
347.865213
 30
0.0
 11
846.946686
 21
343.165213
 31
0.0
  0
LINE
  8
LC-002-002-----0
  6
CONTINUOUS
  5
810
 10
837.600954
 20
343.165213
 30
0.0
 11
936.946686
 21
343.165213
 31
0.0
  0
LINE
  8
LC-002-002-----0
  6
CONTINUOUS
  5
811
 10
837.974384
 20
347.865213
 30
0.0
 11
936.946686
 21
347.865213
 31
0.0
  0
LINE
  8
LC-002-002-----0
  6
CONTINUOUS
  5
812
 10
836.946686
 20
347.793978
 30
0.0
 11
836.946686
 21
343.119462
 31
0.0
  0
LINE
  8
LC-002-002-----0
  6
CONTINUOUS
  5
813
 10
826.946686
 20
347.100831
 30
0.0
 11
826.946686
 21
342.420195
 31
0.0
  0
LINE
  8
LC-002-002-----0
  6
CONTINUOUS
  5
814
 10
816.946686
 20
346.407684
 30
0.0
 11
816.946686
 21
341.720927
 31
0.0
  0
LINE
  8
LC-002-002-----0
  6
CONTINUOUS
  5
815
 10
837.974384
 20
347.865213
 30
0.0
 11
797.217296
 21
345.040147
 31
0.0
  0
LINE
  8
LC-002-002-----0
  6
CONTINUOUS
  5
816
 10
806.946686
 20
345.714537
 30
0.0
 11
806.946686
 21
341.021659
 31
0.0
  0
LINE
  8
LC-002-002-----0
  6
CONTINUOUS
  5
817
 10
796.946686
 20
344.87583
 30
0.0
 11
796.946686
 21
338.297659
 31
0.0
  0
LINE
  8
LC-002-002-----0
  6
CONTINUOUS
  5
818
 10
786.946686
 20
342.305465
 30
0.0
 11
786.946686
 21
337.594918
 31
0.0
  0
ARC
  8
LC-002-002-----0
  6
CONTINUOUS
  5
819
 10
787.397403
 20
360.907262
 30
0.0
 40
18.66
 50
281.17408
 51
301.752673
  0
LINE
  8
LC-002-002-----0
  6
CONTINUOUS
  5
81A
 10
778.88094
 20
341.719333
 30
0.0
 11
791.013535
 21
342.601001
 31
0.0
  0
ARC
  8
LC-002-002-----0
  6
CONTINUOUS
  5
81B
 10
789.498971
 20
349.549986
 30
0.0
 40
6.3
 50
274.0
 51
315.621929
  0
ARC
  8
LC-002-002-----0
  6
CONTINUOUS
  5
81C
 10
789.498971
 20
349.549986
 30
0.0
 40
7.0
 50
274.0
 51
320.993096
  0
LINE
  8
LC-002-002-----0
  6
CONTINUOUS
  5
81D
 10
789.940653
 20
343.254907
 30
0.0
 11
772.211177
 21
342.015141
 31
0.0
  0
LINE
  8
LC-002-002-----0
  6
CONTINUOUS
  5
81E
 10
789.987266
 20
342.567037
 30
0.0
 11
772.260007
 21
341.327426
 31
0.0
  0
ARC
  8
LC-001-002-RND-0
  6
CONTINUOUS
  5
81F
 10
772.699473
 20
335.032193
 30
0.0
 40
7.0
 50
94.0
 51
180.0
  0
ARC
  8
LC-001-002-RND-0
  6
CONTINUOUS
  5
820
 10
772.699473
 20
335.042773
 30
0.0
 40
6.3
 50
94.0
 51
180.0
  0
LINE
  8
LC-002-002-----0
  6
CONTINUOUS
  5
821
 10
766.399473
 20
335.042773
 30
0.0
 11
766.399473
 21
321.354729
 31
0.0
  0
LINE
  8
LC-002-002-----0
  6
CONTINUOUS
  5
822
 10
765.699473
 20
335.032193
 30
0.0
 11
765.699473
 21
321.354729
 31
0.0
  0
ARC
  8
LC-002-002-----0
  6
CONTINUOUS
  5
823
 10
762.899473
 20
321.354729
 30
0.0
 40
2.8
 50
270.0
 51
0.0
  0
ARC
  8
LC-002-002-----0
  6
CONTINUOUS
  5
824
 10
762.899473
 20
321.354729
 30
0.0
 40
3.5
 50
270.0
 51
0.0
  0
ARC
  8
LC-002-002-----0
  6
CONTINUOUS
  5
825
 10
762.899193
 20
317.555097
 30
0.0
 40
1.0
 50
90.00028
 51
180.00028
  0
ARC
  8
LC-002-002-----0
  6
CONTINUOUS
  5
826
 10
762.899193
 20
317.555097
 30
0.0
 40
0.3
 50
90.00028
 51
180.00028
  0
LINE
  8
LC-002-002-----0
  6
CONTINUOUS
  5
827
 10
761.899473
 20
317.554729
 30
0.0
 11
761.899473
 21
315.254729
 31
0.0
  0
LINE
  8
LC-002-002-----0
  6
CONTINUOUS
  5
828
 10
762.599473
 20
317.554729
 30
0.0
 11
762.599473
 21
315.254729
 31
0.0
  0
ARC
  8
LC-002-002-----0
  6
CONTINUOUS
  5
829
 10
762.899473
 20
315.254729
 30
0.0
 40
1.0
 50
180.0
 51
270.0
  0
ARC
  8
LC-002-002-----0
  6
CONTINUOUS
  5
82A
 10
762.89895
 20
315.254729
 30
0.0
 40
0.3
 50
180.0
 51
270.0
  0
ARC
  8
LC-002-002-----0
  6
CONTINUOUS
  5
82B
 10
762.899473
 20
313.454729
 30
0.0
 40
1.5
 50
0.0
 51
90.0
  0
ARC
  8
LC-002-002-----0
  6
CONTINUOUS
  5
82C
 10
762.899473
 20
313.454729
 30
0.0
 40
1.5
 50
270.0
 51
0.0
  0
ARC
  8
LC-002-002-----0
  6
CONTINUOUS
  5
82D
 10
762.899473
 20
313.454729
 30
0.0
 40
0.8
 50
0.0
 51
90.0
  0
ARC
  8
LC-002-002-----0
  6
CONTINUOUS
  5
82E
 10
762.899473
 20
313.454729
 30
0.0
 40
0.8
 50
270.0
 51
0.0
  0
LINE
  8
LC-002-002-----0
  6
CONTINUOUS
  5
82F
 10
762.899473
 20
312.654729
 30
0.0
 11
760.099473
 21
312.654729
 31
0.0
  0
LINE
  8
LC-002-002-----0
  6
CONTINUOUS
  5
830
 10
762.899473
 20
311.954729
 30
0.0
 11
760.099473
 21
311.954729
 31
0.0
  0
LINE
  8
LC-002-002-----0
  6
CONTINUOUS
  5
831
 10
760.099473
 20
311.954729
 30
0.0
 11
760.099473
 21
312.654729
 31
0.0
  0
LINE
  8
LC-002-002-----0
  6
CONTINUOUS
  5
832
 10
689.637078
 20
337.555041
 30
0.0
 11
687.137078
 21
337.555041
 31
0.0
  0
ARC
  8
LC-002-002-----0
  6
CONTINUOUS
  5
833
 10
750.63658
 20
335.555041
 30
0.0
 40
2.0
 50
90.0
 51
180.0
  0
LINE
  8
LC-002-002-----0
  6
CONTINUOUS
  5
834
 10
754.16939
 20
337.555041
 30
0.0
 11
750.63658
 21
337.555041
 31
0.0
  0
LINE
  8
LC-002-002-----0
  6
CONTINUOUS
  5
835
 10
754.16939
 20
321.055396
 30
0.0
 11
754.16939
 21
337.555041
 31
0.0
  0
LINE
  8
LC-002-002-----0
  6
CONTINUOUS
  5
836
 10
689.637078
 20
334.798705
 30
0.0
 11
689.637078
 21
337.555041
 31
0.0
  0
LINE
  8
LC-002-002-----0
  6
CONTINUOUS
  5
837
 10
751.13658
 20
321.055396
 30
0.0
 11
751.13658
 21
335.555041
 31
0.0
  0
LINE
  8
LC-002-002-----0
  6
CONTINUOUS
  5
838
 10
748.63658
 20
321.055396
 30
0.0
 11
748.63658
 21
335.555041
 31
0.0
  0
ARC
  8
LC-002-002-----0
  6
CONTINUOUS
  5
839
 10
753.13658
 20
335.555041
 30
0.0
 40
2.0
 50
90.0
 51
180.0
  0
LINE
  8
LC-002-002-----0
  6
CONTINUOUS
  5
83A
 10
725.530584
 20
322.779045
 30
0.0
 11
725.530584
 21
335.555041
 31
0.0
  0
LINE
  8
LC-002-002-----0
  6
CONTINUOUS
  5
83B
 10
721.200457
 20
324.569785
 30
0.0
 11
721.200457
 21
335.555041
 31
0.0
  0
LINE
  8
LC-002-002-----0
  6
CONTINUOUS
  5
83C
 10
727.281577
 20
337.555041
 30
0.0
 11
723.200457
 21
337.555041
 31
0.0
  0
ARC
  8
LC-002-002-----0
  6
CONTINUOUS
  5
83D
 10
723.200457
 20
335.555041
 30
0.0
 40
2.0
 50
90.0
 51
180.0
  0
ARC
  8
LC-002-002-----0
  6
CONTINUOUS
  5
83E
 10
727.530584
 20
335.555041
 30
0.0
 40
2.0
 50
97.096995
 51
180.0
  0
LINE
  8
LC-002-002-----0
  6
CONTINUOUS
  5
83F
 10
727.281577
 20
321.354894
 30
0.0
 11
727.281577
 21
337.555041
 31
0.0
  0
LINE
  8
LC-002-002-----0
  6
CONTINUOUS
  5
840
 10
684.637078
 20
337.555041
 30
0.0
 11
687.137078
 21
337.555041
 31
0.0
  0
ARC
  8
LC-002-002-----0
  6
CONTINUOUS
  5
841
 10
623.637576
 20
335.555041
 30
0.0
 40
2.0
 50
0.0
 51
90.0
  0
LINE
  8
LC-002-002-----0
  6
CONTINUOUS
  5
842
 10
620.104767
 20
337.555041
 30
0.0
 11
623.637576
 21
337.555041
 31
0.0
  0
LINE
  8
LC-002-002-----0
  6
CONTINUOUS
  5
843
 10
620.104767
 20
321.055396
 30
0.0
 11
620.104767
 21
337.555041
 31
0.0
  0
LINE
  8
LC-002-002-----0
  6
CONTINUOUS
  5
844
 10
684.637078
 20
334.798704
 30
0.0
 11
684.637078
 21
337.555041
 31
0.0
  0
LINE
  8
LC-002-002-----0
  6
CONTINUOUS
  5
845
 10
623.137576
 20
321.055396
 30
0.0
 11
623.137576
 21
335.555041
 31
0.0
  0
LINE
  8
LC-002-002-----0
  6
CONTINUOUS
  5
846
 10
625.637576
 20
321.055396
 30
0.0
 11
625.637576
 21
335.555041
 31
0.0
  0
ARC
  8
LC-002-002-----0
  6
CONTINUOUS
  5
847
 10
621.137576
 20
335.555041
 30
0.0
 40
2.0
 50
0.0
 51
90.0
  0
LINE
  8
LC-002-002-----0
  6
CONTINUOUS
  5
848
 10
648.743573
 20
322.804616
 30
0.0
 11
648.743573
 21
335.555041
 31
0.0
  0
LINE
  8
LC-002-002-----0
  6
CONTINUOUS
  5
849
 10
653.0737
 20
324.798513
 30
0.0
 11
653.0737
 21
335.555041
 31
0.0
  0
LINE
  8
LC-002-002-----0
  6
CONTINUOUS
  5
84A
 10
646.992579
 20
337.555041
 30
0.0
 11
651.0737
 21
337.555041
 31
0.0
  0
ARC
  8
LC-002-002-----0
  6
CONTINUOUS
  5
84B
 10
651.0737
 20
335.555041
 30
0.0
 40
2.0
 50
0.0
 51
90.0
  0
ARC
  8
LC-002-002-----0
  6
CONTINUOUS
  5
84C
 10
646.743573
 20
335.555041
 30
0.0
 40
2.0
 50
0.0
 51
82.903005
  0
LINE
  8
LC-002-002-----0
  6
CONTINUOUS
  5
84D
 10
646.992579
 20
321.055396
 30
0.0
 11
646.992579
 21
337.555041
 31
0.0
  0
LINE
  8
LC-002-002-----0
  6
CONTINUOUS
  5
84E
 10
595.289167
 20
337.016346
 30
0.0
 11
595.289167
 21
341.720032
 31
0.0
  0
LINE
  8
LC-002-002-----0
  6
CONTINUOUS
  5
84F
 10
742.670887
 20
318.555396
 30
0.0
 11
742.670887
 21
321.055396
 31
0.0
  0
LINE
  8
LC-002-002-----0
  6
CONTINUOUS
  5
850
 10
731.407852
 20
318.555396
 30
0.0
 11
731.407852
 21
321.055396
 31
0.0
  0
LINE
  8
LC-002-002-----0
  6
CONTINUOUS
  5
851
 10
727.352883
 20
321.055396
 30
0.0
 11
731.407852
 21
321.055396
 31
0.0
  0
LINE
  8
LC-002-002-----0
  6
CONTINUOUS
  5
852
 10
778.984989
 20
337.016346
 30
0.0
 11
778.984989
 21
341.719333
 31
0.0
  0
LINE
  8
LC-002-002-----0
  6
CONTINUOUS
  5
853
 10
778.648792
 20
337.28608
 30
0.0
 11
772.71314
 21
336.871019
 31
0.0
  0
LINE
  8
LC-002-002-----0
  6
CONTINUOUS
  5
854
 10
773.789719
 20
334.425251
 30
0.0
 11
773.789719
 21
321.572832
 31
0.0
  0
LINE
  8
LC-002-002-----0
  6
CONTINUOUS
  5
855
 10
773.789719
 20
334.425251
 30
0.0
 11
775.507662
 21
334.425251
 31
0.0
  0
LINE
  8
LC-002-002-----0
  6
CONTINUOUS
  5
856
 10
778.649044
 20
337.282475
 30
0.0
 11
778.649044
 21
329.659502
 31
0.0
  0
ARC
  8
LC-001-002-RND-0
  6
CONTINUOUS
  5
857
 10
777.569194
 20
329.672336
 30
0.0
 40
1.07985
 50
273.999997
 51
0.0
  0
LINE
  8
LC-002-002-----0
  6
CONTINUOUS
  5
858
 10
777.644521
 20
328.595116
 30
0.0
 11
775.507662
 21
328.445693
 31
0.0
  0
LINE
  8
LC-002-002-----0
  6
CONTINUOUS
  5
859
 10
775.507662
 20
328.445693
 30
0.0
 11
775.507662
 21
334.425251
 31
0.0
  0
ARC
  8
LC-002-002-----0
  6
CONTINUOUS
  5
85A
 10
772.993811
 20
332.857233
 30
0.0
 40
4.023715
 50
93.998836
 51
111.246312
  0
LINE
  8
LC-002-002-----0
  6
CONTINUOUS
  5
85B
 10
766.59583
 20
331.31031
 30
0.0
 11
771.535705
 21
336.607461
 31
0.0
  0
ARC
  8
LC-002-002-----0
  6
CONTINUOUS
  5
85C
 10
766.813059
 20
331.109933
 30
0.0
 40
0.296443
 50
137.000136
 51
290.000136
  0
LINE
  8
LC-002-002-----0
  6
CONTINUOUS
  5
85D
 10
766.914014
 20
330.829565
 30
0.0
 11
770.207205
 21
332.028113
 31
0.0
  0
ARC
  8
LC-002-002-----0
  6
CONTINUOUS
  5
85E
 10
770.545151
 20
331.099556
 30
0.0
 40
0.988142
 50
359.998586
 51
109.998839
  0
LINE
  8
LC-002-002-----0
  6
CONTINUOUS
  5
85F
 10
771.533293
 20
331.099556
 30
0.0
 11
771.533263
 21
329.783817
 31
0.0
  0
ARC
  8
LC-002-002-----0
  6
CONTINUOUS
  5
860
 10
771.039192
 20
329.783829
 30
0.0
 40
0.494071
 50
316.998839
 51
359.998703
  0
LINE
  8
LC-002-002-----0
  6
CONTINUOUS
  5
861
 10
766.595672
 20
324.2945
 30
0.0
 11
771.400526
 21
329.446866
 31
0.0
  0
ARC
  8
LC-002-002-----0
  6
CONTINUOUS
  5
862
 10
766.813059
 20
324.094123
 30
0.0
 40
0.296443
 50
137.000136
 51
290.000136
  0
LINE
  8
LC-002-002-----0
  6
CONTINUOUS
  5
863
 10
766.913856
 20
323.813755
 30
0.0
 11
770.207047
 21
325.012302
 31
0.0
  0
ARC
  8
LC-002-002-----0
  6
CONTINUOUS
  5
864
 10
770.544992
 20
324.083746
 30
0.0
 40
0.988142
 50
359.998586
 51
109.998839
  0
LINE
  8
LC-002-002-----0
  6
CONTINUOUS
  5
865
 10
771.53312
 20
324.083723
 30
0.0
 11
771.533058
 21
321.570924
 31
0.0
  0
LINE
  8
LC-002-002-----0
  6
CONTINUOUS
  5
866
 10
773.789191
 20
321.572832
 30
0.0
 11
771.533058
 21
321.572832
 31
0.0
  0
LINE
  8
LC-002-002-----0
  6
CONTINUOUS
  5
867
 10
595.586433
 20
337.28608
 30
0.0
 11
601.522085
 21
336.871019
 31
0.0
  0
LINE
  8
LC-002-002-----0
  6
CONTINUOUS
  5
868
 10
600.445506
 20
334.425251
 30
0.0
 11
600.445506
 21
321.572832
 31
0.0
  0
LINE
  8
LC-002-002-----0
  6
CONTINUOUS
  5
869
 10
600.445506
 20
334.425251
 30
0.0
 11
598.727563
 21
334.425251
 31
0.0
  0
LINE
  8
LC-002-002-----0
  6
CONTINUOUS
  5
86A
 10
595.586181
 20
337.282475
 30
0.0
 11
595.586181
 21
329.659502
 31
0.0
  0
ARC
  8
LC-001-002-RND-0
  6
CONTINUOUS
  5
86B
 10
596.666031
 20
329.672336
 30
0.0
 40
1.07985
 50
180.0
 51
266.000003
  0
LINE
  8
LC-002-002-----0
  6
CONTINUOUS
  5
86C
 10
596.590705
 20
328.595116
 30
0.0
 11
598.727563
 21
328.445693
 31
0.0
  0
LINE
  8
LC-002-002-----0
  6
CONTINUOUS
  5
86D
 10
598.727563
 20
328.445693
 30
0.0
 11
598.727563
 21
334.425251
 31
0.0
  0
ARC
  8
LC-002-002-----0
  6
CONTINUOUS
  5
86E
 10
601.241414
 20
332.857233
 30
0.0
 40
4.023715
 50
68.753688
 51
86.001164
  0
LINE
  8
LC-002-002-----0
  6
CONTINUOUS
  5
86F
 10
607.639395
 20
331.31031
 30
0.0
 11
602.699521
 21
336.607461
 31
0.0
  0
ARC
  8
LC-002-002-----0
  6
CONTINUOUS
  5
870
 10
607.422166
 20
331.109933
 30
0.0
 40
0.296443
 50
249.999864
 51
42.999864
  0
LINE
  8
LC-002-002-----0
  6
CONTINUOUS
  5
871
 10
607.321211
 20
330.829565
 30
0.0
 11
604.02802
 21
332.028113
 31
0.0
  0
ARC
  8
LC-002-002-----0
  6
CONTINUOUS
  5
872
 10
603.690074
 20
331.099556
 30
0.0
 40
0.988142
 50
70.001161
 51
180.001414
  0
LINE
  8
LC-002-002-----0
  6
CONTINUOUS
  5
873
 10
602.701933
 20
331.099556
 30
0.0
 11
602.701962
 21
329.783817
 31
0.0
  0
ARC
  8
LC-002-002-----0
  6
CONTINUOUS
  5
874
 10
603.196034
 20
329.783829
 30
0.0
 40
0.494071
 50
180.001297
 51
223.001161
  0
LINE
  8
LC-002-002-----0
  6
CONTINUOUS
  5
875
 10
607.639554
 20
324.2945
 30
0.0
 11
602.8347
 21
329.446866
 31
0.0
  0
ARC
  8
LC-002-002-----0
  6
CONTINUOUS
  5
876
 10
607.422166
 20
324.094123
 30
0.0
 40
0.296443
 50
249.999864
 51
42.999864
  0
LINE
  8
LC-002-002-----0
  6
CONTINUOUS
  5
877
 10
607.32137
 20
323.813755
 30
0.0
 11
604.028179
 21
325.012302
 31
0.0
  0
ARC
  8
LC-002-002-----0
  6
CONTINUOUS
  5
878
 10
603.690233
 20
324.083746
 30
0.0
 40
0.988142
 50
70.001161
 51
180.001414
  0
LINE
  8
LC-002-002-----0
  6
CONTINUOUS
  5
879
 10
602.702105
 20
324.083723
 30
0.0
 11
602.702167
 21
321.570924
 31
0.0
  0
LINE
  8
LC-002-002-----0
  6
CONTINUOUS
  5
87A
 10
600.446035
 20
321.572832
 30
0.0
 11
602.702167
 21
321.572832
 31
0.0
  0
LINE
  8
LC-002-002-----0
  6
CONTINUOUS
  5
87B
 10
688.552347
 20
293.798513
 30
0.0
 11
688.560197
 21
322.798684
 31
0.0
  0
LINE
  8
LC-002-002-----0
  6
CONTINUOUS
  5
87C
 10
677.367837
 20
324.798513
 30
0.0
 11
688.229651
 21
324.798513
 31
0.0
  0
LINE
  8
LC-002-002-----0
  6
CONTINUOUS
  5
87D
 10
696.867834
 20
324.798699
 30
0.0
 11
687.117836
 21
324.798705
 31
0.0
  0
LINE
  8
LC-002-002-----0
  6
CONTINUOUS
  5
87E
 10
701.609162
 20
293.798513
 30
0.0
 11
702.078073
 21
297.298513
 31
0.0
  0
LINE
  8
LC-002-002-----0
  6
CONTINUOUS
  5
87F
 10
702.078073
 20
297.298513
 30
0.0
 11
702.078073
 21
300.384301
 31
0.0
  0
LINE
  8
LC-002-002-----0
  6
CONTINUOUS
  5
880
 10
702.078073
 20
301.798513
 30
0.0
 11
703.828075
 21
301.798513
 31
0.0
  0
ARC
  8
LC-002-002-----0
  6
CONTINUOUS
  5
881
 10
702.376766
 20
301.091407
 30
0.0
 40
0.767605
 50
112.900021
 51
247.099979
  0
LINE
  8
LC-002-002-----0
  6
CONTINUOUS
  5
882
 10
703.828075
 20
301.798513
 30
0.0
 11
703.828075
 21
322.798684
 31
0.0
  0
ENDSEC
  0
EOF
