  0
SECTION
  2
HEADER
  9
$ACADVER
  1
AC1009
  9
$DWGCODEPAGE
  3
dos850
  9
$INSBASE
 10
0.0
 20
0.0
 30
0.0
  9
$EXTMIN
 10
-210.0
 20
0.0
 30
0.0
  9
$EXTMAX
 10
630.0
 20
594.0
 30
0.0
  9
$LIMMIN
 10
-210.0
 20
0.0
  9
$LIMMAX
 10
630.0
 20
594.0
  9
$ORTHOMODE
 70
     0
  9
$REGENMODE
 70
     1
  9
$FILLMODE
 70
     1
  9
$QTEXTMODE
 70
     0
  9
$MIRRTEXT
 70
     1
  9
$DRAGMODE
 70
     2
  9
$LTSCALE
 40
2.0
  9
$OSMODE
 70
     0
  9
$ATTMODE
 70
     1
  9
$TEXTSIZE
 40
0.2
  9
$TRACEWID
 40
0.05
  9
$TEXTSTYLE
  7
STANDARD
  9
$CLAYER
  8
0
  9
$CELTYPE
  6
BYBLOCK
  9
$CECOLOR
 62
     7
  9
$DIMSCALE
 40
2.0
  9
$DIMASZ
 40
3.5
  9
$DIMEXO
 40
0.0625
  9
$DIMDLI
 40
0.38
  9
$DIMRND
 40
0.0
  9
$DIMDLE
 40
0.0
  9
$DIMEXE
 40
0.18
  9
$DIMTP
 40
0.0
  9
$DIMTM
 40
0.0
  9
$DIMTXT
 40
3.5
  9
$DIMCEN
 40
0.09
  9
$DIMTSZ
 40
0.0
  9
$DIMTOL
 70
     0
  9
$DIMLIM
 70
     0
  9
$DIMTIH
 70
     1
  9
$DIMTOH
 70
     1
  9
$DIMSE1
 70
     0
  9
$DIMSE2
 70
     0
  9
$DIMTAD
 70
     1
  9
$DIMZIN
 70
     0
  9
$DIMBLK
  1

  9
$DIMASO
 70
     1
  9
$DIMSHO
 70
     1
  9
$DIMPOST
  1

  9
$DIMAPOST
  1

  9
$DIMALT
 70
     0
  9
$DIMALTD
 70
     2
  9
$DIMALTF
 40
25.4
  9
$DIMLFAC
 40
1.0
  9
$DIMTOFL
 70
     0
  9
$DIMTVP
 40
0.0
  9
$DIMTIX
 70
     0
  9
$DIMSOXD
 70
     0
  9
$DIMSAH
 70
     0
  9
$DIMBLK1
  1

  9
$DIMBLK2
  1

  9
$DIMSTYLE
  2
STANDARD
  9
$DIMCLRD
 70
     0
  9
$DIMCLRE
 70
     0
  9
$DIMCLRT
 70
     0
  9
$DIMTFAC
 40
1.0
  9
$DIMGAP
 40
0.09
  9
$LUNITS
 70
     2
  9
$LUPREC
 70
     6
  9
$AXISMODE
 70
     0
  9
$AXISUNIT
 10
0.0
 20
0.0
  9
$SKETCHINC
 40
0.1
  9
$FILLETRAD
 40
0.0
  9
$AUNITS
 70
     0
  9
$AUPREC
 70
     0
  9
$MENU
  1
acad
  9
$ELEVATION
 40
0.0
  9
$PELEVATION
 40
0.0
  9
$THICKNESS
 40
0.0
  9
$LIMCHECK
 70
     0
  9
$BLIPMODE
 70
     1
  9
$CHAMFERA
 40
0.0
  9
$CHAMFERB
 40
0.0
  9
$SKPOLY
 70
     0
  9
$TDCREATE
 40
0.000000000
  9
$TDUPDATE
 40
0.000000000
  9
$TDINDWG
 40
0.0000000000
  9
$TDUSRTIMER
 40
0.0000000000
  9
$USRTIMER
 70
     1
  9
$ANGBASE
 50
0.0
  9
$ANGDIR
 70
     0
  9
$PDMODE
 70
     0
  9
$PDSIZE
 40
0.0
  9
$PLINEWID
 40
0.0
  9
$COORDS
 70
     0
  9
$SPLFRAME
 70
     0
  9
$SPLINETYPE
 70
     6
  9
$SPLINESEGS
 70
     8
  9
$ATTDIA
 70
     0
  9
$ATTREQ
 70
     1
  9
$HANDLING
 70
     1
  9
$HANDSEED
  5
6D8
  9
$SURFTAB1
 70
     6
  9
$SURFTAB2
 70
     6
  9
$SURFTYPE
 70
     6
  9
$SURFU
 70
     6
  9
$SURFV
 70
     6
  9
$UCSNAME
  2

  9
$UCSORG
 10
0.0
 20
0.0
 30
0.0
  9
$UCSXDIR
 10
1.0
 20
0.0
 30
0.0
  9
$UCSYDIR
 10
0.0
 20
1.0
 30
0.0
  9
$PUCSNAME
  2

  9
$PUCSORG
 10
0.0
 20
0.0
 30
0.0
  9
$PUCSXDIR
 10
1.0
 20
0.0
 30
0.0
  9
$PUCSYDIR
 10
0.0
 20
1.0
 30
0.0
  9
$USERI1
 70
     0
  9
$USERI2
 70
     0
  9
$USERI3
 70
     0
  9
$USERI4
 70
     0
  9
$USERI5
 70
     0
  9
$USERR1
 40
0.0
  9
$USERR2
 40
0.0
  9
$USERR3
 40
0.0
  9
$USERR4
 40
0.0
  9
$USERR5
 40
0.0
  9
$WORLDVIEW
 70
     1
  9
$SHADEDGE
 70
     3
  9
$SHADEDIF
 70
    70
  9
$TILEMODE
 70
     1
  9
$MAXACTVP
 70
    16
  9
$PINSBASE
 10
0.0
 20
0.0
 30
0.0
  9
$PLIMCHECK
 70
     0
  9
$PEXTMIN
 10
-210.0
 20
0.0
 30
0.0
  9
$PEXTMAX
 10
630.0
 20
594.0
 30
0.0
  9
$PLIMMIN
 10
-210.0
 20
0.0
  9
$PLIMMAX
 10
630.0
 20
594.0
  9
$UNITMODE
 70
     0
  9
$VISRETAIN
 70
     0
  9
$PLINEGEN
 70
     1
  9
$PSLTSCALE
 70
     0
  9
$TREEDEPTH
 70
  3020
  0
ENDSEC
  0
SECTION
  2
TABLES
  0
TABLE
  2
VPORT
 70
     1
  0
VPORT
  2
*ACTIVE
 70
     0
 10
0.0
 20
0.0
 11
1.0
 21
1.0
 12
420.0
 22
297.0
 13
0.0
 23
0.0
 14
1.0
 24
1.0
 15
0.0
 25
0.0
 16
0.0
 26
0.0
 36
1.0
 17
-210.0
 27
0.0
 37
0.0
 40
594.0
 41
1.604229
 42
50.0
 43
0.0
 44
0.0
 50
0.0
 51
0.0
 71
     0
 72
   100
 73
     1
 74
     1
 75
     0
 76
     0
 77
     0
 78
     0
  0
ENDTAB
  0
TABLE
  2
LTYPE
 70
     3
  0
LTYPE
  2
CONTINUOUS
 70
    64
  3
Solid line
 72
    65
 73
     0
 40
0.0
  0
LTYPE
  2
DASHED
 70
    64
  3
__ __ __ __ __
 72
    65
 73
     2
 40
6.25
 49
5.0
 49
-1.25
  0
LTYPE
  2
DASHDOT
 70
    64
  3
__ . __ . __ . __ . __
 72
    65
 73
     4
 40
7.5
 49
5.0
 49
-1.25
 49
0.0
 49
-1.25
  0
ENDTAB
  0
TABLE
  2
LAYER
 70
    14
  0
LAYER
  2
0
 70
     0
 62
     7
  6
CONTINUOUS
  0
LAYER
  2
LC-INFO-1-2-MM-A3-0
 70
     1
 62
   255
  6
BYBLOCK
  0
LAYER
  2
LC-3D-HIDDEN
 70
     0
 62
     9
  6
DASHED
  0
LAYER
  2
LC-CUT-HIDDEN
 70
     0
 62
     9
  6
DASHED
  0
LAYER
  2
LC-VIEWPORT
 70
     0
 62
     7
  6
BYBLOCK
  0
LAYER
  2
LC-001-002-----0
 70
     0
 62
     1
  6
BYBLOCK
  0
LAYER
  2
LC-002-002-RND-0
 70
     0
 62
     1
  6
BYBLOCK
  0
LAYER
  2
LC-003-001-RND-0
 70
     0
 62
     1
  6
BYBLOCK
  0
LAYER
  2
LC-004-001-----0
 70
     0
 62
     1
  6
BYBLOCK
  0
LAYER
  2
LC-005-005-----0
 70
     0
 62
     2
  6
BYBLOCK
  0
LAYER
  2
LC-006-103-D00-1
 70
     0
 62
     1
  6
BYBLOCK
  0
LAYER
  2
LC-007-003-MTH-0
 70
     0
 62
     2
  6
BYBLOCK
  0
LAYER
  2
LC-008-003-----0
 70
     0
 62
     2
  6
BYBLOCK
  0
LAYER
  2
LC-009-003-MTG-0
 70
     0
 62
     2
  6
BYBLOCK
  0
ENDTAB
  0
TABLE
  2
STYLE
 70
     4
  0
STYLE
  2
STANDARD
 70
     0
 40
0.0
 41
1.0
 50
0.0
 71
     0
 42
0.0
  3
txt
  4

  0
STYLE
  2
LCTX0-500-0-0-DIN-SCHRIFT
 70
    64
 40
3.5
 41
1.0
 50
0.0
 71
     0
 42
0.0
  3
MONOTXT
  4

  0
STYLE
  2
LCTX15-400-0-0-ARIAL
 70
    64
 40
3.5
 41
1.0
 50
0.0
 71
     0
 42
0.0
  3
Arial
  4

  0
STYLE
  2
LCTX15-400-0-0-DIN-SCHRIFT__P_
 70
    64
 40
0.0
 41
1.0
 50
1.5
 71
     0
 42
3.5
  3
STANDARD
  4

  0
ENDTAB
  0
TABLE
  2
VIEW
 70
     0
  0
ENDTAB
  0
TABLE
  2
UCS
 70
     0
  0
ENDTAB
  0
TABLE
  2
APPID
 70
     1
  0
APPID
  2
ACAD
 70
     0
  0
ENDTAB
  0
TABLE
  2
DIMSTYLE
 70
     2
  0
DIMSTYLE
  2
STANDARD
 70
     0
  3

  4

  5

  6

  7

 40
1.0
 41
0.18
 42
0.0625
 43
0.38
 44
0.18
 45
0.0
 46
0.0
 47
0.0
 48
0.0
 71
     0
 72
     0
 73
     1
 74
     1
 75
     0
 76
     0
 77
     0
 78
     0
140
0.18
141
0.09
142
0.0
143
25.4
144
1.0
145
0.0
146
1.0
147
0.09
170
     0
171
     2
172
     0
173
     0
174
     0
175
     0
176
     0
177
     0
178
     0
  0
DIMSTYLE
  2
LC-DIM-L-0140-02-02
 70
     0
  3

  4

  5

  6

  7

 40
2.0
 41
3.5
 42
0.0
 43
7.5
 44
1.8
 45
0.0
 46
0.0
 47
0.0
 48
0.0
 71
     0
 72
     0
 73
     0
 74
     0
 75
     0
 76
     0
 77
     1
 78
     8
140
14.0
141
0.0
142
0.0
143
25.4
144
1.0
145
0.0
146
0.71
147
1.5
170
     0
171
     2
172
     0
173
     0
174
     0
175
     0
176
     2
177
     2
178
     2
  0
ENDTAB
  0
ENDSEC
  0
SECTION
  2
BLOCKS
  0
BLOCK
  8
0
  5
BF
  2
*X0
 70
    65
 10
0.0
 20
0.0
 30
0.0
  3
*X0
  0
LINE
  8
LC-005-005-----0
 62
     2
  5
C1
 10
199.417557
 20
267.299808
 30
0.0
 11
199.472932
 21
267.355183
 31
0.0
  0
LINE
  8
LC-005-005-----0
 62
     2
  5
C2
 10
197.237161
 20
267.94784
 30
0.0
 11
199.472932
 21
270.18361
 31
0.0
  0
LINE
  8
LC-005-005-----0
 62
     2
  5
C3
 10
196.639444
 20
270.17855
 30
0.0
 11
199.472932
 21
273.012037
 31
0.0
  0
LINE
  8
LC-005-005-----0
 62
     2
  5
C4
 10
196.472932
 20
272.840464
 30
0.0
 11
199.472932
 21
275.840464
 31
0.0
  0
LINE
  8
LC-005-005-----0
 62
     2
  5
C5
 10
196.472932
 20
275.668891
 30
0.0
 11
199.472932
 21
278.668891
 31
0.0
  0
LINE
  8
LC-005-005-----0
 62
     2
  5
C6
 10
196.472932
 20
278.497318
 30
0.0
 11
199.472932
 21
281.497318
 31
0.0
  0
LINE
  8
LC-005-005-----0
 62
     2
  5
C7
 10
196.472932
 20
281.325745
 30
0.0
 11
199.472932
 21
284.325745
 31
0.0
  0
LINE
  8
LC-005-005-----0
 62
     2
  5
C8
 10
196.472932
 20
284.154173
 30
0.0
 11
199.472932
 21
287.154173
 31
0.0
  0
LINE
  8
LC-005-005-----0
 62
     2
  5
C9
 10
196.472932
 20
286.9826
 30
0.0
 11
199.472932
 21
289.9826
 31
0.0
  0
LINE
  8
LC-005-005-----0
 62
     2
  5
CA
 10
196.472932
 20
289.811027
 30
0.0
 11
199.472932
 21
292.811027
 31
0.0
  0
LINE
  8
LC-005-005-----0
 62
     2
  5
CB
 10
196.472932
 20
292.639454
 30
0.0
 11
199.472932
 21
295.639454
 31
0.0
  0
LINE
  8
LC-005-005-----0
 62
     2
  5
CC
 10
196.472932
 20
295.467881
 30
0.0
 11
199.472932
 21
298.467881
 31
0.0
  0
LINE
  8
LC-005-005-----0
 62
     2
  5
CD
 10
196.472932
 20
298.296308
 30
0.0
 11
199.209119
 21
301.032496
 31
0.0
  0
LINE
  8
LC-005-005-----0
 62
     2
  5
CE
 10
195.150892
 20
299.802696
 30
0.0
 11
197.82756
 21
302.479364
 31
0.0
  0
LINE
  8
LC-005-005-----0
 62
     2
  5
CF
 10
193.683332
 20
301.163563
 30
0.0
 11
195.506132
 21
302.986362
 31
0.0
  0
LINE
  8
LC-005-005-----0
 62
     2
  5
D0
 10
189.494038
 20
299.802696
 30
0.0
 11
194.108683
 21
304.417341
 31
0.0
  0
LINE
  8
LC-005-005-----0
 62
     2
  5
D1
 10
186.66561
 20
299.802695
 30
0.0
 11
193.935668
 21
307.072752
 31
0.0
  0
LINE
  8
LC-005-005-----0
 62
     2
  5
D2
 10
183.837183
 20
299.802695
 30
0.0
 11
186.837184
 21
302.802696
 31
0.0
  0
LINE
  8
LC-005-005-----0
 62
     2
  5
D3
 10
190.972932
 20
306.938444
 30
0.0
 11
193.911198
 21
309.87671
 31
0.0
  0
LINE
  8
LC-005-005-----0
 62
     2
  5
D4
 10
181.008755
 20
299.802694
 30
0.0
 11
184.008757
 21
302.802696
 31
0.0
  0
LINE
  8
LC-005-005-----0
 62
     2
  5
D5
 10
190.972932
 20
309.766871
 30
0.0
 11
193.886728
 21
312.680667
 31
0.0
  0
LINE
  8
LC-005-005-----0
 62
     2
  5
D6
 10
178.180327
 20
299.802694
 30
0.0
 11
181.180329
 21
302.802696
 31
0.0
  0
LINE
  8
LC-005-005-----0
 62
     2
  5
D7
 10
190.972932
 20
312.595298
 30
0.0
 11
193.862258
 21
315.484625
 31
0.0
  0
LINE
  8
LC-005-005-----0
 62
     2
  5
D8
 10
175.3519
 20
299.802693
 30
0.0
 11
178.351902
 21
302.802696
 31
0.0
  0
LINE
  8
LC-005-005-----0
 62
     2
  5
D9
 10
190.972932
 20
315.423725
 30
0.0
 11
193.837788
 21
318.288582
 31
0.0
  0
LINE
  8
LC-005-005-----0
 62
     2
  5
DA
 10
172.523472
 20
299.802693
 30
0.0
 11
175.523475
 21
302.802696
 31
0.0
  0
LINE
  8
LC-005-005-----0
 62
     2
  5
DB
 10
190.972932
 20
318.252152
 30
0.0
 11
193.813319
 21
321.092539
 31
0.0
  0
LINE
  8
LC-005-005-----0
 62
     2
  5
DC
 10
169.695044
 20
299.802692
 30
0.0
 11
172.695048
 21
302.802696
 31
0.0
  0
LINE
  8
LC-005-005-----0
 62
     2
  5
DD
 10
190.972932
 20
321.080579
 30
0.0
 11
193.788849
 21
323.896497
 31
0.0
  0
LINE
  8
LC-005-005-----0
 62
     2
  5
DE
 10
166.866617
 20
299.802692
 30
0.0
 11
169.866621
 21
302.802696
 31
0.0
  0
LINE
  8
LC-005-005-----0
 62
     2
  5
DF
 10
190.972932
 20
323.909007
 30
0.0
 11
193.764379
 21
326.700454
 31
0.0
  0
LINE
  8
LC-005-005-----0
 62
     2
  5
E0
 10
164.038189
 20
299.802691
 30
0.0
 11
167.038194
 21
302.802696
 31
0.0
  0
LINE
  8
LC-005-005-----0
 62
     2
  5
E1
 10
190.972932
 20
326.737434
 30
0.0
 11
193.739909
 21
329.504411
 31
0.0
  0
LINE
  8
LC-005-005-----0
 62
     2
  5
E2
 10
161.209762
 20
299.802691
 30
0.0
 11
164.209767
 21
302.802696
 31
0.0
  0
LINE
  8
LC-005-005-----0
 62
     2
  5
E3
 10
190.972932
 20
329.565861
 30
0.0
 11
193.71544
 21
332.308369
 31
0.0
  0
LINE
  8
LC-005-005-----0
 62
     2
  5
E4
 10
158.381404
 20
299.80276
 30
0.0
 11
161.38134
 21
302.802696
 31
0.0
  0
LINE
  8
LC-005-005-----0
 62
     2
  5
E5
 10
190.972932
 20
332.394288
 30
0.0
 11
193.69097
 21
335.112326
 31
0.0
  0
LINE
  8
LC-005-005-----0
 62
     2
  5
E6
 10
156.546472
 20
300.796256
 30
0.0
 11
158.552912
 21
302.802696
 31
0.0
  0
LINE
  8
LC-005-005-----0
 62
     2
  5
E7
 10
190.972932
 20
335.222715
 30
0.0
 11
193.6665
 21
337.916283
 31
0.0
  0
LINE
  8
LC-005-005-----0
 62
     2
  5
E8
 10
152.727058
 20
299.805269
 30
0.0
 11
155.472932
 21
302.551142
 31
0.0
  0
LINE
  8
LC-005-005-----0
 62
     2
  5
E9
 10
155.724485
 20
302.802696
 30
0.0
 11
155.948755
 21
303.026966
 31
0.0
  0
LINE
  8
LC-005-005-----0
 62
     2
  5
EA
 10
190.972932
 20
338.051142
 30
0.0
 11
193.64203
 21
340.720241
 31
0.0
  0
LINE
  8
LC-005-005-----0
 62
     2
  5
EB
 10
150.222502
 20
300.12914
 30
0.0
 11
152.89639
 21
302.803027
 31
0.0
  0
LINE
  8
LC-005-005-----0
 62
     2
  5
EC
 10
190.972932
 20
340.879569
 30
0.0
 11
193.617561
 21
343.524198
 31
0.0
  0
LINE
  8
LC-005-005-----0
 62
     2
  5
ED
 10
148.117678
 20
300.852742
 30
0.0
 11
150.433523
 21
303.168588
 31
0.0
  0
LINE
  8
LC-005-005-----0
 62
     2
  5
EE
 10
190.972932
 20
343.707996
 30
0.0
 11
193.593091
 21
346.328156
 31
0.0
  0
LINE
  8
LC-005-005-----0
 62
     2
  5
EF
 10
146.310586
 20
301.874078
 30
0.0
 11
148.455485
 21
304.018977
 31
0.0
  0
LINE
  8
LC-005-005-----0
 62
     2
  5
F0
 10
190.972932
 20
346.536424
 30
0.0
 11
193.568621
 21
349.132113
 31
0.0
  0
LINE
  8
LC-005-005-----0
 62
     2
  5
F1
 10
144.75888
 20
303.150799
 30
0.0
 11
146.832001
 21
305.22392
 31
0.0
  0
LINE
  8
LC-005-005-----0
 62
     2
  5
F2
 10
190.972932
 20
349.364851
 30
0.0
 11
193.544151
 21
351.93607
 31
0.0
  0
LINE
  8
LC-005-005-----0
 62
     2
  5
F3
 10
143.449709
 20
304.670056
 30
0.0
 11
145.527359
 21
306.747706
 31
0.0
  0
LINE
  8
LC-005-005-----0
 62
     2
  5
F4
 10
190.972932
 20
352.193278
 30
0.0
 11
193.519681
 21
354.740028
 31
0.0
  0
LINE
  8
LC-005-005-----0
 62
     2
  5
F5
 10
142.392808
 20
306.441582
 30
0.0
 11
144.559589
 21
308.608362
 31
0.0
  0
LINE
  8
LC-005-005-----0
 62
     2
  5
F6
 10
190.972932
 20
355.021705
 30
0.0
 11
193.495212
 21
357.543985
 31
0.0
  0
LINE
  8
LC-005-005-----0
 62
     2
  5
F7
 10
141.625645
 20
308.502845
 30
0.0
 11
144.019369
 21
310.89657
 31
0.0
  0
LINE
  8
LC-005-005-----0
 62
     2
  5
F8
 10
190.972932
 20
357.850132
 30
0.0
 11
193.470742
 21
360.347942
 31
0.0
  0
LINE
  8
LC-005-005-----0
 62
     2
  5
F9
 10
141.238692
 20
310.94432
 30
0.0
 11
143.973639
 21
313.679266
 31
0.0
  0
LINE
  8
LC-005-005-----0
 62
     2
  5
FA
 10
190.972932
 20
360.678559
 30
0.0
 11
193.446272
 21
363.1519
 31
0.0
  0
LINE
  8
LC-005-005-----0
 62
     2
  5
FB
 10
141.222932
 20
313.756986
 30
0.0
 11
143.973639
 21
316.507693
 31
0.0
  0
LINE
  8
LC-005-005-----0
 62
     2
  5
FC
 10
190.972932
 20
363.506986
 30
0.0
 11
193.421802
 21
365.955857
 31
0.0
  0
LINE
  8
LC-005-005-----0
 62
     2
  5
FD
 10
141.222932
 20
316.585413
 30
0.0
 11
143.973639
 21
319.33612
 31
0.0
  0
LINE
  8
LC-005-005-----0
 62
     2
  5
FE
 10
190.972932
 20
366.335413
 30
0.0
 11
193.397333
 21
368.759814
 31
0.0
  0
LINE
  8
LC-005-005-----0
 62
     2
  5
FF
 10
141.222932
 20
319.413841
 30
0.0
 11
143.973639
 21
322.164547
 31
0.0
  0
LINE
  8
LC-005-005-----0
 62
     2
  5
100
 10
190.972932
 20
369.163841
 30
0.0
 11
193.372863
 21
371.563772
 31
0.0
  0
LINE
  8
LC-005-005-----0
 62
     2
  5
101
 10
141.222932
 20
322.242268
 30
0.0
 11
143.973639
 21
324.992975
 31
0.0
  0
LINE
  8
LC-005-005-----0
 62
     2
  5
102
 10
190.972932
 20
371.992268
 30
0.0
 11
193.348393
 21
374.367729
 31
0.0
  0
LINE
  8
LC-005-005-----0
 62
     2
  5
103
 10
141.222932
 20
325.070695
 30
0.0
 11
143.973639
 21
327.821402
 31
0.0
  0
LINE
  8
LC-005-005-----0
 62
     2
  5
104
 10
190.972932
 20
374.820695
 30
0.0
 11
193.817371
 21
377.665134
 31
0.0
  0
LINE
  8
LC-005-005-----0
 62
     2
  5
105
 10
141.222932
 20
327.899122
 30
0.0
 11
143.973639
 21
330.649829
 31
0.0
  0
LINE
  8
LC-005-005-----0
 62
     2
  5
106
 10
190.972932
 20
377.649122
 30
0.0
 11
191.126506
 21
377.802696
 31
0.0
  0
LINE
  8
LC-005-005-----0
 62
     2
  5
107
 10
141.222932
 20
330.727549
 30
0.0
 11
143.973639
 21
333.478256
 31
0.0
  0
LINE
  8
LC-005-005-----0
 62
     2
  5
108
 10
141.222932
 20
333.555976
 30
0.0
 11
143.973639
 21
336.306683
 31
0.0
  0
LINE
  8
LC-005-005-----0
 62
     2
  5
109
 10
141.222932
 20
336.384403
 30
0.0
 11
143.973639
 21
339.13511
 31
0.0
  0
LINE
  8
LC-005-005-----0
 62
     2
  5
10A
 10
141.222932
 20
339.21283
 30
0.0
 11
143.973639
 21
341.963537
 31
0.0
  0
LINE
  8
LC-005-005-----0
 62
     2
  5
10B
 10
141.222932
 20
342.041258
 30
0.0
 11
143.973639
 21
344.791964
 31
0.0
  0
LINE
  8
LC-005-005-----0
 62
     2
  5
10C
 10
141.222932
 20
344.869685
 30
0.0
 11
143.973639
 21
347.620392
 31
0.0
  0
LINE
  8
LC-005-005-----0
 62
     2
  5
10D
 10
141.222932
 20
347.698112
 30
0.0
 11
143.973639
 21
350.448819
 31
0.0
  0
LINE
  8
LC-005-005-----0
 62
     2
  5
10E
 10
141.222932
 20
350.526539
 30
0.0
 11
143.973639
 21
353.277246
 31
0.0
  0
LINE
  8
LC-005-005-----0
 62
     2
  5
10F
 10
141.222932
 20
353.354966
 30
0.0
 11
143.973639
 21
356.105673
 31
0.0
  0
LINE
  8
LC-005-005-----0
 62
     2
  5
110
 10
141.222932
 20
356.183393
 30
0.0
 11
143.973639
 21
358.9341
 31
0.0
  0
LINE
  8
LC-005-005-----0
 62
     2
  5
111
 10
141.222932
 20
359.01182
 30
0.0
 11
143.973639
 21
361.762527
 31
0.0
  0
LINE
  8
LC-005-005-----0
 62
     2
  5
112
 10
141.222932
 20
361.840247
 30
0.0
 11
143.973639
 21
364.590954
 31
0.0
  0
LINE
  8
LC-005-005-----0
 62
     2
  5
113
 10
141.222932
 20
364.668675
 30
0.0
 11
143.973639
 21
367.419381
 31
0.0
  0
LINE
  8
LC-005-005-----0
 62
     2
  5
114
 10
141.222932
 20
367.497102
 30
0.0
 11
143.973639
 21
370.247809
 31
0.0
  0
LINE
  8
LC-005-005-----0
 62
     2
  5
115
 10
141.222932
 20
370.325529
 30
0.0
 11
143.973639
 21
373.076236
 31
0.0
  0
LINE
  8
LC-005-005-----0
 62
     2
  5
116
 10
141.222932
 20
373.153956
 30
0.0
 11
143.973639
 21
375.904663
 31
0.0
  0
LINE
  8
LC-005-005-----0
 62
     2
  5
117
 10
140.506729
 20
375.26618
 30
0.0
 11
143.423639
 21
378.18309
 31
0.0
  0
LINE
  8
LC-005-005-----0
 62
     2
  5
118
 10
139.341879
 20
376.929758
 30
0.0
 11
144.255492
 21
381.84337
 31
0.0
  0
LINE
  8
LC-005-005-----0
 62
     2
  5
119
 10
138.17703
 20
378.593335
 30
0.0
 11
144.423639
 21
384.839944
 31
0.0
  0
LINE
  8
LC-005-005-----0
 62
     2
  5
11A
 10
137.01218
 20
380.256913
 30
0.0
 11
143.071112
 21
386.315845
 31
0.0
  0
LINE
  8
LC-005-005-----0
 62
     2
  5
11B
 10
135.847331
 20
381.92049
 30
0.0
 11
140.379536
 21
386.452696
 31
0.0
  0
LINE
  8
LC-005-005-----0
 62
     2
  5
11C
 10
134.682481
 20
383.584068
 30
0.0
 11
137.551109
 21
386.452696
 31
0.0
  0
LINE
  8
LC-005-005-----0
 62
     2
  5
11D
 10
133.517631
 20
385.247646
 30
0.0
 11
134.869607
 21
386.599621
 31
0.0
  0
LINE
  8
LC-005-005-----0
 62
     2
  5
11E
 10
132.352782
 20
386.911223
 30
0.0
 11
134.72502
 21
389.283462
 31
0.0
  0
LINE
  8
LC-005-005-----0
 62
     2
  5
11F
 10
131.973639
 20
389.360507
 30
0.0
 11
134.72502
 21
392.111889
 31
0.0
  0
LINE
  8
LC-005-005-----0
 62
     2
  5
120
 10
131.973639
 20
392.188934
 30
0.0
 11
134.72502
 21
394.940316
 31
0.0
  0
LINE
  8
LC-005-005-----0
 62
     2
  5
121
 10
131.588668
 20
394.632391
 30
0.0
 11
134.72502
 21
397.768743
 31
0.0
  0
LINE
  8
LC-005-005-----0
 62
     2
  5
122
 10
129.582739
 20
395.454889
 30
0.0
 11
132.080546
 21
397.952696
 31
0.0
  0
LINE
  8
LC-005-005-----0
 62
     2
  5
123
 10
132.723639
 20
398.595788
 30
0.0
 11
134.72502
 21
400.59717
 31
0.0
  0
LINE
  8
LC-005-005-----0
 62
     2
  5
124
 10
127.603633
 20
396.30421
 30
0.0
 11
129.787233
 21
398.48781
 31
0.0
  0
LINE
  8
LC-005-005-----0
 62
     2
  5
125
 10
132.723639
 20
401.424215
 30
0.0
 11
134.72502
 21
403.425597
 31
0.0
  0
LINE
  8
LC-005-005-----0
 62
     2
  5
126
 10
126.705388
 20
398.234392
 30
0.0
 11
129.559308
 21
401.088312
 31
0.0
  0
LINE
  8
LC-005-005-----0
 62
     2
  5
127
 10
126.56394
 20
400.921371
 30
0.0
 11
129.418458
 21
403.775889
 31
0.0
  0
LINE
  8
LC-005-005-----0
 62
     2
  5
128
 10
126.3116
 20
403.497458
 30
0.0
 11
129.277608
 21
406.463466
 31
0.0
  0
LINE
  8
LC-005-005-----0
 62
     2
  5
129
 10
124.375045
 20
404.38933
 30
0.0
 11
127.185822
 21
407.200108
 31
0.0
  0
LINE
  8
LC-005-005-----0
 62
     2
  5
12A
 10
121.731474
 20
404.574187
 30
0.0
 11
124.542251
 21
407.384964
 31
0.0
  0
LINE
  8
LC-005-005-----0
 62
     2
  5
12B
 10
119.087904
 20
404.759043
 30
0.0
 11
121.898681
 21
407.56982
 31
0.0
  0
LINE
  8
LC-005-005-----0
 62
     2
  5
12C
 10
116.444333
 20
404.943899
 30
0.0
 11
119.25511
 21
407.754677
 31
0.0
  0
LINE
  8
LC-005-005-----0
 62
     2
  5
12D
 10
113.800762
 20
405.128756
 30
0.0
 11
116.611539
 21
407.939533
 31
0.0
  0
LINE
  8
LC-005-005-----0
 62
     2
  5
12E
 10
111.541282
 20
405.697703
 30
0.0
 11
113.967968
 21
408.124389
 31
0.0
  0
LINE
  8
LC-005-005-----0
 62
     2
  5
12F
 10
109.982762
 20
406.96761
 30
0.0
 11
112.167837
 21
409.152685
 31
0.0
  0
LINE
  8
LC-005-005-----0
 62
     2
  5
130
 10
107.202858
 20
407.016133
 30
0.0
 11
110.15184
 21
409.965115
 31
0.0
  0
LINE
  8
LC-005-005-----0
 62
     2
  5
131
 10
104.422954
 20
407.064656
 30
0.0
 11
107.371936
 21
410.013639
 31
0.0
  0
LINE
  8
LC-005-005-----0
 62
     2
  5
132
 10
101.64305
 20
407.11318
 30
0.0
 11
104.592033
 21
410.062162
 31
0.0
  0
LINE
  8
LC-005-005-----0
 62
     2
  5
133
 10
98.863147
 20
407.161703
 30
0.0
 11
101.812129
 21
410.110686
 31
0.0
  0
LINE
  8
LC-005-005-----0
 62
     2
  5
134
 10
96.083243
 20
407.210227
 30
0.0
 11
99.032225
 21
410.159209
 31
0.0
  0
LINE
  8
LC-005-005-----0
 62
     2
  5
135
 10
93.303339
 20
407.25875
 30
0.0
 11
96.252321
 21
410.207732
 31
0.0
  0
LINE
  8
LC-005-005-----0
 62
     2
  5
136
 10
90.523435
 20
407.307273
 30
0.0
 11
93.472418
 21
410.256256
 31
0.0
  0
LINE
  8
LC-005-005-----0
 62
     2
  5
137
 10
87.743532
 20
407.355797
 30
0.0
 11
90.692514
 21
410.304779
 31
0.0
  0
LINE
  8
LC-005-005-----0
 62
     2
  5
138
 10
84.963628
 20
407.40432
 30
0.0
 11
87.91261
 21
410.353303
 31
0.0
  0
LINE
  8
LC-005-005-----0
 62
     2
  5
139
 10
82.183724
 20
407.452844
 30
0.0
 11
85.132707
 21
410.401826
 31
0.0
  0
LINE
  8
LC-005-005-----0
 62
     2
  5
13A
 10
79.403821
 20
407.501367
 30
0.0
 11
82.352803
 21
410.450349
 31
0.0
  0
LINE
  8
LC-005-005-----0
 62
     2
  5
13B
 10
76.623917
 20
407.54989
 30
0.0
 11
79.572899
 21
410.498873
 31
0.0
  0
LINE
  8
LC-005-005-----0
 62
     2
  5
13C
 10
73.844013
 20
407.598414
 30
0.0
 11
76.792995
 21
410.547396
 31
0.0
  0
LINE
  8
LC-005-005-----0
 62
     2
  5
13D
 10
71.064109
 20
407.646937
 30
0.0
 11
74.013092
 21
410.59592
 31
0.0
  0
LINE
  8
LC-005-005-----0
 62
     2
  5
13E
 10
70.721189
 20
410.132444
 30
0.0
 11
71.233188
 21
410.644443
 31
0.0
  0
ENDBLK
  8
0
  5
13F
  0
BLOCK
  8
0
  5
147
  2
*X1
 70
    65
 10
0.0
 20
0.0
 30
0.0
  3
*X1
  0
LINE
  8
LC-005-005-----0
 62
     2
  5
148
 10
274.655506
 20
189.802692
 30
0.0
 11
276.472932
 21
191.620118
 31
0.0
  0
LINE
  8
LC-005-005-----0
 62
     2
  5
149
 10
272.472932
 20
190.448545
 30
0.0
 11
276.472932
 21
194.448545
 31
0.0
  0
LINE
  8
LC-005-005-----0
 62
     2
  5
14A
 10
272.472932
 20
193.276972
 30
0.0
 11
276.472932
 21
197.276972
 31
0.0
  0
LINE
  8
LC-005-005-----0
 62
     2
  5
14B
 10
272.472932
 20
196.105399
 30
0.0
 11
276.472932
 21
200.105399
 31
0.0
  0
LINE
  8
LC-005-005-----0
 62
     2
  5
14C
 10
272.472932
 20
198.933826
 30
0.0
 11
276.472932
 21
202.933826
 31
0.0
  0
LINE
  8
LC-005-005-----0
 62
     2
  5
14D
 10
272.472932
 20
201.762254
 30
0.0
 11
276.472932
 21
205.762254
 31
0.0
  0
LINE
  8
LC-005-005-----0
 62
     2
  5
14E
 10
272.472932
 20
204.590681
 30
0.0
 11
276.472932
 21
208.590681
 31
0.0
  0
LINE
  8
LC-005-005-----0
 62
     2
  5
14F
 10
272.472932
 20
207.419108
 30
0.0
 11
276.472932
 21
211.419108
 31
0.0
  0
LINE
  8
LC-005-005-----0
 62
     2
  5
150
 10
272.472932
 20
210.247535
 30
0.0
 11
276.472932
 21
214.247535
 31
0.0
  0
LINE
  8
LC-005-005-----0
 62
     2
  5
151
 10
272.472932
 20
213.075962
 30
0.0
 11
276.472932
 21
217.075962
 31
0.0
  0
LINE
  8
LC-005-005-----0
 62
     2
  5
152
 10
272.472932
 20
215.904389
 30
0.0
 11
276.472932
 21
219.904389
 31
0.0
  0
LINE
  8
LC-005-005-----0
 62
     2
  5
153
 10
272.472932
 20
218.732816
 30
0.0
 11
276.472932
 21
222.732816
 31
0.0
  0
LINE
  8
LC-005-005-----0
 62
     2
  5
154
 10
272.472932
 20
221.561243
 30
0.0
 11
276.472932
 21
225.561243
 31
0.0
  0
LINE
  8
LC-005-005-----0
 62
     2
  5
155
 10
272.472932
 20
224.389671
 30
0.0
 11
276.472932
 21
228.389671
 31
0.0
  0
LINE
  8
LC-005-005-----0
 62
     2
  5
156
 10
272.472932
 20
227.218098
 30
0.0
 11
276.472932
 21
231.218098
 31
0.0
  0
LINE
  8
LC-005-005-----0
 62
     2
  5
157
 10
272.472932
 20
230.046525
 30
0.0
 11
276.472932
 21
234.046525
 31
0.0
  0
LINE
  8
LC-005-005-----0
 62
     2
  5
158
 10
272.472932
 20
232.874952
 30
0.0
 11
276.472932
 21
236.874952
 31
0.0
  0
LINE
  8
LC-005-005-----0
 62
     2
  5
159
 10
272.472932
 20
235.703379
 30
0.0
 11
276.472932
 21
239.703379
 31
0.0
  0
LINE
  8
LC-005-005-----0
 62
     2
  5
15A
 10
272.472932
 20
238.531806
 30
0.0
 11
276.472932
 21
242.531806
 31
0.0
  0
LINE
  8
LC-005-005-----0
 62
     2
  5
15B
 10
272.472932
 20
241.360233
 30
0.0
 11
276.472932
 21
245.360233
 31
0.0
  0
LINE
  8
LC-005-005-----0
 62
     2
  5
15C
 10
272.472932
 20
244.18866
 30
0.0
 11
276.472932
 21
248.18866
 31
0.0
  0
LINE
  8
LC-005-005-----0
 62
     2
  5
15D
 10
272.472932
 20
247.017088
 30
0.0
 11
276.472932
 21
251.017088
 31
0.0
  0
LINE
  8
LC-005-005-----0
 62
     2
  5
15E
 10
272.472932
 20
249.845515
 30
0.0
 11
276.472932
 21
253.845515
 31
0.0
  0
LINE
  8
LC-005-005-----0
 62
     2
  5
15F
 10
272.472932
 20
252.673942
 30
0.0
 11
276.472932
 21
256.673942
 31
0.0
  0
LINE
  8
LC-005-005-----0
 62
     2
  5
160
 10
272.472932
 20
255.502369
 30
0.0
 11
276.472932
 21
259.502369
 31
0.0
  0
LINE
  8
LC-005-005-----0
 62
     2
  5
161
 10
272.472932
 20
258.330796
 30
0.0
 11
276.472932
 21
262.330796
 31
0.0
  0
LINE
  8
LC-005-005-----0
 62
     2
  5
162
 10
272.472932
 20
261.159223
 30
0.0
 11
276.472932
 21
265.159223
 31
0.0
  0
LINE
  8
LC-005-005-----0
 62
     2
  5
163
 10
272.472932
 20
263.98765
 30
0.0
 11
276.472932
 21
267.98765
 31
0.0
  0
LINE
  8
LC-005-005-----0
 62
     2
  5
164
 10
272.472932
 20
266.816077
 30
0.0
 11
276.472932
 21
270.816077
 31
0.0
  0
LINE
  8
LC-005-005-----0
 62
     2
  5
165
 10
272.472932
 20
269.644505
 30
0.0
 11
276.472932
 21
273.644505
 31
0.0
  0
LINE
  8
LC-005-005-----0
 62
     2
  5
166
 10
272.472932
 20
272.472932
 30
0.0
 11
276.472932
 21
276.472932
 31
0.0
  0
LINE
  8
LC-005-005-----0
 62
     2
  5
167
 10
272.472932
 20
275.301359
 30
0.0
 11
276.472932
 21
279.301359
 31
0.0
  0
LINE
  8
LC-005-005-----0
 62
     2
  5
168
 10
272.472932
 20
278.129786
 30
0.0
 11
276.472932
 21
282.129786
 31
0.0
  0
LINE
  8
LC-005-005-----0
 62
     2
  5
169
 10
272.472932
 20
280.958213
 30
0.0
 11
276.472932
 21
284.958213
 31
0.0
  0
LINE
  8
LC-005-005-----0
 62
     2
  5
16A
 10
272.472932
 20
283.78664
 30
0.0
 11
276.472932
 21
287.78664
 31
0.0
  0
LINE
  8
LC-005-005-----0
 62
     2
  5
16B
 10
272.472932
 20
286.615067
 30
0.0
 11
276.472932
 21
290.615067
 31
0.0
  0
LINE
  8
LC-005-005-----0
 62
     2
  5
16C
 10
272.472932
 20
289.443494
 30
0.0
 11
276.472932
 21
293.443494
 31
0.0
  0
LINE
  8
LC-005-005-----0
 62
     2
  5
16D
 10
170.003702
 20
189.802692
 30
0.0
 11
170.472932
 21
190.271922
 31
0.0
  0
LINE
  8
LC-005-005-----0
 62
     2
  5
16E
 10
272.472932
 20
292.271922
 30
0.0
 11
276.472932
 21
296.271922
 31
0.0
  0
LINE
  8
LC-005-005-----0
 62
     2
  5
16F
 10
167.175275
 20
189.802692
 30
0.0
 11
170.472932
 21
193.100349
 31
0.0
  0
LINE
  8
LC-005-005-----0
 62
     2
  5
170
 10
272.472932
 20
295.100349
 30
0.0
 11
276.472932
 21
299.100349
 31
0.0
  0
LINE
  8
LC-005-005-----0
 62
     2
  5
171
 10
166.472932
 20
191.928776
 30
0.0
 11
170.472932
 21
195.928776
 31
0.0
  0
LINE
  8
LC-005-005-----0
 62
     2
  5
172
 10
272.472932
 20
297.928776
 30
0.0
 11
274.380967
 21
299.836811
 31
0.0
  0
LINE
  8
LC-005-005-----0
 62
     2
  5
173
 10
166.472932
 20
194.757203
 30
0.0
 11
170.472932
 21
198.757203
 31
0.0
  0
LINE
  8
LC-005-005-----0
 62
     2
  5
174
 10
166.472932
 20
197.58563
 30
0.0
 11
170.472932
 21
201.58563
 31
0.0
  0
LINE
  8
LC-005-005-----0
 62
     2
  5
175
 10
166.472932
 20
200.414057
 30
0.0
 11
170.472932
 21
204.414057
 31
0.0
  0
LINE
  8
LC-005-005-----0
 62
     2
  5
176
 10
166.472932
 20
203.242484
 30
0.0
 11
170.472932
 21
207.242484
 31
0.0
  0
LINE
  8
LC-005-005-----0
 62
     2
  5
177
 10
166.472932
 20
206.070911
 30
0.0
 11
170.472932
 21
210.070911
 31
0.0
  0
LINE
  8
LC-005-005-----0
 62
     2
  5
178
 10
166.472932
 20
208.899339
 30
0.0
 11
170.472932
 21
212.899339
 31
0.0
  0
LINE
  8
LC-005-005-----0
 62
     2
  5
179
 10
166.472932
 20
211.727766
 30
0.0
 11
170.472932
 21
215.727766
 31
0.0
  0
LINE
  8
LC-005-005-----0
 62
     2
  5
17A
 10
166.472932
 20
214.556193
 30
0.0
 11
170.472932
 21
218.556193
 31
0.0
  0
LINE
  8
LC-005-005-----0
 62
     2
  5
17B
 10
166.472932
 20
217.38462
 30
0.0
 11
170.472932
 21
221.38462
 31
0.0
  0
LINE
  8
LC-005-005-----0
 62
     2
  5
17C
 10
166.472932
 20
220.213047
 30
0.0
 11
170.472932
 21
224.213047
 31
0.0
  0
LINE
  8
LC-005-005-----0
 62
     2
  5
17D
 10
166.472932
 20
223.041474
 30
0.0
 11
170.472932
 21
227.041474
 31
0.0
  0
LINE
  8
LC-005-005-----0
 62
     2
  5
17E
 10
166.472932
 20
225.869901
 30
0.0
 11
170.472932
 21
229.869901
 31
0.0
  0
LINE
  8
LC-005-005-----0
 62
     2
  5
17F
 10
166.472932
 20
228.698328
 30
0.0
 11
170.472932
 21
232.698328
 31
0.0
  0
LINE
  8
LC-005-005-----0
 62
     2
  5
180
 10
166.472932
 20
231.526756
 30
0.0
 11
170.472932
 21
235.526756
 31
0.0
  0
LINE
  8
LC-005-005-----0
 62
     2
  5
181
 10
166.472932
 20
234.355183
 30
0.0
 11
170.472932
 21
238.355183
 31
0.0
  0
LINE
  8
LC-005-005-----0
 62
     2
  5
182
 10
166.472932
 20
237.18361
 30
0.0
 11
170.472932
 21
241.18361
 31
0.0
  0
LINE
  8
LC-005-005-----0
 62
     2
  5
183
 10
166.472932
 20
240.012037
 30
0.0
 11
170.472932
 21
244.012037
 31
0.0
  0
LINE
  8
LC-005-005-----0
 62
     2
  5
184
 10
166.472932
 20
242.840464
 30
0.0
 11
170.472932
 21
246.840464
 31
0.0
  0
LINE
  8
LC-005-005-----0
 62
     2
  5
185
 10
166.472932
 20
245.668891
 30
0.0
 11
170.472932
 21
249.668891
 31
0.0
  0
LINE
  8
LC-005-005-----0
 62
     2
  5
186
 10
166.472932
 20
248.497318
 30
0.0
 11
170.472932
 21
252.497318
 31
0.0
  0
LINE
  8
LC-005-005-----0
 62
     2
  5
187
 10
166.472932
 20
251.325745
 30
0.0
 11
170.472932
 21
255.325745
 31
0.0
  0
LINE
  8
LC-005-005-----0
 62
     2
  5
188
 10
166.472932
 20
254.154173
 30
0.0
 11
170.472932
 21
258.154173
 31
0.0
  0
LINE
  8
LC-005-005-----0
 62
     2
  5
189
 10
166.472932
 20
256.9826
 30
0.0
 11
170.472932
 21
260.9826
 31
0.0
  0
LINE
  8
LC-005-005-----0
 62
     2
  5
18A
 10
166.472932
 20
259.811027
 30
0.0
 11
170.472932
 21
263.811027
 31
0.0
  0
LINE
  8
LC-005-005-----0
 62
     2
  5
18B
 10
166.472932
 20
262.639454
 30
0.0
 11
170.472932
 21
266.639454
 31
0.0
  0
LINE
  8
LC-005-005-----0
 62
     2
  5
18C
 10
166.472932
 20
265.467881
 30
0.0
 11
170.472932
 21
269.467881
 31
0.0
  0
LINE
  8
LC-005-005-----0
 62
     2
  5
18D
 10
166.472932
 20
268.296308
 30
0.0
 11
170.472932
 21
272.296308
 31
0.0
  0
LINE
  8
LC-005-005-----0
 62
     2
  5
18E
 10
166.472932
 20
271.124735
 30
0.0
 11
170.472932
 21
275.124735
 31
0.0
  0
LINE
  8
LC-005-005-----0
 62
     2
  5
18F
 10
166.472932
 20
273.953162
 30
0.0
 11
170.472932
 21
277.953162
 31
0.0
  0
LINE
  8
LC-005-005-----0
 62
     2
  5
190
 10
166.472932
 20
276.78159
 30
0.0
 11
170.472932
 21
280.78159
 31
0.0
  0
LINE
  8
LC-005-005-----0
 62
     2
  5
191
 10
166.472932
 20
279.610017
 30
0.0
 11
170.472932
 21
283.610017
 31
0.0
  0
LINE
  8
LC-005-005-----0
 62
     2
  5
192
 10
166.472932
 20
282.438444
 30
0.0
 11
170.472932
 21
286.438444
 31
0.0
  0
LINE
  8
LC-005-005-----0
 62
     2
  5
193
 10
166.472932
 20
285.266871
 30
0.0
 11
170.472932
 21
289.266871
 31
0.0
  0
LINE
  8
LC-005-005-----0
 62
     2
  5
194
 10
166.472932
 20
288.095298
 30
0.0
 11
170.472932
 21
292.095298
 31
0.0
  0
LINE
  8
LC-005-005-----0
 62
     2
  5
195
 10
166.472932
 20
290.923725
 30
0.0
 11
170.472932
 21
294.923725
 31
0.0
  0
LINE
  8
LC-005-005-----0
 62
     2
  5
196
 10
166.472932
 20
293.752152
 30
0.0
 11
170.472932
 21
297.752152
 31
0.0
  0
LINE
  8
LC-005-005-----0
 62
     2
  5
197
 10
166.472932
 20
296.580579
 30
0.0
 11
169.729163
 21
299.836811
 31
0.0
  0
LINE
  8
LC-005-005-----0
 62
     2
  5
198
 10
166.472932
 20
299.409007
 30
0.0
 11
166.900736
 21
299.836811
 31
0.0
  0
ENDBLK
  8
0
  5
199
  0
BLOCK
  8
0
  5
1BC
  2
*X2
 70
    65
 10
0.0
 20
0.0
 30
0.0
  3
*X2
  0
LINE
  8
LC-005-005-----0
 62
     2
  5
1BD
 10
261.94212
 20
329.824371
 30
0.0
 11
262.94196
 21
330.824211
 31
0.0
  0
LINE
  8
LC-005-005-----0
 62
     2
  5
1BE
 10
261.942114
 20
332.652792
 30
0.0
 11
262.941961
 21
333.65264
 31
0.0
  0
LINE
  8
LC-005-005-----0
 62
     2
  5
1BF
 10
261.942108
 20
335.481213
 30
0.0
 11
262.941963
 21
336.481069
 31
0.0
  0
LINE
  8
LC-005-005-----0
 62
     2
  5
1C0
 10
261.942102
 20
338.309634
 30
0.0
 11
262.941965
 21
339.309497
 31
0.0
  0
LINE
  8
LC-005-005-----0
 62
     2
  5
1C1
 10
261.942096
 20
341.138056
 30
0.0
 11
262.941967
 21
342.137926
 31
0.0
  0
LINE
  8
LC-005-005-----0
 62
     2
  5
1C2
 10
261.94209
 20
343.966477
 30
0.0
 11
262.941969
 21
344.966355
 31
0.0
  0
LINE
  8
LC-005-005-----0
 62
     2
  5
1C3
 10
261.942084
 20
346.794898
 30
0.0
 11
262.941971
 21
347.794784
 31
0.0
  0
LINE
  8
LC-005-005-----0
 62
     2
  5
1C4
 10
261.942079
 20
349.623319
 30
0.0
 11
262.941973
 21
350.623213
 31
0.0
  0
LINE
  8
LC-005-005-----0
 62
     2
  5
1C5
 10
261.942073
 20
352.451741
 30
0.0
 11
262.941974
 21
353.451642
 31
0.0
  0
LINE
  8
LC-005-005-----0
 62
     2
  5
1C6
 10
261.942067
 20
355.280162
 30
0.0
 11
262.941976
 21
356.280071
 31
0.0
  0
LINE
  8
LC-005-005-----0
 62
     2
  5
1C7
 10
261.942061
 20
358.108583
 30
0.0
 11
262.941978
 21
359.1085
 31
0.0
  0
LINE
  8
LC-005-005-----0
 62
     2
  5
1C8
 10
261.942055
 20
360.937004
 30
0.0
 11
262.94198
 21
361.936929
 31
0.0
  0
LINE
  8
LC-005-005-----0
 62
     2
  5
1C9
 10
261.942049
 20
363.765426
 30
0.0
 11
262.941982
 21
364.765358
 31
0.0
  0
LINE
  8
LC-005-005-----0
 62
     2
  5
1CA
 10
261.942043
 20
366.593847
 30
0.0
 11
262.941984
 21
367.593787
 31
0.0
  0
LINE
  8
LC-005-005-----0
 62
     2
  5
1CB
 10
261.942038
 20
369.422268
 30
0.0
 11
262.941985
 21
370.422216
 31
0.0
  0
LINE
  8
LC-005-005-----0
 62
     2
  5
1CC
 10
261.942032
 20
372.25069
 30
0.0
 11
262.941987
 21
373.250645
 31
0.0
  0
LINE
  8
LC-005-005-----0
 62
     2
  5
1CD
 10
261.942026
 20
375.079111
 30
0.0
 11
262.941989
 21
376.079074
 31
0.0
  0
LINE
  8
LC-005-005-----0
 62
     2
  5
1CE
 10
261.94202
 20
377.907532
 30
0.0
 11
262.941991
 21
378.907503
 31
0.0
  0
LINE
  8
LC-005-005-----0
 62
     2
  5
1CF
 10
261.942014
 20
380.735953
 30
0.0
 11
262.941993
 21
381.735932
 31
0.0
  0
LINE
  8
LC-005-005-----0
 62
     2
  5
1D0
 10
261.942008
 20
383.564375
 30
0.0
 11
262.941995
 21
384.564361
 31
0.0
  0
LINE
  8
LC-005-005-----0
 62
     2
  5
1D1
 10
261.942002
 20
386.392796
 30
0.0
 11
262.941997
 21
387.39279
 31
0.0
  0
LINE
  8
LC-005-005-----0
 62
     2
  5
1D2
 10
261.903239
 20
389.18246
 30
0.0
 11
262.808516
 21
390.087737
 31
0.0
  0
LINE
  8
LC-005-005-----0
 62
     2
  5
1D3
 10
261.410872
 20
391.51852
 30
0.0
 11
262.239834
 21
392.347482
 31
0.0
  0
LINE
  8
LC-005-005-----0
 62
     2
  5
1D4
 10
260.514985
 20
393.45106
 30
0.0
 11
261.346178
 21
394.282253
 31
0.0
  0
LINE
  8
LC-005-005-----0
 62
     2
  5
1D5
 10
259.30496
 20
395.069462
 30
0.0
 11
260.187838
 21
395.95234
 31
0.0
  0
LINE
  8
LC-005-005-----0
 62
     2
  5
1D6
 10
257.808409
 20
396.401338
 30
0.0
 11
258.788858
 21
397.381787
 31
0.0
  0
LINE
  8
LC-005-005-----0
 62
     2
  5
1D7
 10
256.014623
 20
397.435979
 30
0.0
 11
257.150572
 21
398.571928
 31
0.0
  0
LINE
  8
LC-005-005-----0
 62
     2
  5
1D8
 10
253.866208
 20
398.115992
 30
0.0
 11
255.252263
 21
399.502046
 31
0.0
  0
LINE
  8
LC-005-005-----0
 62
     2
  5
1D9
 10
222.724485
 20
369.802696
 30
0.0
 11
222.877491
 21
369.955701
 31
0.0
  0
LINE
  8
LC-005-005-----0
 62
     2
  5
1DA
 10
251.224657
 20
398.302867
 30
0.0
 11
253.039858
 21
400.118069
 31
0.0
  0
LINE
  8
LC-005-005-----0
 62
     2
  5
1DB
 10
179.941954
 20
329.848591
 30
0.0
 11
180.941951
 21
330.848588
 31
0.0
  0
LINE
  8
LC-005-005-----0
 62
     2
  5
1DC
 10
219.896058
 20
369.802696
 30
0.0
 11
222.878256
 21
372.784894
 31
0.0
  0
LINE
  8
LC-005-005-----0
 62
     2
  5
1DD
 10
248.396229
 20
398.302867
 30
0.0
 11
250.39623
 21
400.302867
 31
0.0
  0
LINE
  8
LC-005-005-----0
 62
     2
  5
1DE
 10
179.941946
 20
332.67701
 30
0.0
 11
180.941943
 21
333.677007
 31
0.0
  0
LINE
  8
LC-005-005-----0
 62
     2
  5
1DF
 10
217.067631
 20
369.802696
 30
0.0
 11
222.879022
 21
375.614087
 31
0.0
  0
LINE
  8
LC-005-005-----0
 62
     2
  5
1E0
 10
245.567802
 20
398.302867
 30
0.0
 11
247.567805
 21
400.302869
 31
0.0
  0
LINE
  8
LC-005-005-----0
 62
     2
  5
1E1
 10
179.941938
 20
335.505429
 30
0.0
 11
180.941935
 21
336.505427
 31
0.0
  0
LINE
  8
LC-005-005-----0
 62
     2
  5
1E2
 10
214.239204
 20
369.802696
 30
0.0
 11
222.879788
 21
378.44328
 31
0.0
  0
LINE
  8
LC-005-005-----0
 62
     2
  5
1E3
 10
242.739375
 20
398.302867
 30
0.0
 11
244.73938
 21
400.302871
 31
0.0
  0
LINE
  8
LC-005-005-----0
 62
     2
  5
1E4
 10
179.94193
 20
338.333848
 30
0.0
 11
180.941927
 21
339.333846
 31
0.0
  0
LINE
  8
LC-005-005-----0
 62
     2
  5
1E5
 10
211.410777
 20
369.802696
 30
0.0
 11
222.880554
 21
381.272473
 31
0.0
  0
LINE
  8
LC-005-005-----0
 62
     2
  5
1E6
 10
239.910948
 20
398.302867
 30
0.0
 11
241.910954
 21
400.302873
 31
0.0
  0
LINE
  8
LC-005-005-----0
 62
     2
  5
1E7
 10
179.941921
 20
341.162268
 30
0.0
 11
180.941919
 21
342.162265
 31
0.0
  0
LINE
  8
LC-005-005-----0
 62
     2
  5
1E8
 10
208.58235
 20
369.802696
 30
0.0
 11
222.88132
 21
384.101666
 31
0.0
  0
LINE
  8
LC-005-005-----0
 62
     2
  5
1E9
 10
237.082521
 20
398.302867
 30
0.0
 11
239.082529
 21
400.302875
 31
0.0
  0
LINE
  8
LC-005-005-----0
 62
     2
  5
1EA
 10
179.941913
 20
343.990687
 30
0.0
 11
180.941911
 21
344.990684
 31
0.0
  0
LINE
  8
LC-005-005-----0
 62
     2
  5
1EB
 10
205.753923
 20
369.802696
 30
0.0
 11
222.882085
 21
386.930859
 31
0.0
  0
LINE
  8
LC-005-005-----0
 62
     2
  5
1EC
 10
234.254094
 20
398.302867
 30
0.0
 11
236.254104
 21
400.302877
 31
0.0
  0
LINE
  8
LC-005-005-----0
 62
     2
  5
1ED
 10
179.941905
 20
346.819106
 30
0.0
 11
180.941903
 21
347.819103
 31
0.0
  0
LINE
  8
LC-005-005-----0
 62
     2
  5
1EE
 10
202.925495
 20
369.802696
 30
0.0
 11
222.882851
 21
389.760052
 31
0.0
  0
LINE
  8
LC-005-005-----0
 62
     2
  5
1EF
 10
231.425667
 20
398.302867
 30
0.0
 11
235.161631
 21
402.038831
 31
0.0
  0
LINE
  8
LC-005-005-----0
 62
     2
  5
1F0
 10
179.941897
 20
349.647525
 30
0.0
 11
180.941895
 21
350.647522
 31
0.0
  0
LINE
  8
LC-005-005-----0
 62
     2
  5
1F1
 10
200.097068
 20
369.802696
 30
0.0
 11
222.883617
 21
392.589244
 31
0.0
  0
LINE
  8
LC-005-005-----0
 62
     2
  5
1F2
 10
228.59724
 20
398.302867
 30
0.0
 11
230.597254
 21
400.302881
 31
0.0
  0
LINE
  8
LC-005-005-----0
 62
     2
  5
1F3
 10
231.191786
 20
400.897414
 30
0.0
 11
234.656001
 21
404.361629
 31
0.0
  0
LINE
  8
LC-005-005-----0
 62
     2
  5
1F4
 10
179.941889
 20
352.475944
 30
0.0
 11
180.941887
 21
353.475941
 31
0.0
  0
LINE
  8
LC-005-005-----0
 62
     2
  5
1F5
 10
197.268641
 20
369.802696
 30
0.0
 11
222.884383
 21
395.418437
 31
0.0
  0
LINE
  8
LC-005-005-----0
 62
     2
  5
1F6
 10
225.768813
 20
398.302867
 30
0.0
 11
227.768829
 21
400.302883
 31
0.0
  0
LINE
  8
LC-005-005-----0
 62
     2
  5
1F7
 10
230.772623
 20
403.306677
 30
0.0
 11
233.712385
 21
406.24644
 31
0.0
  0
LINE
  8
LC-005-005-----0
 62
     2
  5
1F8
 10
179.941881
 20
355.304363
 30
0.0
 11
180.941879
 21
356.30436
 31
0.0
  0
LINE
  8
LC-005-005-----0
 62
     2
  5
1F9
 10
194.583505
 20
369.945987
 30
0.0
 11
222.885149
 21
398.24763
 31
0.0
  0
LINE
  8
LC-005-005-----0
 62
     2
  5
1FA
 10
222.940385
 20
398.302867
 30
0.0
 11
224.940404
 21
400.302885
 31
0.0
  0
LINE
  8
LC-005-005-----0
 62
     2
  5
1FB
 10
229.599296
 20
404.961778
 30
0.0
 11
232.428718
 21
407.7912
 31
0.0
  0
LINE
  8
LC-005-005-----0
 62
     2
  5
1FC
 10
179.941873
 20
358.132782
 30
0.0
 11
180.941871
 21
359.132779
 31
0.0
  0
LINE
  8
LC-005-005-----0
 62
     2
  5
1FD
 10
193.985788
 20
372.176697
 30
0.0
 11
222.111979
 21
400.302887
 31
0.0
  0
LINE
  8
LC-005-005-----0
 62
     2
  5
1FE
 10
227.834302
 20
406.025211
 30
0.0
 11
230.826607
 21
409.017516
 31
0.0
  0
LINE
  8
LC-005-005-----0
 62
     2
  5
1FF
 10
179.941865
 20
360.961201
 30
0.0
 11
180.941863
 21
361.961199
 31
0.0
  0
LINE
  8
LC-005-005-----0
 62
     2
  5
200
 10
193.684077
 20
374.703413
 30
0.0
 11
219.28336
 21
400.302696
 31
0.0
  0
LINE
  8
LC-005-005-----0
 62
     2
  5
201
 10
225.28336
 20
406.302696
 30
0.0
 11
228.874294
 21
409.89363
 31
0.0
  0
LINE
  8
LC-005-005-----0
 62
     2
  5
202
 10
179.941857
 20
363.789621
 30
0.0
 11
180.941855
 21
364.789618
 31
0.0
  0
LINE
  8
LC-005-005-----0
 62
     2
  5
203
 10
193.86304
 20
377.710803
 30
0.0
 11
216.454933
 21
400.302696
 31
0.0
  0
LINE
  8
LC-005-005-----0
 62
     2
  5
204
 10
222.454933
 20
406.302696
 30
0.0
 11
226.451194
 21
410.298957
 31
0.0
  0
LINE
  8
LC-005-005-----0
 62
     2
  5
205
 10
179.941849
 20
366.61804
 30
0.0
 11
180.941847
 21
367.618037
 31
0.0
  0
LINE
  8
LC-005-005-----0
 62
     2
  5
206
 10
191.126506
 20
377.802696
 30
0.0
 11
213.626506
 21
400.302696
 31
0.0
  0
LINE
  8
LC-005-005-----0
 62
     2
  5
207
 10
219.626506
 20
406.302696
 30
0.0
 11
223.626506
 21
410.302696
 31
0.0
  0
LINE
  8
LC-005-005-----0
 62
     2
  5
208
 10
179.941841
 20
369.446459
 30
0.0
 11
180.941839
 21
370.446456
 31
0.0
  0
LINE
  8
LC-005-005-----0
 62
     2
  5
209
 10
190.184584
 20
379.689202
 30
0.0
 11
211.691789
 21
401.196407
 31
0.0
  0
LINE
  8
LC-005-005-----0
 62
     2
  5
20A
 10
216.798078
 20
406.302696
 30
0.0
 11
220.798078
 21
410.302696
 31
0.0
  0
LINE
  8
LC-005-005-----0
 62
     2
  5
20B
 10
179.941833
 20
372.274878
 30
0.0
 11
180.941831
 21
373.274875
 31
0.0
  0
LINE
  8
LC-005-005-----0
 62
     2
  5
20C
 10
190.18535
 20
382.518394
 30
0.0
 11
217.969651
 21
410.302696
 31
0.0
  0
LINE
  8
LC-005-005-----0
 62
     2
  5
20D
 10
179.941825
 20
375.103297
 30
0.0
 11
180.941823
 21
376.103294
 31
0.0
  0
LINE
  8
LC-005-005-----0
 62
     2
  5
20E
 10
190.186116
 20
385.347587
 30
0.0
 11
205.141224
 21
400.302696
 31
0.0
  0
LINE
  8
LC-005-005-----0
 62
     2
  5
20F
 10
207.856817
 20
403.018288
 30
0.0
 11
214.976197
 21
410.137668
 31
0.0
  0
LINE
  8
LC-005-005-----0
 62
     2
  5
210
 10
179.941817
 20
377.931716
 30
0.0
 11
180.941814
 21
378.931713
 31
0.0
  0
LINE
  8
LC-005-005-----0
 62
     2
  5
211
 10
190.186882
 20
388.17678
 30
0.0
 11
202.312797
 21
400.302696
 31
0.0
  0
LINE
  8
LC-005-005-----0
 62
     2
  5
212
 10
179.941809
 20
380.760135
 30
0.0
 11
180.941806
 21
381.760132
 31
0.0
  0
LINE
  8
LC-005-005-----0
 62
     2
  5
213
 10
190.187647
 20
391.005973
 30
0.0
 11
199.48437
 21
400.302696
 31
0.0
  0
LINE
  8
LC-005-005-----0
 62
     2
  5
214
 10
179.941801
 20
383.588554
 30
0.0
 11
180.941798
 21
384.588551
 31
0.0
  0
LINE
  8
LC-005-005-----0
 62
     2
  5
215
 10
190.188413
 20
393.835166
 30
0.0
 11
196.655943
 21
400.302696
 31
0.0
  0
LINE
  8
LC-005-005-----0
 62
     2
  5
216
 10
179.941793
 20
386.416973
 30
0.0
 11
180.94179
 21
387.416971
 31
0.0
  0
LINE
  8
LC-005-005-----0
 62
     2
  5
217
 10
190.189179
 20
396.664359
 30
0.0
 11
193.827516
 21
400.302696
 31
0.0
  0
LINE
  8
LC-005-005-----0
 62
     2
  5
218
 10
179.98212
 20
389.285728
 30
0.0
 11
181.183225
 21
390.486832
 31
0.0
  0
LINE
  8
LC-005-005-----0
 62
     2
  5
219
 10
188.757651
 20
398.061259
 30
0.0
 11
190.958756
 21
400.262363
 31
0.0
  0
LINE
  8
LC-005-005-----0
 62
     2
  5
21A
 10
180.922873
 20
393.054907
 30
0.0
 11
187.189576
 21
399.321611
 31
0.0
  0
ENDBLK
  8
0
  5
21B
  0
BLOCK
  8
0
  5
231
  2
*X3
 70
    65
 10
0.0
 20
0.0
 30
0.0
  3
*X3
  0
LINE
  8
LC-005-005-----0
 62
     2
  5
232
 10
271.827079
 20
189.802692
 30
0.0
 11
272.472932
 21
190.448545
 31
0.0
  0
LINE
  8
LC-005-005-----0
 62
     2
  5
233
 10
271.472932
 20
192.276972
 30
0.0
 11
272.472932
 21
193.276972
 31
0.0
  0
LINE
  8
LC-005-005-----0
 62
     2
  5
234
 10
271.472932
 20
195.105399
 30
0.0
 11
272.472932
 21
196.105399
 31
0.0
  0
LINE
  8
LC-005-005-----0
 62
     2
  5
235
 10
271.472932
 20
197.933826
 30
0.0
 11
272.472932
 21
198.933826
 31
0.0
  0
LINE
  8
LC-005-005-----0
 62
     2
  5
236
 10
271.472932
 20
200.762254
 30
0.0
 11
272.472932
 21
201.762254
 31
0.0
  0
LINE
  8
LC-005-005-----0
 62
     2
  5
237
 10
271.472932
 20
203.590681
 30
0.0
 11
272.472932
 21
204.590681
 31
0.0
  0
LINE
  8
LC-005-005-----0
 62
     2
  5
238
 10
271.472932
 20
206.419108
 30
0.0
 11
272.472932
 21
207.419108
 31
0.0
  0
LINE
  8
LC-005-005-----0
 62
     2
  5
239
 10
271.472932
 20
209.247535
 30
0.0
 11
272.028089
 21
209.802692
 31
0.0
  0
LINE
  8
LC-005-005-----0
 62
     2
  5
23A
 10
170.472932
 20
190.271922
 30
0.0
 11
171.472932
 21
191.271922
 31
0.0
  0
LINE
  8
LC-005-005-----0
 62
     2
  5
23B
 10
170.472932
 20
193.100349
 30
0.0
 11
171.472932
 21
194.100349
 31
0.0
  0
LINE
  8
LC-005-005-----0
 62
     2
  5
23C
 10
170.472932
 20
195.928776
 30
0.0
 11
171.472932
 21
196.928776
 31
0.0
  0
LINE
  8
LC-005-005-----0
 62
     2
  5
23D
 10
170.472932
 20
198.757203
 30
0.0
 11
171.472932
 21
199.757203
 31
0.0
  0
LINE
  8
LC-005-005-----0
 62
     2
  5
23E
 10
170.472932
 20
201.58563
 30
0.0
 11
171.472932
 21
202.58563
 31
0.0
  0
LINE
  8
LC-005-005-----0
 62
     2
  5
23F
 10
170.472932
 20
204.414057
 30
0.0
 11
171.472932
 21
205.414057
 31
0.0
  0
LINE
  8
LC-005-005-----0
 62
     2
  5
240
 10
170.472932
 20
207.242484
 30
0.0
 11
171.472932
 21
208.242484
 31
0.0
  0
ENDBLK
  8
0
  5
241
  0
BLOCK
  8
0
  5
246
  2
*D4
 70
    65
 10
0.0
 20
0.0
 30
0.0
  3
*D4
  0
LINE
  8
LC-007-003-MTH-0
 62
     2
  5
248
 10
166.472932
 20
189.802692
 30
0.0
 11
166.472932
 21
157.836
 31
0.0
  0
LINE
  8
LC-007-003-MTH-0
 62
     2
  5
249
 10
276.472932
 20
189.802692
 30
0.0
 11
276.472932
 21
157.836
 31
0.0
  0
LINE
  8
LC-008-003-----0
 62
     2
  5
24B
 10
138.712476
 20
170.981267
 30
0.0
 11
166.472932
 21
174.636
 31
0.0
  0
LINE
  8
LC-008-003-----0
 62
     2
  5
24C
 10
166.472932
 20
174.636
 30
0.0
 11
138.712476
 21
178.290733
 31
0.0
  0
LINE
  8
LC-008-003-----0
 62
     2
  5
24D
 10
138.712476
 20
178.290733
 30
0.0
 11
138.712476
 21
170.981267
 31
0.0
  0
LINE
  8
LC-008-003-----0
 62
     2
  5
24E
 10
138.650194
 20
171.931497
 30
0.0
 11
159.192932
 21
174.636
 31
0.0
  0
LINE
  8
LC-008-003-----0
 62
     2
  5
24F
 10
159.192932
 20
174.636
 30
0.0
 11
138.650194
 21
177.340503
 31
0.0
  0
LINE
  8
LC-008-003-----0
 62
     2
  5
250
 10
138.587913
 20
172.881728
 30
0.0
 11
151.912932
 21
174.636
 31
0.0
  0
LINE
  8
LC-008-003-----0
 62
     2
  5
251
 10
151.912932
 20
174.636
 30
0.0
 11
138.587913
 21
176.390272
 31
0.0
  0
LINE
  8
LC-008-003-----0
 62
     2
  5
252
 10
138.525631
 20
173.831959
 30
0.0
 11
144.632932
 21
174.636
 31
0.0
  0
LINE
  8
LC-008-003-----0
 62
     2
  5
253
 10
144.632932
 20
174.636
 30
0.0
 11
138.525631
 21
175.440041
 31
0.0
  0
LINE
  8
LC-008-003-----0
 62
     2
  5
254
 10
304.233388
 20
178.290733
 30
0.0
 11
276.472932
 21
174.636
 31
0.0
  0
LINE
  8
LC-008-003-----0
 62
     2
  5
255
 10
276.472932
 20
174.636
 30
0.0
 11
304.233388
 21
170.981267
 31
0.0
  0
LINE
  8
LC-008-003-----0
 62
     2
  5
256
 10
304.233388
 20
170.981267
 30
0.0
 11
304.233388
 21
178.290733
 31
0.0
  0
LINE
  8
LC-008-003-----0
 62
     2
  5
257
 10
304.295669
 20
177.340503
 30
0.0
 11
283.752932
 21
174.636
 31
0.0
  0
LINE
  8
LC-008-003-----0
 62
     2
  5
258
 10
283.752932
 20
174.636
 30
0.0
 11
304.295669
 21
171.931497
 31
0.0
  0
LINE
  8
LC-008-003-----0
 62
     2
  5
259
 10
304.357951
 20
176.390272
 30
0.0
 11
291.032932
 21
174.636
 31
0.0
  0
LINE
  8
LC-008-003-----0
 62
     2
  5
25A
 10
291.032932
 20
174.636
 30
0.0
 11
304.357951
 21
172.881728
 31
0.0
  0
LINE
  8
LC-008-003-----0
 62
     2
  5
25B
 10
304.420232
 20
175.440041
 30
0.0
 11
298.312932
 21
174.636
 31
0.0
  0
LINE
  8
LC-008-003-----0
 62
     2
  5
25C
 10
298.312932
 20
174.636
 30
0.0
 11
304.420232
 21
173.831959
 31
0.0
  0
LINE
  8
LC-009-003-MTG-0
 62
     2
  5
25E
 10
127.272932
 20
174.636
 30
0.0
 11
474.872932
 21
174.636
 31
0.0
  0
TEXT
  8
LC-008-003-----0
 62
     8
  5
25F
 10
318.571705
 20
177.054369
 30
0.0
 40
28.0
  1
DN100(SML)
 41
0.8
 51
15.0
  7
LCTX15-400-0-0-ARIAL
  0
ENDBLK
  8
0
  5
260
  0
BLOCK
  8
0
  5
263
  2
*D5
 70
    65
 10
0.0
 20
0.0
 30
0.0
  3
*D5
  0
LINE
  8
LC-007-003-MTH-0
 62
     2
  5
264
 10
141.222932
 20
311.552696
 30
0.0
 11
141.222932
 21
104.376
 31
0.0
  0
LINE
  8
LC-007-003-MTH-0
 62
     2
  5
265
 10
301.722932
 20
311.552696
 30
0.0
 11
301.722932
 21
104.376
 31
0.0
  0
LINE
  8
LC-009-003-MTG-0
 62
     2
  5
266
 10
141.222932
 20
121.176
 30
0.0
 11
301.722932
 21
121.176
 31
0.0
  0
LINE
  8
LC-008-003-----0
 62
     2
  5
267
 10
168.983388
 20
124.830733
 30
0.0
 11
141.222932
 21
121.176
 31
0.0
  0
LINE
  8
LC-008-003-----0
 62
     2
  5
268
 10
141.222932
 20
121.176
 30
0.0
 11
168.983388
 21
117.521267
 31
0.0
  0
LINE
  8
LC-008-003-----0
 62
     2
  5
269
 10
168.983388
 20
117.521267
 30
0.0
 11
168.983388
 21
124.830733
 31
0.0
  0
LINE
  8
LC-008-003-----0
 62
     2
  5
26A
 10
169.045669
 20
123.880503
 30
0.0
 11
148.502932
 21
121.176
 31
0.0
  0
LINE
  8
LC-008-003-----0
 62
     2
  5
26B
 10
148.502932
 20
121.176
 30
0.0
 11
169.045669
 21
118.471497
 31
0.0
  0
LINE
  8
LC-008-003-----0
 62
     2
  5
26C
 10
169.107951
 20
122.930272
 30
0.0
 11
155.782932
 21
121.176
 31
0.0
  0
LINE
  8
LC-008-003-----0
 62
     2
  5
26D
 10
155.782932
 20
121.176
 30
0.0
 11
169.107951
 21
119.421728
 31
0.0
  0
LINE
  8
LC-008-003-----0
 62
     2
  5
26E
 10
169.170232
 20
121.980041
 30
0.0
 11
163.062932
 21
121.176
 31
0.0
  0
LINE
  8
LC-008-003-----0
 62
     2
  5
26F
 10
163.062932
 20
121.176
 30
0.0
 11
169.170232
 21
120.371959
 31
0.0
  0
LINE
  8
LC-008-003-----0
 62
     2
  5
270
 10
273.962476
 20
117.521267
 30
0.0
 11
301.722932
 21
121.176
 31
0.0
  0
LINE
  8
LC-008-003-----0
 62
     2
  5
271
 10
301.722932
 20
121.176
 30
0.0
 11
273.962476
 21
124.830733
 31
0.0
  0
LINE
  8
LC-008-003-----0
 62
     2
  5
272
 10
273.962476
 20
124.830733
 30
0.0
 11
273.962476
 21
117.521267
 31
0.0
  0
LINE
  8
LC-008-003-----0
 62
     2
  5
273
 10
273.900194
 20
118.471497
 30
0.0
 11
294.442932
 21
121.176
 31
0.0
  0
LINE
  8
LC-008-003-----0
 62
     2
  5
274
 10
294.442932
 20
121.176
 30
0.0
 11
273.900194
 21
123.880503
 31
0.0
  0
LINE
  8
LC-008-003-----0
 62
     2
  5
275
 10
273.837913
 20
119.421728
 30
0.0
 11
287.162932
 21
121.176
 31
0.0
  0
LINE
  8
LC-008-003-----0
 62
     2
  5
276
 10
287.162932
 20
121.176
 30
0.0
 11
273.837913
 21
122.930272
 31
0.0
  0
LINE
  8
LC-008-003-----0
 62
     2
  5
277
 10
273.775631
 20
120.371959
 30
0.0
 11
279.882932
 21
121.176
 31
0.0
  0
LINE
  8
LC-008-003-----0
 62
     2
  5
278
 10
279.882932
 20
121.176
 30
0.0
 11
273.775631
 21
121.980041
 31
0.0
  0
TEXT
  8
LC-008-003-----0
 62
     8
  5
279
 10
164.171705
 20
123.594369
 30
0.0
 40
28.0
  1
%%c160
 41
0.8
 51
15.0
  7
LCTX15-400-0-0-ARIAL
 72
     1
 11
224.371705
 21
123.594369
 31
0.0
  0
ENDBLK
  8
0
  5
27A
  0
BLOCK
  8
0
  5
27D
  2
*X6
 70
    65
 10
0.0
 20
0.0
 30
0.0
  3
*X6
  0
LINE
  8
LC-005-005-----0
 62
     2
  5
27E
 10
170.003702
 20
189.802692
 30
0.0
 11
170.472932
 21
190.271922
 31
0.0
  0
LINE
  8
LC-005-005-----0
 62
     2
  5
27F
 10
167.175275
 20
189.802692
 30
0.0
 11
170.472932
 21
193.100349
 31
0.0
  0
LINE
  8
LC-005-005-----0
 62
     2
  5
280
 10
166.472932
 20
191.928776
 30
0.0
 11
170.472932
 21
195.928776
 31
0.0
  0
LINE
  8
LC-005-005-----0
 62
     2
  5
281
 10
166.472932
 20
194.757203
 30
0.0
 11
170.472932
 21
198.757203
 31
0.0
  0
LINE
  8
LC-005-005-----0
 62
     2
  5
282
 10
166.472932
 20
197.58563
 30
0.0
 11
170.472932
 21
201.58563
 31
0.0
  0
LINE
  8
LC-005-005-----0
 62
     2
  5
283
 10
166.472932
 20
200.414057
 30
0.0
 11
170.472932
 21
204.414057
 31
0.0
  0
LINE
  8
LC-005-005-----0
 62
     2
  5
284
 10
166.472932
 20
203.242484
 30
0.0
 11
170.472932
 21
207.242484
 31
0.0
  0
LINE
  8
LC-005-005-----0
 62
     2
  5
285
 10
166.472932
 20
206.070911
 30
0.0
 11
170.472932
 21
210.070911
 31
0.0
  0
LINE
  8
LC-005-005-----0
 62
     2
  5
286
 10
166.472932
 20
208.899339
 30
0.0
 11
170.472932
 21
212.899339
 31
0.0
  0
LINE
  8
LC-005-005-----0
 62
     2
  5
287
 10
166.472932
 20
211.727766
 30
0.0
 11
170.472932
 21
215.727766
 31
0.0
  0
LINE
  8
LC-005-005-----0
 62
     2
  5
288
 10
166.472932
 20
214.556193
 30
0.0
 11
170.472932
 21
218.556193
 31
0.0
  0
LINE
  8
LC-005-005-----0
 62
     2
  5
289
 10
166.472932
 20
217.38462
 30
0.0
 11
170.472932
 21
221.38462
 31
0.0
  0
LINE
  8
LC-005-005-----0
 62
     2
  5
28A
 10
166.472932
 20
220.213047
 30
0.0
 11
170.472932
 21
224.213047
 31
0.0
  0
LINE
  8
LC-005-005-----0
 62
     2
  5
28B
 10
166.472932
 20
223.041474
 30
0.0
 11
170.472932
 21
227.041474
 31
0.0
  0
LINE
  8
LC-005-005-----0
 62
     2
  5
28C
 10
166.472932
 20
225.869901
 30
0.0
 11
170.472932
 21
229.869901
 31
0.0
  0
LINE
  8
LC-005-005-----0
 62
     2
  5
28D
 10
166.472932
 20
228.698328
 30
0.0
 11
170.472932
 21
232.698328
 31
0.0
  0
LINE
  8
LC-005-005-----0
 62
     2
  5
28E
 10
166.472932
 20
231.526756
 30
0.0
 11
170.472932
 21
235.526756
 31
0.0
  0
LINE
  8
LC-005-005-----0
 62
     2
  5
28F
 10
166.472932
 20
234.355183
 30
0.0
 11
170.472932
 21
238.355183
 31
0.0
  0
LINE
  8
LC-005-005-----0
 62
     2
  5
290
 10
166.472932
 20
237.18361
 30
0.0
 11
170.472932
 21
241.18361
 31
0.0
  0
LINE
  8
LC-005-005-----0
 62
     2
  5
291
 10
166.472932
 20
240.012037
 30
0.0
 11
170.472932
 21
244.012037
 31
0.0
  0
LINE
  8
LC-005-005-----0
 62
     2
  5
292
 10
166.472932
 20
242.840464
 30
0.0
 11
170.472932
 21
246.840464
 31
0.0
  0
LINE
  8
LC-005-005-----0
 62
     2
  5
293
 10
166.472932
 20
245.668891
 30
0.0
 11
170.472932
 21
249.668891
 31
0.0
  0
LINE
  8
LC-005-005-----0
 62
     2
  5
294
 10
166.472932
 20
248.497318
 30
0.0
 11
170.472932
 21
252.497318
 31
0.0
  0
LINE
  8
LC-005-005-----0
 62
     2
  5
295
 10
166.472932
 20
251.325745
 30
0.0
 11
170.472932
 21
255.325745
 31
0.0
  0
LINE
  8
LC-005-005-----0
 62
     2
  5
296
 10
166.472932
 20
254.154173
 30
0.0
 11
170.472932
 21
258.154173
 31
0.0
  0
LINE
  8
LC-005-005-----0
 62
     2
  5
297
 10
166.472932
 20
256.9826
 30
0.0
 11
170.472932
 21
260.9826
 31
0.0
  0
LINE
  8
LC-005-005-----0
 62
     2
  5
298
 10
166.472932
 20
259.811027
 30
0.0
 11
170.472932
 21
263.811027
 31
0.0
  0
LINE
  8
LC-005-005-----0
 62
     2
  5
299
 10
166.472932
 20
262.639454
 30
0.0
 11
170.472932
 21
266.639454
 31
0.0
  0
LINE
  8
LC-005-005-----0
 62
     2
  5
29A
 10
166.472932
 20
265.467881
 30
0.0
 11
170.472932
 21
269.467881
 31
0.0
  0
LINE
  8
LC-005-005-----0
 62
     2
  5
29B
 10
166.472932
 20
268.296308
 30
0.0
 11
170.472932
 21
272.296308
 31
0.0
  0
LINE
  8
LC-005-005-----0
 62
     2
  5
29C
 10
166.472932
 20
271.124735
 30
0.0
 11
170.472932
 21
275.124735
 31
0.0
  0
LINE
  8
LC-005-005-----0
 62
     2
  5
29D
 10
166.472932
 20
273.953162
 30
0.0
 11
170.472932
 21
277.953162
 31
0.0
  0
LINE
  8
LC-005-005-----0
 62
     2
  5
29E
 10
166.472932
 20
276.78159
 30
0.0
 11
170.472932
 21
280.78159
 31
0.0
  0
LINE
  8
LC-005-005-----0
 62
     2
  5
29F
 10
166.472932
 20
279.610017
 30
0.0
 11
170.472932
 21
283.610017
 31
0.0
  0
LINE
  8
LC-005-005-----0
 62
     2
  5
2A0
 10
166.472932
 20
282.438444
 30
0.0
 11
170.472932
 21
286.438444
 31
0.0
  0
LINE
  8
LC-005-005-----0
 62
     2
  5
2A1
 10
166.472932
 20
285.266871
 30
0.0
 11
170.472932
 21
289.266871
 31
0.0
  0
LINE
  8
LC-005-005-----0
 62
     2
  5
2A2
 10
166.472932
 20
288.095298
 30
0.0
 11
170.472932
 21
292.095298
 31
0.0
  0
LINE
  8
LC-005-005-----0
 62
     2
  5
2A3
 10
166.472932
 20
290.923725
 30
0.0
 11
170.472932
 21
294.923725
 31
0.0
  0
LINE
  8
LC-005-005-----0
 62
     2
  5
2A4
 10
166.472932
 20
293.752152
 30
0.0
 11
170.472932
 21
297.752152
 31
0.0
  0
LINE
  8
LC-005-005-----0
 62
     2
  5
2A5
 10
166.472932
 20
296.580579
 30
0.0
 11
169.695045
 21
299.802693
 31
0.0
  0
LINE
  8
LC-005-005-----0
 62
     2
  5
2A6
 10
166.472932
 20
299.409007
 30
0.0
 11
166.866616
 21
299.80269
 31
0.0
  0
ENDBLK
  8
0
  5
2A7
  0
BLOCK
  8
0
  5
2AA
  2
*X7
 70
    65
 10
0.0
 20
0.0
 30
0.0
  3
*X7
  0
LINE
  8
LC-005-005-----0
 62
     2
  5
2AB
 10
295.547979
 20
301.204833
 30
0.0
 11
300.322655
 21
305.979509
 31
0.0
  0
LINE
  8
LC-005-005-----0
 62
     2
  5
2AC
 10
291.401691
 20
299.886972
 30
0.0
 11
301.640515
 21
310.125796
 31
0.0
  0
LINE
  8
LC-005-005-----0
 62
     2
  5
2AD
 10
288.486644
 20
299.800353
 30
0.0
 11
291.642055
 21
302.955763
 31
0.0
  0
LINE
  8
LC-005-005-----0
 62
     2
  5
2AE
 10
298.821026
 20
310.134734
 30
0.0
 11
301.727237
 21
313.040945
 31
0.0
  0
LINE
  8
LC-005-005-----0
 62
     2
  5
2AF
 10
285.658385
 20
299.800521
 30
0.0
 11
286.312263
 21
300.454398
 31
0.0
  0
LINE
  8
LC-005-005-----0
 62
     2
  5
2B0
 10
287.476838
 20
301.618973
 30
0.0
 11
288.658213
 21
302.800349
 31
0.0
  0
LINE
  8
LC-005-005-----0
 62
     2
  5
2B1
 10
298.976532
 20
313.118668
 30
0.0
 11
301.727335
 21
315.869471
 31
0.0
  0
LINE
  8
LC-005-005-----0
 62
     2
  5
2B2
 10
282.829985
 20
299.800547
 30
0.0
 11
285.829885
 21
302.800448
 31
0.0
  0
LINE
  8
LC-005-005-----0
 62
     2
  5
2B3
 10
287.347736
 20
304.318299
 30
0.0
 11
287.476936
 21
304.447499
 31
0.0
  0
LINE
  8
LC-005-005-----0
 62
     2
  5
2B4
 10
298.976631
 20
315.947194
 30
0.0
 11
301.727434
 21
318.697997
 31
0.0
  0
LINE
  8
LC-005-005-----0
 62
     2
  5
2B5
 10
280.001657
 20
299.800647
 30
0.0
 11
283.001557
 21
302.800547
 31
0.0
  0
LINE
  8
LC-005-005-----0
 62
     2
  5
2B6
 10
298.97673
 20
318.77572
 30
0.0
 11
301.727533
 21
321.526523
 31
0.0
  0
LINE
  8
LC-005-005-----0
 62
     2
  5
2B7
 10
244.671581
 20
267.298998
 30
0.0
 11
245.854888
 21
268.482305
 31
0.0
  0
LINE
  8
LC-005-005-----0
 62
     2
  5
2B8
 10
277.173329
 20
299.800746
 30
0.0
 11
280.173228
 21
302.800645
 31
0.0
  0
LINE
  8
LC-005-005-----0
 62
     2
  5
2B9
 10
298.976829
 20
321.604246
 30
0.0
 11
301.727632
 21
324.355049
 31
0.0
  0
LINE
  8
LC-005-005-----0
 62
     2
  5
2BA
 10
243.475696
 20
268.93154
 30
0.0
 11
246.475801
 21
271.931645
 31
0.0
  0
LINE
  8
LC-005-005-----0
 62
     2
  5
2BB
 10
274.345001
 20
299.800845
 30
0.0
 11
277.3449
 21
302.800744
 31
0.0
  0
LINE
  8
LC-005-005-----0
 62
     2
  5
2BC
 10
298.976928
 20
324.432772
 30
0.0
 11
301.727731
 21
327.183575
 31
0.0
  0
LINE
  8
LC-005-005-----0
 62
     2
  5
2BD
 10
243.475795
 20
271.760066
 30
0.0
 11
246.475899
 21
274.760171
 31
0.0
  0
LINE
  8
LC-005-005-----0
 62
     2
  5
2BE
 10
271.516673
 20
299.800945
 30
0.0
 11
274.516572
 21
302.800843
 31
0.0
  0
LINE
  8
LC-005-005-----0
 62
     2
  5
2BF
 10
298.977026
 20
327.261298
 30
0.0
 11
301.727829
 21
330.012101
 31
0.0
  0
LINE
  8
LC-005-005-----0
 62
     2
  5
2C0
 10
243.475893
 20
274.588592
 30
0.0
 11
246.475998
 21
277.588696
 31
0.0
  0
LINE
  8
LC-005-005-----0
 62
     2
  5
2C1
 10
268.688345
 20
299.801044
 30
0.0
 11
271.688243
 21
302.800942
 31
0.0
  0
LINE
  8
LC-005-005-----0
 62
     2
  5
2C2
 10
298.977125
 20
330.089824
 30
0.0
 11
301.727928
 21
332.840626
 31
0.0
  0
LINE
  8
LC-005-005-----0
 62
     2
  5
2C3
 10
243.475992
 20
277.417118
 30
0.0
 11
246.476097
 21
280.417222
 31
0.0
  0
LINE
  8
LC-005-005-----0
 62
     2
  5
2C4
 10
265.860018
 20
299.801143
 30
0.0
 11
268.859915
 21
302.801041
 31
0.0
  0
LINE
  8
LC-005-005-----0
 62
     2
  5
2C5
 10
298.977224
 20
332.918349
 30
0.0
 11
301.728027
 21
335.669152
 31
0.0
  0
LINE
  8
LC-005-005-----0
 62
     2
  5
2C6
 10
243.476091
 20
280.245644
 30
0.0
 11
246.476196
 21
283.245748
 31
0.0
  0
LINE
  8
LC-005-005-----0
 62
     2
  5
2C7
 10
263.03169
 20
299.801242
 30
0.0
 11
266.031587
 21
302.801139
 31
0.0
  0
LINE
  8
LC-005-005-----0
 62
     2
  5
2C8
 10
298.977323
 20
335.746875
 30
0.0
 11
301.728126
 21
338.497678
 31
0.0
  0
LINE
  8
LC-005-005-----0
 62
     2
  5
2C9
 10
370.854096
 20
407.623649
 30
0.0
 11
372.232331
 21
409.001884
 31
0.0
  0
LINE
  8
LC-005-005-----0
 62
     2
  5
2CA
 10
243.47619
 20
283.074169
 30
0.0
 11
246.476295
 21
286.074274
 31
0.0
  0
LINE
  8
LC-005-005-----0
 62
     2
  5
2CB
 10
260.203362
 20
299.801342
 30
0.0
 11
263.203258
 21
302.801238
 31
0.0
  0
LINE
  8
LC-005-005-----0
 62
     2
  5
2CC
 10
298.977422
 20
338.575401
 30
0.0
 11
301.728225
 21
341.326204
 31
0.0
  0
LINE
  8
LC-005-005-----0
 62
     2
  5
2CD
 10
367.975524
 20
407.573504
 30
0.0
 11
371.029174
 21
410.627154
 31
0.0
  0
LINE
  8
LC-005-005-----0
 62
     2
  5
2CE
 10
243.476289
 20
285.902695
 30
0.0
 11
246.476393
 21
288.9028
 31
0.0
  0
LINE
  8
LC-005-005-----0
 62
     2
  5
2CF
 10
257.375034
 20
299.801441
 30
0.0
 11
260.37493
 21
302.801337
 31
0.0
  0
LINE
  8
LC-005-005-----0
 62
     2
  5
2D0
 10
298.97752
 20
341.403927
 30
0.0
 11
301.728323
 21
344.15473
 31
0.0
  0
LINE
  8
LC-005-005-----0
 62
     2
  5
2D1
 10
365.096952
 20
407.523359
 30
0.0
 11
368.150602
 21
410.577009
 31
0.0
  0
LINE
  8
LC-005-005-----0
 62
     2
  5
2D2
 10
243.476387
 20
288.731221
 30
0.0
 11
246.476492
 21
291.731326
 31
0.0
  0
LINE
  8
LC-005-005-----0
 62
     2
  5
2D3
 10
254.546706
 20
299.80154
 30
0.0
 11
257.546602
 21
302.801436
 31
0.0
  0
LINE
  8
LC-005-005-----0
 62
     2
  5
2D4
 10
298.977619
 20
344.232453
 30
0.0
 11
301.728422
 21
346.983256
 31
0.0
  0
LINE
  8
LC-005-005-----0
 62
     2
  5
2D5
 10
362.21838
 20
407.473214
 30
0.0
 11
365.27203
 21
410.526864
 31
0.0
  0
LINE
  8
LC-005-005-----0
 62
     2
  5
2D6
 10
243.476486
 20
291.559747
 30
0.0
 11
246.476591
 21
294.559852
 31
0.0
  0
LINE
  8
LC-005-005-----0
 62
     2
  5
2D7
 10
252.216592
 20
300.299853
 30
0.0
 11
254.728567
 21
302.811828
 31
0.0
  0
LINE
  8
LC-005-005-----0
 62
     2
  5
2D8
 10
298.977718
 20
347.060979
 30
0.0
 11
301.728521
 21
349.811782
 31
0.0
  0
LINE
  8
LC-005-005-----0
 62
     2
  5
2D9
 10
359.339807
 20
407.423068
 30
0.0
 11
362.393457
 21
410.476719
 31
0.0
  0
LINE
  8
LC-005-005-----0
 62
     2
  5
2DA
 10
243.476585
 20
294.388273
 30
0.0
 11
246.47669
 21
297.388378
 31
0.0
  0
LINE
  8
LC-005-005-----0
 62
     2
  5
2DB
 10
251.138138
 20
302.049826
 30
0.0
 11
252.812538
 21
303.724226
 31
0.0
  0
LINE
  8
LC-005-005-----0
 62
     2
  5
2DC
 10
298.977817
 20
349.889505
 30
0.0
 11
301.72862
 21
352.640308
 31
0.0
  0
LINE
  8
LC-005-005-----0
 62
     2
  5
2DD
 10
356.461235
 20
407.372923
 30
0.0
 11
359.514885
 21
410.426573
 31
0.0
  0
LINE
  8
LC-005-005-----0
 62
     2
  5
2DE
 10
243.476684
 20
297.216799
 30
0.0
 11
251.97814
 21
305.718255
 31
0.0
  0
LINE
  8
LC-005-005-----0
 62
     2
  5
2DF
 10
298.977916
 20
352.718031
 30
0.0
 11
301.728719
 21
355.468834
 31
0.0
  0
LINE
  8
LC-005-005-----0
 62
     2
  5
2E0
 10
353.582663
 20
407.322778
 30
0.0
 11
356.636313
 21
410.376428
 31
0.0
  0
LINE
  8
LC-005-005-----0
 62
     2
  5
2E1
 10
243.487744
 20
300.056287
 30
0.0
 11
246.222468
 21
302.791011
 31
0.0
  0
LINE
  8
LC-005-005-----0
 62
     2
  5
2E2
 10
249.001131
 20
305.569673
 30
0.0
 11
251.977079
 21
308.545622
 31
0.0
  0
LINE
  8
LC-005-005-----0
 62
     2
  5
2E3
 10
298.978014
 20
355.546557
 30
0.0
 11
301.728817
 21
358.29736
 31
0.0
  0
LINE
  8
LC-005-005-----0
 62
     2
  5
2E4
 10
350.704091
 20
407.272633
 30
0.0
 11
353.757741
 21
410.326283
 31
0.0
  0
LINE
  8
LC-005-005-----0
 62
     2
  5
2E5
 10
249.026132
 20
308.423102
 30
0.0
 11
251.977178
 21
311.374148
 31
0.0
  0
LINE
  8
LC-005-005-----0
 62
     2
  5
2E6
 10
298.978113
 20
358.375083
 30
0.0
 11
301.728916
 21
361.125886
 31
0.0
  0
LINE
  8
LC-005-005-----0
 62
     2
  5
2E7
 10
347.825518
 20
407.222488
 30
0.0
 11
350.879169
 21
410.276138
 31
0.0
  0
LINE
  8
LC-005-005-----0
 62
     2
  5
2E8
 10
249.051133
 20
311.27653
 30
0.0
 11
251.977277
 21
314.202674
 31
0.0
  0
LINE
  8
LC-005-005-----0
 62
     2
  5
2E9
 10
298.978212
 20
361.203609
 30
0.0
 11
301.729015
 21
363.954412
 31
0.0
  0
LINE
  8
LC-005-005-----0
 62
     2
  5
2EA
 10
344.946946
 20
407.172343
 30
0.0
 11
348.000596
 21
410.225993
 31
0.0
  0
LINE
  8
LC-005-005-----0
 62
     2
  5
2EB
 10
249.076134
 20
314.129958
 30
0.0
 11
251.977376
 21
317.0312
 31
0.0
  0
LINE
  8
LC-005-005-----0
 62
     2
  5
2EC
 10
298.978311
 20
364.032135
 30
0.0
 11
301.729114
 21
366.782938
 31
0.0
  0
LINE
  8
LC-005-005-----0
 62
     2
  5
2ED
 10
342.068374
 20
407.122198
 30
0.0
 11
345.122024
 21
410.175848
 31
0.0
  0
LINE
  8
LC-005-005-----0
 62
     2
  5
2EE
 10
249.101136
 20
316.983387
 30
0.0
 11
251.977475
 21
319.859726
 31
0.0
  0
LINE
  8
LC-005-005-----0
 62
     2
  5
2EF
 10
298.97841
 20
366.860661
 30
0.0
 11
301.729213
 21
369.611464
 31
0.0
  0
LINE
  8
LC-005-005-----0
 62
     2
  5
2F0
 10
339.189802
 20
407.072053
 30
0.0
 11
342.243452
 21
410.125703
 31
0.0
  0
LINE
  8
LC-005-005-----0
 62
     2
  5
2F1
 10
249.126137
 20
319.836815
 30
0.0
 11
251.977573
 21
322.688252
 31
0.0
  0
LINE
  8
LC-005-005-----0
 62
     2
  5
2F2
 10
298.978508
 20
369.689186
 30
0.0
 11
301.729311
 21
372.439989
 31
0.0
  0
LINE
  8
LC-005-005-----0
 62
     2
  5
2F3
 10
336.31123
 20
407.021908
 30
0.0
 11
339.36488
 21
410.075558
 31
0.0
  0
LINE
  8
LC-005-005-----0
 62
     2
  5
2F4
 10
249.151138
 20
322.690243
 30
0.0
 11
251.977672
 21
325.516778
 31
0.0
  0
LINE
  8
LC-005-005-----0
 62
     2
  5
2F5
 10
298.978607
 20
372.517712
 30
0.0
 11
304.130883
 21
377.669989
 31
0.0
  0
LINE
  8
LC-005-005-----0
 62
     2
  5
2F6
 10
333.432657
 20
406.971763
 30
0.0
 11
336.486308
 21
410.025413
 31
0.0
  0
LINE
  8
LC-005-005-----0
 62
     2
  5
2F7
 10
249.176139
 20
325.543672
 30
0.0
 11
251.977771
 21
328.345303
 31
0.0
  0
LINE
  8
LC-005-005-----0
 62
     2
  5
2F8
 10
298.978706
 20
375.346238
 30
0.0
 11
310.738712
 21
387.106245
 31
0.0
  0
LINE
  8
LC-005-005-----0
 62
     2
  5
2F9
 10
328.727768
 20
405.095301
 30
0.0
 11
333.607735
 21
409.975268
 31
0.0
  0
LINE
  8
LC-005-005-----0
 62
     2
  5
2FA
 10
249.20114
 20
328.3971
 30
0.0
 11
251.97787
 21
331.173829
 31
0.0
  0
LINE
  8
LC-005-005-----0
 62
     2
  5
2FB
 10
299.528824
 20
378.724783
 30
0.0
 11
307.25374
 21
386.4497
 31
0.0
  0
LINE
  8
LC-005-005-----0
 62
     2
  5
2FC
 10
308.227746
 20
387.423705
 30
0.0
 11
310.979224
 21
390.175183
 31
0.0
  0
LINE
  8
LC-005-005-----0
 62
     2
  5
2FD
 10
325.686803
 20
404.882763
 30
0.0
 11
328.920102
 21
408.116062
 31
0.0
  0
LINE
  8
LC-005-005-----0
 62
     2
  5
2FE
 10
249.226141
 20
331.250528
 30
0.0
 11
251.977969
 21
334.002355
 31
0.0
  0
LINE
  8
LC-005-005-----0
 62
     2
  5
2FF
 10
298.598724
 20
380.623111
 30
0.0
 11
304.425412
 21
386.449798
 31
0.0
  0
LINE
  8
LC-005-005-----0
 62
     2
  5
300
 10
308.227845
 20
390.252231
 30
0.0
 11
310.979323
 21
393.003709
 31
0.0
  0
LINE
  8
LC-005-005-----0
 62
     2
  5
301
 10
313.430181
 20
395.454567
 30
0.0
 11
316.25064
 21
398.275026
 31
0.0
  0
LINE
  8
LC-005-005-----0
 62
     2
  5
302
 10
322.645838
 20
404.670225
 30
0.0
 11
325.879137
 21
407.903524
 31
0.0
  0
LINE
  8
LC-005-005-----0
 62
     2
  5
303
 10
249.251143
 20
334.103956
 30
0.0
 11
251.978067
 21
336.830881
 31
0.0
  0
LINE
  8
LC-005-005-----0
 62
     2
  5
304
 10
298.913525
 20
383.766339
 30
0.0
 11
301.597083
 21
386.449897
 31
0.0
  0
LINE
  8
LC-005-005-----0
 62
     2
  5
305
 10
308.227944
 20
393.080757
 30
0.0
 11
316.407233
 21
401.260047
 31
0.0
  0
LINE
  8
LC-005-005-----0
 62
     2
  5
306
 10
319.604873
 20
404.457687
 30
0.0
 11
322.838172
 21
407.690986
 31
0.0
  0
LINE
  8
LC-005-005-----0
 62
     2
  5
307
 10
249.276144
 20
336.957385
 30
0.0
 11
251.978166
 21
339.659407
 31
0.0
  0
LINE
  8
LC-005-005-----0
 62
     2
  5
308
 10
308.228042
 20
395.909283
 30
0.0
 11
310.268353
 21
397.949594
 31
0.0
  0
LINE
  8
LC-005-005-----0
 62
     2
  5
309
 10
313.393386
 20
401.074627
 30
0.0
 11
319.797207
 21
407.478447
 31
0.0
  0
LINE
  8
LC-005-005-----0
 62
     2
  5
30A
 10
249.301145
 20
339.810813
 30
0.0
 11
251.978265
 21
342.487933
 31
0.0
  0
LINE
  8
LC-005-005-----0
 62
     2
  5
30B
 10
308.228141
 20
398.737809
 30
0.0
 11
310.229593
 21
400.739261
 31
0.0
  0
LINE
  8
LC-005-005-----0
 62
     2
  5
30C
 10
313.549926
 20
404.059594
 30
0.0
 11
316.756241
 21
407.265909
 31
0.0
  0
LINE
  8
LC-005-005-----0
 62
     2
  5
30D
 10
249.326146
 20
342.664241
 30
0.0
 11
251.978364
 21
345.316459
 31
0.0
  0
LINE
  8
LC-005-005-----0
 62
     2
  5
30E
 10
308.22824
 20
401.566335
 30
0.0
 11
310.229692
 21
403.567787
 31
0.0
  0
LINE
  8
LC-005-005-----0
 62
     2
  5
30F
 10
313.706467
 20
407.044562
 30
0.0
 11
313.715276
 21
407.053371
 31
0.0
  0
LINE
  8
LC-005-005-----0
 62
     2
  5
310
 10
249.351147
 20
345.51767
 30
0.0
 11
251.978463
 21
348.144985
 31
0.0
  0
LINE
  8
LC-005-005-----0
 62
     2
  5
311
 10
249.376149
 20
348.371098
 30
0.0
 11
251.978561
 21
350.973511
 31
0.0
  0
LINE
  8
LC-005-005-----0
 62
     2
  5
312
 10
249.40115
 20
351.224526
 30
0.0
 11
251.97866
 21
353.802037
 31
0.0
  0
LINE
  8
LC-005-005-----0
 62
     2
  5
313
 10
249.426151
 20
354.077954
 30
0.0
 11
251.978759
 21
356.630563
 31
0.0
  0
LINE
  8
LC-005-005-----0
 62
     2
  5
314
 10
249.451152
 20
356.931383
 30
0.0
 11
251.978858
 21
359.459089
 31
0.0
  0
LINE
  8
LC-005-005-----0
 62
     2
  5
315
 10
249.476153
 20
359.784811
 30
0.0
 11
251.978957
 21
362.287615
 31
0.0
  0
LINE
  8
LC-005-005-----0
 62
     2
  5
316
 10
249.501154
 20
362.638239
 30
0.0
 11
251.979055
 21
365.11614
 31
0.0
  0
LINE
  8
LC-005-005-----0
 62
     2
  5
317
 10
249.526156
 20
365.491668
 30
0.0
 11
251.979154
 21
367.944666
 31
0.0
  0
LINE
  8
LC-005-005-----0
 62
     2
  5
318
 10
249.551157
 20
368.345096
 30
0.0
 11
251.979253
 21
370.773192
 31
0.0
  0
LINE
  8
LC-005-005-----0
 62
     2
  5
319
 10
249.576158
 20
371.198524
 30
0.0
 11
251.979352
 21
373.601718
 31
0.0
  0
LINE
  8
LC-005-005-----0
 62
     2
  5
31A
 10
249.601159
 20
374.051953
 30
0.0
 11
251.979451
 21
376.430244
 31
0.0
  0
ENDBLK
  8
0
  5
31B
  0
BLOCK
  8
0
  5
31E
  2
*D8
 70
    65
 10
0.0
 20
0.0
 30
0.0
  3
*D8
  0
LINE
  8
LC-007-003-MTH-0
 62
     2
  5
31F
 10
126.580288
 20
400.60944
 30
0.0
 11
126.580288
 21
445.115705
 31
0.0
  0
LINE
  8
LC-007-003-MTH-0
 62
     2
  5
320
 10
316.373206
 20
400.607836
 30
0.0
 11
316.373206
 21
445.115705
 31
0.0
  0
LINE
  8
LC-009-003-MTG-0
 62
     2
  5
321
 10
126.580288
 20
428.315705
 30
0.0
 11
177.900214
 21
428.315705
 31
0.0
  0
LINE
  8
LC-009-003-MTG-0
 62
     2
  5
322
 10
279.547147
 20
428.315705
 30
0.0
 11
316.373206
 21
428.315705
 31
0.0
  0
LINE
  8
LC-008-003-----0
 62
     2
  5
323
 10
154.340744
 20
431.970438
 30
0.0
 11
126.580288
 21
428.315705
 31
0.0
  0
LINE
  8
LC-008-003-----0
 62
     2
  5
324
 10
126.580288
 20
428.315705
 30
0.0
 11
154.340744
 21
424.660971
 31
0.0
  0
LINE
  8
LC-008-003-----0
 62
     2
  5
325
 10
154.340744
 20
424.660971
 30
0.0
 11
154.340744
 21
431.970438
 31
0.0
  0
LINE
  8
LC-008-003-----0
 62
     2
  5
326
 10
154.403025
 20
431.020207
 30
0.0
 11
133.860288
 21
428.315705
 31
0.0
  0
LINE
  8
LC-008-003-----0
 62
     2
  5
327
 10
133.860288
 20
428.315705
 30
0.0
 11
154.403025
 21
425.611202
 31
0.0
  0
LINE
  8
LC-008-003-----0
 62
     2
  5
328
 10
154.465306
 20
430.069977
 30
0.0
 11
141.140288
 21
428.315705
 31
0.0
  0
LINE
  8
LC-008-003-----0
 62
     2
  5
329
 10
141.140288
 20
428.315705
 30
0.0
 11
154.465306
 21
426.561433
 31
0.0
  0
LINE
  8
LC-008-003-----0
 62
     2
  5
32A
 10
154.527588
 20
429.119746
 30
0.0
 11
148.420288
 21
428.315705
 31
0.0
  0
LINE
  8
LC-008-003-----0
 62
     2
  5
32B
 10
148.420288
 20
428.315705
 30
0.0
 11
154.527588
 21
427.511663
 31
0.0
  0
LINE
  8
LC-008-003-----0
 62
     2
  5
32C
 10
288.61275
 20
424.660971
 30
0.0
 11
316.373206
 21
428.315705
 31
0.0
  0
LINE
  8
LC-008-003-----0
 62
     2
  5
32D
 10
316.373206
 20
428.315705
 30
0.0
 11
288.61275
 21
431.970438
 31
0.0
  0
LINE
  8
LC-008-003-----0
 62
     2
  5
32E
 10
288.61275
 20
431.970438
 30
0.0
 11
288.61275
 21
424.660971
 31
0.0
  0
LINE
  8
LC-008-003-----0
 62
     2
  5
32F
 10
288.550469
 20
425.611202
 30
0.0
 11
309.093206
 21
428.315705
 31
0.0
  0
LINE
  8
LC-008-003-----0
 62
     2
  5
330
 10
309.093206
 20
428.315705
 30
0.0
 11
288.550469
 21
431.020207
 31
0.0
  0
LINE
  8
LC-008-003-----0
 62
     2
  5
331
 10
288.488187
 20
426.561433
 30
0.0
 11
301.813206
 21
428.315705
 31
0.0
  0
LINE
  8
LC-008-003-----0
 62
     2
  5
332
 10
301.813206
 20
428.315705
 30
0.0
 11
288.488187
 21
430.069977
 31
0.0
  0
LINE
  8
LC-008-003-----0
 62
     2
  5
333
 10
288.425906
 20
427.511663
 30
0.0
 11
294.533206
 21
428.315705
 31
0.0
  0
LINE
  8
LC-008-003-----0
 62
     2
  5
334
 10
294.533206
 20
428.315705
 30
0.0
 11
288.425906
 21
429.119746
 31
0.0
  0
TEXT
  8
LC-008-003-----0
 62
     8
  5
335
 10
155.17552
 20
430.734074
 30
0.0
 40
28.0
  1
%%c190
 41
0.9
 51
15.0
  7
LCTX15-400-0-0-ARIAL
 72
     1
 11
224.37552
 21
430.734074
 31
0.0
  0
ENDBLK
  8
0
  5
336
  0
BLOCK
  8
0
  5
339
  2
*D9
 70
    65
 10
0.0
 20
0.0
 30
0.0
  3
*D9
  0
LINE
  8
LC-007-003-MTH-0
 62
     2
  5
33A
 10
70.721189
 20
410.65338
 30
0.0
 11
70.721189
 21
493.188
 31
0.0
  0
LINE
  8
LC-007-003-MTH-0
 62
     2
  5
33B
 10
372.232389
 20
410.65338
 30
0.0
 11
372.232389
 21
493.188
 31
0.0
  0
LINE
  8
LC-009-003-MTG-0
 62
     2
  5
33C
 10
70.721189
 20
476.388
 30
0.0
 11
177.900256
 21
476.388
 31
0.0
  0
LINE
  8
LC-009-003-MTG-0
 62
     2
  5
33D
 10
279.547189
 20
476.388
 30
0.0
 11
372.232389
 21
476.388
 31
0.0
  0
LINE
  8
LC-008-003-----0
 62
     2
  5
33E
 10
98.481645
 20
480.042733
 30
0.0
 11
70.721189
 21
476.388
 31
0.0
  0
LINE
  8
LC-008-003-----0
 62
     2
  5
33F
 10
70.721189
 20
476.388
 30
0.0
 11
98.481645
 21
472.733267
 31
0.0
  0
LINE
  8
LC-008-003-----0
 62
     2
  5
340
 10
98.481645
 20
472.733267
 30
0.0
 11
98.481645
 21
480.042733
 31
0.0
  0
LINE
  8
LC-008-003-----0
 62
     2
  5
341
 10
98.543926
 20
479.092503
 30
0.0
 11
78.001189
 21
476.388
 31
0.0
  0
LINE
  8
LC-008-003-----0
 62
     2
  5
342
 10
78.001189
 20
476.388
 30
0.0
 11
98.543926
 21
473.683497
 31
0.0
  0
LINE
  8
LC-008-003-----0
 62
     2
  5
343
 10
98.606208
 20
478.142272
 30
0.0
 11
85.281189
 21
476.388
 31
0.0
  0
LINE
  8
LC-008-003-----0
 62
     2
  5
344
 10
85.281189
 20
476.388
 30
0.0
 11
98.606208
 21
474.633728
 31
0.0
  0
LINE
  8
LC-008-003-----0
 62
     2
  5
345
 10
98.668489
 20
477.192041
 30
0.0
 11
92.561189
 21
476.388
 31
0.0
  0
LINE
  8
LC-008-003-----0
 62
     2
  5
346
 10
92.561189
 20
476.388
 30
0.0
 11
98.668489
 21
475.583959
 31
0.0
  0
LINE
  8
LC-008-003-----0
 62
     2
  5
347
 10
344.471933
 20
472.733267
 30
0.0
 11
372.232389
 21
476.388
 31
0.0
  0
LINE
  8
LC-008-003-----0
 62
     2
  5
348
 10
372.232389
 20
476.388
 30
0.0
 11
344.471933
 21
480.042733
 31
0.0
  0
LINE
  8
LC-008-003-----0
 62
     2
  5
349
 10
344.471933
 20
480.042733
 30
0.0
 11
344.471933
 21
472.733267
 31
0.0
  0
LINE
  8
LC-008-003-----0
 62
     2
  5
34A
 10
344.409651
 20
473.683497
 30
0.0
 11
364.952389
 21
476.388
 31
0.0
  0
LINE
  8
LC-008-003-----0
 62
     2
  5
34B
 10
364.952389
 20
476.388
 30
0.0
 11
344.409651
 21
479.092503
 31
0.0
  0
LINE
  8
LC-008-003-----0
 62
     2
  5
34C
 10
344.34737
 20
474.633728
 30
0.0
 11
357.672389
 21
476.388
 31
0.0
  0
LINE
  8
LC-008-003-----0
 62
     2
  5
34D
 10
357.672389
 20
476.388
 30
0.0
 11
344.34737
 21
478.142272
 31
0.0
  0
LINE
  8
LC-008-003-----0
 62
     2
  5
34E
 10
344.285089
 20
475.583959
 30
0.0
 11
350.392389
 21
476.388
 31
0.0
  0
LINE
  8
LC-008-003-----0
 62
     2
  5
34F
 10
350.392389
 20
476.388
 30
0.0
 11
344.285089
 21
477.192041
 31
0.0
  0
TEXT
  8
LC-008-003-----0
 62
     8
  5
350
 10
155.175562
 20
478.806369
 30
0.0
 40
28.0
  1
%%c300
 41
0.9
 51
15.0
  7
LCTX15-400-0-0-ARIAL
 72
     1
 11
224.375562
 21
478.806369
 31
0.0
  0
ENDBLK
  8
0
  5
351
  0
BLOCK
  8
0
  5
354
  2
*D10
 70
    65
 10
0.0
 20
0.0
 30
0.0
  3
*D10
  0
LINE
  8
LC-007-003-MTH-0
 62
     2
  5
355
 10
152.972932
 20
299.802696
 30
0.0
 11
34.073042
 21
299.802696
 31
0.0
  0
LINE
  8
LC-007-003-MTH-0
 62
     2
  5
356
 10
70.721189
 20
407.652923
 30
0.0
 11
34.073042
 21
407.652923
 31
0.0
  0
LINE
  8
LC-009-003-MTG-0
 62
     2
  5
357
 10
50.873042
 20
299.802696
 30
0.0
 11
50.873042
 21
322.151276
 31
0.0
  0
LINE
  8
LC-009-003-MTG-0
 62
     2
  5
358
 10
50.873042
 20
399.798209
 30
0.0
 11
50.873042
 21
407.652923
 31
0.0
  0
LINE
  8
LC-008-003-----0
 62
     2
  5
359
 10
47.930795
 20
322.151276
 30
0.0
 11
50.873042
 21
299.802696
 31
0.0
  0
LINE
  8
LC-008-003-----0
 62
     2
  5
35A
 10
50.873042
 20
299.802696
 30
0.0
 11
53.815288
 21
322.151276
 31
0.0
  0
LINE
  8
LC-008-003-----0
 62
     2
  5
35B
 10
48.889226
 20
322.151276
 30
0.0
 11
50.873042
 21
307.082696
 31
0.0
  0
LINE
  8
LC-008-003-----0
 62
     2
  5
35C
 10
50.873042
 20
307.082696
 30
0.0
 11
52.856858
 21
322.151276
 31
0.0
  0
LINE
  8
LC-008-003-----0
 62
     2
  5
35D
 10
49.847656
 20
322.151276
 30
0.0
 11
50.873042
 21
314.362696
 31
0.0
  0
LINE
  8
LC-008-003-----0
 62
     2
  5
35E
 10
50.873042
 20
314.362696
 30
0.0
 11
51.898428
 21
322.151276
 31
0.0
  0
LINE
  8
LC-008-003-----0
 62
     2
  5
35F
 10
50.806086
 20
322.151276
 30
0.0
 11
50.873042
 21
321.642696
 31
0.0
  0
LINE
  8
LC-008-003-----0
 62
     2
  5
360
 10
50.873042
 20
321.642696
 30
0.0
 11
50.939998
 21
322.151276
 31
0.0
  0
LINE
  8
LC-008-003-----0
 62
     2
  5
361
 10
51.907135
 20
399.798209
 30
0.0
 11
50.873042
 21
407.652923
 31
0.0
  0
LINE
  8
LC-008-003-----0
 62
     2
  5
362
 10
50.873042
 20
407.652923
 30
0.0
 11
49.838949
 21
399.798209
 31
0.0
  0
LINE
  8
LC-008-003-----0
 62
     2
  5
363
 10
50.948704
 20
399.798209
 30
0.0
 11
50.873042
 21
400.372923
 31
0.0
  0
LINE
  8
LC-008-003-----0
 62
     2
  5
364
 10
50.873042
 20
400.372923
 30
0.0
 11
50.797379
 21
399.798209
 31
0.0
  0
TEXT
  8
LC-008-003-----0
 62
     8
  5
365
 10
43.045488
 20
322.875969
 30
0.0
 40
28.0
  1
110
 50
90.0
 41
0.9
 51
15.0
  7
LCTX15-400-0-0-ARIAL
 72
     1
 11
43.045488
 21
358.075969
 31
0.0
  0
ENDBLK
  8
0
  5
366
  0
BLOCK
  8
0
  5
369
  2
*D11
 70
    65
 10
0.0
 20
0.0
 30
0.0
  3
*D11
  0
LINE
  8
LC-007-003-MTH-0
 62
     2
  5
36A
 10
166.472932
 20
189.802692
 30
0.0
 11
34.073042
 21
189.802692
 31
0.0
  0
LINE
  8
LC-007-003-MTH-0
 62
     2
  5
36B
 10
152.972932
 20
299.802696
 30
0.0
 11
34.073042
 21
299.802696
 31
0.0
  0
LINE
  8
LC-009-003-MTG-0
 62
     2
  5
36C
 10
50.873042
 20
189.802692
 30
0.0
 11
50.873042
 21
213.226161
 31
0.0
  0
LINE
  8
LC-009-003-MTG-0
 62
     2
  5
36D
 10
50.873042
 20
290.873094
 30
0.0
 11
50.873042
 21
299.802696
 31
0.0
  0
LINE
  8
LC-008-003-----0
 62
     2
  5
36E
 10
47.789284
 20
213.226161
 30
0.0
 11
50.873042
 21
189.802692
 31
0.0
  0
LINE
  8
LC-008-003-----0
 62
     2
  5
36F
 10
50.873042
 20
189.802692
 30
0.0
 11
53.9568
 21
213.226161
 31
0.0
  0
LINE
  8
LC-008-003-----0
 62
     2
  5
370
 10
48.747714
 20
213.226161
 30
0.0
 11
50.873042
 21
197.082692
 31
0.0
  0
LINE
  8
LC-008-003-----0
 62
     2
  5
371
 10
50.873042
 20
197.082692
 30
0.0
 11
52.99837
 21
213.226161
 31
0.0
  0
LINE
  8
LC-008-003-----0
 62
     2
  5
372
 10
49.706144
 20
213.226161
 30
0.0
 11
50.873042
 21
204.362692
 31
0.0
  0
LINE
  8
LC-008-003-----0
 62
     2
  5
373
 10
50.873042
 20
204.362692
 30
0.0
 11
52.03994
 21
213.226161
 31
0.0
  0
LINE
  8
LC-008-003-----0
 62
     2
  5
374
 10
50.664574
 20
213.226161
 30
0.0
 11
50.873042
 21
211.642692
 31
0.0
  0
LINE
  8
LC-008-003-----0
 62
     2
  5
375
 10
50.873042
 20
211.642692
 30
0.0
 11
51.081509
 21
213.226161
 31
0.0
  0
LINE
  8
LC-008-003-----0
 62
     2
  5
376
 10
52.048646
 20
290.873094
 30
0.0
 11
50.873042
 21
299.802696
 31
0.0
  0
LINE
  8
LC-008-003-----0
 62
     2
  5
377
 10
50.873042
 20
299.802696
 30
0.0
 11
49.697437
 21
290.873094
 31
0.0
  0
LINE
  8
LC-008-003-----0
 62
     2
  5
378
 10
51.090216
 20
290.873094
 30
0.0
 11
50.873042
 21
292.522696
 31
0.0
  0
LINE
  8
LC-008-003-----0
 62
     2
  5
379
 10
50.873042
 20
292.522696
 30
0.0
 11
50.655868
 21
290.873094
 31
0.0
  0
TEXT
  8
LC-008-003-----0
 62
     8
  5
37A
 10
43.045488
 20
213.950854
 30
0.0
 40
28.0
  1
110
 50
90.0
 41
0.9
 51
15.0
  7
LCTX15-400-0-0-ARIAL
 72
     1
 11
43.045488
 21
249.150854
 31
0.0
  0
ENDBLK
  8
0
  5
37B
  0
BLOCK
  8
0
  5
37E
  2
*D12
 70
    65
 10
0.0
 20
0.0
 30
0.0
  3
*D12
  0
LINE
  8
LC-007-003-MTH-0
 62
     2
  5
37F
 10
179.941792
 20
328.302693
 30
0.0
 11
90.096967
 21
328.302693
 31
0.0
  0
LINE
  8
LC-007-003-MTH-0
 62
     2
  5
380
 10
190.184074
 20
377.802696
 30
0.0
 11
112.496967
 21
377.802696
 31
0.0
  0
LINE
  8
LC-008-003-----0
 62
     2
  5
381
 10
110.5517
 20
300.542237
 30
0.0
 11
106.896967
 21
328.302693
 31
0.0
  0
LINE
  8
LC-008-003-----0
 62
     2
  5
382
 10
106.896967
 20
328.302693
 30
0.0
 11
103.242234
 21
300.542237
 31
0.0
  0
LINE
  8
LC-008-003-----0
 62
     2
  5
383
 10
103.242234
 20
300.542237
 30
0.0
 11
110.5517
 21
300.542237
 31
0.0
  0
LINE
  8
LC-008-003-----0
 62
     2
  5
384
 10
109.60147
 20
300.479956
 30
0.0
 11
106.896967
 21
321.022693
 31
0.0
  0
LINE
  8
LC-008-003-----0
 62
     2
  5
385
 10
106.896967
 20
321.022693
 30
0.0
 11
104.192464
 21
300.479956
 31
0.0
  0
LINE
  8
LC-008-003-----0
 62
     2
  5
386
 10
108.651239
 20
300.417674
 30
0.0
 11
106.896967
 21
313.742693
 31
0.0
  0
LINE
  8
LC-008-003-----0
 62
     2
  5
387
 10
106.896967
 20
313.742693
 30
0.0
 11
105.142695
 21
300.417674
 31
0.0
  0
LINE
  8
LC-008-003-----0
 62
     2
  5
388
 10
107.701008
 20
300.355393
 30
0.0
 11
106.896967
 21
306.462693
 31
0.0
  0
LINE
  8
LC-008-003-----0
 62
     2
  5
389
 10
106.896967
 20
306.462693
 30
0.0
 11
106.092926
 21
300.355393
 31
0.0
  0
LINE
  8
LC-008-003-----0
 62
     2
  5
38A
 10
103.242234
 20
405.563152
 30
0.0
 11
105.933218
 21
385.123094
 31
0.0
  0
LINE
  8
LC-008-003-----0
 62
     2
  5
38B
 10
107.860716
 20
385.123094
 30
0.0
 11
110.5517
 21
405.563152
 31
0.0
  0
LINE
  8
LC-008-003-----0
 62
     2
  5
38C
 10
110.5517
 20
405.563152
 30
0.0
 11
103.242234
 21
405.563152
 31
0.0
  0
LINE
  8
LC-008-003-----0
 62
     2
  5
38D
 10
104.192464
 20
405.625433
 30
0.0
 11
106.891648
 21
385.123094
 31
0.0
  0
LINE
  8
LC-008-003-----0
 62
     2
  5
38E
 10
106.902286
 20
385.123094
 30
0.0
 11
109.60147
 21
405.625433
 31
0.0
  0
LINE
  8
LC-008-003-----0
 62
     2
  5
38F
 10
105.142695
 20
405.687715
 30
0.0
 11
106.896967
 21
392.362696
 31
0.0
  0
LINE
  8
LC-008-003-----0
 62
     2
  5
390
 10
106.896967
 20
392.362696
 30
0.0
 11
108.651239
 21
405.687715
 31
0.0
  0
LINE
  8
LC-008-003-----0
 62
     2
  5
391
 10
106.092926
 20
405.749996
 30
0.0
 11
106.896967
 21
399.642696
 31
0.0
  0
LINE
  8
LC-008-003-----0
 62
     2
  5
392
 10
106.896967
 20
399.642696
 30
0.0
 11
107.701008
 21
405.749996
 31
0.0
  0
LINE
  8
LC-009-003-MTG-0
 62
     2
  5
393
 10
106.896967
 20
289.102693
 30
0.0
 11
106.896967
 21
335.476161
 31
0.0
  0
LINE
  8
LC-009-003-MTG-0
 62
     2
  5
394
 10
106.896967
 20
385.123094
 30
0.0
 11
106.896967
 21
417.002696
 31
0.0
  0
TEXT
  8
LC-008-003-----0
 62
     8
  5
395
 10
99.069413
 20
336.200854
 30
0.0
 40
28.0
  1
50
 50
90.0
 41
0.6
 51
15.0
  7
LCTX15-400-0-0-ARIAL
 72
     1
 11
99.069413
 21
357.400854
 31
0.0
  0
ENDBLK
  8
0
  5
396
  0
BLOCK
  8
0
  5
3A5
  2
*X13
 70
    65
 10
0.0
 20
0.0
 30
0.0
  3
*X13
  0
LINE
  8
LC-005-005-----0
 62
     2
  5
3A6
 10
136.541496
 20
391.099937
 30
0.0
 11
136.696613
 21
391.255054
 31
0.0
  0
LINE
  8
LC-005-005-----0
 62
     2
  5
3A7
 10
139.458422
 20
394.016863
 30
0.0
 11
140.489955
 21
395.048397
 31
0.0
  0
LINE
  8
LC-005-005-----0
 62
     2
  5
3A8
 10
134.439954
 20
391.826823
 30
0.0
 11
139.125093
 21
396.511961
 31
0.0
  0
LINE
  8
LC-005-005-----0
 62
     2
  5
3A9
 10
134.439943
 20
394.655238
 30
0.0
 11
137.76023
 21
397.975526
 31
0.0
  0
LINE
  8
LC-005-005-----0
 62
     2
  5
3AA
 10
140.454716
 20
400.670011
 30
0.0
 11
141.145625
 21
401.360921
 31
0.0
  0
LINE
  8
LC-005-005-----0
 62
     2
  5
3AB
 10
134.439932
 20
397.483654
 30
0.0
 11
136.696369
 21
399.740091
 31
0.0
  0
LINE
  8
LC-005-005-----0
 62
     2
  5
3AC
 10
138.381002
 20
401.424724
 30
0.0
 11
139.780763
 21
402.824485
 31
0.0
  0
LINE
  8
LC-005-005-----0
 62
     2
  5
3AD
 10
132.14124
 20
398.01339
 30
0.0
 11
132.721984
 21
398.594134
 31
0.0
  0
LINE
  8
LC-005-005-----0
 62
     2
  5
3AE
 10
134.43992
 20
400.31207
 30
0.0
 11
138.4159
 21
404.28805
 31
0.0
  0
LINE
  8
LC-005-005-----0
 62
     2
  5
3AF
 10
129.820363
 20
398.52094
 30
0.0
 11
132.721973
 21
401.422549
 31
0.0
  0
LINE
  8
LC-005-005-----0
 62
     2
  5
3B0
 10
134.439909
 20
403.140486
 30
0.0
 11
137.051038
 21
405.751615
 31
0.0
  0
LINE
  8
LC-005-005-----0
 62
     2
  5
3B1
 10
129.580592
 20
401.109596
 30
0.0
 11
134.911531
 21
406.440535
 31
0.0
  0
LINE
  8
LC-005-005-----0
 62
     2
  5
3B2
 10
129.580581
 20
403.938012
 30
0.0
 11
132.267897
 21
406.625328
 31
0.0
  0
LINE
  8
LC-005-005-----0
 62
     2
  5
3B3
 10
129.580569
 20
406.766428
 30
0.0
 11
129.624263
 21
406.810121
 31
0.0
  0
ENDBLK
  8
0
  5
3B4
  0
BLOCK
  8
0
  5
3D8
  2
*X14
 70
    65
 10
0.0
 20
0.0
 30
0.0
  3
*X14
  0
LINE
  8
LC-005-005-----0
 62
     2
  5
3D9
 10
147.137801
 20
381.897253
 30
0.0
 11
147.837801
 21
382.597253
 31
0.0
  0
LINE
  8
LC-005-005-----0
 62
     2
  5
3DA
 10
144.70615
 20
382.294029
 30
0.0
 11
145.201906
 21
382.789785
 31
0.0
  0
LINE
  8
LC-005-005-----0
 62
     2
  5
3DB
 10
146.022466
 20
386.438772
 30
0.0
 11
146.722466
 21
387.138772
 31
0.0
  0
LINE
  8
LC-005-005-----0
 62
     2
  5
3DC
 10
144.703984
 20
387.948717
 30
0.0
 11
145.286646
 21
388.531378
 31
0.0
  0
LINE
  8
LC-005-005-----0
 62
     2
  5
3DD
 10
143.010982
 20
389.084142
 30
0.0
 11
143.509124
 21
389.582284
 31
0.0
  0
LINE
  8
LC-005-005-----0
 62
     2
  5
3DE
 10
142.226554
 20
391.128141
 30
0.0
 11
142.922466
 21
391.824053
 31
0.0
  0
LINE
  8
LC-005-005-----0
 62
     2
  5
3DF
 10
142.222466
 20
393.95248
 30
0.0
 11
142.922466
 21
394.65248
 31
0.0
  0
LINE
  8
LC-005-005-----0
 62
     2
  5
3E0
 10
142.222466
 20
396.780907
 30
0.0
 11
142.922466
 21
397.480907
 31
0.0
  0
LINE
  8
LC-005-005-----0
 62
     2
  5
3E1
 10
142.222466
 20
399.609334
 30
0.0
 11
142.922466
 21
400.309334
 31
0.0
  0
LINE
  8
LC-005-005-----0
 62
     2
  5
3E2
 10
142.222466
 20
402.437761
 30
0.0
 11
142.922466
 21
403.137761
 31
0.0
  0
LINE
  8
LC-005-005-----0
 62
     2
  5
3E3
 10
142.216466
 20
405.260188
 30
0.0
 11
142.860481
 21
405.904204
 31
0.0
  0
LINE
  8
LC-005-005-----0
 62
     2
  5
3E4
 10
141.67712
 20
407.54927
 30
0.0
 11
142.199918
 21
408.072068
 31
0.0
  0
LINE
  8
LC-005-005-----0
 62
     2
  5
3E5
 10
140.554682
 20
409.255258
 30
0.0
 11
141.044926
 21
409.745503
 31
0.0
  0
LINE
  8
LC-005-005-----0
 62
     2
  5
3E6
 10
138.970091
 20
410.499095
 30
0.0
 11
139.476419
 21
411.005423
 31
0.0
  0
LINE
  8
LC-005-005-----0
 62
     2
  5
3E7
 10
136.858014
 20
411.215445
 30
0.0
 11
137.448842
 21
411.806273
 31
0.0
  0
LINE
  8
LC-005-005-----0
 62
     2
  5
3E8
 10
134.232963
 20
411.418822
 30
0.0
 11
134.878923
 21
412.064781
 31
0.0
  0
LINE
  8
LC-005-005-----0
 62
     2
  5
3E9
 10
131.589393
 20
411.603678
 30
0.0
 11
132.235352
 21
412.249637
 31
0.0
  0
LINE
  8
LC-005-005-----0
 62
     2
  5
3EA
 10
128.945822
 20
411.788535
 30
0.0
 11
129.591781
 21
412.434494
 31
0.0
  0
LINE
  8
LC-005-005-----0
 62
     2
  5
3EB
 10
126.302251
 20
411.973391
 30
0.0
 11
126.948211
 21
412.61935
 31
0.0
  0
LINE
  8
LC-005-005-----0
 62
     2
  5
3EC
 10
123.658681
 20
412.158248
 30
0.0
 11
124.30464
 21
412.804207
 31
0.0
  0
LINE
  8
LC-005-005-----0
 62
     2
  5
3ED
 10
121.01511
 20
412.343104
 30
0.0
 11
121.661069
 21
412.989063
 31
0.0
  0
LINE
  8
LC-005-005-----0
 62
     2
  5
3EE
 10
118.376051
 20
412.532472
 30
0.0
 11
119.017499
 21
413.17392
 31
0.0
  0
LINE
  8
LC-005-005-----0
 62
     2
  5
3EF
 10
116.163867
 20
413.148715
 30
0.0
 11
116.694518
 21
413.679366
 31
0.0
  0
LINE
  8
LC-005-005-----0
 62
     2
  5
3F0
 10
114.459174
 20
414.272449
 30
0.0
 11
114.955019
 21
414.768294
 31
0.0
  0
ENDBLK
  8
0
  5
3F1
  0
BLOCK
  8
0
  5
3F4
  2
*X15
 70
    65
 10
0.0
 20
0.0
 30
0.0
  3
*X15
  0
LINE
  8
LC-005-005-----0
 62
     2
  5
3F5
 10
-18.702511
 20
410.652727
 30
0.0
 11
-18.324747
 21
411.030491
 31
0.0
  0
LINE
  8
LC-005-005-----0
 62
     2
  5
3F6
 10
-19.268196
 20
410.652727
 30
0.0
 11
-18.324747
 21
411.596176
 31
0.0
  0
LINE
  8
LC-005-005-----0
 62
     2
  5
3F7
 10
-19.833882
 20
410.652727
 30
0.0
 11
-18.324747
 21
412.161861
 31
0.0
  0
LINE
  8
LC-005-005-----0
 62
     2
  5
3F8
 10
-20.399567
 20
410.652727
 30
0.0
 11
-18.324747
 21
412.727547
 31
0.0
  0
LINE
  8
LC-005-005-----0
 62
     2
  5
3F9
 10
-20.965253
 20
410.652727
 30
0.0
 11
-18.324747
 21
413.293232
 31
0.0
  0
LINE
  8
LC-005-005-----0
 62
     2
  5
3FA
 10
-21.530938
 20
410.652727
 30
0.0
 11
-18.324747
 21
413.858918
 31
0.0
  0
LINE
  8
LC-005-005-----0
 62
     2
  5
3FB
 10
-22.096623
 20
410.652727
 30
0.0
 11
-18.324747
 21
414.424603
 31
0.0
  0
LINE
  8
LC-005-005-----0
 62
     2
  5
3FC
 10
-22.662309
 20
410.652727
 30
0.0
 11
-18.324747
 21
414.990289
 31
0.0
  0
LINE
  8
LC-005-005-----0
 62
     2
  5
3FD
 10
-23.227994
 20
410.652727
 30
0.0
 11
-18.527994
 21
415.352727
 31
0.0
  0
LINE
  8
LC-005-005-----0
 62
     2
  5
3FE
 10
-23.79368
 20
410.652727
 30
0.0
 11
-19.09368
 21
415.352727
 31
0.0
  0
LINE
  8
LC-005-005-----0
 62
     2
  5
3FF
 10
-24.359365
 20
410.652727
 30
0.0
 11
-19.659365
 21
415.352727
 31
0.0
  0
LINE
  8
LC-005-005-----0
 62
     2
  5
400
 10
-24.925051
 20
410.652727
 30
0.0
 11
-20.225051
 21
415.352727
 31
0.0
  0
LINE
  8
LC-005-005-----0
 62
     2
  5
401
 10
-25.490736
 20
410.652727
 30
0.0
 11
-20.790736
 21
415.352727
 31
0.0
  0
LINE
  8
LC-005-005-----0
 62
     2
  5
402
 10
-26.056421
 20
410.652727
 30
0.0
 11
-21.356421
 21
415.352727
 31
0.0
  0
LINE
  8
LC-005-005-----0
 62
     2
  5
403
 10
-26.622107
 20
410.652727
 30
0.0
 11
-21.922107
 21
415.352727
 31
0.0
  0
LINE
  8
LC-005-005-----0
 62
     2
  5
404
 10
-27.187792
 20
410.652727
 30
0.0
 11
-22.487792
 21
415.352727
 31
0.0
  0
LINE
  8
LC-005-005-----0
 62
     2
  5
405
 10
-27.753478
 20
410.652727
 30
0.0
 11
-23.053478
 21
415.352727
 31
0.0
  0
LINE
  8
LC-005-005-----0
 62
     2
  5
406
 10
-28.319163
 20
410.652727
 30
0.0
 11
-23.619163
 21
415.352727
 31
0.0
  0
LINE
  8
LC-005-005-----0
 62
     2
  5
407
 10
-28.324747
 20
411.212828
 30
0.0
 11
-24.184849
 21
415.352727
 31
0.0
  0
LINE
  8
LC-005-005-----0
 62
     2
  5
408
 10
-28.324747
 20
411.778514
 30
0.0
 11
-24.750534
 21
415.352727
 31
0.0
  0
LINE
  8
LC-005-005-----0
 62
     2
  5
409
 10
-28.324747
 20
412.344199
 30
0.0
 11
-25.316219
 21
415.352727
 31
0.0
  0
LINE
  8
LC-005-005-----0
 62
     2
  5
40A
 10
-28.324747
 20
412.909884
 30
0.0
 11
-25.881905
 21
415.352727
 31
0.0
  0
LINE
  8
LC-005-005-----0
 62
     2
  5
40B
 10
-28.324747
 20
413.47557
 30
0.0
 11
-26.44759
 21
415.352727
 31
0.0
  0
LINE
  8
LC-005-005-----0
 62
     2
  5
40C
 10
-28.324747
 20
414.041255
 30
0.0
 11
-27.013276
 21
415.352727
 31
0.0
  0
LINE
  8
LC-005-005-----0
 62
     2
  5
40D
 10
-28.324747
 20
414.606941
 30
0.0
 11
-27.578961
 21
415.352727
 31
0.0
  0
LINE
  8
LC-005-005-----0
 62
     2
  5
40E
 10
-28.324747
 20
415.172626
 30
0.0
 11
-28.144647
 21
415.352727
 31
0.0
  0
ENDBLK
  8
0
  5
40F
  0
BLOCK
  8
0
  5
412
  2
*X16
 70
    65
 10
0.0
 20
0.0
 30
0.0
  3
*X16
  0
LINE
  8
LC-005-005-----0
 62
     2
  5
413
 10
1.662164
 20
410.652727
 30
0.0
 11
1.675253
 21
410.665815
 31
0.0
  0
LINE
  8
LC-005-005-----0
 62
     2
  5
414
 10
1.096479
 20
410.652727
 30
0.0
 11
1.675253
 21
411.231501
 31
0.0
  0
LINE
  8
LC-005-005-----0
 62
     2
  5
415
 10
0.530794
 20
410.652727
 30
0.0
 11
1.675253
 21
411.797186
 31
0.0
  0
LINE
  8
LC-005-005-----0
 62
     2
  5
416
 10
-0.034892
 20
410.652727
 30
0.0
 11
1.675253
 21
412.362872
 31
0.0
  0
LINE
  8
LC-005-005-----0
 62
     2
  5
417
 10
-0.600577
 20
410.652727
 30
0.0
 11
1.675253
 21
412.928557
 31
0.0
  0
LINE
  8
LC-005-005-----0
 62
     2
  5
418
 10
-1.166263
 20
410.652727
 30
0.0
 11
1.675253
 21
413.494242
 31
0.0
  0
LINE
  8
LC-005-005-----0
 62
     2
  5
419
 10
-1.731948
 20
410.652727
 30
0.0
 11
1.675253
 21
414.059928
 31
0.0
  0
LINE
  8
LC-005-005-----0
 62
     2
  5
41A
 10
-2.297634
 20
410.652727
 30
0.0
 11
1.675253
 21
414.625613
 31
0.0
  0
LINE
  8
LC-005-005-----0
 62
     2
  5
41B
 10
-2.863319
 20
410.652727
 30
0.0
 11
1.675253
 21
415.191299
 31
0.0
  0
LINE
  8
LC-005-005-----0
 62
     2
  5
41C
 10
-3.429004
 20
410.652727
 30
0.0
 11
1.270996
 21
415.352727
 31
0.0
  0
LINE
  8
LC-005-005-----0
 62
     2
  5
41D
 10
-3.99469
 20
410.652727
 30
0.0
 11
0.70531
 21
415.352727
 31
0.0
  0
LINE
  8
LC-005-005-----0
 62
     2
  5
41E
 10
-4.560375
 20
410.652727
 30
0.0
 11
0.139625
 21
415.352727
 31
0.0
  0
LINE
  8
LC-005-005-----0
 62
     2
  5
41F
 10
-5.126061
 20
410.652727
 30
0.0
 11
-0.426061
 21
415.352727
 31
0.0
  0
LINE
  8
LC-005-005-----0
 62
     2
  5
420
 10
-5.691746
 20
410.652727
 30
0.0
 11
-0.991746
 21
415.352727
 31
0.0
  0
LINE
  8
LC-005-005-----0
 62
     2
  5
421
 10
-6.257432
 20
410.652727
 30
0.0
 11
-1.557432
 21
415.352727
 31
0.0
  0
LINE
  8
LC-005-005-----0
 62
     2
  5
422
 10
-6.823117
 20
410.652727
 30
0.0
 11
-2.123117
 21
415.352727
 31
0.0
  0
LINE
  8
LC-005-005-----0
 62
     2
  5
423
 10
-7.388802
 20
410.652727
 30
0.0
 11
-2.688802
 21
415.352727
 31
0.0
  0
LINE
  8
LC-005-005-----0
 62
     2
  5
424
 10
-7.954488
 20
410.652727
 30
0.0
 11
-3.254488
 21
415.352727
 31
0.0
  0
LINE
  8
LC-005-005-----0
 62
     2
  5
425
 10
-8.324747
 20
410.848153
 30
0.0
 11
-3.820173
 21
415.352727
 31
0.0
  0
LINE
  8
LC-005-005-----0
 62
     2
  5
426
 10
-8.324747
 20
411.413838
 30
0.0
 11
-4.385859
 21
415.352727
 31
0.0
  0
LINE
  8
LC-005-005-----0
 62
     2
  5
427
 10
-8.324747
 20
411.979524
 30
0.0
 11
-4.951544
 21
415.352727
 31
0.0
  0
LINE
  8
LC-005-005-----0
 62
     2
  5
428
 10
-8.324747
 20
412.545209
 30
0.0
 11
-5.51723
 21
415.352727
 31
0.0
  0
LINE
  8
LC-005-005-----0
 62
     2
  5
429
 10
-8.324747
 20
413.110895
 30
0.0
 11
-6.082915
 21
415.352727
 31
0.0
  0
LINE
  8
LC-005-005-----0
 62
     2
  5
42A
 10
-8.324747
 20
413.67658
 30
0.0
 11
-6.6486
 21
415.352727
 31
0.0
  0
LINE
  8
LC-005-005-----0
 62
     2
  5
42B
 10
-8.324747
 20
414.242265
 30
0.0
 11
-7.214286
 21
415.352727
 31
0.0
  0
LINE
  8
LC-005-005-----0
 62
     2
  5
42C
 10
-8.324747
 20
414.807951
 30
0.0
 11
-7.779971
 21
415.352727
 31
0.0
  0
ENDBLK
  8
0
  5
42D
  0
BLOCK
  8
0
  5
430
  2
*X17
 70
    65
 10
0.0
 20
0.0
 30
0.0
  3
*X17
  0
LINE
  8
LC-005-005-----0
 62
     2
  5
431
 10
21.461154
 20
410.652727
 30
0.0
 11
21.675253
 21
410.866825
 31
0.0
  0
LINE
  8
LC-005-005-----0
 62
     2
  5
432
 10
20.895469
 20
410.652727
 30
0.0
 11
21.675253
 21
411.432511
 31
0.0
  0
LINE
  8
LC-005-005-----0
 62
     2
  5
433
 10
20.329783
 20
410.652727
 30
0.0
 11
21.675253
 21
411.998196
 31
0.0
  0
LINE
  8
LC-005-005-----0
 62
     2
  5
434
 10
19.764098
 20
410.652727
 30
0.0
 11
21.675253
 21
412.563882
 31
0.0
  0
LINE
  8
LC-005-005-----0
 62
     2
  5
435
 10
19.198413
 20
410.652727
 30
0.0
 11
21.675253
 21
413.129567
 31
0.0
  0
LINE
  8
LC-005-005-----0
 62
     2
  5
436
 10
18.632727
 20
410.652727
 30
0.0
 11
21.675253
 21
413.695252
 31
0.0
  0
LINE
  8
LC-005-005-----0
 62
     2
  5
437
 10
18.067042
 20
410.652727
 30
0.0
 11
21.675253
 21
414.260938
 31
0.0
  0
LINE
  8
LC-005-005-----0
 62
     2
  5
438
 10
17.501356
 20
410.652727
 30
0.0
 11
21.675253
 21
414.826623
 31
0.0
  0
LINE
  8
LC-005-005-----0
 62
     2
  5
439
 10
16.935671
 20
410.652727
 30
0.0
 11
21.635671
 21
415.352727
 31
0.0
  0
LINE
  8
LC-005-005-----0
 62
     2
  5
43A
 10
16.369985
 20
410.652727
 30
0.0
 11
21.069985
 21
415.352727
 31
0.0
  0
LINE
  8
LC-005-005-----0
 62
     2
  5
43B
 10
15.8043
 20
410.652727
 30
0.0
 11
20.5043
 21
415.352727
 31
0.0
  0
LINE
  8
LC-005-005-----0
 62
     2
  5
43C
 10
15.238615
 20
410.652727
 30
0.0
 11
19.938615
 21
415.352727
 31
0.0
  0
LINE
  8
LC-005-005-----0
 62
     2
  5
43D
 10
14.672929
 20
410.652727
 30
0.0
 11
19.372929
 21
415.352727
 31
0.0
  0
LINE
  8
LC-005-005-----0
 62
     2
  5
43E
 10
14.107244
 20
410.652727
 30
0.0
 11
18.807244
 21
415.352727
 31
0.0
  0
LINE
  8
LC-005-005-----0
 62
     2
  5
43F
 10
13.541558
 20
410.652727
 30
0.0
 11
18.241558
 21
415.352727
 31
0.0
  0
LINE
  8
LC-005-005-----0
 62
     2
  5
440
 10
12.975873
 20
410.652727
 30
0.0
 11
17.675873
 21
415.352727
 31
0.0
  0
LINE
  8
LC-005-005-----0
 62
     2
  5
441
 10
12.410187
 20
410.652727
 30
0.0
 11
17.110187
 21
415.352727
 31
0.0
  0
LINE
  8
LC-005-005-----0
 62
     2
  5
442
 10
11.844502
 20
410.652727
 30
0.0
 11
16.544502
 21
415.352727
 31
0.0
  0
LINE
  8
LC-005-005-----0
 62
     2
  5
443
 10
11.675253
 20
411.049163
 30
0.0
 11
15.978817
 21
415.352727
 31
0.0
  0
LINE
  8
LC-005-005-----0
 62
     2
  5
444
 10
11.675253
 20
411.614848
 30
0.0
 11
15.413131
 21
415.352727
 31
0.0
  0
LINE
  8
LC-005-005-----0
 62
     2
  5
445
 10
11.675253
 20
412.180534
 30
0.0
 11
14.847446
 21
415.352727
 31
0.0
  0
LINE
  8
LC-005-005-----0
 62
     2
  5
446
 10
11.675253
 20
412.746219
 30
0.0
 11
14.28176
 21
415.352727
 31
0.0
  0
LINE
  8
LC-005-005-----0
 62
     2
  5
447
 10
11.675253
 20
413.311905
 30
0.0
 11
13.716075
 21
415.352727
 31
0.0
  0
LINE
  8
LC-005-005-----0
 62
     2
  5
448
 10
11.675253
 20
413.87759
 30
0.0
 11
13.150389
 21
415.352727
 31
0.0
  0
LINE
  8
LC-005-005-----0
 62
     2
  5
449
 10
11.675253
 20
414.443276
 30
0.0
 11
12.584704
 21
415.352727
 31
0.0
  0
LINE
  8
LC-005-005-----0
 62
     2
  5
44A
 10
11.675253
 20
415.008961
 30
0.0
 11
12.019019
 21
415.352727
 31
0.0
  0
ENDBLK
  8
0
  5
44B
  0
BLOCK
  8
0
  5
44E
  2
*X18
 70
    65
 10
0.0
 20
0.0
 30
0.0
  3
*X18
  0
LINE
  8
LC-005-005-----0
 62
     2
  5
44F
 10
41.260144
 20
410.652727
 30
0.0
 11
41.675253
 21
411.067835
 31
0.0
  0
LINE
  8
LC-005-005-----0
 62
     2
  5
450
 10
40.694459
 20
410.652727
 30
0.0
 11
41.675253
 21
411.633521
 31
0.0
  0
LINE
  8
LC-005-005-----0
 62
     2
  5
451
 10
40.128773
 20
410.652727
 30
0.0
 11
41.675253
 21
412.199206
 31
0.0
  0
LINE
  8
LC-005-005-----0
 62
     2
  5
452
 10
39.563088
 20
410.652727
 30
0.0
 11
41.675253
 21
412.764892
 31
0.0
  0
LINE
  8
LC-005-005-----0
 62
     2
  5
453
 10
38.997402
 20
410.652727
 30
0.0
 11
41.675253
 21
413.330577
 31
0.0
  0
LINE
  8
LC-005-005-----0
 62
     2
  5
454
 10
38.431717
 20
410.652727
 30
0.0
 11
41.675253
 21
413.896263
 31
0.0
  0
LINE
  8
LC-005-005-----0
 62
     2
  5
455
 10
37.866032
 20
410.652727
 30
0.0
 11
41.675253
 21
414.461948
 31
0.0
  0
LINE
  8
LC-005-005-----0
 62
     2
  5
456
 10
37.300346
 20
410.652727
 30
0.0
 11
41.675253
 21
415.027633
 31
0.0
  0
LINE
  8
LC-005-005-----0
 62
     2
  5
457
 10
36.734661
 20
410.652727
 30
0.0
 11
41.434661
 21
415.352727
 31
0.0
  0
LINE
  8
LC-005-005-----0
 62
     2
  5
458
 10
36.168975
 20
410.652727
 30
0.0
 11
40.868975
 21
415.352727
 31
0.0
  0
LINE
  8
LC-005-005-----0
 62
     2
  5
459
 10
35.60329
 20
410.652727
 30
0.0
 11
40.30329
 21
415.352727
 31
0.0
  0
LINE
  8
LC-005-005-----0
 62
     2
  5
45A
 10
35.037604
 20
410.652727
 30
0.0
 11
39.737604
 21
415.352727
 31
0.0
  0
LINE
  8
LC-005-005-----0
 62
     2
  5
45B
 10
34.471919
 20
410.652727
 30
0.0
 11
39.171919
 21
415.352727
 31
0.0
  0
LINE
  8
LC-005-005-----0
 62
     2
  5
45C
 10
33.906234
 20
410.652727
 30
0.0
 11
38.606234
 21
415.352727
 31
0.0
  0
LINE
  8
LC-005-005-----0
 62
     2
  5
45D
 10
33.340548
 20
410.652727
 30
0.0
 11
38.040548
 21
415.352727
 31
0.0
  0
LINE
  8
LC-005-005-----0
 62
     2
  5
45E
 10
32.774863
 20
410.652727
 30
0.0
 11
37.474863
 21
415.352727
 31
0.0
  0
LINE
  8
LC-005-005-----0
 62
     2
  5
45F
 10
32.209177
 20
410.652727
 30
0.0
 11
36.909177
 21
415.352727
 31
0.0
  0
LINE
  8
LC-005-005-----0
 62
     2
  5
460
 10
31.675253
 20
410.684488
 30
0.0
 11
36.343492
 21
415.352727
 31
0.0
  0
LINE
  8
LC-005-005-----0
 62
     2
  5
461
 10
31.675253
 20
411.250173
 30
0.0
 11
35.777806
 21
415.352727
 31
0.0
  0
LINE
  8
LC-005-005-----0
 62
     2
  5
462
 10
31.675253
 20
411.815859
 30
0.0
 11
35.212121
 21
415.352727
 31
0.0
  0
LINE
  8
LC-005-005-----0
 62
     2
  5
463
 10
31.675253
 20
412.381544
 30
0.0
 11
34.646436
 21
415.352727
 31
0.0
  0
LINE
  8
LC-005-005-----0
 62
     2
  5
464
 10
31.675253
 20
412.947229
 30
0.0
 11
34.08075
 21
415.352727
 31
0.0
  0
LINE
  8
LC-005-005-----0
 62
     2
  5
465
 10
31.675253
 20
413.512915
 30
0.0
 11
33.515065
 21
415.352727
 31
0.0
  0
LINE
  8
LC-005-005-----0
 62
     2
  5
466
 10
31.675253
 20
414.0786
 30
0.0
 11
32.949379
 21
415.352727
 31
0.0
  0
LINE
  8
LC-005-005-----0
 62
     2
  5
467
 10
31.675253
 20
414.644286
 30
0.0
 11
32.383694
 21
415.352727
 31
0.0
  0
LINE
  8
LC-005-005-----0
 62
     2
  5
468
 10
31.675253
 20
415.209971
 30
0.0
 11
31.818008
 21
415.352727
 31
0.0
  0
ENDBLK
  8
0
  5
469
  0
BLOCK
  8
0
  5
46C
  2
*X19
 70
    65
 10
0.0
 20
0.0
 30
0.0
  3
*X19
  0
LINE
  8
LC-005-005-----0
 62
     2
  5
46D
 10
61.624819
 20
410.652727
 30
0.0
 11
61.675253
 21
410.70316
 31
0.0
  0
LINE
  8
LC-005-005-----0
 62
     2
  5
46E
 10
61.059134
 20
410.652727
 30
0.0
 11
61.675253
 21
411.268846
 31
0.0
  0
LINE
  8
LC-005-005-----0
 62
     2
  5
46F
 10
60.493449
 20
410.652727
 30
0.0
 11
61.675253
 21
411.834531
 31
0.0
  0
LINE
  8
LC-005-005-----0
 62
     2
  5
470
 10
59.927763
 20
410.652727
 30
0.0
 11
61.675253
 21
412.400216
 31
0.0
  0
LINE
  8
LC-005-005-----0
 62
     2
  5
471
 10
59.362078
 20
410.652727
 30
0.0
 11
61.675253
 21
412.965902
 31
0.0
  0
LINE
  8
LC-005-005-----0
 62
     2
  5
472
 10
58.796392
 20
410.652727
 30
0.0
 11
61.675253
 21
413.531587
 31
0.0
  0
LINE
  8
LC-005-005-----0
 62
     2
  5
473
 10
58.230707
 20
410.652727
 30
0.0
 11
61.675253
 21
414.097273
 31
0.0
  0
LINE
  8
LC-005-005-----0
 62
     2
  5
474
 10
57.665021
 20
410.652727
 30
0.0
 11
61.675253
 21
414.662958
 31
0.0
  0
LINE
  8
LC-005-005-----0
 62
     2
  5
475
 10
57.099336
 20
410.652727
 30
0.0
 11
61.675253
 21
415.228644
 31
0.0
  0
LINE
  8
LC-005-005-----0
 62
     2
  5
476
 10
56.533651
 20
410.652727
 30
0.0
 11
61.233651
 21
415.352727
 31
0.0
  0
LINE
  8
LC-005-005-----0
 62
     2
  5
477
 10
55.967965
 20
410.652727
 30
0.0
 11
60.667965
 21
415.352727
 31
0.0
  0
LINE
  8
LC-005-005-----0
 62
     2
  5
478
 10
55.40228
 20
410.652727
 30
0.0
 11
60.10228
 21
415.352727
 31
0.0
  0
LINE
  8
LC-005-005-----0
 62
     2
  5
479
 10
54.836594
 20
410.652727
 30
0.0
 11
59.536594
 21
415.352727
 31
0.0
  0
LINE
  8
LC-005-005-----0
 62
     2
  5
47A
 10
54.270909
 20
410.652727
 30
0.0
 11
58.970909
 21
415.352727
 31
0.0
  0
LINE
  8
LC-005-005-----0
 62
     2
  5
47B
 10
53.705223
 20
410.652727
 30
0.0
 11
58.405223
 21
415.352727
 31
0.0
  0
LINE
  8
LC-005-005-----0
 62
     2
  5
47C
 10
53.139538
 20
410.652727
 30
0.0
 11
57.839538
 21
415.352727
 31
0.0
  0
LINE
  8
LC-005-005-----0
 62
     2
  5
47D
 10
52.573853
 20
410.652727
 30
0.0
 11
57.273853
 21
415.352727
 31
0.0
  0
LINE
  8
LC-005-005-----0
 62
     2
  5
47E
 10
52.008167
 20
410.652727
 30
0.0
 11
56.708167
 21
415.352727
 31
0.0
  0
LINE
  8
LC-005-005-----0
 62
     2
  5
47F
 10
51.675253
 20
410.885498
 30
0.0
 11
56.142482
 21
415.352727
 31
0.0
  0
LINE
  8
LC-005-005-----0
 62
     2
  5
480
 10
51.675253
 20
411.451183
 30
0.0
 11
55.576796
 21
415.352727
 31
0.0
  0
LINE
  8
LC-005-005-----0
 62
     2
  5
481
 10
51.675253
 20
412.016869
 30
0.0
 11
55.011111
 21
415.352727
 31
0.0
  0
LINE
  8
LC-005-005-----0
 62
     2
  5
482
 10
51.675253
 20
412.582554
 30
0.0
 11
54.445425
 21
415.352727
 31
0.0
  0
LINE
  8
LC-005-005-----0
 62
     2
  5
483
 10
51.675253
 20
413.14824
 30
0.0
 11
53.87974
 21
415.352727
 31
0.0
  0
LINE
  8
LC-005-005-----0
 62
     2
  5
484
 10
51.675253
 20
413.713925
 30
0.0
 11
53.314055
 21
415.352727
 31
0.0
  0
LINE
  8
LC-005-005-----0
 62
     2
  5
485
 10
51.675253
 20
414.27961
 30
0.0
 11
52.748369
 21
415.352727
 31
0.0
  0
LINE
  8
LC-005-005-----0
 62
     2
  5
486
 10
51.675253
 20
414.845296
 30
0.0
 11
52.182684
 21
415.352727
 31
0.0
  0
ENDBLK
  8
0
  5
487
  0
BLOCK
  8
0
  5
498
  2
*X20
 70
    65
 10
0.0
 20
0.0
 30
0.0
  3
*X20
  0
LINE
  8
LC-005-005-----0
 62
     2
  5
499
 10
150.910041
 20
388.49792
 30
0.0
 11
152.98486
 21
390.572739
 31
0.0
  0
LINE
  8
LC-005-005-----0
 62
     2
  5
49A
 10
148.081614
 20
388.49792
 30
0.0
 11
150.581614
 21
390.99792
 31
0.0
  0
LINE
  8
LC-005-005-----0
 62
     2
  5
49B
 10
145.619024
 20
388.863756
 30
0.0
 11
147.753187
 21
390.99792
 31
0.0
  0
LINE
  8
LC-005-005-----0
 62
     2
  5
49C
 10
144.20481
 20
390.27797
 30
0.0
 11
145.48486
 21
391.55802
 31
0.0
  0
LINE
  8
LC-005-005-----0
 62
     2
  5
49D
 10
142.98486
 20
391.886447
 30
0.0
 11
145.48486
 21
394.386447
 31
0.0
  0
LINE
  8
LC-005-005-----0
 62
     2
  5
49E
 10
142.98486
 20
394.714874
 30
0.0
 11
145.48486
 21
397.214874
 31
0.0
  0
LINE
  8
LC-005-005-----0
 62
     2
  5
49F
 10
142.98486
 20
397.543302
 30
0.0
 11
145.48486
 21
400.043302
 31
0.0
  0
LINE
  8
LC-005-005-----0
 62
     2
  5
4A0
 10
142.98486
 20
400.371729
 30
0.0
 11
145.48486
 21
402.871729
 31
0.0
  0
LINE
  8
LC-005-005-----0
 62
     2
  5
4A1
 10
142.98486
 20
403.200156
 30
0.0
 11
145.48486
 21
405.700156
 31
0.0
  0
LINE
  8
LC-005-005-----0
 62
     2
  5
4A2
 10
142.98486
 20
406.028583
 30
0.0
 11
145.453841
 21
408.497564
 31
0.0
  0
ENDBLK
  8
0
  5
4A3
  0
BLOCK
  8
0
  5
4B2
  2
*X21
 70
    65
 10
0.0
 20
0.0
 30
0.0
  3
*X21
  0
LINE
  8
LC-005-005-----0
 62
     2
  5
4B3
 10
81.240893
 20
410.46981
 30
0.0
 11
81.531166
 21
410.760084
 31
0.0
  0
LINE
  8
LC-005-005-----0
 62
     2
  5
4B4
 10
80.684912
 20
410.479515
 30
0.0
 11
81.541216
 21
411.335819
 31
0.0
  0
LINE
  8
LC-005-005-----0
 62
     2
  5
4B5
 10
80.128931
 20
410.489219
 30
0.0
 11
81.551265
 21
411.911553
 31
0.0
  0
LINE
  8
LC-005-005-----0
 62
     2
  5
4B6
 10
79.572951
 20
410.498924
 30
0.0
 11
81.561315
 21
412.487288
 31
0.0
  0
LINE
  8
LC-005-005-----0
 62
     2
  5
4B7
 10
79.01697
 20
410.508629
 30
0.0
 11
81.571364
 21
413.063023
 31
0.0
  0
LINE
  8
LC-005-005-----0
 62
     2
  5
4B8
 10
78.460989
 20
410.518334
 30
0.0
 11
81.581414
 21
413.638758
 31
0.0
  0
LINE
  8
LC-005-005-----0
 62
     2
  5
4B9
 10
77.905008
 20
410.528038
 30
0.0
 11
81.591463
 21
414.214493
 31
0.0
  0
LINE
  8
LC-005-005-----0
 62
     2
  5
4BA
 10
77.349028
 20
410.537743
 30
0.0
 11
81.601513
 21
414.790228
 31
0.0
  0
LINE
  8
LC-005-005-----0
 62
     2
  5
4BB
 10
76.793047
 20
410.547448
 30
0.0
 11
81.413119
 21
415.16752
 31
0.0
  0
LINE
  8
LC-005-005-----0
 62
     2
  5
4BC
 10
76.237066
 20
410.557152
 30
0.0
 11
80.857138
 21
415.177225
 31
0.0
  0
LINE
  8
LC-005-005-----0
 62
     2
  5
4BD
 10
75.681085
 20
410.566857
 30
0.0
 11
80.301158
 21
415.186929
 31
0.0
  0
LINE
  8
LC-005-005-----0
 62
     2
  5
4BE
 10
75.125105
 20
410.576562
 30
0.0
 11
79.745177
 21
415.196634
 31
0.0
  0
LINE
  8
LC-005-005-----0
 62
     2
  5
4BF
 10
74.569124
 20
410.586266
 30
0.0
 11
79.189196
 21
415.206339
 31
0.0
  0
LINE
  8
LC-005-005-----0
 62
     2
  5
4C0
 10
74.013143
 20
410.595971
 30
0.0
 11
78.633215
 21
415.216043
 31
0.0
  0
LINE
  8
LC-005-005-----0
 62
     2
  5
4C1
 10
73.457162
 20
410.605676
 30
0.0
 11
78.077235
 21
415.225748
 31
0.0
  0
LINE
  8
LC-005-005-----0
 62
     2
  5
4C2
 10
72.901182
 20
410.61538
 30
0.0
 11
77.521254
 21
415.235453
 31
0.0
  0
LINE
  8
LC-005-005-----0
 62
     2
  5
4C3
 10
72.345201
 20
410.625085
 30
0.0
 11
76.965273
 21
415.245157
 31
0.0
  0
LINE
  8
LC-005-005-----0
 62
     2
  5
4C4
 10
71.78922
 20
410.63479
 30
0.0
 11
76.409292
 21
415.254862
 31
0.0
  0
LINE
  8
LC-005-005-----0
 62
     2
  5
4C5
 10
71.523592
 20
410.934847
 30
0.0
 11
75.853312
 21
415.264567
 31
0.0
  0
LINE
  8
LC-005-005-----0
 62
     2
  5
4C6
 10
71.533642
 20
411.510582
 30
0.0
 11
75.297331
 21
415.274271
 31
0.0
  0
LINE
  8
LC-005-005-----0
 62
     2
  5
4C7
 10
71.543691
 20
412.086317
 30
0.0
 11
74.74135
 21
415.283976
 31
0.0
  0
LINE
  8
LC-005-005-----0
 62
     2
  5
4C8
 10
71.553741
 20
412.662052
 30
0.0
 11
74.185369
 21
415.293681
 31
0.0
  0
LINE
  8
LC-005-005-----0
 62
     2
  5
4C9
 10
71.56379
 20
413.237787
 30
0.0
 11
73.629389
 21
415.303385
 31
0.0
  0
LINE
  8
LC-005-005-----0
 62
     2
  5
4CA
 10
71.57384
 20
413.813522
 30
0.0
 11
73.073408
 21
415.31309
 31
0.0
  0
LINE
  8
LC-005-005-----0
 62
     2
  5
4CB
 10
71.583889
 20
414.389257
 30
0.0
 11
72.517427
 21
415.322795
 31
0.0
  0
LINE
  8
LC-005-005-----0
 62
     2
  5
4CC
 10
71.593939
 20
414.964992
 30
0.0
 11
71.961446
 21
415.332499
 31
0.0
  0
ENDBLK
  8
0
  5
4CD
  0
BLOCK
  8
0
  5
4D2
  2
*X22
 70
    65
 10
0.0
 20
0.0
 30
0.0
  3
*X22
  0
LINE
  8
LC-005-005-----0
 62
     2
  5
4D3
 10
101.2562
 20
410.120442
 30
0.0
 11
101.551142
 21
410.415385
 31
0.0
  0
LINE
  8
LC-005-005-----0
 62
     2
  5
4D4
 10
100.700219
 20
410.130146
 30
0.0
 11
101.561192
 21
410.991119
 31
0.0
  0
LINE
  8
LC-005-005-----0
 62
     2
  5
4D5
 10
100.144238
 20
410.139851
 30
0.0
 11
101.571241
 21
411.566854
 31
0.0
  0
LINE
  8
LC-005-005-----0
 62
     2
  5
4D6
 10
99.588257
 20
410.149556
 30
0.0
 11
101.581291
 21
412.142589
 31
0.0
  0
LINE
  8
LC-005-005-----0
 62
     2
  5
4D7
 10
99.032277
 20
410.15926
 30
0.0
 11
101.59134
 21
412.718324
 31
0.0
  0
LINE
  8
LC-005-005-----0
 62
     2
  5
4D8
 10
98.476296
 20
410.168965
 30
0.0
 11
101.60139
 21
413.294059
 31
0.0
  0
LINE
  8
LC-005-005-----0
 62
     2
  5
4D9
 10
97.920315
 20
410.17867
 30
0.0
 11
101.611439
 21
413.869794
 31
0.0
  0
LINE
  8
LC-005-005-----0
 62
     2
  5
4DA
 10
97.364334
 20
410.188374
 30
0.0
 11
101.621489
 21
414.445529
 31
0.0
  0
LINE
  8
LC-005-005-----0
 62
     2
  5
4DB
 10
96.808354
 20
410.198079
 30
0.0
 11
101.428426
 21
414.818151
 31
0.0
  0
LINE
  8
LC-005-005-----0
 62
     2
  5
4DC
 10
96.252373
 20
410.207784
 30
0.0
 11
100.872445
 21
414.827856
 31
0.0
  0
LINE
  8
LC-005-005-----0
 62
     2
  5
4DD
 10
95.696392
 20
410.217488
 30
0.0
 11
100.316464
 21
414.837561
 31
0.0
  0
LINE
  8
LC-005-005-----0
 62
     2
  5
4DE
 10
95.140411
 20
410.227193
 30
0.0
 11
99.760484
 21
414.847265
 31
0.0
  0
LINE
  8
LC-005-005-----0
 62
     2
  5
4DF
 10
94.584431
 20
410.236898
 30
0.0
 11
99.204503
 21
414.85697
 31
0.0
  0
LINE
  8
LC-005-005-----0
 62
     2
  5
4E0
 10
94.02845
 20
410.246602
 30
0.0
 11
98.648522
 21
414.866675
 31
0.0
  0
LINE
  8
LC-005-005-----0
 62
     2
  5
4E1
 10
93.472469
 20
410.256307
 30
0.0
 11
98.092541
 21
414.876379
 31
0.0
  0
LINE
  8
LC-005-005-----0
 62
     2
  5
4E2
 10
92.916488
 20
410.266012
 30
0.0
 11
97.536561
 21
414.886084
 31
0.0
  0
LINE
  8
LC-005-005-----0
 62
     2
  5
4E3
 10
92.360508
 20
410.275717
 30
0.0
 11
96.98058
 21
414.895789
 31
0.0
  0
LINE
  8
LC-005-005-----0
 62
     2
  5
4E4
 10
91.804527
 20
410.285421
 30
0.0
 11
96.424599
 21
414.905493
 31
0.0
  0
LINE
  8
LC-005-005-----0
 62
     2
  5
4E5
 10
91.543569
 20
410.590148
 30
0.0
 11
95.868618
 21
414.915198
 31
0.0
  0
LINE
  8
LC-005-005-----0
 62
     2
  5
4E6
 10
91.553618
 20
411.165883
 30
0.0
 11
95.312638
 21
414.924903
 31
0.0
  0
LINE
  8
LC-005-005-----0
 62
     2
  5
4E7
 10
91.563668
 20
411.741618
 30
0.0
 11
94.756657
 21
414.934608
 31
0.0
  0
LINE
  8
LC-005-005-----0
 62
     2
  5
4E8
 10
91.573717
 20
412.317353
 30
0.0
 11
94.200676
 21
414.944312
 31
0.0
  0
LINE
  8
LC-005-005-----0
 62
     2
  5
4E9
 10
91.583767
 20
412.893088
 30
0.0
 11
93.644696
 21
414.954017
 31
0.0
  0
LINE
  8
LC-005-005-----0
 62
     2
  5
4EA
 10
91.593816
 20
413.468823
 30
0.0
 11
93.088715
 21
414.963722
 31
0.0
  0
LINE
  8
LC-005-005-----0
 62
     2
  5
4EB
 10
91.603866
 20
414.044558
 30
0.0
 11
92.532734
 21
414.973426
 31
0.0
  0
LINE
  8
LC-005-005-----0
 62
     2
  5
4EC
 10
91.613915
 20
414.620293
 30
0.0
 11
91.976753
 21
414.983131
 31
0.0
  0
ENDBLK
  8
0
  5
4ED
  0
BLOCK
  8
0
  5
4F2
  2
*X23
 70
    65
 10
0.0
 20
0.0
 30
0.0
  3
*X23
  0
LINE
  8
LC-005-005-----0
 62
     2
  5
4F3
 10
121.369987
 20
407.606812
 30
0.0
 11
121.675253
 21
407.912078
 31
0.0
  0
LINE
  8
LC-005-005-----0
 62
     2
  5
4F4
 10
120.841273
 20
407.643783
 30
0.0
 11
121.675253
 21
408.477763
 31
0.0
  0
LINE
  8
LC-005-005-----0
 62
     2
  5
4F5
 10
120.312559
 20
407.680754
 30
0.0
 11
121.675253
 21
409.043449
 31
0.0
  0
LINE
  8
LC-005-005-----0
 62
     2
  5
4F6
 10
119.783844
 20
407.717726
 30
0.0
 11
121.675253
 21
409.609134
 31
0.0
  0
LINE
  8
LC-005-005-----0
 62
     2
  5
4F7
 10
119.25513
 20
407.754697
 30
0.0
 11
121.675253
 21
410.17482
 31
0.0
  0
LINE
  8
LC-005-005-----0
 62
     2
  5
4F8
 10
118.726416
 20
407.791668
 30
0.0
 11
121.675253
 21
410.740505
 31
0.0
  0
LINE
  8
LC-005-005-----0
 62
     2
  5
4F9
 10
118.197702
 20
407.828639
 30
0.0
 11
121.675253
 21
411.306191
 31
0.0
  0
LINE
  8
LC-005-005-----0
 62
     2
  5
4FA
 10
117.668988
 20
407.865611
 30
0.0
 11
121.675253
 21
411.871876
 31
0.0
  0
LINE
  8
LC-005-005-----0
 62
     2
  5
4FB
 10
117.140274
 20
407.902582
 30
0.0
 11
121.543824
 21
412.306133
 31
0.0
  0
LINE
  8
LC-005-005-----0
 62
     2
  5
4FC
 10
116.611559
 20
407.939553
 30
0.0
 11
121.01511
 21
412.343104
 31
0.0
  0
LINE
  8
LC-005-005-----0
 62
     2
  5
4FD
 10
116.082845
 20
407.976525
 30
0.0
 11
120.486396
 21
412.380075
 31
0.0
  0
LINE
  8
LC-005-005-----0
 62
     2
  5
4FE
 10
115.554131
 20
408.013496
 30
0.0
 11
119.957682
 21
412.417047
 31
0.0
  0
LINE
  8
LC-005-005-----0
 62
     2
  5
4FF
 10
115.025417
 20
408.050467
 30
0.0
 11
119.428968
 21
412.454018
 31
0.0
  0
LINE
  8
LC-005-005-----0
 62
     2
  5
500
 10
114.496703
 20
408.087438
 30
0.0
 11
118.900254
 21
412.490989
 31
0.0
  0
LINE
  8
LC-005-005-----0
 62
     2
  5
501
 10
113.967989
 20
408.12441
 30
0.0
 11
118.37154
 21
412.52796
 31
0.0
  0
LINE
  8
LC-005-005-----0
 62
     2
  5
502
 10
113.478799
 20
408.200905
 30
0.0
 11
117.842825
 21
412.564932
 31
0.0
  0
LINE
  8
LC-005-005-----0
 62
     2
  5
503
 10
113.076038
 20
408.36383
 30
0.0
 11
117.314111
 21
412.601903
 31
0.0
  0
LINE
  8
LC-005-005-----0
 62
     2
  5
504
 10
112.738753
 20
408.59223
 30
0.0
 11
116.785397
 21
412.638874
 31
0.0
  0
LINE
  8
LC-005-005-----0
 62
     2
  5
505
 10
112.45042
 20
408.869582
 30
0.0
 11
116.256683
 21
412.675846
 31
0.0
  0
LINE
  8
LC-005-005-----0
 62
     2
  5
506
 10
112.167577
 20
409.152425
 30
0.0
 11
115.727969
 21
412.712817
 31
0.0
  0
LINE
  8
LC-005-005-----0
 62
     2
  5
507
 10
111.884734
 20
409.435268
 30
0.0
 11
115.208136
 21
412.75867
 31
0.0
  0
LINE
  8
LC-005-005-----0
 62
     2
  5
508
 10
111.675253
 20
409.791472
 30
0.0
 11
114.925293
 21
413.041512
 31
0.0
  0
LINE
  8
LC-005-005-----0
 62
     2
  5
509
 10
111.675253
 20
410.357157
 30
0.0
 11
114.642451
 21
413.324355
 31
0.0
  0
LINE
  8
LC-005-005-----0
 62
     2
  5
50A
 10
111.675253
 20
410.922843
 30
0.0
 11
114.359608
 21
413.607198
 31
0.0
  0
LINE
  8
LC-005-005-----0
 62
     2
  5
50B
 10
111.675253
 20
411.488528
 30
0.0
 11
114.076765
 21
413.890041
 31
0.0
  0
LINE
  8
LC-005-005-----0
 62
     2
  5
50C
 10
111.675253
 20
412.054214
 30
0.0
 11
113.793923
 21
414.172883
 31
0.0
  0
LINE
  8
LC-005-005-----0
 62
     2
  5
50D
 10
111.675253
 20
412.619899
 30
0.0
 11
113.51108
 21
414.455726
 31
0.0
  0
LINE
  8
LC-005-005-----0
 62
     2
  5
50E
 10
111.675253
 20
413.185585
 30
0.0
 11
113.104022
 21
414.614353
 31
0.0
  0
LINE
  8
LC-005-005-----0
 62
     2
  5
50F
 10
111.675253
 20
413.75127
 30
0.0
 11
112.548041
 21
414.624058
 31
0.0
  0
LINE
  8
LC-005-005-----0
 62
     2
  5
510
 10
111.675253
 20
414.316955
 30
0.0
 11
111.99206
 21
414.633762
 31
0.0
  0
ENDBLK
  8
0
  5
511
  0
BLOCK
  8
0
  5
53F
  2
*X24
 70
    65
 10
0.0
 20
0.0
 30
0.0
  3
*X24
  0
LINE
  8
LC-005-005-----0
 62
     2
  5
540
 10
306.255335
 20
391.108149
 30
0.0
 11
308.511996
 21
393.36481
 31
0.0
  0
LINE
  8
LC-005-005-----0
 62
     2
  5
541
 10
306.213773
 20
393.895014
 30
0.0
 11
308.511996
 21
396.193237
 31
0.0
  0
LINE
  8
LC-005-005-----0
 62
     2
  5
542
 10
310.296555
 20
397.977796
 30
0.0
 11
313.371321
 21
401.052562
 31
0.0
  0
LINE
  8
LC-005-005-----0
 62
     2
  5
543
 10
303.515535
 20
394.025203
 30
0.0
 11
308.511996
 21
399.021664
 31
0.0
  0
LINE
  8
LC-005-005-----0
 62
     2
  5
544
 10
310.229939
 20
400.739607
 30
0.0
 11
313.371321
 21
403.880989
 31
0.0
  0
LINE
  8
LC-005-005-----0
 62
     2
  5
545
 10
306.255546
 20
399.593641
 30
0.0
 11
308.511996
 21
401.850091
 31
0.0
  0
LINE
  8
LC-005-005-----0
 62
     2
  5
546
 10
310.229939
 20
403.568034
 30
0.0
 11
313.371321
 21
406.709416
 31
0.0
  0
LINE
  8
LC-005-005-----0
 62
     2
  5
547
 10
305.43441
 20
401.600932
 30
0.0
 11
310.442265
 21
406.608787
 31
0.0
  0
LINE
  8
LC-005-005-----0
 62
     2
  5
548
 10
301.38622
 20
400.38117
 30
0.0
 11
307.401096
 21
406.396045
 31
0.0
  0
ENDBLK
  8
0
  5
549
  0
BLOCK
  8
0
  5
56D
  2
*X25
 70
    65
 10
0.0
 20
0.0
 30
0.0
  3
*X25
  0
LINE
  8
LC-005-005-----0
 62
     2
  5
56E
 10
297.044741
 20
381.897555
 30
0.0
 11
298.719324
 21
383.572137
 31
0.0
  0
LINE
  8
LC-005-005-----0
 62
     2
  5
56F
 10
294.429523
 20
382.110764
 30
0.0
 11
294.916306
 21
382.597547
 31
0.0
  0
LINE
  8
LC-005-005-----0
 62
     2
  5
570
 10
296.6805
 20
384.361741
 30
0.0
 11
297.216572
 21
384.897813
 31
0.0
  0
LINE
  8
LC-005-005-----0
 62
     2
  5
571
 10
324.89304
 20
412.574281
 30
0.0
 11
325.841967
 21
413.523207
 31
0.0
  0
LINE
  8
LC-005-005-----0
 62
     2
  5
572
 10
296.229505
 20
386.739173
 30
0.0
 11
296.929502
 21
387.43917
 31
0.0
  0
LINE
  8
LC-005-005-----0
 62
     2
  5
573
 10
297.288383
 20
387.798051
 30
0.0
 11
298.140099
 21
388.649767
 31
0.0
  0
LINE
  8
LC-005-005-----0
 62
     2
  5
574
 10
299.877275
 20
390.386943
 30
0.0
 11
300.728991
 21
391.238659
 31
0.0
  0
LINE
  8
LC-005-005-----0
 62
     2
  5
575
 10
321.8261
 20
412.335768
 30
0.0
 11
322.569194
 21
413.078862
 31
0.0
  0
LINE
  8
LC-005-005-----0
 62
     2
  5
576
 10
300.029478
 20
393.367573
 30
0.0
 11
300.729475
 21
394.06757
 31
0.0
  0
LINE
  8
LC-005-005-----0
 62
     2
  5
577
 10
318.785006
 20
412.123101
 30
0.0
 11
319.528101
 21
412.866196
 31
0.0
  0
LINE
  8
LC-005-005-----0
 62
     2
  5
578
 10
300.029467
 20
396.195989
 30
0.0
 11
300.729464
 21
396.895986
 31
0.0
  0
LINE
  8
LC-005-005-----0
 62
     2
  5
579
 10
315.743913
 20
411.910435
 30
0.0
 11
316.487008
 21
412.65353
 31
0.0
  0
LINE
  8
LC-005-005-----0
 62
     2
  5
57A
 10
300.029455
 20
399.024405
 30
0.0
 11
300.729453
 21
399.724402
 31
0.0
  0
LINE
  8
LC-005-005-----0
 62
     2
  5
57B
 10
312.70282
 20
411.697769
 30
0.0
 11
313.445914
 21
412.440864
 31
0.0
  0
LINE
  8
LC-005-005-----0
 62
     2
  5
57C
 10
300.029444
 20
401.852821
 30
0.0
 11
300.729441
 21
402.552818
 31
0.0
  0
LINE
  8
LC-005-005-----0
 62
     2
  5
57D
 10
309.661726
 20
411.485103
 30
0.0
 11
310.404821
 21
412.228197
 31
0.0
  0
LINE
  8
LC-005-005-----0
 62
     2
  5
57E
 10
300.029433
 20
404.681236
 30
0.0
 11
300.742714
 21
405.394518
 31
0.0
  0
LINE
  8
LC-005-005-----0
 62
     2
  5
57F
 10
306.620633
 20
411.272437
 30
0.0
 11
307.363728
 21
412.015531
 31
0.0
  0
LINE
  8
LC-005-005-----0
 62
     2
  5
580
 10
300.930652
 20
408.410883
 30
0.0
 11
303.593607
 21
411.073838
 31
0.0
  0
ENDBLK
  8
0
  5
581
  0
BLOCK
  8
0
  5
584
  2
*X26
 70
    65
 10
0.0
 20
0.0
 30
0.0
  3
*X26
  0
LINE
  8
LC-005-005-----0
 62
     2
  5
585
 10
471.182066
 20
410.653726
 30
0.0
 11
471.276621
 21
410.748281
 31
0.0
  0
LINE
  8
LC-005-005-----0
 62
     2
  5
586
 10
470.616379
 20
410.653724
 30
0.0
 11
471.276619
 21
411.313964
 31
0.0
  0
LINE
  8
LC-005-005-----0
 62
     2
  5
587
 10
470.050691
 20
410.653721
 30
0.0
 11
471.276617
 21
411.879647
 31
0.0
  0
LINE
  8
LC-005-005-----0
 62
     2
  5
588
 10
469.485003
 20
410.653719
 30
0.0
 11
471.276615
 21
412.44533
 31
0.0
  0
LINE
  8
LC-005-005-----0
 62
     2
  5
589
 10
468.919316
 20
410.653717
 30
0.0
 11
471.276612
 21
413.011014
 31
0.0
  0
LINE
  8
LC-005-005-----0
 62
     2
  5
58A
 10
468.353628
 20
410.653715
 30
0.0
 11
471.27661
 21
413.576697
 31
0.0
  0
LINE
  8
LC-005-005-----0
 62
     2
  5
58B
 10
467.78794
 20
410.653712
 30
0.0
 11
471.276608
 21
414.14238
 31
0.0
  0
LINE
  8
LC-005-005-----0
 62
     2
  5
58C
 10
467.222252
 20
410.65371
 30
0.0
 11
471.276606
 21
414.708063
 31
0.0
  0
LINE
  8
LC-005-005-----0
 62
     2
  5
58D
 10
466.656565
 20
410.653708
 30
0.0
 11
471.276603
 21
415.273746
 31
0.0
  0
LINE
  8
LC-005-005-----0
 62
     2
  5
58E
 10
466.090877
 20
410.653705
 30
0.0
 11
470.790896
 21
415.353724
 31
0.0
  0
LINE
  8
LC-005-005-----0
 62
     2
  5
58F
 10
465.525189
 20
410.653703
 30
0.0
 11
470.225208
 21
415.353722
 31
0.0
  0
LINE
  8
LC-005-005-----0
 62
     2
  5
590
 10
464.959502
 20
410.653701
 30
0.0
 11
469.659521
 21
415.35372
 31
0.0
  0
LINE
  8
LC-005-005-----0
 62
     2
  5
591
 10
464.393814
 20
410.653699
 30
0.0
 11
469.093833
 21
415.353717
 31
0.0
  0
LINE
  8
LC-005-005-----0
 62
     2
  5
592
 10
463.828126
 20
410.653696
 30
0.0
 11
468.528145
 21
415.353715
 31
0.0
  0
LINE
  8
LC-005-005-----0
 62
     2
  5
593
 10
463.262439
 20
410.653694
 30
0.0
 11
467.962457
 21
415.353713
 31
0.0
  0
LINE
  8
LC-005-005-----0
 62
     2
  5
594
 10
462.696751
 20
410.653692
 30
0.0
 11
467.39677
 21
415.353711
 31
0.0
  0
LINE
  8
LC-005-005-----0
 62
     2
  5
595
 10
462.131063
 20
410.65369
 30
0.0
 11
466.831082
 21
415.353708
 31
0.0
  0
LINE
  8
LC-005-005-----0
 62
     2
  5
596
 10
461.565376
 20
410.653687
 30
0.0
 11
466.265394
 21
415.353706
 31
0.0
  0
LINE
  8
LC-005-005-----0
 62
     2
  5
597
 10
461.276621
 20
410.930618
 30
0.0
 11
465.699707
 21
415.353704
 31
0.0
  0
LINE
  8
LC-005-005-----0
 62
     2
  5
598
 10
461.276618
 20
411.496301
 30
0.0
 11
465.134019
 21
415.353702
 31
0.0
  0
LINE
  8
LC-005-005-----0
 62
     2
  5
599
 10
461.276616
 20
412.061984
 30
0.0
 11
464.568331
 21
415.353699
 31
0.0
  0
LINE
  8
LC-005-005-----0
 62
     2
  5
59A
 10
461.276614
 20
412.627667
 30
0.0
 11
464.002644
 21
415.353697
 31
0.0
  0
LINE
  8
LC-005-005-----0
 62
     2
  5
59B
 10
461.276612
 20
413.193351
 30
0.0
 11
463.436956
 21
415.353695
 31
0.0
  0
LINE
  8
LC-005-005-----0
 62
     2
  5
59C
 10
461.276609
 20
413.759034
 30
0.0
 11
462.871268
 21
415.353693
 31
0.0
  0
LINE
  8
LC-005-005-----0
 62
     2
  5
59D
 10
461.276607
 20
414.324717
 30
0.0
 11
462.305581
 21
415.35369
 31
0.0
  0
LINE
  8
LC-005-005-----0
 62
     2
  5
59E
 10
461.276605
 20
414.8904
 30
0.0
 11
461.739893
 21
415.353688
 31
0.0
  0
ENDBLK
  8
0
  5
59F
  0
BLOCK
  8
0
  5
5A2
  2
*X27
 70
    65
 10
0.0
 20
0.0
 30
0.0
  3
*X27
  0
LINE
  8
LC-005-005-----0
 62
     2
  5
5A3
 10
450.81731
 20
410.653644
 30
0.0
 11
451.27662
 21
411.112955
 31
0.0
  0
LINE
  8
LC-005-005-----0
 62
     2
  5
5A4
 10
450.251622
 20
410.653642
 30
0.0
 11
451.276618
 21
411.678638
 31
0.0
  0
LINE
  8
LC-005-005-----0
 62
     2
  5
5A5
 10
449.685934
 20
410.65364
 30
0.0
 11
451.276615
 21
412.244321
 31
0.0
  0
LINE
  8
LC-005-005-----0
 62
     2
  5
5A6
 10
449.120246
 20
410.653638
 30
0.0
 11
451.276613
 21
412.810004
 31
0.0
  0
LINE
  8
LC-005-005-----0
 62
     2
  5
5A7
 10
448.554559
 20
410.653635
 30
0.0
 11
451.276611
 21
413.375687
 31
0.0
  0
LINE
  8
LC-005-005-----0
 62
     2
  5
5A8
 10
447.988871
 20
410.653633
 30
0.0
 11
451.276609
 21
413.941371
 31
0.0
  0
LINE
  8
LC-005-005-----0
 62
     2
  5
5A9
 10
447.423183
 20
410.653631
 30
0.0
 11
451.276606
 21
414.507054
 31
0.0
  0
LINE
  8
LC-005-005-----0
 62
     2
  5
5AA
 10
446.857496
 20
410.653628
 30
0.0
 11
451.276604
 21
415.072737
 31
0.0
  0
LINE
  8
LC-005-005-----0
 62
     2
  5
5AB
 10
446.291808
 20
410.653626
 30
0.0
 11
450.991827
 21
415.353645
 31
0.0
  0
LINE
  8
LC-005-005-----0
 62
     2
  5
5AC
 10
445.72612
 20
410.653624
 30
0.0
 11
450.426139
 21
415.353643
 31
0.0
  0
LINE
  8
LC-005-005-----0
 62
     2
  5
5AD
 10
445.160433
 20
410.653622
 30
0.0
 11
449.860451
 21
415.353641
 31
0.0
  0
LINE
  8
LC-005-005-----0
 62
     2
  5
5AE
 10
444.594745
 20
410.653619
 30
0.0
 11
449.294764
 21
415.353638
 31
0.0
  0
LINE
  8
LC-005-005-----0
 62
     2
  5
5AF
 10
444.029057
 20
410.653617
 30
0.0
 11
448.729076
 21
415.353636
 31
0.0
  0
LINE
  8
LC-005-005-----0
 62
     2
  5
5B0
 10
443.46337
 20
410.653615
 30
0.0
 11
448.163388
 21
415.353634
 31
0.0
  0
LINE
  8
LC-005-005-----0
 62
     2
  5
5B1
 10
442.897682
 20
410.653613
 30
0.0
 11
447.597701
 21
415.353631
 31
0.0
  0
LINE
  8
LC-005-005-----0
 62
     2
  5
5B2
 10
442.331994
 20
410.65361
 30
0.0
 11
447.032013
 21
415.353629
 31
0.0
  0
LINE
  8
LC-005-005-----0
 62
     2
  5
5B3
 10
441.766306
 20
410.653608
 30
0.0
 11
446.466325
 21
415.353627
 31
0.0
  0
LINE
  8
LC-005-005-----0
 62
     2
  5
5B4
 10
441.276622
 20
410.729609
 30
0.0
 11
445.900638
 21
415.353625
 31
0.0
  0
LINE
  8
LC-005-005-----0
 62
     2
  5
5B5
 10
441.276619
 20
411.295292
 30
0.0
 11
445.33495
 21
415.353622
 31
0.0
  0
LINE
  8
LC-005-005-----0
 62
     2
  5
5B6
 10
441.276617
 20
411.860975
 30
0.0
 11
444.769262
 21
415.35362
 31
0.0
  0
LINE
  8
LC-005-005-----0
 62
     2
  5
5B7
 10
441.276615
 20
412.426658
 30
0.0
 11
444.203575
 21
415.353618
 31
0.0
  0
LINE
  8
LC-005-005-----0
 62
     2
  5
5B8
 10
441.276612
 20
412.992341
 30
0.0
 11
443.637887
 21
415.353616
 31
0.0
  0
LINE
  8
LC-005-005-----0
 62
     2
  5
5B9
 10
441.27661
 20
413.558024
 30
0.0
 11
443.072199
 21
415.353613
 31
0.0
  0
LINE
  8
LC-005-005-----0
 62
     2
  5
5BA
 10
441.276608
 20
414.123708
 30
0.0
 11
442.506511
 21
415.353611
 31
0.0
  0
LINE
  8
LC-005-005-----0
 62
     2
  5
5BB
 10
441.276606
 20
414.689391
 30
0.0
 11
441.940824
 21
415.353609
 31
0.0
  0
LINE
  8
LC-005-005-----0
 62
     2
  5
5BC
 10
441.276603
 20
415.255074
 30
0.0
 11
441.375136
 21
415.353607
 31
0.0
  0
ENDBLK
  8
0
  5
5BD
  0
BLOCK
  8
0
  5
5C0
  2
*X28
 70
    65
 10
0.0
 20
0.0
 30
0.0
  3
*X28
  0
LINE
  8
LC-005-005-----0
 62
     2
  5
5C1
 10
431.01824
 20
410.653565
 30
0.0
 11
431.276621
 21
410.911945
 31
0.0
  0
LINE
  8
LC-005-005-----0
 62
     2
  5
5C2
 10
430.452553
 20
410.653563
 30
0.0
 11
431.276619
 21
411.477629
 31
0.0
  0
LINE
  8
LC-005-005-----0
 62
     2
  5
5C3
 10
429.886865
 20
410.653561
 30
0.0
 11
431.276616
 21
412.043312
 31
0.0
  0
LINE
  8
LC-005-005-----0
 62
     2
  5
5C4
 10
429.321177
 20
410.653558
 30
0.0
 11
431.276614
 21
412.608995
 31
0.0
  0
LINE
  8
LC-005-005-----0
 62
     2
  5
5C5
 10
428.75549
 20
410.653556
 30
0.0
 11
431.276612
 21
413.174678
 31
0.0
  0
LINE
  8
LC-005-005-----0
 62
     2
  5
5C6
 10
428.189802
 20
410.653554
 30
0.0
 11
431.276609
 21
413.740361
 31
0.0
  0
LINE
  8
LC-005-005-----0
 62
     2
  5
5C7
 10
427.624114
 20
410.653552
 30
0.0
 11
431.276607
 21
414.306044
 31
0.0
  0
LINE
  8
LC-005-005-----0
 62
     2
  5
5C8
 10
427.058427
 20
410.653549
 30
0.0
 11
431.276605
 21
414.871728
 31
0.0
  0
LINE
  8
LC-005-005-----0
 62
     2
  5
5C9
 10
426.492739
 20
410.653547
 30
0.0
 11
431.192758
 21
415.353566
 31
0.0
  0
LINE
  8
LC-005-005-----0
 62
     2
  5
5CA
 10
425.927051
 20
410.653545
 30
0.0
 11
430.62707
 21
415.353564
 31
0.0
  0
LINE
  8
LC-005-005-----0
 62
     2
  5
5CB
 10
425.361364
 20
410.653542
 30
0.0
 11
430.061382
 21
415.353561
 31
0.0
  0
LINE
  8
LC-005-005-----0
 62
     2
  5
5CC
 10
424.795676
 20
410.65354
 30
0.0
 11
429.495695
 21
415.353559
 31
0.0
  0
LINE
  8
LC-005-005-----0
 62
     2
  5
5CD
 10
424.229988
 20
410.653538
 30
0.0
 11
428.930007
 21
415.353557
 31
0.0
  0
LINE
  8
LC-005-005-----0
 62
     2
  5
5CE
 10
423.6643
 20
410.653536
 30
0.0
 11
428.364319
 21
415.353554
 31
0.0
  0
LINE
  8
LC-005-005-----0
 62
     2
  5
5CF
 10
423.098613
 20
410.653533
 30
0.0
 11
427.798632
 21
415.353552
 31
0.0
  0
LINE
  8
LC-005-005-----0
 62
     2
  5
5D0
 10
422.532925
 20
410.653531
 30
0.0
 11
427.232944
 21
415.35355
 31
0.0
  0
LINE
  8
LC-005-005-----0
 62
     2
  5
5D1
 10
421.967237
 20
410.653529
 30
0.0
 11
426.667256
 21
415.353548
 31
0.0
  0
LINE
  8
LC-005-005-----0
 62
     2
  5
5D2
 10
421.40155
 20
410.653527
 30
0.0
 11
426.101569
 21
415.353545
 31
0.0
  0
LINE
  8
LC-005-005-----0
 62
     2
  5
5D3
 10
421.27662
 20
411.094282
 30
0.0
 11
425.535881
 21
415.353543
 31
0.0
  0
LINE
  8
LC-005-005-----0
 62
     2
  5
5D4
 10
421.276618
 20
411.659966
 30
0.0
 11
424.970193
 21
415.353541
 31
0.0
  0
LINE
  8
LC-005-005-----0
 62
     2
  5
5D5
 10
421.276616
 20
412.225649
 30
0.0
 11
424.404505
 21
415.353539
 31
0.0
  0
LINE
  8
LC-005-005-----0
 62
     2
  5
5D6
 10
421.276613
 20
412.791332
 30
0.0
 11
423.838818
 21
415.353536
 31
0.0
  0
LINE
  8
LC-005-005-----0
 62
     2
  5
5D7
 10
421.276611
 20
413.357015
 30
0.0
 11
423.27313
 21
415.353534
 31
0.0
  0
LINE
  8
LC-005-005-----0
 62
     2
  5
5D8
 10
421.276609
 20
413.922698
 30
0.0
 11
422.707442
 21
415.353532
 31
0.0
  0
LINE
  8
LC-005-005-----0
 62
     2
  5
5D9
 10
421.276606
 20
414.488381
 30
0.0
 11
422.141755
 21
415.35353
 31
0.0
  0
LINE
  8
LC-005-005-----0
 62
     2
  5
5DA
 10
421.276604
 20
415.054065
 30
0.0
 11
421.576067
 21
415.353527
 31
0.0
  0
ENDBLK
  8
0
  5
5DB
  0
BLOCK
  8
0
  5
5DE
  2
*X29
 70
    65
 10
0.0
 20
0.0
 30
0.0
  3
*X29
  0
LINE
  8
LC-005-005-----0
 62
     2
  5
5DF
 10
411.219171
 20
410.653486
 30
0.0
 11
411.276622
 21
410.710936
 31
0.0
  0
LINE
  8
LC-005-005-----0
 62
     2
  5
5E0
 10
410.653484
 20
410.653484
 30
0.0
 11
411.276619
 21
411.276619
 31
0.0
  0
LINE
  8
LC-005-005-----0
 62
     2
  5
5E1
 10
410.087796
 20
410.653481
 30
0.0
 11
411.276617
 21
411.842302
 31
0.0
  0
LINE
  8
LC-005-005-----0
 62
     2
  5
5E2
 10
409.522108
 20
410.653479
 30
0.0
 11
411.276615
 21
412.407986
 31
0.0
  0
LINE
  8
LC-005-005-----0
 62
     2
  5
5E3
 10
408.956421
 20
410.653477
 30
0.0
 11
411.276613
 21
412.973669
 31
0.0
  0
LINE
  8
LC-005-005-----0
 62
     2
  5
5E4
 10
408.390733
 20
410.653475
 30
0.0
 11
411.27661
 21
413.539352
 31
0.0
  0
LINE
  8
LC-005-005-----0
 62
     2
  5
5E5
 10
407.825045
 20
410.653472
 30
0.0
 11
411.276608
 21
414.105035
 31
0.0
  0
LINE
  8
LC-005-005-----0
 62
     2
  5
5E6
 10
407.259357
 20
410.65347
 30
0.0
 11
411.276606
 21
414.670718
 31
0.0
  0
LINE
  8
LC-005-005-----0
 62
     2
  5
5E7
 10
406.69367
 20
410.653468
 30
0.0
 11
411.276603
 21
415.236401
 31
0.0
  0
LINE
  8
LC-005-005-----0
 62
     2
  5
5E8
 10
406.127982
 20
410.653466
 30
0.0
 11
410.828001
 21
415.353484
 31
0.0
  0
LINE
  8
LC-005-005-----0
 62
     2
  5
5E9
 10
405.562294
 20
410.653463
 30
0.0
 11
410.262313
 21
415.353482
 31
0.0
  0
LINE
  8
LC-005-005-----0
 62
     2
  5
5EA
 10
404.996607
 20
410.653461
 30
0.0
 11
409.696626
 21
415.35348
 31
0.0
  0
LINE
  8
LC-005-005-----0
 62
     2
  5
5EB
 10
404.430919
 20
410.653459
 30
0.0
 11
409.130938
 21
415.353478
 31
0.0
  0
LINE
  8
LC-005-005-----0
 62
     2
  5
5EC
 10
403.865231
 20
410.653456
 30
0.0
 11
408.56525
 21
415.353475
 31
0.0
  0
LINE
  8
LC-005-005-----0
 62
     2
  5
5ED
 10
403.299544
 20
410.653454
 30
0.0
 11
407.999562
 21
415.353473
 31
0.0
  0
LINE
  8
LC-005-005-----0
 62
     2
  5
5EE
 10
402.733856
 20
410.653452
 30
0.0
 11
407.433875
 21
415.353471
 31
0.0
  0
LINE
  8
LC-005-005-----0
 62
     2
  5
5EF
 10
402.168168
 20
410.65345
 30
0.0
 11
406.868187
 21
415.353468
 31
0.0
  0
LINE
  8
LC-005-005-----0
 62
     2
  5
5F0
 10
401.602481
 20
410.653447
 30
0.0
 11
406.302499
 21
415.353466
 31
0.0
  0
LINE
  8
LC-005-005-----0
 62
     2
  5
5F1
 10
401.276621
 20
410.893273
 30
0.0
 11
405.736812
 21
415.353464
 31
0.0
  0
LINE
  8
LC-005-005-----0
 62
     2
  5
5F2
 10
401.276619
 20
411.458956
 30
0.0
 11
405.171124
 21
415.353462
 31
0.0
  0
LINE
  8
LC-005-005-----0
 62
     2
  5
5F3
 10
401.276616
 20
412.024639
 30
0.0
 11
404.605436
 21
415.353459
 31
0.0
  0
LINE
  8
LC-005-005-----0
 62
     2
  5
5F4
 10
401.276614
 20
412.590323
 30
0.0
 11
404.039749
 21
415.353457
 31
0.0
  0
LINE
  8
LC-005-005-----0
 62
     2
  5
5F5
 10
401.276612
 20
413.156006
 30
0.0
 11
403.474061
 21
415.353455
 31
0.0
  0
LINE
  8
LC-005-005-----0
 62
     2
  5
5F6
 10
401.27661
 20
413.721689
 30
0.0
 11
402.908373
 21
415.353453
 31
0.0
  0
LINE
  8
LC-005-005-----0
 62
     2
  5
5F7
 10
401.276607
 20
414.287372
 30
0.0
 11
402.342686
 21
415.35345
 31
0.0
  0
LINE
  8
LC-005-005-----0
 62
     2
  5
5F8
 10
401.276605
 20
414.853055
 30
0.0
 11
401.776998
 21
415.353448
 31
0.0
  0
ENDBLK
  8
0
  5
5F9
  0
BLOCK
  8
0
  5
5FC
  2
*X30
 70
    65
 10
0.0
 20
0.0
 30
0.0
  3
*X30
  0
LINE
  8
LC-005-005-----0
 62
     2
  5
5FD
 10
390.854415
 20
410.653404
 30
0.0
 11
391.27662
 21
411.07561
 31
0.0
  0
LINE
  8
LC-005-005-----0
 62
     2
  5
5FE
 10
390.288727
 20
410.653402
 30
0.0
 11
391.276618
 21
411.641293
 31
0.0
  0
LINE
  8
LC-005-005-----0
 62
     2
  5
5FF
 10
389.723039
 20
410.6534
 30
0.0
 11
391.276616
 21
412.206976
 31
0.0
  0
LINE
  8
LC-005-005-----0
 62
     2
  5
600
 10
389.157351
 20
410.653398
 30
0.0
 11
391.276613
 21
412.772659
 31
0.0
  0
LINE
  8
LC-005-005-----0
 62
     2
  5
601
 10
388.591664
 20
410.653395
 30
0.0
 11
391.276611
 21
413.338343
 31
0.0
  0
LINE
  8
LC-005-005-----0
 62
     2
  5
602
 10
388.025976
 20
410.653393
 30
0.0
 11
391.276609
 21
413.904026
 31
0.0
  0
LINE
  8
LC-005-005-----0
 62
     2
  5
603
 10
387.460288
 20
410.653391
 30
0.0
 11
391.276607
 21
414.469709
 31
0.0
  0
LINE
  8
LC-005-005-----0
 62
     2
  5
604
 10
386.894601
 20
410.653389
 30
0.0
 11
391.276604
 21
415.035392
 31
0.0
  0
LINE
  8
LC-005-005-----0
 62
     2
  5
605
 10
386.328913
 20
410.653386
 30
0.0
 11
391.028932
 21
415.353405
 31
0.0
  0
LINE
  8
LC-005-005-----0
 62
     2
  5
606
 10
385.763225
 20
410.653384
 30
0.0
 11
390.463244
 21
415.353403
 31
0.0
  0
LINE
  8
LC-005-005-----0
 62
     2
  5
607
 10
385.197538
 20
410.653382
 30
0.0
 11
389.897556
 21
415.353401
 31
0.0
  0
LINE
  8
LC-005-005-----0
 62
     2
  5
608
 10
384.63185
 20
410.653379
 30
0.0
 11
389.331869
 21
415.353398
 31
0.0
  0
LINE
  8
LC-005-005-----0
 62
     2
  5
609
 10
384.066162
 20
410.653377
 30
0.0
 11
388.766181
 21
415.353396
 31
0.0
  0
LINE
  8
LC-005-005-----0
 62
     2
  5
60A
 10
383.500475
 20
410.653375
 30
0.0
 11
388.200493
 21
415.353394
 31
0.0
  0
LINE
  8
LC-005-005-----0
 62
     2
  5
60B
 10
382.934787
 20
410.653373
 30
0.0
 11
387.634806
 21
415.353391
 31
0.0
  0
LINE
  8
LC-005-005-----0
 62
     2
  5
60C
 10
382.369099
 20
410.65337
 30
0.0
 11
387.069118
 21
415.353389
 31
0.0
  0
LINE
  8
LC-005-005-----0
 62
     2
  5
60D
 10
381.803411
 20
410.653368
 30
0.0
 11
386.50343
 21
415.353387
 31
0.0
  0
LINE
  8
LC-005-005-----0
 62
     2
  5
60E
 10
381.276622
 20
410.692264
 30
0.0
 11
385.937743
 21
415.353385
 31
0.0
  0
LINE
  8
LC-005-005-----0
 62
     2
  5
60F
 10
381.276619
 20
411.257947
 30
0.0
 11
385.372055
 21
415.353382
 31
0.0
  0
LINE
  8
LC-005-005-----0
 62
     2
  5
610
 10
381.276617
 20
411.82363
 30
0.0
 11
384.806367
 21
415.35338
 31
0.0
  0
LINE
  8
LC-005-005-----0
 62
     2
  5
611
 10
381.276615
 20
412.389313
 30
0.0
 11
384.24068
 21
415.353378
 31
0.0
  0
LINE
  8
LC-005-005-----0
 62
     2
  5
612
 10
381.276613
 20
412.954996
 30
0.0
 11
383.674992
 21
415.353376
 31
0.0
  0
LINE
  8
LC-005-005-----0
 62
     2
  5
613
 10
381.27661
 20
413.52068
 30
0.0
 11
383.109304
 21
415.353373
 31
0.0
  0
LINE
  8
LC-005-005-----0
 62
     2
  5
614
 10
381.276608
 20
414.086363
 30
0.0
 11
382.543616
 21
415.353371
 31
0.0
  0
LINE
  8
LC-005-005-----0
 62
     2
  5
615
 10
381.276606
 20
414.652046
 30
0.0
 11
381.977929
 21
415.353369
 31
0.0
  0
LINE
  8
LC-005-005-----0
 62
     2
  5
616
 10
381.276604
 20
415.217729
 30
0.0
 11
381.412241
 21
415.353367
 31
0.0
  0
ENDBLK
  8
0
  5
617
  0
BLOCK
  8
0
  5
628
  2
*X31
 70
    65
 10
0.0
 20
0.0
 30
0.0
  3
*X31
  0
LINE
  8
LC-005-005-----0
 62
     2
  5
629
 10
295.160119
 20
388.498215
 30
0.0
 11
299.967084
 21
393.305179
 31
0.0
  0
LINE
  8
LC-005-005-----0
 62
     2
  5
62A
 10
292.331681
 20
388.498203
 30
0.0
 11
294.831691
 21
390.998213
 31
0.0
  0
LINE
  8
LC-005-005-----0
 62
     2
  5
62B
 10
297.467083
 20
393.633605
 30
0.0
 11
299.967073
 21
396.133595
 31
0.0
  0
LINE
  8
LC-005-005-----0
 62
     2
  5
62C
 10
289.967101
 20
388.962051
 30
0.0
 11
292.003253
 21
390.998202
 31
0.0
  0
LINE
  8
LC-005-005-----0
 62
     2
  5
62D
 10
297.467071
 20
396.462021
 30
0.0
 11
299.967061
 21
398.962011
 31
0.0
  0
LINE
  8
LC-005-005-----0
 62
     2
  5
62E
 10
297.46706
 20
399.290436
 30
0.0
 11
299.96705
 21
401.790426
 31
0.0
  0
LINE
  8
LC-005-005-----0
 62
     2
  5
62F
 10
297.467049
 20
402.118852
 30
0.0
 11
299.967039
 21
404.618842
 31
0.0
  0
LINE
  8
LC-005-005-----0
 62
     2
  5
630
 10
297.467037
 20
404.947268
 30
0.0
 11
299.967027
 21
407.447258
 31
0.0
  0
LINE
  8
LC-005-005-----0
 62
     2
  5
631
 10
297.467026
 20
407.775684
 30
0.0
 11
298.189213
 21
408.497871
 31
0.0
  0
ENDBLK
  8
0
  5
632
  0
BLOCK
  8
0
  5
641
  2
*X32
 70
    65
 10
0.0
 20
0.0
 30
0.0
  3
*X32
  0
LINE
  8
LC-005-005-----0
 62
     2
  5
642
 10
371.035183
 20
410.633163
 30
0.0
 11
371.426723
 21
411.024703
 31
0.0
  0
LINE
  8
LC-005-005-----0
 62
     2
  5
643
 10
370.459446
 20
410.623111
 30
0.0
 11
371.417016
 21
411.580681
 31
0.0
  0
LINE
  8
LC-005-005-----0
 62
     2
  5
644
 10
369.883709
 20
410.613059
 30
0.0
 11
371.407309
 21
412.13666
 31
0.0
  0
LINE
  8
LC-005-005-----0
 62
     2
  5
645
 10
369.307972
 20
410.603008
 30
0.0
 11
371.397602
 21
412.692638
 31
0.0
  0
LINE
  8
LC-005-005-----0
 62
     2
  5
646
 10
368.732234
 20
410.592956
 30
0.0
 11
371.387895
 21
413.248617
 31
0.0
  0
LINE
  8
LC-005-005-----0
 62
     2
  5
647
 10
368.156497
 20
410.582904
 30
0.0
 11
371.378189
 21
413.804595
 31
0.0
  0
LINE
  8
LC-005-005-----0
 62
     2
  5
648
 10
367.58076
 20
410.572852
 30
0.0
 11
371.368482
 21
414.360574
 31
0.0
  0
LINE
  8
LC-005-005-----0
 62
     2
  5
649
 10
367.005023
 20
410.5628
 30
0.0
 11
371.358775
 21
414.916553
 31
0.0
  0
LINE
  8
LC-005-005-----0
 62
     2
  5
64A
 10
366.429285
 20
410.552748
 30
0.0
 11
371.21353
 21
415.336993
 31
0.0
  0
LINE
  8
LC-005-005-----0
 62
     2
  5
64B
 10
365.853548
 20
410.542697
 30
0.0
 11
370.637793
 21
415.326941
 31
0.0
  0
LINE
  8
LC-005-005-----0
 62
     2
  5
64C
 10
365.277811
 20
410.532645
 30
0.0
 11
370.062056
 21
415.31689
 31
0.0
  0
LINE
  8
LC-005-005-----0
 62
     2
  5
64D
 10
364.702074
 20
410.522593
 30
0.0
 11
369.486318
 21
415.306838
 31
0.0
  0
LINE
  8
LC-005-005-----0
 62
     2
  5
64E
 10
364.126336
 20
410.512541
 30
0.0
 11
368.910581
 21
415.296786
 31
0.0
  0
LINE
  8
LC-005-005-----0
 62
     2
  5
64F
 10
363.550599
 20
410.502489
 30
0.0
 11
368.334844
 21
415.286734
 31
0.0
  0
LINE
  8
LC-005-005-----0
 62
     2
  5
650
 10
362.974862
 20
410.492437
 30
0.0
 11
367.759106
 21
415.276682
 31
0.0
  0
LINE
  8
LC-005-005-----0
 62
     2
  5
651
 10
362.399124
 20
410.482386
 30
0.0
 11
367.183369
 21
415.26663
 31
0.0
  0
LINE
  8
LC-005-005-----0
 62
     2
  5
652
 10
361.823387
 20
410.472334
 30
0.0
 11
366.607632
 21
415.256578
 31
0.0
  0
LINE
  8
LC-005-005-----0
 62
     2
  5
653
 10
361.422858
 20
410.63749
 30
0.0
 11
366.031895
 21
415.246527
 31
0.0
  0
LINE
  8
LC-005-005-----0
 62
     2
  5
654
 10
361.413151
 20
411.193469
 30
0.0
 11
365.456157
 21
415.236475
 31
0.0
  0
LINE
  8
LC-005-005-----0
 62
     2
  5
655
 10
361.403444
 20
411.749447
 30
0.0
 11
364.88042
 21
415.226423
 31
0.0
  0
LINE
  8
LC-005-005-----0
 62
     2
  5
656
 10
361.393738
 20
412.305426
 30
0.0
 11
364.304683
 21
415.216371
 31
0.0
  0
LINE
  8
LC-005-005-----0
 62
     2
  5
657
 10
361.384031
 20
412.861404
 30
0.0
 11
363.728946
 21
415.206319
 31
0.0
  0
LINE
  8
LC-005-005-----0
 62
     2
  5
658
 10
361.374324
 20
413.417383
 30
0.0
 11
363.153208
 21
415.196267
 31
0.0
  0
LINE
  8
LC-005-005-----0
 62
     2
  5
659
 10
361.364617
 20
413.973362
 30
0.0
 11
362.577471
 21
415.186216
 31
0.0
  0
LINE
  8
LC-005-005-----0
 62
     2
  5
65A
 10
361.35491
 20
414.52934
 30
0.0
 11
362.001734
 21
415.176164
 31
0.0
  0
LINE
  8
LC-005-005-----0
 62
     2
  5
65B
 10
361.345203
 20
415.085319
 30
0.0
 11
361.425997
 21
415.166112
 31
0.0
  0
ENDBLK
  8
0
  5
65C
  0
BLOCK
  8
0
  5
661
  2
*X33
 70
    65
 10
0.0
 20
0.0
 30
0.0
  3
*X33
  0
LINE
  8
LC-005-005-----0
 62
     2
  5
662
 10
350.884379
 20
410.281349
 30
0.0
 11
351.404624
 21
410.801593
 31
0.0
  0
LINE
  8
LC-005-005-----0
 62
     2
  5
663
 10
350.308642
 20
410.271297
 30
0.0
 11
351.394917
 21
411.357572
 31
0.0
  0
LINE
  8
LC-005-005-----0
 62
     2
  5
664
 10
349.732905
 20
410.261245
 30
0.0
 11
351.38521
 21
411.913551
 31
0.0
  0
LINE
  8
LC-005-005-----0
 62
     2
  5
665
 10
349.157167
 20
410.251193
 30
0.0
 11
351.375503
 21
412.469529
 31
0.0
  0
LINE
  8
LC-005-005-----0
 62
     2
  5
666
 10
348.58143
 20
410.241142
 30
0.0
 11
351.365796
 21
413.025508
 31
0.0
  0
LINE
  8
LC-005-005-----0
 62
     2
  5
667
 10
348.005693
 20
410.23109
 30
0.0
 11
351.35609
 21
413.581486
 31
0.0
  0
LINE
  8
LC-005-005-----0
 62
     2
  5
668
 10
347.429956
 20
410.221038
 30
0.0
 11
351.346383
 21
414.137465
 31
0.0
  0
LINE
  8
LC-005-005-----0
 62
     2
  5
669
 10
346.854218
 20
410.210986
 30
0.0
 11
351.336676
 21
414.693443
 31
0.0
  0
LINE
  8
LC-005-005-----0
 62
     2
  5
66A
 10
346.278481
 20
410.200934
 30
0.0
 11
351.062726
 21
414.985179
 31
0.0
  0
LINE
  8
LC-005-005-----0
 62
     2
  5
66B
 10
345.702744
 20
410.190882
 30
0.0
 11
350.486989
 21
414.975127
 31
0.0
  0
LINE
  8
LC-005-005-----0
 62
     2
  5
66C
 10
345.127007
 20
410.180831
 30
0.0
 11
349.911251
 21
414.965075
 31
0.0
  0
LINE
  8
LC-005-005-----0
 62
     2
  5
66D
 10
344.551269
 20
410.170779
 30
0.0
 11
349.335514
 21
414.955023
 31
0.0
  0
LINE
  8
LC-005-005-----0
 62
     2
  5
66E
 10
343.975532
 20
410.160727
 30
0.0
 11
348.759777
 21
414.944972
 31
0.0
  0
LINE
  8
LC-005-005-----0
 62
     2
  5
66F
 10
343.399795
 20
410.150675
 30
0.0
 11
348.18404
 21
414.93492
 31
0.0
  0
LINE
  8
LC-005-005-----0
 62
     2
  5
670
 10
342.824058
 20
410.140623
 30
0.0
 11
347.608302
 21
414.924868
 31
0.0
  0
LINE
  8
LC-005-005-----0
 62
     2
  5
671
 10
342.24832
 20
410.130571
 30
0.0
 11
347.032565
 21
414.914816
 31
0.0
  0
LINE
  8
LC-005-005-----0
 62
     2
  5
672
 10
341.672583
 20
410.12052
 30
0.0
 11
346.456828
 21
414.904764
 31
0.0
  0
LINE
  8
LC-005-005-----0
 62
     2
  5
673
 10
341.400759
 20
410.414381
 30
0.0
 11
345.881091
 21
414.894712
 31
0.0
  0
LINE
  8
LC-005-005-----0
 62
     2
  5
674
 10
341.391052
 20
410.97036
 30
0.0
 11
345.305353
 21
414.884661
 31
0.0
  0
LINE
  8
LC-005-005-----0
 62
     2
  5
675
 10
341.381345
 20
411.526338
 30
0.0
 11
344.729616
 21
414.874609
 31
0.0
  0
LINE
  8
LC-005-005-----0
 62
     2
  5
676
 10
341.371639
 20
412.082317
 30
0.0
 11
344.153879
 21
414.864557
 31
0.0
  0
LINE
  8
LC-005-005-----0
 62
     2
  5
677
 10
341.361932
 20
412.638295
 30
0.0
 11
343.578142
 21
414.854505
 31
0.0
  0
LINE
  8
LC-005-005-----0
 62
     2
  5
678
 10
341.352225
 20
413.194274
 30
0.0
 11
343.002404
 21
414.844453
 31
0.0
  0
LINE
  8
LC-005-005-----0
 62
     2
  5
679
 10
341.342518
 20
413.750252
 30
0.0
 11
342.426667
 21
414.834401
 31
0.0
  0
LINE
  8
LC-005-005-----0
 62
     2
  5
67A
 10
341.332811
 20
414.306231
 30
0.0
 11
341.85093
 21
414.82435
 31
0.0
  0
ENDBLK
  8
0
  5
67B
  0
BLOCK
  8
0
  5
680
  2
*X34
 70
    65
 10
0.0
 20
0.0
 30
0.0
  3
*X34
  0
LINE
  8
LC-005-005-----0
 62
     2
  5
681
 10
329.61811
 20
408.248384
 30
0.0
 11
331.276625
 21
409.906899
 31
0.0
  0
LINE
  8
LC-005-005-----0
 62
     2
  5
682
 10
328.924744
 20
408.120703
 30
0.0
 11
331.276623
 21
410.472582
 31
0.0
  0
LINE
  8
LC-005-005-----0
 62
     2
  5
683
 10
328.316525
 20
408.07817
 30
0.0
 11
331.27662
 21
411.038265
 31
0.0
  0
LINE
  8
LC-005-005-----0
 62
     2
  5
684
 10
327.708306
 20
408.035637
 30
0.0
 11
331.276618
 21
411.603948
 31
0.0
  0
LINE
  8
LC-005-005-----0
 62
     2
  5
685
 10
327.100088
 20
407.993104
 30
0.0
 11
331.276616
 21
412.169632
 31
0.0
  0
LINE
  8
LC-005-005-----0
 62
     2
  5
686
 10
326.491869
 20
407.95057
 30
0.0
 11
331.276613
 21
412.735315
 31
0.0
  0
LINE
  8
LC-005-005-----0
 62
     2
  5
687
 10
325.883651
 20
407.908037
 30
0.0
 11
331.276611
 21
413.300998
 31
0.0
  0
LINE
  8
LC-005-005-----0
 62
     2
  5
688
 10
325.275432
 20
407.865504
 30
0.0
 11
331.276609
 21
413.866681
 31
0.0
  0
LINE
  8
LC-005-005-----0
 62
     2
  5
689
 10
324.667213
 20
407.822971
 30
0.0
 11
331.276607
 21
414.432364
 31
0.0
  0
LINE
  8
LC-005-005-----0
 62
     2
  5
68A
 10
324.058995
 20
407.780438
 30
0.0
 11
330.911922
 21
414.633365
 31
0.0
  0
LINE
  8
LC-005-005-----0
 62
     2
  5
68B
 10
323.450776
 20
407.737904
 30
0.0
 11
330.336185
 21
414.623313
 31
0.0
  0
LINE
  8
LC-005-005-----0
 62
     2
  5
68C
 10
322.842557
 20
407.695371
 30
0.0
 11
329.760447
 21
414.613261
 31
0.0
  0
LINE
  8
LC-005-005-----0
 62
     2
  5
68D
 10
322.234339
 20
407.652838
 30
0.0
 11
327.300067
 21
412.718567
 31
0.0
  0
LINE
  8
LC-005-005-----0
 62
     2
  5
68E
 10
321.62612
 20
407.610305
 30
0.0
 11
326.691849
 21
412.676033
 31
0.0
  0
LINE
  8
LC-005-005-----0
 62
     2
  5
68F
 10
321.276633
 20
407.826503
 30
0.0
 11
326.08363
 21
412.6335
 31
0.0
  0
LINE
  8
LC-005-005-----0
 62
     2
  5
690
 10
321.276631
 20
408.392186
 30
0.0
 11
325.475412
 21
412.590967
 31
0.0
  0
LINE
  8
LC-005-005-----0
 62
     2
  5
691
 10
321.276629
 20
408.957869
 30
0.0
 11
324.867193
 21
412.548434
 31
0.0
  0
LINE
  8
LC-005-005-----0
 62
     2
  5
692
 10
321.276626
 20
409.523553
 30
0.0
 11
324.258974
 21
412.505901
 31
0.0
  0
LINE
  8
LC-005-005-----0
 62
     2
  5
693
 10
321.276624
 20
410.089236
 30
0.0
 11
323.650756
 21
412.463367
 31
0.0
  0
LINE
  8
LC-005-005-----0
 62
     2
  5
694
 10
321.276622
 20
410.654919
 30
0.0
 11
323.042537
 21
412.420834
 31
0.0
  0
LINE
  8
LC-005-005-----0
 62
     2
  5
695
 10
321.27662
 20
411.220602
 30
0.0
 11
322.434318
 21
412.378301
 31
0.0
  0
LINE
  8
LC-005-005-----0
 62
     2
  5
696
 10
321.276617
 20
411.786285
 30
0.0
 11
321.8261
 21
412.335768
 31
0.0
  0
ENDBLK
  8
0
  5
697
  0
BLOCK
  8
0
  5
6B9
  2
*D35
 70
    65
 10
0.0
 20
0.0
 30
0.0
  3
*D35
  0
LINE
  8
LC-007-003-MTH-0
 62
     2
  5
6BA
 10
-28.324747
 20
415.352727
 30
0.0
 11
-28.324747
 21
547.836
 31
0.0
  0
LINE
  8
LC-007-003-MTH-0
 62
     2
  5
6BB
 10
471.276603
 20
415.353726
 30
0.0
 11
471.276603
 21
547.836
 31
0.0
  0
LINE
  8
LC-009-003-MTG-0
 62
     2
  5
6BC
 10
-28.324747
 20
531.036
 30
0.0
 11
177.899395
 21
531.036
 31
0.0
  0
LINE
  8
LC-009-003-MTG-0
 62
     2
  5
6BD
 10
279.546328
 20
531.036
 30
0.0
 11
471.276603
 21
531.036
 31
0.0
  0
LINE
  8
LC-008-003-----0
 62
     2
  5
6BE
 10
-0.564291
 20
534.690733
 30
0.0
 11
-28.324747
 21
531.036
 31
0.0
  0
LINE
  8
LC-008-003-----0
 62
     2
  5
6BF
 10
-28.324747
 20
531.036
 30
0.0
 11
-0.564291
 21
527.381267
 31
0.0
  0
LINE
  8
LC-008-003-----0
 62
     2
  5
6C0
 10
-0.564291
 20
527.381267
 30
0.0
 11
-0.564291
 21
534.690733
 31
0.0
  0
LINE
  8
LC-008-003-----0
 62
     2
  5
6C1
 10
-0.502009
 20
533.740503
 30
0.0
 11
-21.044747
 21
531.036
 31
0.0
  0
LINE
  8
LC-008-003-----0
 62
     2
  5
6C2
 10
-21.044747
 20
531.036
 30
0.0
 11
-0.502009
 21
528.331497
 31
0.0
  0
LINE
  8
LC-008-003-----0
 62
     2
  5
6C3
 10
-0.439728
 20
532.790272
 30
0.0
 11
-13.764747
 21
531.036
 31
0.0
  0
LINE
  8
LC-008-003-----0
 62
     2
  5
6C4
 10
-13.764747
 20
531.036
 30
0.0
 11
-0.439728
 21
529.281728
 31
0.0
  0
LINE
  8
LC-008-003-----0
 62
     2
  5
6C5
 10
-0.377447
 20
531.840041
 30
0.0
 11
-6.484747
 21
531.036
 31
0.0
  0
LINE
  8
LC-008-003-----0
 62
     2
  5
6C6
 10
-6.484747
 20
531.036
 30
0.0
 11
-0.377447
 21
530.231959
 31
0.0
  0
LINE
  8
LC-008-003-----0
 62
     2
  5
6C7
 10
443.516147
 20
527.381267
 30
0.0
 11
471.276603
 21
531.036
 31
0.0
  0
LINE
  8
LC-008-003-----0
 62
     2
  5
6C8
 10
471.276603
 20
531.036
 30
0.0
 11
443.516147
 21
534.690733
 31
0.0
  0
LINE
  8
LC-008-003-----0
 62
     2
  5
6C9
 10
443.516147
 20
534.690733
 30
0.0
 11
443.516147
 21
527.381267
 31
0.0
  0
LINE
  8
LC-008-003-----0
 62
     2
  5
6CA
 10
443.453865
 20
528.331497
 30
0.0
 11
463.996603
 21
531.036
 31
0.0
  0
LINE
  8
LC-008-003-----0
 62
     2
  5
6CB
 10
463.996603
 20
531.036
 30
0.0
 11
443.453865
 21
533.740503
 31
0.0
  0
LINE
  8
LC-008-003-----0
 62
     2
  5
6CC
 10
443.391584
 20
529.281728
 30
0.0
 11
456.716603
 21
531.036
 31
0.0
  0
LINE
  8
LC-008-003-----0
 62
     2
  5
6CD
 10
456.716603
 20
531.036
 30
0.0
 11
443.391584
 21
532.790272
 31
0.0
  0
LINE
  8
LC-008-003-----0
 62
     2
  5
6CE
 10
443.329303
 20
530.231959
 30
0.0
 11
449.436603
 21
531.036
 31
0.0
  0
LINE
  8
LC-008-003-----0
 62
     2
  5
6CF
 10
449.436603
 20
531.036
 30
0.0
 11
443.329303
 21
531.840041
 31
0.0
  0
TEXT
  8
LC-008-003-----0
 62
     8
  5
6D0
 10
155.174701
 20
533.454369
 30
0.0
 40
28.0
  1
%%c500
 41
0.9
 51
15.0
  7
LCTX15-400-0-0-ARIAL
 72
     1
 11
224.374701
 21
533.454369
 31
0.0
  0
ENDBLK
  8
0
  5
6D1
  0
ENDSEC
  0
SECTION
  2
ENTITIES
  0
VIEWPORT
  8
LC-VIEWPORT
  5
6D3
 67
     1
 68
     1
 10
420.0
 20
297.0
 30
0.0
 40
840.0
 41
594.0
 69
     1
1001
ACAD
1000
MVIEW
1002
{
1070
    16
1010
0.0
1020
0.0
1030
0.0
1010
0.0
1020
0.0
1030
1.0
1040
0.0
1040
594.0
1040
420.0
1040
297.0
1040
50.0
1040
0.0
1040
0.0
1070
     0
1070
   100
1070
     1
1070
     1
1070
     0
1070
     0
1070
     0
1070
     0
1040
0.0
1040
0.0
1040
0.0
1040
1.0
1040
1.0
1040
0.0
1040
0.0
1070
     0
1002
{
1002
}
1002
}
  0
LINE
  8
LC-001-002-----0
 62
     1
  5
26
 10
70.721189
 20
410.65338
 30
0.0
 11
111.376789
 21
409.943734
 31
0.0
  0
LINE
  8
LC-001-002-----0
 62
     1
  5
27
 10
70.721189
 20
407.652923
 30
0.0
 11
110.276502
 21
406.962482
 31
0.0
  0
LINE
  8
LC-001-002-----0
 62
     1
  5
28
 10
372.232389
 20
410.65338
 30
0.0
 11
331.576789
 21
409.943734
 31
0.0
  0
LINE
  8
LC-001-002-----0
 62
     1
  5
29
 10
246.472932
 20
298.802871
 30
0.0
 11
246.472932
 21
267.299984
 31
0.0
  0
LINE
  8
LC-001-002-----0
 62
     1
  5
2A
 10
190.972932
 20
377.802696
 30
0.0
 11
193.472932
 21
377.802696
 31
0.0
  0
LINE
  8
LC-001-002-----0
 62
     1
  5
2B
 10
249.472932
 20
377.802696
 30
0.0
 11
236.403175
 21
377.802696
 31
0.0
  0
LINE
  8
LC-001-002-----0
 62
     1
  5
2C
 10
249.472932
 20
376.802696
 30
0.0
 11
235.992341
 21
376.802696
 31
0.0
  0
LINE
  8
LC-001-002-----0
  6
DASHDOT
 62
     2
  5
2E
 10
221.472932
 20
189.802692
 30
0.0
 11
221.476789
 21
410.65338
 31
0.0
  0
LINE
  8
LC-001-002-----0
 62
     1
  5
2F
 10
238.153177
 20
377.802696
 30
0.0
 11
238.153177
 21
398.302867
 31
0.0
  0
LINE
  8
LC-001-002-----0
 62
     1
  5
30
 10
272.472932
 20
299.802864
 30
0.0
 11
248.476933
 21
299.80287
 31
0.0
  0
LINE
  8
LC-001-002-----0
 62
     1
  5
31
 10
166.472932
 20
299.80269
 30
0.0
 11
152.972932
 21
299.802696
 31
0.0
  0
ARC
  8
LC-002-002-RND-0
 62
     1
  5
33
 10
114.023564
 20
410.125385
 30
0.0
 40
2.0
 50
225.0
 51
266.000003
  0
LINE
  8
LC-001-002-----0
 62
     1
  5
34
 10
372.232389
 20
407.652923
 30
0.0
 11
332.677076
 21
406.962482
 31
0.0
  0
ARC
  8
LC-002-002-RND-0
 62
     1
  5
35
 10
328.930013
 20
410.125385
 30
0.0
 40
2.0
 50
273.999997
 51
315.0
  0
LINE
  8
LC-001-002-----0
 62
     1
  5
36
 10
308.228557
 20
397.456263
 30
0.0
 11
308.228557
 21
403.956263
 31
0.0
  0
LINE
  8
LC-001-002-----0
 62
     1
  5
37
 10
310.228557
 20
403.956263
 30
0.0
 11
308.229939
 21
403.956263
 31
0.0
  0
LINE
  8
LC-001-002-----0
 62
     1
  5
38
 10
310.228557
 20
397.956263
 30
0.0
 11
310.228557
 21
403.956263
 31
0.0
  0
LINE
  8
LC-001-002-----0
 62
     1
  5
39
 10
312.228557
 20
397.956263
 30
0.0
 11
310.228557
 21
397.956263
 31
0.0
  0
LINE
  8
LC-001-002-----0
 62
     1
  5
3A
 10
299.529939
 20
385.652696
 30
0.0
 11
299.329939
 21
385.652696
 31
0.0
  0
LINE
  8
LC-001-002-----0
 62
     1
  5
3B
 10
308.229939
 20
386.952696
 30
0.0
 11
308.229939
 21
403.952696
 31
0.0
  0
LINE
  8
LC-001-002-----0
 62
     1
  5
3C
 10
308.228557
 20
397.737328
 30
0.0
 11
308.228557
 21
397.737328
 31
0.0
  0
LINE
  8
LC-001-002-----0
 62
     1
  5
3D
 10
299.529939
 20
382.152696
 30
0.0
 11
299.529939
 21
383.652696
 31
0.0
  0
LINE
  8
LC-001-002-----0
 62
     1
  5
3E
 10
299.529939
 20
378.702696
 30
0.0
 11
299.529939
 21
379.202696
 31
0.0
  0
LINE
  8
LC-001-002-----0
 62
     1
  5
3F
 10
299.529939
 20
377.202696
 30
0.0
 11
299.529939
 21
380.152696
 31
0.0
  0
LINE
  8
LC-001-002-----0
 62
     1
  5
40
 10
299.529939
 20
377.202696
 30
0.0
 11
298.972225
 21
377.202696
 31
0.0
  0
LINE
  8
LC-001-002-----0
 62
     1
  5
41
 10
299.529939
 20
380.152696
 30
0.0
 11
299.329939
 21
380.152696
 31
0.0
  0
ARC
  8
LC-002-002-RND-0
 62
     1
  5
42
 10
299.329939
 20
384.852696
 30
0.0
 40
0.8
 50
90.0
 51
180.0
  0
ARC
  8
LC-002-002-RND-0
 62
     1
  5
43
 10
299.329939
 20
381.352696
 30
0.0
 40
0.8
 50
90.0
 51
180.0
  0
LINE
  8
LC-001-002-----0
 62
     1
  5
44
 10
298.529939
 20
380.952696
 30
0.0
 11
298.529939
 21
381.352696
 31
0.0
  0
LINE
  8
LC-001-002-----0
 62
     1
  5
45
 10
298.529939
 20
384.452696
 30
0.0
 11
298.529939
 21
384.852696
 31
0.0
  0
ARC
  8
LC-002-002-RND-0
 62
     1
  5
46
 10
299.329939
 20
380.952696
 30
0.0
 40
0.8
 50
180.0
 51
270.0
  0
ARC
  8
LC-002-002-RND-0
 62
     1
  5
47
 10
299.329939
 20
384.452696
 30
0.0
 40
0.8
 50
180.0
 51
270.0
  0
LINE
  8
LC-001-002-----0
 62
     1
  5
48
 10
299.529939
 20
383.652696
 30
0.0
 11
299.329939
 21
383.652696
 31
0.0
  0
ARC
  8
LC-002-002-RND-0
 62
     1
  5
49
 10
307.729939
 20
386.952696
 30
0.0
 40
0.5
 50
270.0
 51
0.0
  0
LINE
  8
LC-001-002-----0
 62
     1
  5
4A
 10
329.069526
 20
408.130257
 30
0.0
 11
313.707024
 21
407.056007
 31
0.0
  0
ARC
  8
LC-002-002-RND-0
 62
     1
  5
4B
 10
312.280975
 20
398.952696
 30
0.0
 40
1.0
 50
270.0
 51
357.0
  0
LINE
  8
LC-001-002-----0
 62
     1
  5
4C
 10
313.707024
 20
407.056007
 30
0.0
 11
313.279604
 21
398.90036
 31
0.0
  0
LINE
  8
LC-001-002-----0
 62
     1
  5
4D
 10
372.232389
 20
410.65338
 30
0.0
 11
372.232389
 21
407.652923
 31
0.0
  0
LINE
  8
LC-001-002-----0
 62
     1
  5
4E
 10
316.494381
 20
402.919983
 30
0.0
 11
316.252032
 21
398.295688
 31
0.0
  0
LINE
  8
LC-001-002-----0
 62
     1
  5
4F
 10
332.677076
 20
406.962482
 30
0.0
 11
330.97045
 21
405.255857
 31
0.0
  0
LINE
  8
LC-001-002-----0
 62
     1
  5
50
 10
299.529939
 20
382.152696
 30
0.0
 11
299.329939
 21
382.152696
 31
0.0
  0
ARC
  8
LC-003-001-RND-0
 62
     1
  5
52
 10
317.966193
 20
402.842849
 30
0.0
 40
1.5
 50
93.999997
 51
177.0
  0
LINE
  8
LC-001-002-----0
 62
     1
  5
53
 10
310.979939
 20
387.452696
 30
0.0
 11
301.722932
 21
374.232319
 31
0.0
  0
LINE
  8
LC-001-002-----0
 62
     1
  5
54
 10
313.256143
 20
395.452696
 30
0.0
 11
312.979939
 21
395.452696
 31
0.0
  0
LINE
  8
LC-001-002-----0
 62
     1
  5
55
 10
134.72502
 20
386.989844
 30
0.0
 11
134.72502
 21
403.956263
 31
0.0
  0
LINE
  8
LC-004-001-----0
 62
     1
  5
57
 10
330.97045
 20
405.255857
 30
0.0
 11
317.861558
 21
404.339195
 31
0.0
  0
ARC
  8
LC-002-002-RND-0
 62
     1
  5
58
 10
313.256143
 20
398.452696
 30
0.0
 40
3.0
 50
270.0
 51
357.0
  0
LINE
  8
LC-001-002-----0
 62
     1
  5
59
 10
132.723639
 20
403.956263
 30
0.0
 11
134.72502
 21
403.956263
 31
0.0
  0
ARC
  8
LC-002-002-RND-0
 62
     1
  5
5A
 10
312.979939
 20
393.452696
 30
0.0
 40
2.0
 50
90.0
 51
180.0
  0
LINE
  8
LC-001-002-----0
 62
     1
  5
5B
 10
310.979939
 20
387.452696
 30
0.0
 11
310.979939
 21
393.452696
 31
0.0
  0
LINE
  8
LC-001-002-----0
 62
     1
  5
5C
 10
299.529939
 20
378.702696
 30
0.0
 11
299.529939
 21
378.702696
 31
0.0
  0
LINE
  8
LC-001-002-----0
 62
     1
  5
5D
 10
307.729939
 20
386.452696
 30
0.0
 11
300.329939
 21
386.452696
 31
0.0
  0
LINE
  8
LC-001-002-----0
 62
     1
  5
5E
 10
308.229939
 20
387.952696
 30
0.0
 11
308.229939
 21
389.252078
 31
0.0
  0
LINE
  8
LC-001-002-----0
 62
     1
  5
5F
 10
310.229939
 20
403.952696
 30
0.0
 11
308.229939
 21
403.952696
 31
0.0
  0
LINE
  8
LC-001-002-----0
 62
     1
  5
60
 10
299.529939
 20
378.452696
 30
0.0
 11
299.529939
 21
378.952696
 31
0.0
  0
LINE
  8
LC-001-002-----0
 62
     1
  5
61
 10
299.529939
 20
378.652696
 30
0.0
 11
299.529939
 21
379.152696
 31
0.0
  0
LINE
  8
LC-001-002-----0
 62
     1
  5
62
 10
331.576789
 20
409.943734
 30
0.0
 11
330.344227
 21
408.711172
 31
0.0
  0
LINE
  8
LC-001-002-----0
 62
     1
  5
63
 10
299.529939
 20
378.702696
 30
0.0
 11
299.529939
 21
378.702696
 31
0.0
  0
ARC
  8
LC-002-002-RND-0
 62
     1
  5
64
 10
300.329939
 20
385.652696
 30
0.0
 40
0.8
 50
90.0
 51
180.0
  0
LINE
  8
LC-001-002-----0
 62
     1
  5
65
 10
299.529939
 20
385.652696
 30
0.0
 11
299.529939
 21
385.652696
 31
0.0
  0
LINE
  8
LC-001-002-----0
 62
     1
  5
66
 10
143.973639
 20
311.802696
 30
0.0
 11
143.973639
 21
377.202696
 31
0.0
  0
LINE
  8
LC-001-002-----0
 62
     1
  5
67
 10
243.473081
 20
284.802873
 30
0.0
 11
243.473091
 21
299.802698
 31
0.0
  0
LINE
  8
LC-001-002-----0
 62
     1
  5
68
 10
199.472932
 20
284.802696
 30
0.0
 11
199.472932
 21
299.802696
 31
0.0
  0
LINE
  8
LC-001-002-----0
 62
     1
  5
69
 10
243.473056
 20
267.299986
 30
0.0
 11
243.473081
 21
284.802873
 31
0.0
  0
LINE
  8
LC-001-002-----0
 62
     1
  5
6A
 10
246.472932
 20
267.299984
 30
0.0
 11
221.472932
 21
267.3
 31
0.0
  0
LINE
  8
LC-001-002-----0
 62
     1
  5
6B
 10
143.423639
 20
385.652696
 30
0.0
 11
143.623639
 21
385.652696
 31
0.0
  0
LINE
  8
LC-001-002-----0
 62
     1
  5
6C
 10
134.72502
 20
397.737328
 30
0.0
 11
134.72502
 21
397.737328
 31
0.0
  0
LINE
  8
LC-001-002-----0
 62
     1
  5
6D
 10
143.423639
 20
382.152696
 30
0.0
 11
143.423639
 21
383.652696
 31
0.0
  0
LINE
  8
LC-001-002-----0
 62
     1
  5
6E
 10
143.423639
 20
378.702696
 30
0.0
 11
143.423639
 21
379.202696
 31
0.0
  0
LINE
  8
LC-001-002-----0
 62
     1
  5
6F
 10
143.423639
 20
377.202696
 30
0.0
 11
143.423639
 21
380.152696
 31
0.0
  0
LINE
  8
LC-001-002-----0
 62
     1
  5
70
 10
143.423639
 20
377.202696
 30
0.0
 11
143.973639
 21
377.202696
 31
0.0
  0
LINE
  8
LC-001-002-----0
 62
     1
  5
71
 10
143.423639
 20
380.152696
 30
0.0
 11
143.623639
 21
380.152696
 31
0.0
  0
ARC
  8
LC-002-002-RND-0
 62
     1
  5
72
 10
143.623639
 20
384.852696
 30
0.0
 40
0.8
 50
0.0
 51
90.0
  0
ARC
  8
LC-002-002-RND-0
 62
     1
  5
73
 10
143.623639
 20
381.352696
 30
0.0
 40
0.8
 50
0.0
 51
90.0
  0
LINE
  8
LC-001-002-----0
 62
     1
  5
74
 10
144.423639
 20
380.952696
 30
0.0
 11
144.423639
 21
381.352696
 31
0.0
  0
LINE
  8
LC-001-002-----0
 62
     1
  5
75
 10
144.423639
 20
384.452696
 30
0.0
 11
144.423639
 21
384.852696
 31
0.0
  0
ARC
  8
LC-002-002-RND-0
 62
     1
  5
76
 10
143.623639
 20
380.952696
 30
0.0
 40
0.8
 50
270.0
 51
0.0
  0
ARC
  8
LC-002-002-RND-0
 62
     1
  5
77
 10
143.623639
 20
384.452696
 30
0.0
 40
0.8
 50
270.0
 51
0.0
  0
LINE
  8
LC-001-002-----0
 62
     1
  5
78
 10
143.423639
 20
383.652696
 30
0.0
 11
143.623639
 21
383.652696
 31
0.0
  0
ARC
  8
LC-002-002-RND-0
 62
     1
  5
79
 10
135.223639
 20
386.952696
 30
0.0
 40
0.5
 50
180.0
 51
270.0
  0
LINE
  8
LC-001-002-----0
 62
     1
  5
7A
 10
113.884052
 20
408.130257
 30
0.0
 11
129.246554
 21
407.056007
 31
0.0
  0
LINE
  8
LC-001-002-----0
 62
     1
  5
7B
 10
130.672603
 20
397.952696
 30
0.0
 11
132.723639
 21
397.952696
 31
0.0
  0
ARC
  8
LC-002-002-RND-0
 62
     1
  5
7C
 10
130.672603
 20
398.952696
 30
0.0
 40
1.0
 50
183.0
 51
270.0
  0
LINE
  8
LC-001-002-----0
 62
     1
  5
7D
 10
298.972225
 20
311.802696
 30
0.0
 11
298.972225
 21
377.202696
 31
0.0
  0
LINE
  8
LC-001-002-----0
 62
     1
  5
7E
 10
132.723639
 20
397.952696
 30
0.0
 11
132.723639
 21
403.956263
 31
0.0
  0
LINE
  8
LC-001-002-----0
 62
     1
  5
7F
 10
129.246554
 20
407.056007
 30
0.0
 11
129.673974
 21
398.90036
 31
0.0
  0
LINE
  8
LC-001-002-----0
 62
     1
  5
80
 10
70.721189
 20
410.65338
 30
0.0
 11
70.721189
 21
407.652923
 31
0.0
  0
ARC
  8
LC-001-002-----0
 62
     1
  5
81
 10
193.472932
 20
377.302696
 30
0.0
 40
0.5
 50
270.000117
 51
89.999981
  0
LINE
  8
LC-001-002-----0
 62
     1
  5
82
 10
126.459029
 20
402.923192
 30
0.0
 11
126.701546
 21
398.295688
 31
0.0
  0
LINE
  8
LC-001-002-----0
 62
     1
  5
83
 10
110.276502
 20
406.962482
 30
0.0
 11
111.983127
 21
405.255857
 31
0.0
  0
LINE
  8
LC-001-002-----0
 62
     1
  5
84
 10
190.972932
 20
305.802696
 30
0.0
 11
190.972932
 21
377.802696
 31
0.0
  0
LINE
  8
LC-001-002-----0
 62
     1
  5
85
 10
199.472932
 20
267.299808
 30
0.0
 11
199.472932
 21
284.802696
 31
0.0
  0
LINE
  8
LC-001-002-----0
 62
     1
  5
86
 10
143.423639
 20
382.152696
 30
0.0
 11
143.623639
 21
382.152696
 31
0.0
  0
LINE
  8
LC-001-002-----0
 62
     1
  5
87
 10
196.472932
 20
267.299808
 30
0.0
 11
221.472932
 21
267.299808
 31
0.0
  0
ARC
  8
LC-002-002-RND-0
 62
     1
  5
88
 10
152.973639
 20
311.802696
 30
0.0
 40
9.0
 50
180.0
 51
270.0
  0
ARC
  8
LC-002-002-RND-0
 62
     1
  5
89
 10
289.972225
 20
311.802696
 30
0.0
 40
9.0
 50
270.0
 51
0.0
  0
LINE
  8
LC-001-002-----0
 62
     1
  5
8A
 10
131.973639
 20
387.452696
 30
0.0
 11
141.222932
 21
374.243336
 31
0.0
  0
LINE
  8
LC-001-002-----0
 62
     1
  5
8B
 10
129.697435
 20
395.452696
 30
0.0
 11
129.973639
 21
395.452696
 31
0.0
  0
LINE
  8
LC-004-001-----0
 62
     1
  5
8C
 10
111.983127
 20
405.255857
 30
0.0
 11
125.065719
 21
404.341034
 31
0.0
  0
ARC
  8
LC-002-002-RND-0
 62
     1
  5
8D
 10
129.697435
 20
398.452696
 30
0.0
 40
3.0
 50
183.0
 51
270.0
  0
ARC
  8
LC-002-002-RND-0
 62
     1
  5
8E
 10
129.973639
 20
393.452696
 30
0.0
 40
2.0
 50
0.0
 51
90.0
  0
LINE
  8
LC-001-002-----0
 62
     1
  5
8F
 10
131.973639
 20
387.452696
 30
0.0
 11
131.973639
 21
393.452696
 31
0.0
  0
LINE
  8
LC-001-002-----0
 62
     1
  5
90
 10
143.423639
 20
378.702696
 30
0.0
 11
143.423639
 21
378.702696
 31
0.0
  0
LINE
  8
LC-001-002-----0
 62
     1
  5
91
 10
135.223639
 20
386.452696
 30
0.0
 11
142.623639
 21
386.452696
 31
0.0
  0
LINE
  8
LC-001-002-----0
 62
     1
  5
92
 10
143.423639
 20
378.452696
 30
0.0
 11
143.423639
 21
378.952696
 31
0.0
  0
LINE
  8
LC-001-002-----0
 62
     1
  5
93
 10
143.423639
 20
378.652696
 30
0.0
 11
143.423639
 21
379.152696
 31
0.0
  0
LINE
  8
LC-001-002-----0
 62
     1
  5
94
 10
111.376789
 20
409.943734
 30
0.0
 11
112.609351
 21
408.711172
 31
0.0
  0
LINE
  8
LC-001-002-----0
 62
     1
  5
95
 10
143.423639
 20
378.702696
 30
0.0
 11
143.423639
 21
378.702696
 31
0.0
  0
ARC
  8
LC-002-002-RND-0
 62
     1
  5
96
 10
142.623639
 20
385.652696
 30
0.0
 40
0.8
 50
0.0
 51
90.0
  0
LINE
  8
LC-001-002-----0
 62
     1
  5
97
 10
143.423639
 20
385.652696
 30
0.0
 11
143.423639
 21
385.652696
 31
0.0
  0
LINE
  8
LC-001-002-----0
 62
     1
  5
98
 10
289.972924
 20
299.802843
 30
0.0
 11
276.472932
 21
299.802863
 31
0.0
  0
ARC
  8
LC-002-002-RND-0
 62
     1
  5
99
 10
254.972932
 20
305.802696
 30
0.0
 40
3.0
 50
180.0
 51
270.0
  0
LINE
  8
LC-001-002-----0
 62
     1
  5
9A
 10
193.95262
 20
305.130215
 30
0.0
 11
193.327144
 21
376.802696
 31
0.0
  0
ARC
  8
LC-002-002-RND-0
 62
     1
  5
9B
 10
187.972932
 20
305.802696
 30
0.0
 40
3.0
 50
270.0
 51
0.0
  0
LINE
  8
LC-001-002-----0
 62
     1
  5
9C
 10
152.973639
 20
302.802696
 30
0.0
 11
187.972932
 21
302.802696
 31
0.0
  0
LINE
  8
LC-001-002-----0
 62
     1
  5
9D
 10
251.972932
 20
305.802696
 30
0.0
 11
251.972932
 21
377.802696
 31
0.0
  0
LINE
  8
LC-001-002-----0
 62
     1
  5
9E
 10
249.472931
 20
376.802696
 30
0.0
 11
249.754622
 21
376.802696
 31
0.0
  0
ARC
  8
LC-001-002-----0
 62
     1
  5
9F
 10
249.472932
 20
377.302696
 30
0.0
 40
0.5
 50
90.000019
 51
269.999883
  0
LINE
  8
LC-001-002-----0
 62
     1
  5
A0
 10
289.972225
 20
302.802696
 30
0.0
 11
254.972932
 21
302.802696
 31
0.0
  0
LINE
  8
LC-001-002-----0
 62
     1
  5
A1
 10
196.472773
 20
302.802696
 30
0.0
 11
246.473091
 21
302.802696
 31
0.0
  0
LINE
  8
LC-001-002-----0
 62
     1
  5
A2
 10
248.999061
 20
305.276289
 30
0.0
 11
249.754622
 21
376.802696
 31
0.0
  0
LINE
  8
LC-001-002-----0
 62
     1
  5
A3
 10
251.972932
 20
377.802696
 30
0.0
 11
249.472932
 21
377.802696
 31
0.0
  0
LINE
  8
LC-001-002-----0
 62
     1
  5
A4
 10
196.472932
 20
298.802696
 30
0.0
 11
196.472932
 21
267.299808
 31
0.0
  0
ARC
  8
LC-002-002-RND-0
 62
     1
  5
A5
 10
247.472932
 20
298.802871
 30
0.0
 40
1.0
 50
89.999963
 51
180.0
  0
ARC
  8
LC-002-002-RND-0
 62
     1
  5
A6
 10
195.472932
 20
298.802696
 30
0.0
 40
1.0
 50
0.0
 51
90.0
  0
LINE
  8
LC-001-002-----0
 62
     1
  5
A7
 10
301.722932
 20
374.232319
 30
0.0
 11
301.722932
 21
311.552843
 31
0.0
  0
LINE
  8
LC-001-002-----0
 62
     1
  5
A8
 10
141.222932
 20
374.243336
 30
0.0
 11
141.222932
 21
311.552696
 31
0.0
  0
ARC
  8
LC-002-002-RND-0
 62
     1
  5
A9
 10
289.972932
 20
311.552843
 30
0.0
 40
11.75
 50
269.999963
 51
0.0
  0
ARC
  8
LC-002-002-RND-0
 62
     1
  5
AA
 10
152.972932
 20
311.552696
 30
0.0
 40
11.75
 50
180.0
 51
270.0
  0
LINE
  8
LC-001-002-----0
 62
     1
  5
AB
 10
251.354635
 20
301.787193
 30
0.0
 11
252.500287
 21
299.802868
 31
0.0
  0
LINE
  8
LC-001-002-----0
 62
     1
  5
AC
 10
249.622584
 20
301.787193
 30
0.0
 11
248.476933
 21
299.80287
 31
0.0
  0
ARC
  8
LC-002-002-RND-0
 62
     1
  5
AD
 10
250.488609
 20
301.287192
 30
0.0
 40
1.0
 50
30.000037
 51
149.999963
  0
LINE
  8
LC-001-002-----0
 62
     1
  5
AE
 10
191.591229
 20
301.787193
 30
0.0
 11
190.445477
 21
299.802696
 31
0.0
  0
LINE
  8
LC-001-002-----0
 62
     1
  5
AF
 10
193.323279
 20
301.787193
 30
0.0
 11
194.469031
 21
299.802696
 31
0.0
  0
ARC
  8
LC-002-002-RND-0
 62
     1
  5
B0
 10
192.457254
 20
301.287192
 30
0.0
 40
1.0
 50
30.000037
 51
149.999963
  0
LINE
  8
LC-001-002-----0
 62
     1
  5
B1
 10
195.472932
 20
299.802696
 30
0.0
 11
194.469031
 21
299.802696
 31
0.0
  0
LINE
  8
LC-001-002-----0
 62
     1
  5
B2
 10
300.329939
 20
386.452696
 30
0.0
 11
262.941996
 21
386.452696
 31
0.0
  0
LINE
  8
LC-001-002-----0
 62
     1
  5
B3
 10
298.972225
 20
377.202696
 30
0.0
 11
262.94199
 21
377.202696
 31
0.0
  0
LINE
  8
LC-001-002-----0
 62
     1
  5
B4
 10
246.473091
 20
302.802696
 30
0.0
 11
246.499201
 21
302.802696
 31
0.0
  0
ARC
  8
LC-002-002-RND-0
 62
     1
  5
B5
 10
246.473091
 20
299.802696
 30
0.0
 40
3.0
 50
90.0
 51
179.999963
  0
ARC
  8
LC-002-002-RND-0
 62
     1
  5
B6
 10
246.499201
 20
305.302696
 30
0.0
 40
2.5
 50
270.0
 51
359.394785
  0
ARC
  8
LC-002-002-RND-0
 62
     1
  5
B7
 10
196.446663
 20
305.302696
 30
0.0
 40
2.5
 50
180.605215
 51
270.0
  0
ARC
  8
LC-002-002-RND-0
 62
     1
  5
B8
 10
196.472773
 20
299.802696
 30
0.0
 40
3.0
 50
0.000037
 51
90.0
  0
LINE
  8
LC-001-002-----0
 62
     1
  5
B9
 10
248.476933
 20
299.80287
 30
0.0
 11
247.472932
 21
299.802871
 31
0.0
  0
LINE
  8
LC-001-002-----0
 62
     1
  5
BA
 10
194.469031
 20
299.802696
 30
0.0
 11
170.472932
 21
299.802694
 31
0.0
  0
LINE
  8
LC-001-002-----0
 62
     1
  5
BB
 10
143.973639
 20
377.202696
 30
0.0
 11
179.941819
 21
377.202696
 31
0.0
  0
LINE
  8
LC-001-002-----0
 62
     1
  5
BC
 10
142.623639
 20
386.452696
 30
0.0
 11
179.941793
 21
386.452696
 31
0.0
  0
ARC
  8
LC-003-001-RND-0
 62
     1
  5
BD
 10
124.961085
 20
402.844688
 30
0.0
 40
1.5
 50
3.0
 51
86.000003
  0
INSERT
  8
LC-005-005-----0
 62
     2
  5
140
  2
*X0
 10
0.0
 20
0.0
 30
0.0
  0
LINE
  8
LC-001-002-----0
 62
     1
  5
141
 10
166.472932
 20
299.836811
 30
0.0
 11
166.472932
 21
189.802692
 31
0.0
  0
LINE
  8
LC-001-002-----0
 62
     1
  5
142
 10
276.472932
 20
299.802863
 30
0.0
 11
276.472932
 21
189.802692
 31
0.0
  0
LINE
  8
LC-001-002-----0
 62
     1
  5
143
 10
170.472932
 20
299.802694
 30
0.0
 11
170.472932
 21
189.802692
 31
0.0
  0
LINE
  8
LC-001-002-----0
 62
     1
  5
144
 10
272.472932
 20
299.802864
 30
0.0
 11
272.472932
 21
189.802692
 31
0.0
  0
LINE
  8
LC-001-002-----0
 62
     1
  5
145
 10
166.472932
 20
189.802692
 30
0.0
 11
276.472932
 21
189.802692
 31
0.0
  0
INSERT
  8
LC-005-005-----0
 62
     2
  5
19A
  2
*X1
 10
0.0
 20
0.0
 30
0.0
  0
LINE
  8
LC-001-002-----0
 62
     1
  5
19B
 10
179.941788
 20
388.302696
 30
0.0
 11
179.941958
 21
328.302861
 31
0.0
  0
LINE
  8
LC-001-002-----0
 62
     1
  5
19C
 10
180.941788
 20
388.302696
 30
0.0
 11
180.941958
 21
328.302861
 31
0.0
  0
LINE
  8
LC-001-002-----0
 62
     1
  5
19D
 10
191.059508
 20
328.304554
 30
0.0
 11
179.941792
 21
328.302693
 31
0.0
  0
ARC
  8
LC-001-002-----0
 62
     1
  5
19E
 10
190.941788
 20
388.302696
 30
0.0
 40
10.0
 50
94.313709
 51
179.999848
  0
ARC
  8
LC-002-002-RND-0
 62
     1
  5
19F
 10
191.941788
 20
388.302696
 30
0.0
 40
12.0
 50
90.0
 51
180.0
  0
LINE
  8
LC-001-002-----0
 62
     1
  5
1A0
 10
250.942006
 20
400.302867
 30
0.0
 11
235.191786
 21
400.302878
 31
0.0
  0
LINE
  8
LC-001-002-----0
 62
     1
  5
1A1
 10
251.942005
 20
398.302867
 30
0.0
 11
222.885164
 21
398.302867
 31
0.0
  0
LINE
  8
LC-001-002-----0
 62
     1
  5
1A2
 10
191.941788
 20
400.302696
 30
0.0
 11
207.691789
 21
400.302696
 31
0.0
  0
ARC
  8
LC-002-002-RND-0
 62
     1
  5
1A3
 10
226.191786
 20
401.302696
 30
0.0
 40
9.0
 50
0.000006
 51
90.000006
  0
ARC
  8
LC-001-002-----0
 62
     1
  5
1A4
 10
251.941998
 20
388.302867
 30
0.0
 40
10.0
 50
0.000096
 51
89.999963
  0
ARC
  8
LC-001-002-----0
 62
     1
  5
1A5
 10
250.941998
 20
388.302867
 30
0.0
 40
12.0
 50
0.000096
 51
89.999963
  0
LINE
  8
LC-001-002-----0
 62
     1
  5
1A6
 10
262.941997
 20
388.302859
 30
0.0
 11
262.941958
 21
328.302859
 31
0.0
  0
LINE
  8
LC-001-002-----0
 62
     1
  5
1A7
 10
261.941997
 20
388.302861
 30
0.0
 11
261.942123
 21
328.303025
 31
0.0
  0
LINE
  8
LC-001-002-----0
 62
     1
  5
1A8
 10
251.816442
 20
328.304707
 30
0.0
 11
262.941958
 21
328.302859
 31
0.0
  0
LINE
  8
LC-001-002-----0
 62
     1
  5
1A9
 10
190.184074
 20
377.802696
 30
0.0
 11
190.189625
 21
398.311717
 31
0.0
  0
LINE
  8
LC-001-002-----0
 62
     1
  5
1AA
 10
222.877449
 20
369.802696
 30
0.0
 11
194.621899
 21
369.802696
 31
0.0
  0
LINE
  8
LC-001-002-----0
 62
     1
  5
1AB
 10
193.684077
 20
373.302696
 30
0.0
 11
194.621899
 21
369.802696
 31
0.0
  0
LINE
  8
LC-001-002-----0
 62
     1
  5
1AC
 10
193.684077
 20
376.388483
 30
0.0
 11
193.684077
 21
373.302696
 31
0.0
  0
ARC
  8
LC-001-002-----0
 62
     1
  5
1AD
 10
193.434074
 20
377.095589
 30
0.0
 40
0.75
 50
289.471622
 51
70.528779
  0
LINE
  8
LC-001-002-----0
 62
     1
  5
1AE
 10
191.059508
 20
377.802696
 30
0.0
 11
193.684074
 21
377.802696
 31
0.0
  0
LINE
  8
LC-001-002-----0
 62
     1
  5
1AF
 10
226.191786
 20
406.302696
 30
0.0
 11
221.441787
 21
406.302696
 31
0.0
  0
LINE
  8
LC-001-002-----0
 62
     1
  5
1B0
 10
231.191786
 20
400.302697
 30
0.0
 11
231.191786
 21
401.302697
 31
0.0
  0
ARC
  8
LC-001-002-----0
 62
     1
  5
1B1
 10
226.191786
 20
401.302696
 30
0.0
 40
5.0
 50
0.000005
 51
90.000006
  0
ARC
  8
LC-002-002-RND-0
 62
     1
  5
1B2
 10
216.691789
 20
401.302696
 30
0.0
 40
9.0
 50
90.0
 51
180.000001
  0
LINE
  8
LC-001-002-----0
 62
     1
  5
1B3
 10
216.691789
 20
406.302696
 30
0.0
 11
221.441788
 21
406.302696
 31
0.0
  0
LINE
  8
LC-001-002-----0
 62
     1
  5
1B4
 10
211.691789
 20
400.302696
 30
0.0
 11
211.691789
 21
401.302696
 31
0.0
  0
LINE
  8
LC-001-002-----0
 62
     1
  5
1B5
 10
226.191785
 20
410.302696
 30
0.0
 11
221.441787
 21
410.302696
 31
0.0
  0
LINE
  8
LC-001-002-----0
 62
     1
  5
1B6
 10
235.191786
 20
400.302697
 30
0.0
 11
235.191786
 21
401.302697
 31
0.0
  0
ARC
  8
LC-001-002-----0
 62
     1
  5
1B7
 10
216.691789
 20
401.302696
 30
0.0
 40
5.0
 50
90.0
 51
180.000001
  0
LINE
  8
LC-001-002-----0
 62
     1
  5
1B8
 10
216.691789
 20
410.302696
 30
0.0
 11
221.441788
 21
410.302696
 31
0.0
  0
LINE
  8
LC-001-002-----0
 62
     1
  5
1B9
 10
207.691789
 20
400.302696
 30
0.0
 11
207.691789
 21
401.302696
 31
0.0
  0
LINE
  8
LC-001-002-----0
 62
     1
  5
1BA
 10
222.877449
 20
369.802696
 30
0.0
 11
222.885164
 21
398.302867
 31
0.0
  0
INSERT
  8
LC-005-005-----0
 62
     2
  5
21C
  2
*X2
 10
0.0
 20
0.0
 30
0.0
  0
LINE
  8
LC-001-002-----0
 62
     1
  5
21D
 10
211.691789
 20
400.302696
 30
0.0
 11
221.441788
 21
400.302696
 31
0.0
  0
LINE
  8
LC-001-002-----0
 62
     1
  5
21E
 10
231.191786
 20
400.302881
 30
0.0
 11
221.441788
 21
400.302888
 31
0.0
  0
LINE
  8
LC-001-002-----0
 62
     1
  5
21F
 10
222.877449
 20
369.802696
 30
0.0
 11
235.934264
 21
369.802696
 31
0.0
  0
LINE
  8
LC-001-002-----0
 62
     1
  5
220
 10
235.934264
 20
369.802696
 30
0.0
 11
236.403175
 21
373.302696
 31
0.0
  0
LINE
  8
LC-001-002-----0
 62
     1
  5
221
 10
236.403175
 20
373.302696
 30
0.0
 11
236.403175
 21
376.388483
 31
0.0
  0
LINE
  8
LC-001-002-----0
 62
     1
  5
222
 10
236.403175
 20
377.802696
 30
0.0
 11
238.153177
 21
377.802696
 31
0.0
  0
ARC
  8
LC-001-002-----0
 62
     1
  5
223
 10
236.701869
 20
377.09559
 30
0.0
 40
0.767605
 50
112.900021
 51
247.099979
  0
LINE
  8
LC-006-103-D00-1
 62
     1
  5
225
 10
191.059508
 20
377.802696
 30
0.0
 11
191.059508
 21
328.302861
 31
0.0
  0
LINE
  8
LC-001-002-----0
 62
     1
  5
226
 10
190.184074
 20
377.802696
 30
0.0
 11
193.684074
 21
377.802696
 31
0.0
  0
LINE
  8
LC-001-002-----0
 62
     1
  5
227
 10
251.816442
 20
328.302861
 30
0.0
 11
251.824038
 21
328.302861
 31
0.0
  0
LINE
  8
LC-001-002-----0
 62
     1
  5
228
 10
236.403175
 20
377.802696
 30
0.0
 11
251.816442
 21
377.802696
 31
0.0
  0
LINE
  8
LC-001-002-----0
 62
     1
  5
229
 10
261.941588
 20
328.302861
 30
0.0
 11
261.942123
 21
328.302861
 31
0.0
  0
LINE
  8
LC-001-002-----0
 62
     1
  5
22A
 10
170.472932
 20
209.802692
 30
0.0
 11
170.472932
 21
189.802692
 31
0.0
  0
LINE
  8
LC-001-002-----0
 62
     1
  5
22B
 10
171.472932
 20
209.802692
 30
0.0
 11
171.472932
 21
189.802692
 31
0.0
  0
LINE
  8
LC-001-002-----0
 62
     1
  5
22C
 10
271.472932
 20
209.802692
 30
0.0
 11
271.472932
 21
189.802692
 31
0.0
  0
LINE
  8
LC-001-002-----0
 62
     1
  5
22D
 10
272.472932
 20
209.802692
 30
0.0
 11
272.472932
 21
189.802692
 31
0.0
  0
LINE
  8
LC-001-002-----0
 62
     1
  5
22E
 10
170.472932
 20
189.802692
 30
0.0
 11
272.472932
 21
189.802692
 31
0.0
  0
LINE
  8
LC-001-002-----0
 62
     1
  5
22F
 10
170.472932
 20
209.802692
 30
0.0
 11
272.472932
 21
209.802692
 31
0.0
  0
INSERT
  8
LC-005-005-----0
 62
     2
  5
242
  2
*X3
 10
0.0
 20
0.0
 30
0.0
  0
DIMENSION
  8
LC-008-003-----0
 62
     2
  5
261
  2
*D4
 10
221.472932
 20
174.636
 30
0.0
 11
221.472932
 21
174.636
 31
0.0
  1
DN100(SML)
 13
166.472932
 23
189.802692
 33
0.0
 14
276.472932
 24
189.802692
 34
0.0
  3
LC-DIM-L-0140-02-02
  0
DIMENSION
  8
LC-008-003-----0
 62
     2
  5
27B
  2
*D5
 10
221.472932
 20
121.176
 30
0.0
 11
221.472932
 21
121.176
 31
0.0
  1
%%c160
 13
301.722932
 23
311.552696
 33
0.0
 14
141.222932
 24
311.552696
 34
0.0
  3
LC-DIM-L-0140-02-02
  0
INSERT
  8
LC-005-005-----0
 62
     2
  5
2A8
  2
*X6
 10
0.0
 20
0.0
 30
0.0
  0
INSERT
  8
LC-005-005-----0
 62
     2
  5
31C
  2
*X7
 10
0.0
 20
0.0
 30
0.0
  0
DIMENSION
  8
LC-008-003-----0
 62
     2
  5
337
  2
*D8
 10
221.476747
 20
428.315705
 30
0.0
 11
221.476747
 21
428.315705
 31
0.0
  1
%%c190
 13
126.580288
 23
400.60944
 33
0.0
 14
316.373206
 24
400.607836
 34
0.0
  3
LC-DIM-L-0140-02-02
  0
DIMENSION
  8
LC-008-003-----0
 62
     2
  5
352
  2
*D9
 10
221.476789
 20
476.388
 30
0.0
 11
221.476789
 21
476.388
 31
0.0
  1
%%c300
 13
70.721189
 23
410.65338
 33
0.0
 14
372.232389
 24
410.65338
 34
0.0
  3
LC-DIM-L-0140-02-02
  0
DIMENSION
  8
LC-008-003-----0
 62
     2
  5
367
  2
*D10
 10
50.873042
 20
353.727809
 30
0.0
 11
50.873042
 21
353.727809
 31
0.0
  1
110
 13
70.721189
 23
407.652923
 33
0.0
 14
152.972932
 24
299.802696
 34
0.0
 50
90.0
  3
LC-DIM-L-0140-02-02
  0
DIMENSION
  8
LC-008-003-----0
 62
     2
  5
37C
  2
*D11
 10
50.873042
 20
244.802694
 30
0.0
 11
50.873042
 21
244.802694
 31
0.0
 13
152.972932
 23
299.802696
 33
0.0
 14
166.472932
 24
189.802692
 34
0.0
 50
90.0
  3
LC-DIM-L-0140-02-02
  0
DIMENSION
  8
LC-008-003-----0
 62
     2
  5
397
  2
*D12
 10
106.896967
 20
353.052695
 30
0.0
 11
106.896967
 21
353.052695
 31
0.0
  1
50
 13
179.941792
 23
328.302693
 33
0.0
 14
190.184074
 24
377.802696
 34
0.0
 50
90.0
  3
LC-DIM-L-0140-02-02
  0
LINE
  8
LC-001-002-----0
 62
     1
  5
398
 10
70.721189
 20
410.65338
 30
0.0
 11
111.376789
 21
409.943734
 31
0.0
  0
ARC
  8
LC-002-002-RND-0
 62
     1
  5
399
 10
114.023564
 20
410.125385
 30
0.0
 40
2.0
 50
225.0
 51
266.000003
  0
LINE
  8
LC-001-002-----0
 62
     1
  5
39A
 10
113.884052
 20
408.130257
 30
0.0
 11
129.246554
 21
407.056007
 31
0.0
  0
LINE
  8
LC-001-002-----0
 62
     1
  5
39B
 10
132.723639
 20
397.952696
 30
0.0
 11
132.723639
 21
403.956263
 31
0.0
  0
LINE
  8
LC-001-002-----0
 62
     1
  5
39C
 10
111.376789
 20
409.943734
 30
0.0
 11
112.609351
 21
408.711172
 31
0.0
  0
LINE
  8
LC-001-002-----0
 62
     1
  5
39D
 10
129.580821
 20
406.813157
 30
0.0
 11
135.516475
 21
406.39812
 31
0.0
  0
LINE
  8
LC-001-002-----0
 62
     1
  5
39E
 10
134.439906
 20
403.952348
 30
0.0
 11
134.439957
 21
391.099929
 31
0.0
  0
LINE
  8
LC-001-002-----0
 62
     1
  5
39F
 10
134.439906
 20
403.952348
 30
0.0
 11
132.721962
 21
403.952341
 31
0.0
  0
LINE
  8
LC-001-002-----0
 62
     1
  5
3A0
 10
129.580569
 20
406.809553
 30
0.0
 11
129.5806
 21
399.18658
 31
0.0
  0
ARC
  8
LC-002-002-RND-0
 62
     1
  5
3A1
 10
130.66045
 20
399.199417
 30
0.0
 40
1.07985
 50
180.000229
 51
266.000233
  0
LINE
  8
LC-001-002-----0
 62
     1
  5
3A2
 10
130.585127
 20
398.122198
 30
0.0
 11
132.721986
 21
397.972783
 31
0.0
  0
LINE
  8
LC-001-002-----0
 62
     1
  5
3A3
 10
132.721986
 20
397.972783
 30
0.0
 11
132.721962
 21
403.952341
 31
0.0
  0
INSERT
  8
LC-005-005-----0
 62
     2
  5
3B5
  2
*X13
 10
0.0
 20
0.0
 30
0.0
  0
ARC
  8
LC-001-002-----0
 62
     1
  5
3B6
 10
135.23582
 20
402.384333
 30
0.0
 40
4.023715
 50
68.753917
 51
86.001394
  0
LINE
  8
LC-001-002-----0
 62
     1
  5
3B7
 10
141.633807
 20
400.837436
 30
0.0
 11
136.693911
 21
406.134567
 31
0.0
  0
ARC
  8
LC-001-002-----0
 62
     1
  5
3B8
 10
141.416579
 20
400.637058
 30
0.0
 40
0.296443
 50
250.000094
 51
43.000094
  0
LINE
  8
LC-001-002-----0
 62
     1
  5
3B9
 10
141.315625
 20
400.356689
 30
0.0
 11
138.022429
 21
401.555224
 31
0.0
  0
ARC
  8
LC-001-002-----0
 62
     1
  5
3BA
 10
137.684487
 20
400.626666
 30
0.0
 40
0.988142
 50
70.00139
 51
180.001643
  0
LINE
  8
LC-001-002-----0
 62
     1
  5
3BB
 10
136.696345
 20
400.626662
 30
0.0
 11
136.69638
 21
399.310923
 31
0.0
  0
ARC
  8
LC-001-002-----0
 62
     1
  5
3BC
 10
137.190452
 20
399.310936
 30
0.0
 40
0.494071
 50
180.001526
 51
223.00139
  0
LINE
  8
LC-001-002-----0
 62
     1
  5
3BD
 10
141.633994
 20
393.821625
 30
0.0
 11
136.829119
 21
398.973972
 31
0.0
  0
ARC
  8
LC-001-002-----0
 62
     1
  5
3BE
 10
141.416607
 20
393.621247
 30
0.0
 40
0.296443
 50
250.000094
 51
43.000094
  0
LINE
  8
LC-001-002-----0
 62
     1
  5
3BF
 10
141.315812
 20
393.340879
 30
0.0
 11
138.022616
 21
394.539414
 31
0.0
  0
ARC
  8
LC-001-002-----0
 62
     1
  5
3C0
 10
137.684674
 20
393.610856
 30
0.0
 40
0.988142
 50
70.00139
 51
180.001643
  0
LINE
  8
LC-001-002-----0
 62
     1
  5
3C1
 10
136.696546
 20
393.610829
 30
0.0
 11
136.696618
 21
391.09803
 31
0.0
  0
LINE
  8
LC-001-002-----0
 62
     1
  5
3C2
 10
134.440486
 20
391.099929
 30
0.0
 11
136.696618
 21
391.099938
 31
0.0
  0
LINE
  8
LC-005-005-----0
 62
     2
  5
3C3
 10
144.297958
 20
383.656845
 30
0.0
 11
144.475983
 21
383.83487
 31
0.0
  0
LINE
  8
LC-001-002-----0
 62
     1
  5
3C4
 10
-18.324747
 20
415.352727
 30
0.0
 11
-18.324747
 21
410.652727
 31
0.0
  0
LINE
  8
LC-001-002-----0
 62
     1
  5
3C5
 10
-8.324747
 20
415.352727
 30
0.0
 11
-8.324747
 21
410.652727
 31
0.0
  0
LINE
  8
LC-001-002-----0
 62
     1
  5
3C6
 10
1.675253
 20
415.352727
 30
0.0
 11
1.675253
 21
410.652727
 31
0.0
  0
LINE
  8
LC-001-002-----0
 62
     1
  5
3C7
 10
11.675253
 20
415.352727
 30
0.0
 11
11.675253
 21
410.652727
 31
0.0
  0
LINE
  8
LC-001-002-----0
 62
     1
  5
3C8
 10
21.675253
 20
415.352727
 30
0.0
 11
21.675253
 21
410.652727
 31
0.0
  0
LINE
  8
LC-001-002-----0
 62
     1
  5
3C9
 10
31.675253
 20
415.352727
 30
0.0
 11
31.675253
 21
410.652727
 31
0.0
  0
LINE
  8
LC-001-002-----0
 62
     1
  5
3CA
 10
41.675253
 20
415.352727
 30
0.0
 11
41.675253
 21
410.652727
 31
0.0
  0
LINE
  8
LC-001-002-----0
 62
     1
  5
3CB
 10
51.675253
 20
415.352727
 30
0.0
 11
51.675253
 21
410.652727
 31
0.0
  0
LINE
  8
LC-001-002-----0
 62
     1
  5
3CC
 10
61.675253
 20
415.352727
 30
0.0
 11
61.675253
 21
410.652727
 31
0.0
  0
LINE
  8
LC-001-002-----0
 62
     1
  5
3CD
 10
118.634672
 20
412.50956
 30
0.0
 11
136.361932
 21
411.26995
 31
0.0
  0
LINE
  8
LC-001-002-----0
 62
     1
  5
3CE
 10
118.681286
 20
413.19743
 30
0.0
 11
136.410761
 21
411.957664
 31
0.0
  0
ARC
  8
LC-002-002-RND-0
 62
     1
  5
3CF
 10
135.922466
 20
404.985296
 30
0.0
 40
6.3
 50
0.0
 51
86.0
  0
LINE
  8
LC-001-002-----0
 62
     1
  5
3D0
 10
142.222466
 20
404.985296
 30
0.0
 11
142.222466
 21
391.297253
 31
0.0
  0
ARC
  8
LC-001-002-----0
 62
     1
  5
3D1
 10
145.722466
 20
391.297253
 30
0.0
 40
3.5
 50
180.0
 51
270.0
  0
LINE
  8
LC-001-002-----0
 62
     1
  5
3D2
 10
146.022466
 20
387.497253
 30
0.0
 11
146.022466
 21
385.197253
 31
0.0
  0
ARC
  8
LC-001-002-----0
 62
     1
  5
3D3
 10
145.722988
 20
385.197253
 30
0.0
 40
0.3
 50
270.0
 51
0.0
  0
ARC
  8
LC-001-002-----0
 62
     1
  5
3D4
 10
145.722466
 20
383.397253
 30
0.0
 40
1.5
 50
90.0
 51
180.0
  0
ARC
  8
LC-001-002-----0
 62
     1
  5
3D5
 10
145.722466
 20
383.397253
 30
0.0
 40
1.5
 50
180.0
 51
270.0
  0
LINE
  8
LC-001-002-----0
 62
     1
  5
3D6
 10
145.722466
 20
381.897253
 30
0.0
 11
148.504735
 21
381.897253
 31
0.0
  0
INSERT
  8
LC-005-005-----0
 62
     2
  5
3F2
  2
*X14
 10
0.0
 20
0.0
 30
0.0
  0
INSERT
  8
LC-005-005-----0
 62
     2
  5
410
  2
*X15
 10
0.0
 20
0.0
 30
0.0
  0
INSERT
  8
LC-005-005-----0
 62
     2
  5
42E
  2
*X16
 10
0.0
 20
0.0
 30
0.0
  0
INSERT
  8
LC-005-005-----0
 62
     2
  5
44C
  2
*X17
 10
0.0
 20
0.0
 30
0.0
  0
INSERT
  8
LC-005-005-----0
 62
     2
  5
46A
  2
*X18
 10
0.0
 20
0.0
 30
0.0
  0
INSERT
  8
LC-005-005-----0
 62
     2
  5
488
  2
*X19
 10
0.0
 20
0.0
 30
0.0
  0
LINE
  8
LC-001-002-----0
 62
     1
  5
489
 10
142.98486
 20
391.49792
 30
0.0
 11
145.98486
 21
388.49792
 31
0.0
  0
LINE
  8
LC-001-002-----0
 62
     1
  5
48A
 10
145.48486
 20
407.497564
 30
0.0
 11
146.98486
 21
407.497564
 31
0.0
  0
LINE
  8
LC-001-002-----0
 62
     1
  5
48B
 10
145.48486
 20
407.497564
 30
0.0
 11
145.48486
 21
408.497564
 31
0.0
  0
ARC
  8
LC-002-002-RND-0
 62
     1
  5
48C
 10
146.98486
 20
405.497564
 30
0.0
 40
2.0
 50
0.0
 51
90.0
  0
LINE
  8
LC-001-002-----0
 62
     1
  5
48D
 10
165.91212
 20
388.49792
 30
0.0
 11
165.91212
 21
390.99792
 31
0.0
  0
LINE
  8
LC-001-002-----0
 62
     1
  5
48E
 10
177.175155
 20
388.49792
 30
0.0
 11
177.175155
 21
390.99792
 31
0.0
  0
LINE
  8
LC-001-002-----0
 62
     1
  5
48F
 10
180.282608
 20
390.99792
 30
0.0
 11
177.175155
 21
390.99792
 31
0.0
  0
LINE
  8
LC-001-002-----0
 62
     1
  5
490
 10
165.91212
 20
390.99792
 30
0.0
 11
145.722466
 21
390.99792
 31
0.0
  0
LINE
  8
LC-001-002-----0
 62
     1
  5
491
 10
148.98486
 20
405.497564
 30
0.0
 11
148.98486
 21
390.99792
 31
0.0
  0
LINE
  8
LC-001-002-----0
 62
     1
  5
492
 10
151.23486
 20
388.49792
 30
0.0
 11
179.977603
 21
388.49792
 31
0.0
  0
LINE
  8
LC-001-002-----0
 62
     1
  5
493
 10
142.98486
 20
408.497564
 30
0.0
 11
211.319181
 21
408.497564
 31
0.0
  0
LINE
  8
LC-001-002-----0
 62
     1
  5
494
 10
151.23486
 20
388.49792
 30
0.0
 11
145.98486
 21
388.49792
 31
0.0
  0
LINE
  8
LC-001-002-----0
 62
     1
  5
495
 10
142.922466
 20
404.974716
 30
0.0
 11
142.922466
 21
391.297253
 31
0.0
  0
LINE
  8
LC-001-002-----0
 62
     1
  5
496
 10
145.48486
 20
390.99792
 30
0.0
 11
145.48486
 21
408.497564
 31
0.0
  0
INSERT
  8
LC-005-005-----0
 62
     2
  5
4A4
  2
*X20
 10
0.0
 20
0.0
 30
0.0
  0
LINE
  8
LC-001-002-----0
 62
     1
  5
4A5
 10
154.452549
 20
407.497564
 30
0.0
 11
157.985358
 21
407.497564
 31
0.0
  0
LINE
  8
LC-001-002-----0
 62
     1
  5
4A6
 10
154.452549
 20
390.99792
 30
0.0
 11
154.452549
 21
407.497564
 31
0.0
  0
LINE
  8
LC-001-002-----0
 62
     1
  5
4A7
 10
183.091355
 20
396.368848
 30
0.0
 11
183.091355
 21
405.497564
 31
0.0
  0
LINE
  8
LC-001-002-----0
 62
     1
  5
4A8
 10
187.421482
 20
399.404778
 30
0.0
 11
187.421482
 21
405.497564
 31
0.0
  0
LINE
  8
LC-001-002-----0
 62
     1
  5
4A9
 10
181.340362
 20
407.497564
 30
0.0
 11
185.421482
 21
407.497564
 31
0.0
  0
ARC
  8
LC-001-002-----0
 62
     1
  5
4AA
 10
185.421482
 20
405.497564
 30
0.0
 40
2.0
 50
0.0
 51
90.0
  0
ARC
  8
LC-001-002-----0
 62
     1
  5
4AB
 10
181.091355
 20
405.497564
 30
0.0
 40
2.0
 50
0.0
 51
82.903005
  0
LINE
  8
LC-001-002-----0
 62
     1
  5
4AC
 10
181.340362
 20
393.859932
 30
0.0
 11
181.340362
 21
407.497564
 31
0.0
  0
LINE
  8
LC-001-002-----0
 62
     1
  5
4AD
 10
71.600464
 20
415.352727
 30
0.0
 11
-28.324747
 21
415.352727
 31
0.0
  0
LINE
  8
LC-001-002-----0
 62
     1
  5
4AE
 10
70.802632
 20
410.652727
 30
0.0
 11
-28.324747
 21
410.652727
 31
0.0
  0
LINE
  8
LC-001-002-----0
 62
     1
  5
4AF
 10
71.600221
 20
415.338805
 30
0.0
 11
113.356866
 21
414.60994
 31
0.0
  0
LINE
  8
LC-001-002-----0
 62
     1
  5
4B0
 10
71.600464
 20
415.3388
 30
0.0
 11
71.518437
 21
410.639516
 31
0.0
  0
INSERT
  8
LC-005-005-----0
 62
     2
  5
4CE
  2
*X21
 10
0.0
 20
0.0
 30
0.0
  0
LINE
  8
LC-001-002-----0
 62
     1
  5
4CF
 10
81.608039
 20
415.164118
 30
0.0
 11
81.526013
 21
410.464833
 31
0.0
  0
LINE
  8
LC-001-002-----0
 62
     1
  5
4D0
 10
91.618776
 20
414.989379
 30
0.0
 11
91.53675
 21
410.290095
 31
0.0
  0
INSERT
  8
LC-005-005-----0
 62
     2
  5
4EE
  2
*X22
 10
0.0
 20
0.0
 30
0.0
  0
LINE
  8
LC-001-002-----0
 62
     1
  5
4EF
 10
101.627932
 20
414.814669
 30
0.0
 11
101.545906
 21
410.115385
 31
0.0
  0
LINE
  8
LC-001-002-----0
 62
     1
  5
4F0
 10
111.675253
 20
414.639292
 30
0.0
 11
111.675253
 21
409.644749
 31
0.0
  0
INSERT
  8
LC-005-005-----0
 62
     2
  5
512
  2
*X23
 10
0.0
 20
0.0
 30
0.0
  0
LINE
  8
LC-001-002-----0
 62
     1
  5
513
 10
121.675253
 20
412.296943
 30
0.0
 11
121.675253
 21
407.585466
 31
0.0
  0
LINE
  8
LC-001-002-----0
 62
     1
  5
514
 10
129.245971
 20
407.05607
 30
0.0
 11
129.245971
 21
411.767547
 31
0.0
  0
LINE
  8
LC-001-002-----0
 62
     1
  5
515
 10
113.356866
 20
414.60994
 30
0.0
 11
115.218353
 21
412.748453
 31
0.0
  0
LINE
  8
LC-001-002-----0
 62
     1
  5
516
 10
115.218353
 20
412.748453
 30
0.0
 11
129.245971
 21
411.767547
 31
0.0
  0
LINE
  8
LC-001-002-----0
 62
     1
  5
517
 10
-28.324747
 20
410.652727
 30
0.0
 11
-28.324747
 21
415.352727
 31
0.0
  0
LINE
  8
LC-001-002-----0
 62
     1
  5
518
 10
221.475929
 20
415.086611
 30
0.0
 11
113.665613
 21
415.086179
 31
0.0
  0
LINE
  8
LC-001-002-----0
 62
     1
  5
519
 10
142.967091
 20
391.497606
 30
0.0
 11
145.967103
 21
388.497618
 31
0.0
  0
LINE
  8
LC-001-002-----0
 62
     1
  5
51A
 10
152.967103
 20
388.497646
 30
0.0
 11
152.967093
 21
390.997646
 31
0.0
  0
LINE
  8
LC-001-002-----0
 62
     1
  5
51B
 10
158.394363
 20
388.497667
 30
0.0
 11
158.394353
 21
390.997667
 31
0.0
  0
LINE
  8
LC-001-002-----0
 62
     1
  5
51C
 10
165.89431
 20
390.997697
 30
0.0
 11
145.467093
 21
390.997616
 31
0.0
  0
LINE
  8
LC-001-002-----0
 62
     1
  5
51D
 10
142.967023
 20
408.49725
 30
0.0
 11
142.967091
 21
391.497606
 31
0.0
  0
LINE
  8
LC-001-002-----0
 62
     1
  5
51E
 10
151.217103
 20
388.497639
 30
0.0
 11
179.977323
 21
388.497754
 31
0.0
  0
LINE
  8
LC-001-002-----0
 62
     1
  5
51F
 10
142.967023
 20
408.49725
 30
0.0
 11
211.319034
 21
408.497523
 31
0.0
  0
LINE
  8
LC-001-002-----0
 62
     1
  5
520
 10
151.217103
 20
388.497639
 30
0.0
 11
145.967103
 21
388.497618
 31
0.0
  0
ARC
  8
LC-001-002-----0
 62
     1
  5
521
 10
119.105087
 20
419.492099
 30
0.0
 40
6.3
 50
224.378301
 51
266.000229
  0
ARC
  8
LC-001-002-----0
 62
     1
  5
522
 10
119.105087
 20
419.492099
 30
0.0
 40
7.0
 50
219.007133
 51
266.000229
  0
ARC
  8
LC-002-002-RND-0
 62
     1
  5
523
 10
135.904643
 20
404.974374
 30
0.0
 40
7.0
 50
0.000229
 51
86.000229
  0
ARC
  8
LC-001-002-----0
 62
     1
  5
524
 10
145.704698
 20
391.296949
 30
0.0
 40
2.8
 50
180.000229
 51
270.000229
  0
ARC
  8
LC-001-002-----0
 62
     1
  5
525
 10
145.704993
 20
387.497317
 30
0.0
 40
1.0
 50
359.999949
 51
89.999949
  0
ARC
  8
LC-001-002-----0
 62
     1
  5
526
 10
145.704993
 20
387.497317
 30
0.0
 40
0.3
 50
359.999949
 51
89.999949
  0
LINE
  8
LC-001-002-----0
 62
     1
  5
527
 10
146.704713
 20
387.496953
 30
0.0
 11
146.704722
 21
385.196953
 31
0.0
  0
ARC
  8
LC-001-002-----0
 62
     1
  5
528
 10
145.704722
 20
385.196949
 30
0.0
 40
1.0
 50
270.000229
 51
0.000229
  0
ARC
  8
LC-001-002-----0
 62
     1
  5
529
 10
145.704729
 20
383.396949
 30
0.0
 40
0.8
 50
90.000229
 51
180.000229
  0
ARC
  8
LC-001-002-----0
 62
     1
  5
52A
 10
145.704729
 20
383.396949
 30
0.0
 40
0.8
 50
180.000229
 51
270.000229
  0
LINE
  8
LC-001-002-----0
 62
     1
  5
52B
 10
145.704732
 20
382.596949
 30
0.0
 11
148.504732
 21
382.596961
 31
0.0
  0
LINE
  8
LC-001-002-----0
 62
     1
  5
52C
 10
148.504735
 20
381.896961
 30
0.0
 11
148.504732
 21
382.596961
 31
0.0
  0
ARC
  8
LC-001-002-----0
 62
     1
  5
52D
 10
157.967533
 20
405.49731
 30
0.0
 40
2.0
 50
0.000229
 51
90.000229
  0
LINE
  8
LC-001-002-----0
 62
     1
  5
52E
 10
154.452549
 20
407.497296
 30
0.0
 11
157.967525
 21
407.49731
 31
0.0
  0
LINE
  8
LC-001-002-----0
 62
     1
  5
52F
 10
157.467591
 20
390.997664
 30
0.0
 11
157.467533
 21
405.497308
 31
0.0
  0
LINE
  8
LC-001-002-----0
 62
     1
  5
530
 10
159.967591
 20
390.997674
 30
0.0
 11
159.967533
 21
405.497318
 31
0.0
  0
ARC
  8
LC-001-002-----0
 62
     1
  5
531
 10
155.467533
 20
405.4973
 30
0.0
 40
2.0
 50
0.000229
 51
90.000229
  0
LINE
  8
LC-001-002-----0
 62
     1
  5
532
 10
372.230686
 20
410.653983
 30
0.0
 11
331.575089
 21
409.944174
 31
0.0
  0
ARC
  8
LC-002-002-RND-0
 62
     1
  5
533
 10
328.928313
 20
410.125815
 30
0.0
 40
2.0
 50
274.000226
 51
315.000229
  0
LINE
  8
LC-001-002-----0
 62
     1
  5
534
 10
329.067833
 20
408.130688
 30
0.0
 11
313.705335
 21
407.056376
 31
0.0
  0
LINE
  8
LC-001-002-----0
 62
     1
  5
535
 10
310.228287
 20
397.953051
 30
0.0
 11
310.228263
 21
403.956618
 31
0.0
  0
LINE
  8
LC-001-002-----0
 62
     1
  5
536
 10
331.575089
 20
409.944174
 30
0.0
 11
330.342532
 21
408.711607
 31
0.0
  0
LINE
  8
LC-001-002-----0
 62
     1
  5
537
 10
313.371069
 20
406.813525
 30
0.0
 11
307.435417
 21
406.398464
 31
0.0
  0
LINE
  8
LC-001-002-----0
 62
     1
  5
538
 10
308.511996
 20
403.952696
 30
0.0
 11
308.511996
 21
391.100277
 31
0.0
  0
LINE
  8
LC-001-002-----0
 62
     1
  5
539
 10
308.511996
 20
403.952696
 30
0.0
 11
310.229939
 21
403.952696
 31
0.0
  0
LINE
  8
LC-001-002-----0
 62
     1
  5
53A
 10
313.371321
 20
406.809921
 30
0.0
 11
313.371321
 21
399.186948
 31
0.0
  0
ARC
  8
LC-002-002-RND-0
 62
     1
  5
53B
 10
312.291471
 20
399.199781
 30
0.0
 40
1.07985
 50
273.999997
 51
0.0
  0
LINE
  8
LC-001-002-----0
 62
     1
  5
53C
 10
312.366798
 20
398.122561
 30
0.0
 11
310.229939
 21
397.973138
 31
0.0
  0
LINE
  8
LC-001-002-----0
 62
     1
  5
53D
 10
310.229939
 20
397.973138
 30
0.0
 11
310.229939
 21
403.952696
 31
0.0
  0
INSERT
  8
LC-005-005-----0
 62
     2
  5
54A
  2
*X24
 10
0.0
 20
0.0
 30
0.0
  0
ARC
  8
LC-001-002-----0
 62
     1
  5
54B
 10
307.716088
 20
402.384678
 30
0.0
 40
4.023715
 50
93.998836
 51
111.246312
  0
LINE
  8
LC-001-002-----0
 62
     1
  5
54C
 10
301.318107
 20
400.837755
 30
0.0
 11
306.257982
 21
406.134907
 31
0.0
  0
ARC
  8
LC-001-002-----0
 62
     1
  5
54D
 10
301.535336
 20
400.637378
 30
0.0
 40
0.296443
 50
137.000136
 51
290.000136
  0
LINE
  8
LC-001-002-----0
 62
     1
  5
54E
 10
301.636291
 20
400.35701
 30
0.0
 11
304.929482
 21
401.555558
 31
0.0
  0
ARC
  8
LC-001-002-----0
 62
     1
  5
54F
 10
305.267428
 20
400.627001
 30
0.0
 40
0.988142
 50
359.998586
 51
109.998839
  0
LINE
  8
LC-001-002-----0
 62
     1
  5
550
 10
306.25557
 20
400.627001
 30
0.0
 11
306.25554
 21
399.311263
 31
0.0
  0
ARC
  8
LC-001-002-----0
 62
     1
  5
551
 10
305.761469
 20
399.311274
 30
0.0
 40
0.494071
 50
316.998839
 51
359.998703
  0
LINE
  8
LC-001-002-----0
 62
     1
  5
552
 10
301.317948
 20
393.821945
 30
0.0
 11
306.122803
 21
398.974311
 31
0.0
  0
ARC
  8
LC-001-002-----0
 62
     1
  5
553
 10
301.535336
 20
393.621568
 30
0.0
 40
0.296443
 50
137.000136
 51
290.000136
  0
LINE
  8
LC-001-002-----0
 62
     1
  5
554
 10
301.636132
 20
393.3412
 30
0.0
 11
304.929323
 21
394.539748
 31
0.0
  0
ARC
  8
LC-001-002-----0
 62
     1
  5
555
 10
305.267269
 20
393.611191
 30
0.0
 40
0.988142
 50
359.998586
 51
109.998839
  0
LINE
  8
LC-001-002-----0
 62
     1
  5
556
 10
306.255397
 20
393.611168
 30
0.0
 11
306.255335
 21
391.09837
 31
0.0
  0
LINE
  8
LC-001-002-----0
 62
     1
  5
557
 10
308.511468
 20
391.100277
 30
0.0
 11
306.255335
 21
391.100277
 31
0.0
  0
LINE
  8
LC-005-005-----0
 62
     2
  5
558
 10
298.654025
 20
383.657154
 30
0.0
 11
298.475999
 21
383.835178
 31
0.0
  0
LINE
  8
LC-001-002-----0
 62
     1
  5
559
 10
461.276603
 20
415.353686
 30
0.0
 11
461.276622
 21
410.653686
 31
0.0
  0
LINE
  8
LC-001-002-----0
 62
     1
  5
55A
 10
451.276603
 20
415.353646
 30
0.0
 11
451.276622
 21
410.653646
 31
0.0
  0
LINE
  8
LC-001-002-----0
 62
     1
  5
55B
 10
441.276603
 20
415.353606
 30
0.0
 11
441.276622
 21
410.653606
 31
0.0
  0
LINE
  8
LC-001-002-----0
 62
     1
  5
55C
 10
431.276603
 20
415.353566
 30
0.0
 11
431.276622
 21
410.653566
 31
0.0
  0
LINE
  8
LC-001-002-----0
 62
     1
  5
55D
 10
421.276603
 20
415.353526
 30
0.0
 11
421.276622
 21
410.653526
 31
0.0
  0
LINE
  8
LC-001-002-----0
 62
     1
  5
55E
 10
411.276603
 20
415.353486
 30
0.0
 11
411.276622
 21
410.653486
 31
0.0
  0
LINE
  8
LC-001-002-----0
 62
     1
  5
55F
 10
401.276603
 20
415.353446
 30
0.0
 11
401.276622
 21
410.653446
 31
0.0
  0
LINE
  8
LC-001-002-----0
 62
     1
  5
560
 10
391.276603
 20
415.353406
 30
0.0
 11
391.276622
 21
410.653406
 31
0.0
  0
LINE
  8
LC-001-002-----0
 62
     1
  5
561
 10
381.276603
 20
415.353366
 30
0.0
 11
381.276622
 21
410.653366
 31
0.0
  0
LINE
  8
LC-001-002-----0
 62
     1
  5
562
 10
324.317195
 20
412.509972
 30
0.0
 11
306.589941
 21
411.27029
 31
0.0
  0
LINE
  8
LC-001-002-----0
 62
     1
  5
563
 10
324.270579
 20
413.197841
 30
0.0
 11
306.541108
 21
411.958005
 31
0.0
  0
ARC
  8
LC-002-002-RND-0
 62
     1
  5
564
 10
307.029432
 20
404.985639
 30
0.0
 40
6.3
 50
94.000229
 51
180.000229
  0
LINE
  8
LC-001-002-----0
 62
     1
  5
565
 10
300.729432
 20
404.985613
 30
0.0
 11
300.729486
 21
391.29757
 31
0.0
  0
ARC
  8
LC-001-002-----0
 62
     1
  5
566
 10
297.229486
 20
391.297556
 30
0.0
 40
3.5
 50
270.000229
 51
0.000229
  0
LINE
  8
LC-001-002-----0
 62
     1
  5
567
 10
296.929502
 20
387.497555
 30
0.0
 11
296.929511
 21
385.197555
 31
0.0
  0
ARC
  8
LC-001-002-----0
 62
     1
  5
568
 10
297.228988
 20
385.197556
 30
0.0
 40
0.3
 50
180.000229
 51
270.000229
  0
ARC
  8
LC-001-002-----0
 62
     1
  5
569
 10
297.229518
 20
383.397556
 30
0.0
 40
1.5
 50
0.000229
 51
90.000229
  0
ARC
  8
LC-001-002-----0
 62
     1
  5
56A
 10
297.229518
 20
383.397556
 30
0.0
 40
1.5
 50
270.000229
 51
0.000229
  0
LINE
  8
LC-001-002-----0
 62
     1
  5
56B
 10
297.229524
 20
381.897556
 30
0.0
 11
294.447255
 21
381.897545
 31
0.0
  0
INSERT
  8
LC-005-005-----0
 62
     2
  5
582
  2
*X25
 10
0.0
 20
0.0
 30
0.0
  0
INSERT
  8
LC-005-005-----0
 62
     2
  5
5A0
  2
*X26
 10
0.0
 20
0.0
 30
0.0
  0
INSERT
  8
LC-005-005-----0
 62
     2
  5
5BE
  2
*X27
 10
0.0
 20
0.0
 30
0.0
  0
INSERT
  8
LC-005-005-----0
 62
     2
  5
5DC
  2
*X28
 10
0.0
 20
0.0
 30
0.0
  0
INSERT
  8
LC-005-005-----0
 62
     2
  5
5FA
  2
*X29
 10
0.0
 20
0.0
 30
0.0
  0
INSERT
  8
LC-005-005-----0
 62
     2
  5
618
  2
*X30
 10
0.0
 20
0.0
 30
0.0
  0
LINE
  8
LC-001-002-----0
 62
     1
  5
619
 10
299.967091
 20
391.498234
 30
0.0
 11
296.967103
 21
388.498222
 31
0.0
  0
LINE
  8
LC-001-002-----0
 62
     1
  5
61A
 10
297.467027
 20
407.497868
 30
0.0
 11
295.967027
 21
407.497862
 31
0.0
  0
LINE
  8
LC-001-002-----0
 62
     1
  5
61B
 10
297.467027
 20
407.497868
 30
0.0
 11
297.467023
 21
408.497868
 31
0.0
  0
ARC
  8
LC-002-002-RND-0
 62
     1
  5
61C
 10
295.967035
 20
405.497862
 30
0.0
 40
2.0
 50
90.000229
 51
180.000229
  0
LINE
  8
LC-001-002-----0
 62
     1
  5
61D
 10
277.039843
 20
388.498142
 30
0.0
 11
277.039833
 21
390.998142
 31
0.0
  0
LINE
  8
LC-001-002-----0
 62
     1
  5
61E
 10
265.776808
 20
388.498097
 30
0.0
 11
265.776798
 21
390.998097
 31
0.0
  0
LINE
  8
LC-001-002-----0
 62
     1
  5
61F
 10
262.669345
 20
390.998085
 30
0.0
 11
265.776798
 21
390.998097
 31
0.0
  0
LINE
  8
LC-001-002-----0
 62
     1
  5
620
 10
277.039833
 20
390.998142
 30
0.0
 11
297.229488
 21
390.998223
 31
0.0
  0
LINE
  8
LC-001-002-----0
 62
     1
  5
621
 10
293.967035
 20
405.497854
 30
0.0
 11
293.967093
 21
390.99821
 31
0.0
  0
LINE
  8
LC-001-002-----0
 62
     1
  5
622
 10
291.717103
 20
388.498201
 30
0.0
 11
262.97436
 21
388.498086
 31
0.0
  0
LINE
  8
LC-001-002-----0
 62
     1
  5
623
 10
299.967023
 20
408.497878
 30
0.0
 11
231.632702
 21
408.497605
 31
0.0
  0
LINE
  8
LC-001-002-----0
 62
     1
  5
624
 10
291.717103
 20
388.498201
 30
0.0
 11
296.967103
 21
388.498222
 31
0.0
  0
LINE
  8
LC-001-002-----0
 62
     1
  5
625
 10
300.029432
 20
404.97503
 30
0.0
 11
300.029486
 21
391.297567
 31
0.0
  0
LINE
  8
LC-001-002-----0
 62
     1
  5
626
 10
297.467093
 20
390.998224
 30
0.0
 11
297.467023
 21
408.497868
 31
0.0
  0
INSERT
  8
LC-005-005-----0
 62
     2
  5
633
  2
*X31
 10
0.0
 20
0.0
 30
0.0
  0
LINE
  8
LC-001-002-----0
 62
     1
  5
634
 10
288.499339
 20
407.497832
 30
0.0
 11
284.966529
 21
407.497818
 31
0.0
  0
LINE
  8
LC-001-002-----0
 62
     1
  5
635
 10
288.499405
 20
390.998188
 30
0.0
 11
288.499339
 21
407.497832
 31
0.0
  0
LINE
  8
LC-001-002-----0
 62
     1
  5
636
 10
259.860577
 20
396.369002
 30
0.0
 11
259.86054
 21
405.497718
 31
0.0
  0
LINE
  8
LC-001-002-----0
 62
     1
  5
637
 10
255.530438
 20
399.404914
 30
0.0
 11
255.530413
 21
405.4977
 31
0.0
  0
LINE
  8
LC-001-002-----0
 62
     1
  5
638
 10
261.611526
 20
407.497725
 30
0.0
 11
257.530405
 21
407.497708
 31
0.0
  0
ARC
  8
LC-001-002-----0
 62
     1
  5
639
 10
257.530413
 20
405.497708
 30
0.0
 40
2.0
 50
90.000229
 51
180.000229
  0
ARC
  8
LC-001-002-----0
 62
     1
  5
63A
 10
261.86054
 20
405.497726
 30
0.0
 40
2.0
 50
97.097224
 51
180.000229
  0
LINE
  8
LC-001-002-----0
 62
     1
  5
63B
 10
261.61158
 20
393.860092
 30
0.0
 11
261.611526
 21
407.497725
 31
0.0
  0
LINE
  8
LC-001-002-----0
 62
     1
  5
63C
 10
371.351392
 20
415.353326
 30
0.0
 11
471.276603
 21
415.353726
 31
0.0
  0
LINE
  8
LC-001-002-----0
 62
     1
  5
63D
 10
372.149243
 20
410.65333
 30
0.0
 11
471.276622
 21
410.653726
 31
0.0
  0
LINE
  8
LC-001-002-----0
 62
     1
  5
63E
 10
371.351635
 20
415.339404
 30
0.0
 11
329.594993
 21
414.610372
 31
0.0
  0
LINE
  8
LC-001-002-----0
 62
     1
  5
63F
 10
371.351392
 20
415.3394
 30
0.0
 11
371.433437
 21
410.640116
 31
0.0
  0
INSERT
  8
LC-005-005-----0
 62
     2
  5
65D
  2
*X32
 10
0.0
 20
0.0
 30
0.0
  0
LINE
  8
LC-001-002-----0
 62
     1
  5
65E
 10
361.343818
 20
415.164677
 30
0.0
 11
361.425863
 21
410.465393
 31
0.0
  0
LINE
  8
LC-001-002-----0
 62
     1
  5
65F
 10
351.333081
 20
414.989899
 30
0.0
 11
351.415126
 21
410.290615
 31
0.0
  0
INSERT
  8
LC-005-005-----0
 62
     2
  5
67C
  2
*X33
 10
0.0
 20
0.0
 30
0.0
  0
LINE
  8
LC-001-002-----0
 62
     1
  5
67D
 10
341.323926
 20
414.815149
 30
0.0
 11
341.405971
 21
410.115865
 31
0.0
  0
LINE
  8
LC-001-002-----0
 62
     1
  5
67E
 10
331.276606
 20
414.639732
 30
0.0
 11
331.276626
 21
409.645188
 31
0.0
  0
INSERT
  8
LC-005-005-----0
 62
     2
  5
698
  2
*X34
 10
0.0
 20
0.0
 30
0.0
  0
LINE
  8
LC-001-002-----0
 62
     1
  5
699
 10
321.276615
 20
412.297342
 30
0.0
 11
321.276634
 21
407.585865
 31
0.0
  0
LINE
  8
LC-001-002-----0
 62
     1
  5
69A
 10
313.705918
 20
407.056439
 30
0.0
 11
313.705899
 21
411.767916
 31
0.0
  0
LINE
  8
LC-001-002-----0
 62
     1
  5
69B
 10
329.594993
 20
414.610372
 30
0.0
 11
327.733513
 21
412.748878
 31
0.0
  0
LINE
  8
LC-001-002-----0
 62
     1
  5
69C
 10
327.733513
 20
412.748878
 30
0.0
 11
313.705899
 21
411.767916
 31
0.0
  0
LINE
  8
LC-001-002-----0
 62
     1
  5
69D
 10
471.276622
 20
410.653726
 30
0.0
 11
471.276603
 21
415.353726
 31
0.0
  0
LINE
  8
LC-001-002-----0
 62
     1
  5
69E
 10
221.475929
 20
415.086611
 30
0.0
 11
329.286244
 21
415.086611
 31
0.0
  0
LINE
  8
LC-001-002-----0
 62
     1
  5
69F
 10
299.98486
 20
391.49792
 30
0.0
 11
296.98486
 21
388.49792
 31
0.0
  0
LINE
  8
LC-001-002-----0
 62
     1
  5
6A0
 10
289.98486
 20
388.49792
 30
0.0
 11
289.98486
 21
390.99792
 31
0.0
  0
LINE
  8
LC-001-002-----0
 62
     1
  5
6A1
 10
284.557601
 20
388.49792
 30
0.0
 11
284.557601
 21
390.99792
 31
0.0
  0
LINE
  8
LC-001-002-----0
 62
     1
  5
6A2
 10
277.057644
 20
390.99792
 30
0.0
 11
297.48486
 21
390.99792
 31
0.0
  0
LINE
  8
LC-001-002-----0
 62
     1
  5
6A3
 10
299.98486
 20
408.497564
 30
0.0
 11
299.98486
 21
391.49792
 31
0.0
  0
LINE
  8
LC-001-002-----0
 62
     1
  5
6A4
 10
291.73486
 20
388.49792
 30
0.0
 11
262.97464
 21
388.49792
 31
0.0
  0
LINE
  8
LC-001-002-----0
 62
     1
  5
6A5
 10
299.98486
 20
408.497564
 30
0.0
 11
231.63285
 21
408.497564
 31
0.0
  0
LINE
  8
LC-001-002-----0
 62
     1
  5
6A6
 10
291.73486
 20
388.49792
 30
0.0
 11
296.98486
 21
388.49792
 31
0.0
  0
ARC
  8
LC-001-002-----0
 62
     1
  5
6A7
 10
323.846753
 20
419.492509
 30
0.0
 40
6.3
 50
274.0
 51
315.621929
  0
ARC
  8
LC-001-002-----0
 62
     1
  5
6A8
 10
323.846753
 20
419.492509
 30
0.0
 40
7.0
 50
274.0
 51
320.993096
  0
ARC
  8
LC-002-002-RND-0
 62
     1
  5
6A9
 10
307.047255
 20
404.974716
 30
0.0
 40
7.0
 50
94.0
 51
180.0
  0
ARC
  8
LC-001-002-----0
 62
     1
  5
6AA
 10
297.247255
 20
391.297253
 30
0.0
 40
2.8
 50
270.0
 51
360.0
  0
ARC
  8
LC-001-002-----0
 62
     1
  5
6AB
 10
297.246975
 20
387.497621
 30
0.0
 40
1.0
 50
90.00028
 51
180.00028
  0
ARC
  8
LC-001-002-----0
 62
     1
  5
6AC
 10
297.246975
 20
387.497621
 30
0.0
 40
0.3
 50
90.00028
 51
180.00028
  0
LINE
  8
LC-001-002-----0
 62
     1
  5
6AD
 10
296.247255
 20
387.497253
 30
0.0
 11
296.247255
 21
385.197253
 31
0.0
  0
ARC
  8
LC-001-002-----0
 62
     1
  5
6AE
 10
297.247255
 20
385.197253
 30
0.0
 40
1.0
 50
180.0
 51
270.0
  0
ARC
  8
LC-001-002-----0
 62
     1
  5
6AF
 10
297.247255
 20
383.397253
 30
0.0
 40
0.8
 50
0.0
 51
90.0
  0
ARC
  8
LC-001-002-----0
 62
     1
  5
6B0
 10
297.247255
 20
383.397253
 30
0.0
 40
0.8
 50
270.0
 51
0.0
  0
LINE
  8
LC-001-002-----0
 62
     1
  5
6B1
 10
297.247255
 20
382.597253
 30
0.0
 11
294.447255
 21
382.597253
 31
0.0
  0
LINE
  8
LC-001-002-----0
 62
     1
  5
6B2
 10
294.447255
 20
381.897253
 30
0.0
 11
294.447255
 21
382.597253
 31
0.0
  0
ARC
  8
LC-001-002-----0
 62
     1
  5
6B3
 10
284.984362
 20
405.497564
 30
0.0
 40
2.0
 50
90.0
 51
180.0
  0
LINE
  8
LC-001-002-----0
 62
     1
  5
6B4
 10
288.499339
 20
407.497564
 30
0.0
 11
284.984362
 21
407.497564
 31
0.0
  0
LINE
  8
LC-001-002-----0
 62
     1
  5
6B5
 10
285.484362
 20
390.99792
 30
0.0
 11
285.484362
 21
405.497564
 31
0.0
  0
LINE
  8
LC-001-002-----0
 62
     1
  5
6B6
 10
282.984362
 20
390.99792
 30
0.0
 11
282.984362
 21
405.497564
 31
0.0
  0
ARC
  8
LC-001-002-----0
 62
     1
  5
6B7
 10
287.484362
 20
405.497564
 30
0.0
 40
2.0
 50
90.0
 51
180.0
  0
DIMENSION
  8
LC-008-003-----0
 62
     2
  5
6D2
  2
*D35
 10
221.475928
 20
531.036
 30
0.0
 11
221.475928
 21
531.036
 31
0.0
  1
%%c500
 13
-28.324747
 23
415.352727
 33
0.0
 14
471.276603
 24
415.353726
 34
0.0
  3
LC-DIM-L-0140-02-02
  0
ENDSEC
  0
EOF
