  0
SECTION
  2
HEADER
  9
$ACADVER
  1
AC1015
  9
$ACADMAINTVER
 70
     6
  9
$DWGCODEPAGE
  3
ANSI_1252
  9
$INSBASE
 10
0.0
 20
0.0
 30
0.0
  9
$EXTMIN
 10
0.0
 20
0.0
 30
0.0
  9
$EXTMAX
 10
841.0
 20
594.0
 30
0.0
  9
$LIMMIN
 10
0.0
 20
0.0
  9
$LIMMAX
 10
841.0
 20
594.0
  9
$ORTHOMODE
 70
     0
  9
$REGENMODE
 70
     1
  9
$FILLMODE
 70
     1
  9
$QTEXTMODE
 70
     0
  9
$MIRRTEXT
 70
     1
  9
$LTSCALE
 40
1.0
  9
$ATTMODE
 70
     1
  9
$TEXTSIZE
 40
3.5
  9
$TRACEWID
 40
1.0
  9
$TEXTSTYLE
  7
Standard
  9
$CLAYER
  8
0
  9
$CELTYPE
  6
ByLayer
  9
$CECOLOR
 62
   256
  9
$CELTSCALE
 40
1.0
  9
$DISPSILH
 70
     0
  9
$DIMSCALE
 40
1.0
  9
$DIMASZ
 40
6.0
  9
$DIMEXO
 40
1.0
  9
$DIMDLI
 40
3.75
  9
$DIMRND
 40
0.0
  9
$DIMDLE
 40
0.0
  9
$DIMEXE
 40
1.0
  9
$DIMTP
 40
0.0
  9
$DIMTM
 40
0.0
  9
$DIMTXT
 40
3.5
  9
$DIMCEN
 40
2.5
  9
$DIMTSZ
 40
0.0
  9
$DIMTOL
 70
     0
  9
$DIMLIM
 70
     0
  9
$DIMTIH
 70
     1
  9
$DIMTOH
 70
     1
  9
$DIMSE1
 70
     0
  9
$DIMSE2
 70
     0
  9
$DIMTAD
 70
     1
  9
$DIMZIN
 70
     1
  9
$DIMBLK
  1

  9
$DIMASO
 70
     1
  9
$DIMSHO
 70
     1
  9
$DIMPOST
  1

  9
$DIMAPOST
  1

  9
$DIMALT
 70
     0
  9
$DIMALTD
 70
     3
  9
$DIMALTF
 40
0.0393700787
  9
$DIMLFAC
 40
1.0
  9
$DIMTOFL
 70
     1
  9
$DIMTVP
 40
0.0
  9
$DIMTIX
 70
     0
  9
$DIMSOXD
 70
     0
  9
$DIMSAH
 70
     0
  9
$DIMBLK1
  1

  9
$DIMBLK2
  1

  9
$DIMSTYLE
  2
ISO-25
  9
$DIMCLRD
 70
     0
  9
$DIMCLRE
 70
     0
  9
$DIMCLRT
 70
     0
  9
$DIMTFAC
 40
1.0
  9
$DIMGAP
 40
1.524
  9
$DIMJUST
 70
     0
  9
$DIMSD1
 70
     0
  9
$DIMSD2
 70
     0
  9
$DIMTOLJ
 70
     0
  9
$DIMTZIN
 70
     1
  9
$DIMALTZ
 70
     0
  9
$DIMALTTZ
 70
     0
  9
$DIMUPT
 70
     0
  9
$DIMDEC
 70
     2
  9
$DIMTDEC
 70
     2
  9
$DIMALTU
 70
     2
  9
$DIMALTTD
 70
     3
  9
$DIMTXSTY
  7
Standard
  9
$DIMAUNIT
 70
     0
  9
$DIMADEC
 70
     0
  9
$DIMALTRND
 40
0.0
  9
$DIMAZIN
 70
     0
  9
$DIMDSEP
 70
    44
  9
$DIMATFIT
 70
     3
  9
$DIMFRAC
 70
     0
  9
$DIMLDRBLK
  1

  9
$DIMLUNIT
 70
     2
  9
$DIMLWD
 70
    -2
  9
$DIMLWE
 70
    -2
  9
$DIMTMOVE
 70
     0
  9
$LUNITS
 70
     2
  9
$LUPREC
 70
     4
  9
$SKETCHINC
 40
1.0
  9
$FILLETRAD
 40
10.0
  9
$AUNITS
 70
     0
  9
$AUPREC
 70
     0
  9
$MENU
  1
.
  9
$ELEVATION
 40
0.0
  9
$PELEVATION
 40
0.0
  9
$THICKNESS
 40
0.0
  9
$LIMCHECK
 70
     0
  9
$CHAMFERA
 40
0.0
  9
$CHAMFERB
 40
0.0
  9
$CHAMFERC
 40
0.0
  9
$CHAMFERD
 40
0.0
  9
$SKPOLY
 70
     0
  9
$TDCREATE
 40
2457933.479807141
  9
$TDUCREATE
 40
2457933.396473808
  9
$TDUPDATE
 40
2457933.479808044
  9
$TDUUPDATE
 40
2457933.396474711
  9
$TDINDWG
 40
0.0000000116
  9
$TDUSRTIMER
 40
0.0000000116
  9
$USRTIMER
 70
     1
  9
$ANGBASE
 50
0.0
  9
$ANGDIR
 70
     0
  9
$PDMODE
 70
     0
  9
$PDSIZE
 40
-1.0
  9
$PLINEWID
 40
0.0
  9
$SPLFRAME
 70
     0
  9
$SPLINETYPE
 70
     6
  9
$SPLINESEGS
 70
     8
  9
$HANDSEED
  5
74D
  9
$SURFTAB1
 70
     6
  9
$SURFTAB2
 70
     6
  9
$SURFTYPE
 70
     6
  9
$SURFU
 70
     6
  9
$SURFV
 70
     6
  9
$UCSBASE
  2

  9
$UCSNAME
  2

  9
$UCSORG
 10
0.0
 20
0.0
 30
0.0
  9
$UCSXDIR
 10
1.0
 20
0.0
 30
0.0
  9
$UCSYDIR
 10
0.0
 20
1.0
 30
0.0
  9
$UCSORTHOREF
  2

  9
$UCSORTHOVIEW
 70
     0
  9
$UCSORGTOP
 10
0.0
 20
0.0
 30
0.0
  9
$UCSORGBOTTOM
 10
0.0
 20
0.0
 30
0.0
  9
$UCSORGLEFT
 10
0.0
 20
0.0
 30
0.0
  9
$UCSORGRIGHT
 10
0.0
 20
0.0
 30
0.0
  9
$UCSORGFRONT
 10
0.0
 20
0.0
 30
0.0
  9
$UCSORGBACK
 10
0.0
 20
0.0
 30
0.0
  9
$PUCSBASE
  2

  9
$PUCSNAME
  2

  9
$PUCSORG
 10
0.0
 20
0.0
 30
0.0
  9
$PUCSXDIR
 10
1.0
 20
0.0
 30
0.0
  9
$PUCSYDIR
 10
0.0
 20
1.0
 30
0.0
  9
$PUCSORTHOREF
  2

  9
$PUCSORTHOVIEW
 70
     0
  9
$PUCSORGTOP
 10
0.0
 20
0.0
 30
0.0
  9
$PUCSORGBOTTOM
 10
0.0
 20
0.0
 30
0.0
  9
$PUCSORGLEFT
 10
0.0
 20
0.0
 30
0.0
  9
$PUCSORGRIGHT
 10
0.0
 20
0.0
 30
0.0
  9
$PUCSORGFRONT
 10
0.0
 20
0.0
 30
0.0
  9
$PUCSORGBACK
 10
0.0
 20
0.0
 30
0.0
  9
$USERI1
 70
     0
  9
$USERI2
 70
     0
  9
$USERI3
 70
     0
  9
$USERI4
 70
     0
  9
$USERI5
 70
     0
  9
$USERR1
 40
0.0
  9
$USERR2
 40
0.0
  9
$USERR3
 40
0.0
  9
$USERR4
 40
0.0
  9
$USERR5
 40
0.0
  9
$WORLDVIEW
 70
     1
  9
$SHADEDGE
 70
     3
  9
$SHADEDIF
 70
    70
  9
$TILEMODE
 70
     1
  9
$MAXACTVP
 70
    64
  9
$PINSBASE
 10
0.0
 20
0.0
 30
0.0
  9
$PLIMCHECK
 70
     0
  9
$PEXTMIN
 10
1.0000000000E+20
 20
1.0000000000E+20
 30
1.0000000000E+20
  9
$PEXTMAX
 10
-1.0000000000E+20
 20
-1.0000000000E+20
 30
-1.0000000000E+20
  9
$PLIMMIN
 10
0.0
 20
0.0
  9
$PLIMMAX
 10
420.0
 20
297.0
  9
$UNITMODE
 70
     0
  9
$VISRETAIN
 70
     1
  9
$PLINEGEN
 70
     0
  9
$PSLTSCALE
 70
     1
  9
$TREEDEPTH
 70
  3020
  9
$CMLSTYLE
  2
Standard
  9
$CMLJUST
 70
     0
  9
$CMLSCALE
 40
20.0
  9
$PROXYGRAPHICS
 70
     1
  9
$MEASUREMENT
 70
     1
  9
$CELWEIGHT
370
    -1
  9
$ENDCAPS
280
     0
  9
$JOINSTYLE
280
     0
  9
$LWDISPLAY
290
     1
  9
$INSUNITS
 70
     4
  9
$HYPERLINKBASE
  1

  9
$STYLESHEET
  1

  9
$XEDIT
290
     1
  9
$CEPSNTYPE
380
     0
  9
$PSTYLEMODE
290
     1
  9
$FINGERPRINTGUID
  2
{34C70340-95C1-4790-BAF5-C372B7F5DC7E}
  9
$VERSIONGUID
  2
{FAEB1C32-E019-11D5-929B-00C0DF256EC4}
  9
$EXTNAMES
290
     1
  9
$PSVPSCALE
 40
0.0
  9
$OLESTARTUP
290
     0
  0
ENDSEC
  0
SECTION
  2
CLASSES
  0
CLASS
  1
ACDBDICTIONARYWDFLT
  2
AcDbDictionaryWithDefault
  3
ObjectDBX Classes
 90
        0
280
     0
281
     0
  0
CLASS
  1
VISUALSTYLE
  2
AcDbVisualStyle
  3
ObjectDBX Classes
 90
     4095
280
     0
281
     0
  0
CLASS
  1
MATERIAL
  2
AcDbMaterial
  3
ObjectDBX Classes
 90
     1153
280
     0
281
     0
  0
CLASS
  1
SCALE
  2
AcDbScale
  3
ObjectDBX Classes
 90
     1153
280
     0
281
     0
  0
CLASS
  1
TABLESTYLE
  2
AcDbTableStyle
  3
ObjectDBX Classes
 90
     4095
280
     0
281
     0
  0
CLASS
  1
MLEADERSTYLE
  2
AcDbMLeaderStyle
  3
ACDB_MLEADERSTYLE_CLASS
 90
     4095
280
     0
281
     0
  0
CLASS
  1
SUN
  2
AcDbSun
  3
SCENEOE
 90
     1153
280
     0
281
     0
  0
CLASS
  1
ACDBPLACEHOLDER
  2
AcDbPlaceHolder
  3
ObjectDBX Classes
 90
        0
280
     0
281
     0
  0
CLASS
  1
LAYOUT
  2
AcDbLayout
  3
ObjectDBX Classes
 90
        0
280
     0
281
     0
  0
ENDSEC
  0
SECTION
  2
TABLES
  0
TABLE
  2
VPORT
  5
8
330
0
100
AcDbSymbolTable
 70
     1
  0
VPORT
  5
29
330
8
100
AcDbSymbolTableRecord
100
AcDbViewportTableRecord
  2
*Active
 70
     0
 10
0.0
 20
0.0
 11
1.0
 21
1.0
 12
420.5
 22
297.0
 13
0.0
 23
0.0
 14
10.0
 24
10.0
 15
10.0
 25
10.0
 16
0.0
 26
0.0
 36
1.0
 17
0.0
 27
0.0
 37
0.0
 40
594.0
 41
1.4158249158
 42
50.0
 43
0.0
 44
0.0
 50
0.0
 51
0.0
 71
     0
 72
  2000
 73
     1
 74
     3
 75
     0
 76
     0
 77
     0
 78
     0
281
     0
 65
     1
110
0.0
120
0.0
130
0.0
111
1.0
121
0.0
131
0.0
112
0.0
122
1.0
132
0.0
 79
     0
146
0.0
  0
ENDTAB
  0
TABLE
  2
LTYPE
  5
5
330
0
100
AcDbSymbolTable
 70
     8
  0
LTYPE
  5
14
330
5
100
AcDbSymbolTableRecord
100
AcDbLinetypeTableRecord
  2
ByBlock
 70
     0
  3

 72
    65
 73
     0
 40
0.0
  0
LTYPE
  5
15
330
5
100
AcDbSymbolTableRecord
100
AcDbLinetypeTableRecord
  2
ByLayer
 70
     0
  3

 72
    65
 73
     0
 40
0.0
  0
LTYPE
  5
16
330
5
100
AcDbSymbolTableRecord
100
AcDbLinetypeTableRecord
  2
Continuous
 70
     0
  3
Solid line
 72
    65
 73
     0
 40
0.0
  0
LTYPE
  5
6E
330
5
100
AcDbSymbolTableRecord
100
AcDbLinetypeTableRecord
  2
SLD-Durchgehend
 70
     0
  3
SolidWorks Line Style
 72
    65
 73
     0
 40
0.0
  0
LTYPE
  5
6F
330
5
100
AcDbSymbolTableRecord
100
AcDbLinetypeTableRecord
  2
SLD-Gestrichelt
 70
     0
  3
SolidWorks Line Style
 72
    65
 73
     2
 40
1.905
 49
1.27
 74
     0
 49
-0.635
 74
     0
  0
LTYPE
  5
70
330
5
100
AcDbSymbolTableRecord
100
AcDbLinetypeTableRecord
  2
SLD-Phantom
 70
     0
  3
SolidWorks Line Style
 72
    65
 73
     6
 40
12.7
 49
6.35
 74
     0
 49
-1.27
 74
     0
 49
1.27
 74
     0
 49
-1.27
 74
     0
 49
1.27
 74
     0
 49
-1.27
 74
     0
  0
LTYPE
  5
71
330
5
100
AcDbSymbolTableRecord
100
AcDbLinetypeTableRecord
  2
SLD-Kette
 70
     0
  3
SolidWorks Line Style
 72
    65
 73
     4
 40
10.16
 49
6.35
 74
     0
 49
-1.27
 74
     0
 49
1.27
 74
     0
 49
-1.27
 74
     0
  0
LTYPE
  5
72
330
5
100
AcDbSymbolTableRecord
100
AcDbLinetypeTableRecord
  2
SLD-Punktstrich
 70
     0
  3
SolidWorks Line Style
 72
    65
 73
     4
 40
19.05
 49
15.24
 74
     0
 49
-1.27
 74
     0
 49
1.27
 74
     0
 49
-1.27
 74
     0
  0
LTYPE
  5
73
330
5
100
AcDbSymbolTableRecord
100
AcDbLinetypeTableRecord
  2
SLD-Naht
 70
     0
  3
SolidWorks Line Style
 72
    65
 73
     2
 40
0.635
 49
0.0
 74
     0
 49
-0.635
 74
     0
  0
LTYPE
  5
74
330
5
100
AcDbSymbolTableRecord
100
AcDbLinetypeTableRecord
  2
SLD-Dicke-Dünne-Kette
 70
     0
  3
SolidWorks Line Style
 72
    65
 73
     4
 40
10.16
 49
6.35
 74
     0
 49
-1.27
 74
     0
 49
1.27
 74
     0
 49
-1.27
 74
     0
  0
ENDTAB
  0
TABLE
  2
LAYER
  5
2
330
0
100
AcDbSymbolTable
 70
     1
  0
LAYER
  5
10
330
2
100
AcDbSymbolTableRecord
100
AcDbLayerTableRecord
  2
0
 70
     0
 62
     7
  6
Continuous
370
    -3
390
F
  0
ENDTAB
  0
TABLE
  2
STYLE
  5
3
330
0
100
AcDbSymbolTable
 70
     4
  0
STYLE
  5
11
330
3
100
AcDbSymbolTableRecord
100
AcDbTextStyleTableRecord
  2
Standard
 70
     0
 40
0.0
 41
1.0
 50
0.0
 71
     0
 42
3.5
  3
txt
  4

  0
STYLE
  5
706
330
3
100
AcDbSymbolTableRecord
100
AcDbTextStyleTableRecord
  2
SLDTEXTSTYLE0
 70
     0
 40
0.0
 41
0.605
 50
0.0
 71
     0
 42
3.5
  3
TXT
  4

  0
STYLE
  5
711
330
3
100
AcDbSymbolTableRecord
100
AcDbTextStyleTableRecord
  2
SLDTEXTSTYLE1
 70
     0
 40
0.0
 41
0.6
 50
0.0
 71
     0
 42
3.5
  3
TXT
  4

  0
STYLE
  5
71C
330
3
100
AcDbSymbolTableRecord
100
AcDbTextStyleTableRecord
  2
SLDTEXTSTYLE2
 70
     0
 40
0.0
 41
0.75
 50
0.0
 71
     0
 42
3.5
  3
TXT
  4

  0
ENDTAB
  0
TABLE
  2
VIEW
  5
6
330
0
100
AcDbSymbolTable
 70
     0
  0
ENDTAB
  0
TABLE
  2
UCS
  5
7
330
0
100
AcDbSymbolTable
 70
     0
  0
ENDTAB
  0
TABLE
  2
APPID
  5
9
330
0
100
AcDbSymbolTable
 70
     1
  0
APPID
  5
12
330
9
100
AcDbSymbolTableRecord
100
AcDbRegAppTableRecord
  2
ACAD
 70
     0
  0
ENDTAB
  0
TABLE
  2
DIMSTYLE
  5
A
330
0
100
AcDbSymbolTable
 70
     4
100
AcDbDimStyleTable
  0
DIMSTYLE
105
27
330
A
100
AcDbSymbolTableRecord
100
AcDbDimStyleTableRecord
  2
ISO-25
 70
     0
 41
2.5
 42
0.625
 43
3.75
 44
1.25
 73
     0
 74
     0
 77
     1
 78
     8
140
2.5
141
2.5
143
0.0393700787
147
0.625
171
     3
172
     1
178
     0
271
     2
272
     2
274
     3
278
    44
283
     0
284
     8
340
11
  0
DIMSTYLE
105
707
102
{ACAD_REACTORS
330
705
102
}
330
A
100
AcDbSymbolTableRecord
100
AcDbDimStyleTableRecord
  2
SLDDIMSTYLE0
 70
     0
 41
6.0
 44
0.0
 45
0.000000001
 73
     0
 74
     0
 77
     1
 78
    12
 79
     3
140
28.0
147
7.0
173
     1
178
     0
271
     1
272
     2
276
     2
284
    12
340
706
  0
DIMSTYLE
105
712
102
{ACAD_REACTORS
330
710
330
720
330
737
330
742
102
}
330
A
100
AcDbSymbolTableRecord
100
AcDbDimStyleTableRecord
  2
SLDDIMSTYLE1
 70
     0
 41
6.0
 44
0.0
 45
0.000000001
 73
     0
 74
     0
 77
     1
 78
    12
 79
     3
140
28.0
147
7.0
173
     1
178
     0
271
     0
276
     2
284
    12
340
711
341
713
343
713
344
713
  0
DIMSTYLE
105
72C
102
{ACAD_REACTORS
330
72B
102
}
330
A
100
AcDbSymbolTableRecord
100
AcDbDimStyleTableRecord
  2
SLDDIMSTYLE2
 70
     0
 41
6.0
 44
0.0
 45
0.000000001
 73
     0
 74
     0
 77
     1
 78
    12
 79
     3
140
28.0
147
7.0
173
     1
178
     0
271
     1
276
     2
284
    12
340
711
341
713
343
713
344
713
  0
ENDTAB
  0
TABLE
  2
BLOCK_RECORD
  5
1
330
0
100
AcDbSymbolTable
 70
     8
  0
BLOCK_RECORD
  5
1F
330
1
100
AcDbSymbolTableRecord
100
AcDbBlockTableRecord
  2
*Model_Space
340
22
  0
BLOCK_RECORD
  5
1B
330
1
100
AcDbSymbolTableRecord
100
AcDbBlockTableRecord
  2
*Paper_Space
340
1E
  0
BLOCK_RECORD
  5
23
330
1
100
AcDbSymbolTableRecord
100
AcDbBlockTableRecord
  2
*Paper_Space0
340
26
  0
BLOCK_RECORD
  5
708
330
1
100
AcDbSymbolTableRecord
100
AcDbBlockTableRecord
  2
_D
340
0
  0
BLOCK_RECORD
  5
713
330
1
100
AcDbSymbolTableRecord
100
AcDbBlockTableRecord
  2
_NONE
340
0
  0
BLOCK_RECORD
  5
716
330
1
100
AcDbSymbolTableRecord
100
AcDbBlockTableRecord
  2
_D_1
340
0
  0
BLOCK_RECORD
  5
721
330
1
100
AcDbSymbolTableRecord
100
AcDbBlockTableRecord
  2
_D_2
340
0
  0
BLOCK_RECORD
  5
72D
330
1
100
AcDbSymbolTableRecord
100
AcDbBlockTableRecord
  2
_D_3
340
0
  0
BLOCK_RECORD
  5
738
330
1
100
AcDbSymbolTableRecord
100
AcDbBlockTableRecord
  2
_D_4
340
0
  0
BLOCK_RECORD
  5
743
330
1
100
AcDbSymbolTableRecord
100
AcDbBlockTableRecord
  2
_D_5
340
0
  0
ENDTAB
  0
ENDSEC
  0
SECTION
  2
BLOCKS
  0
BLOCK
  5
20
330
1F
100
AcDbEntity
  8
0
100
AcDbBlockBegin
  2
*Model_Space
 70
     0
 10
0.0
 20
0.0
 30
0.0
  3
*Model_Space
  1

  0
ENDBLK
  5
21
330
1F
100
AcDbEntity
  8
0
100
AcDbBlockEnd
  0
BLOCK
  5
1C
330
1B
100
AcDbEntity
 67
     1
  8
0
100
AcDbBlockBegin
  2
*Paper_Space
 70
     0
 10
0.0
 20
0.0
 30
0.0
  3
*Paper_Space
  1

  0
ENDBLK
  5
1D
330
1B
100
AcDbEntity
 67
     1
  8
0
100
AcDbBlockEnd
  0
BLOCK
  5
24
330
23
100
AcDbEntity
  8
0
100
AcDbBlockBegin
  2
*Paper_Space0
 70
     0
 10
0.0
 20
0.0
 30
0.0
  3
*Paper_Space0
  1

  0
ENDBLK
  5
25
330
23
100
AcDbEntity
  8
0
100
AcDbBlockEnd
  0
BLOCK
  5
709
330
708
100
AcDbEntity
  8
0
100
AcDbBlockBegin
  2
_D
 70
     0
 10
0.0
 20
0.0
 30
0.0
  3
_D
  1

  0
SOLID
  5
70B
330
708
100
AcDbEntity
  8
0
100
AcDbTrace
 10
199.3987024937
 20
392.885388
 30
0.0
 11
198.4987024937
 21
386.885388
 31
0.0
 12
200.2987024937
 22
386.885388
 32
0.0
 13
200.2987024937
 23
386.885388
 33
0.0
  0
SOLID
  5
70C
330
708
100
AcDbEntity
  8
0
100
AcDbTrace
 10
199.3987024937
 20
300.385388
 30
0.0
 11
200.2987024937
 21
306.385388
 31
0.0
 12
198.4987024937
 22
306.385388
 32
0.0
 13
198.4987024937
 23
306.385388
 33
0.0
  0
LINE
  5
70D
330
708
100
AcDbEntity
  8
0
100
AcDbLine
 10
332.233256
 20
300.385388
 30
0.0
 11
198.3987024937
 21
300.385388
 31
0.0
  0
LINE
  5
70E
330
708
100
AcDbEntity
  8
0
100
AcDbLine
 10
199.3987024937
 20
392.885388
 30
0.0
 11
199.3987024937
 21
300.385388
 31
0.0
  0
MTEXT
  5
70F
330
708
100
AcDbEntity
  8
0
100
AcDbMText
 10
163.3048057801
 20
314.9779021998
 30
0.0
 40
28.0
 41
0.0
 71
     1
 72
     1
  1
92,5
  7
SLDTEXTSTYLE0
 11
-7.044195017643634E-15
 21
1.0
 31
0.0
 73
     1
 44
1.0
  0
ENDBLK
  5
70A
330
708
100
AcDbEntity
  8
0
100
AcDbBlockEnd
  0
BLOCK
  5
714
330
713
100
AcDbEntity
  8
0
100
AcDbBlockBegin
  2
_NONE
 70
     0
 10
0.0
 20
0.0
 30
0.0
  3
_NONE
  1

  0
ENDBLK
  5
715
330
713
100
AcDbEntity
  8
0
100
AcDbBlockEnd
  0
BLOCK
  5
717
330
716
100
AcDbEntity
  8
0
100
AcDbBlockBegin
  2
_D_1
 70
     0
 10
0.0
 20
0.0
 30
0.0
  3
_D_1
  1

  0
LINE
  5
719
330
716
100
AcDbEntity
  8
0
 62
     7
100
AcDbLine
 10
347.298468
 20
368.063258
 30
0.0
 11
347.298468
 21
241.943388
 31
0.0
  0
LINE
  5
71A
330
716
100
AcDbEntity
  8
0
 62
     7
100
AcDbLine
 10
497.298468
 20
301.189235
 30
0.0
 11
497.298468
 21
241.943388
 31
0.0
  0
LINE
  5
71B
330
716
100
AcDbEntity
  8
0
 62
     7
100
AcDbLine
 10
375.298468
 20
245.543388
 30
0.0
 11
469.298468
 21
245.543388
 31
0.0
  0
MTEXT
  5
71D
330
716
100
AcDbEntity
  8
0
 62
     7
100
AcDbMText
 10
408.4067541479
 20
294.5544708166
 30
0.0
 40
28.0
 41
0.0
 71
     1
 72
     1
  1
150
  7
SLDTEXTSTYLE2
 73
     1
 44
1.0
  0
SOLID
  5
71E
330
716
100
AcDbEntity
  8
0
 62
     7
100
AcDbTrace
 10
375.298468
 20
250.210054
 30
0.0
 11
375.298468
 21
240.876721
 31
0.0
 12
347.298468
 22
245.543388
 32
0.0
 13
347.298468
 23
245.543388
 33
0.0
  0
SOLID
  5
71F
330
716
100
AcDbEntity
  8
0
 62
     7
100
AcDbTrace
 10
469.298468
 20
240.876721
 30
0.0
 11
469.298468
 21
250.210054
 31
0.0
 12
497.298468
 22
245.543388
 32
0.0
 13
497.298468
 23
245.543388
 33
0.0
  0
ENDBLK
  5
718
330
716
100
AcDbEntity
  8
0
100
AcDbBlockEnd
  0
BLOCK
  5
722
330
721
100
AcDbEntity
  8
0
100
AcDbBlockBegin
  2
_D_2
 70
     0
 10
0.0
 20
0.0
 30
0.0
  3
_D_2
  1

  0
LINE
  5
724
330
721
100
AcDbEntity
  8
0
 62
     7
100
AcDbLine
 10
494.298468
 20
375.385388
 30
0.0
 11
636.250614
 21
375.385388
 31
0.0
  0
LINE
  5
725
330
721
100
AcDbEntity
  8
0
 62
     7
100
AcDbLine
 10
494.298468
 20
300.385388
 30
0.0
 11
636.250614
 21
300.385388
 31
0.0
  0
LINE
  5
726
330
721
100
AcDbEntity
  8
0
 62
     7
100
AcDbLine
 10
632.650614
 20
347.385388
 30
0.0
 11
632.650614
 21
328.385388
 31
0.0
  0
LINE
  5
727
330
721
100
AcDbEntity
  8
0
 62
     7
100
AcDbLine
 10
632.650614
 20
375.385388
 30
0.0
 11
632.650614
 21
452.554145
 31
0.0
  0
MTEXT
  5
728
330
721
100
AcDbEntity
  8
0
 62
     7
100
AcDbMText
 10
583.6395311834
 20
395.5915082464
 30
0.0
 40
28.0
 41
0.0
 71
     1
 72
     1
  1
DN70
  7
SLDTEXTSTYLE2
 11
6.123233995736766E-17
 21
1.0
 31
0.0
 73
     1
 44
1.0
  0
SOLID
  5
729
330
721
100
AcDbEntity
  8
0
 62
     7
100
AcDbTrace
 10
637.317281
 20
347.385388
 30
0.0
 11
627.983947
 21
347.385388
 31
0.0
 12
632.650614
 22
375.385388
 32
0.0
 13
632.650614
 23
375.385388
 33
0.0
  0
SOLID
  5
72A
330
721
100
AcDbEntity
  8
0
 62
     7
100
AcDbTrace
 10
627.983947
 20
328.385388
 30
0.0
 11
637.317281
 21
328.385388
 31
0.0
 12
632.650614
 22
300.385388
 32
0.0
 13
632.650614
 23
300.385388
 33
0.0
  0
ENDBLK
  5
723
330
721
100
AcDbEntity
  8
0
100
AcDbBlockEnd
  0
BLOCK
  5
72E
330
72D
100
AcDbEntity
  8
0
100
AcDbBlockBegin
  2
_D_3
 70
     0
 10
0.0
 20
0.0
 30
0.0
  3
_D_3
  1

  0
LINE
  5
730
330
72D
100
AcDbEntity
  8
0
 62
     7
100
AcDbLine
 10
501.298468
 20
337.885388
 30
0.0
 11
576.617387
 21
337.885388
 31
0.0
  0
LINE
  5
731
330
72D
100
AcDbEntity
  8
0
 62
     7
100
AcDbLine
 10
527.298468
 20
389.385388
 30
0.0
 11
576.617387
 21
389.385388
 31
0.0
  0
LINE
  5
732
330
72D
100
AcDbEntity
  8
0
 62
     7
100
AcDbLine
 10
573.017387
 20
309.885388
 30
0.0
 11
573.017387
 21
281.885388
 31
0.0
  0
LINE
  5
733
330
72D
100
AcDbEntity
  8
0
 62
     7
100
AcDbLine
 10
573.017387
 20
417.385388
 30
0.0
 11
573.017387
 21
461.064812
 31
0.0
  0
MTEXT
  5
734
330
72D
100
AcDbEntity
  8
0
 62
     7
100
AcDbMText
 10
524.0063041834
 20
413.7854251598
 30
0.0
 40
28.0
 41
0.0
 71
     1
 72
     1
  1
51,5
  7
SLDTEXTSTYLE2
 11
6.123233995736766E-17
 21
1.0
 31
0.0
 73
     1
 44
1.0
  0
SOLID
  5
735
330
72D
100
AcDbEntity
  8
0
 62
     7
100
AcDbTrace
 10
577.684054
 20
309.885388
 30
0.0
 11
568.35072
 21
309.885388
 31
0.0
 12
573.017387
 22
337.885388
 32
0.0
 13
573.017387
 23
337.885388
 33
0.0
  0
SOLID
  5
736
330
72D
100
AcDbEntity
  8
0
 62
     7
100
AcDbTrace
 10
568.35072
 20
417.385388
 30
0.0
 11
577.684054
 21
417.385388
 31
0.0
 12
573.017387
 22
389.385388
 32
0.0
 13
573.017387
 23
389.385388
 33
0.0
  0
ENDBLK
  5
72F
330
72D
100
AcDbEntity
  8
0
100
AcDbBlockEnd
  0
BLOCK
  5
739
330
738
100
AcDbEntity
  8
0
100
AcDbBlockBegin
  2
_D_4
 70
     0
 10
0.0
 20
0.0
 30
0.0
  3
_D_4
  1

  0
LINE
  5
73B
330
738
100
AcDbEntity
  8
0
 62
     7
100
AcDbLine
 10
167.298468
 20
389.385388
 30
0.0
 11
167.298468
 21
537.233388
 31
0.0
  0
LINE
  5
73C
330
738
100
AcDbEntity
  8
0
 62
     7
100
AcDbLine
 10
527.298468
 20
389.385388
 30
0.0
 11
527.298468
 21
537.233388
 31
0.0
  0
LINE
  5
73D
330
738
100
AcDbEntity
  8
0
 62
     7
100
AcDbLine
 10
195.298468
 20
533.633388
 30
0.0
 11
499.298468
 21
533.633388
 31
0.0
  0
MTEXT
  5
73E
330
738
100
AcDbEntity
  8
0
 62
     7
100
AcDbMText
 10
338.6500583552
 20
582.6444722136
 30
0.0
 40
28.0
 41
0.0
 71
     1
 72
     1
  1
%%c
  7
SLDTEXTSTYLE2
 73
     1
 44
1.0
  0
MTEXT
  5
73F
330
738
100
AcDbEntity
  8
0
 62
     7
100
AcDbMText
 10
380.8775575422
 20
583.0722496269
 30
0.0
 40
28.0
 41
0.0
 71
     1
 72
     1
  1
360
  7
SLDTEXTSTYLE2
 73
     1
 44
1.0
  0
SOLID
  5
740
330
738
100
AcDbEntity
  8
0
 62
     7
100
AcDbTrace
 10
195.298468
 20
538.300054
 30
0.0
 11
195.298468
 21
528.966721
 31
0.0
 12
167.298468
 22
533.633388
 32
0.0
 13
167.298468
 23
533.633388
 33
0.0
  0
SOLID
  5
741
330
738
100
AcDbEntity
  8
0
 62
     7
100
AcDbTrace
 10
499.298468
 20
528.966721
 30
0.0
 11
499.298468
 21
538.300054
 31
0.0
 12
527.298468
 22
533.633388
 32
0.0
 13
527.298468
 23
533.633388
 33
0.0
  0
ENDBLK
  5
73A
330
738
100
AcDbEntity
  8
0
100
AcDbBlockEnd
  0
BLOCK
  5
744
330
743
100
AcDbEntity
  8
0
100
AcDbBlockBegin
  2
_D_5
 70
     0
 10
0.0
 20
0.0
 30
0.0
  3
_D_5
  1

  0
LINE
  5
746
330
743
100
AcDbEntity
  8
0
 62
     7
100
AcDbLine
 10
263.298468
 20
389.385388
 30
0.0
 11
263.298468
 21
494.096979
 31
0.0
  0
LINE
  5
747
330
743
100
AcDbEntity
  8
0
 62
     7
100
AcDbLine
 10
431.298468
 20
389.385388
 30
0.0
 11
431.298468
 21
494.096979
 31
0.0
  0
LINE
  5
748
330
743
100
AcDbEntity
  8
0
 62
     7
100
AcDbLine
 10
291.298468
 20
490.496979
 30
0.0
 11
403.298468
 21
490.496979
 31
0.0
  0
MTEXT
  5
749
330
743
100
AcDbEntity
  8
0
 62
     7
100
AcDbMText
 10
335.5770023552
 20
539.5080632136
 30
0.0
 40
28.0
 41
0.0
 71
     1
 72
     1
  1
%%c
  7
SLDTEXTSTYLE2
 73
     1
 44
1.0
  0
MTEXT
  5
74A
330
743
100
AcDbEntity
  8
0
 62
     7
100
AcDbMText
 10
377.8045015422
 20
539.9358406269
 30
0.0
 40
28.0
 41
0.0
 71
     1
 72
     1
  1
168
  7
SLDTEXTSTYLE2
 73
     1
 44
1.0
  0
SOLID
  5
74B
330
743
100
AcDbEntity
  8
0
 62
     7
100
AcDbTrace
 10
291.298468
 20
495.163646
 30
0.0
 11
291.298468
 21
485.830312
 31
0.0
 12
263.298468
 22
490.496979
 32
0.0
 13
263.298468
 23
490.496979
 33
0.0
  0
SOLID
  5
74C
330
743
100
AcDbEntity
  8
0
 62
     7
100
AcDbTrace
 10
403.298468
 20
485.830312
 30
0.0
 11
403.298468
 21
495.163646
 31
0.0
 12
431.298468
 22
490.496979
 32
0.0
 13
431.298468
 23
490.496979
 33
0.0
  0
ENDBLK
  5
745
330
743
100
AcDbEntity
  8
0
100
AcDbBlockEnd
  0
ENDSEC
  0
SECTION
  2
ENTITIES
  0
LINE
  5
75
330
1F
100
AcDbEntity
  8
0
 62
     7
370
    15
100
AcDbLine
 10
297.298468
 20
470.485386
 30
0.0
 11
297.298468
 21
369.886569
 31
0.0
  0
LINE
  5
76
330
1F
100
AcDbEntity
  8
0
 62
     7
370
    40
100
AcDbLine
 10
422.298466
 20
382.885386
 30
0.0
 11
417.298471
 21
382.885386
 31
0.0
  0
LINE
  5
77
330
1F
100
AcDbEntity
  8
0
 62
     7
370
    40
100
AcDbLine
 10
277.29847
 20
382.885386
 30
0.0
 11
272.298467
 21
382.885386
 31
0.0
  0
LINE
  5
78
330
1F
100
AcDbEntity
  8
0
 62
     7
370
    40
100
AcDbLine
 10
302.575775
 20
378.885389
 30
0.0
 11
302.575775
 21
384.385389
 31
0.0
  0
LINE
  5
79
330
1F
100
AcDbEntity
  8
0
 62
     7
370
    40
100
AcDbLine
 10
292.075776
 20
384.385389
 30
0.0
 11
292.075776
 21
378.885389
 31
0.0
  0
LINE
  5
7A
330
1F
100
AcDbEntity
  8
0
 62
     7
370
    40
100
AcDbLine
 10
305.325777
 20
375.485388
 30
0.0
 11
305.325777
 21
378.885389
 31
0.0
  0
LINE
  5
7B
330
1F
100
AcDbEntity
  8
0
 62
     7
370
    40
100
AcDbLine
 10
395.066057
 20
445.729827
 30
0.0
 11
395.298467
 21
445.599538
 31
0.0
  0
LINE
  5
7C
330
1F
100
AcDbEntity
  8
0
 62
     7
370
    40
100
AcDbLine
 10
394.207985
 20
452.191745
 30
0.0
 11
394.447918
 21
452.065711
 31
0.0
  0
LINE
  5
7D
330
1F
100
AcDbEntity
  8
0
 62
     7
370
    40
100
AcDbLine
 10
394.447918
 20
452.065711
 30
0.0
 11
394.811776
 21
451.874581
 31
0.0
  0
LINE
  5
7E
330
1F
100
AcDbEntity
  8
0
 62
     7
370
    40
100
AcDbLine
 10
394.811776
 20
451.874581
 30
0.0
 11
395.17482
 21
451.669418
 31
0.0
  0
LINE
  5
7F
330
1F
100
AcDbEntity
  8
0
 62
     7
370
    40
100
AcDbLine
 10
395.17482
 20
451.669418
 30
0.0
 11
395.298467
 21
451.599543
 31
0.0
  0
LINE
  5
80
330
1F
100
AcDbEntity
  8
0
 62
     7
370
    40
100
AcDbLine
 10
399.611861
 20
445.420106
 30
0.0
 11
399.298468
 21
445.597117
 31
0.0
  0
LINE
  5
81
330
1F
100
AcDbEntity
  8
0
 62
     7
370
    40
100
AcDbLine
 10
399.673325
 20
451.385391
 30
0.0
 11
399.298468
 21
451.597114
 31
0.0
  0
LINE
  5
82
330
1F
100
AcDbEntity
  8
0
 62
     7
370
    40
100
AcDbLine
 10
394.207985
 20
461.191748
 30
0.0
 11
394.447918
 21
461.065711
 31
0.0
  0
LINE
  5
83
330
1F
100
AcDbEntity
  8
0
 62
     7
370
    40
100
AcDbLine
 10
394.447918
 20
461.065711
 30
0.0
 11
394.811774
 21
460.874577
 31
0.0
  0
LINE
  5
84
330
1F
100
AcDbEntity
  8
0
 62
     7
370
    40
100
AcDbLine
 10
394.811774
 20
460.874577
 30
0.0
 11
395.17482
 21
460.669414
 31
0.0
  0
LINE
  5
85
330
1F
100
AcDbEntity
  8
0
 62
     7
370
    40
100
AcDbLine
 10
395.17482
 20
460.669414
 30
0.0
 11
395.298467
 21
460.599539
 31
0.0
  0
LINE
  5
86
330
1F
100
AcDbEntity
  8
0
 62
     7
370
    40
100
AcDbLine
 10
400.373445
 20
459.999506
 30
0.0
 11
400.159723
 21
460.116097
 31
0.0
  0
LINE
  5
87
330
1F
100
AcDbEntity
  8
0
 62
     7
370
    40
100
AcDbLine
 10
400.159723
 20
460.116097
 30
0.0
 11
399.796484
 21
460.314253
 31
0.0
  0
LINE
  5
88
330
1F
100
AcDbEntity
  8
0
 62
     7
370
    40
100
AcDbLine
 10
399.796484
 20
460.314253
 30
0.0
 11
399.443687
 21
460.514635
 31
0.0
  0
LINE
  5
89
330
1F
100
AcDbEntity
  8
0
 62
     7
370
    40
100
AcDbLine
 10
399.443687
 20
460.514635
 30
0.0
 11
399.298468
 21
460.597117
 31
0.0
  0
LINE
  5
8A
330
1F
100
AcDbEntity
  8
0
 62
     7
370
    40
100
AcDbLine
 10
400.373445
 20
453.999509
 30
0.0
 11
400.159722
 21
454.116096
 31
0.0
  0
LINE
  5
8B
330
1F
100
AcDbEntity
  8
0
 62
     7
370
    40
100
AcDbLine
 10
400.159722
 20
454.116096
 30
0.0
 11
399.79648
 21
454.314247
 31
0.0
  0
LINE
  5
8C
330
1F
100
AcDbEntity
  8
0
 62
     7
370
    40
100
AcDbLine
 10
399.79648
 20
454.314247
 30
0.0
 11
399.443687
 21
454.514635
 31
0.0
  0
LINE
  5
8D
330
1F
100
AcDbEntity
  8
0
 62
     7
370
    40
100
AcDbLine
 10
399.443687
 20
454.514635
 30
0.0
 11
399.298468
 21
454.59712
 31
0.0
  0
LINE
  5
8E
330
1F
100
AcDbEntity
  8
0
 62
     7
370
    40
100
AcDbLine
 10
394.207985
 20
464.191747
 30
0.0
 11
394.447918
 21
464.06571
 31
0.0
  0
LINE
  5
8F
330
1F
100
AcDbEntity
  8
0
 62
     7
370
    40
100
AcDbLine
 10
394.447918
 20
464.06571
 30
0.0
 11
394.811774
 21
463.874576
 31
0.0
  0
LINE
  5
90
330
1F
100
AcDbEntity
  8
0
 62
     7
370
    40
100
AcDbLine
 10
394.811774
 20
463.874576
 30
0.0
 11
395.17482
 21
463.669413
 31
0.0
  0
LINE
  5
91
330
1F
100
AcDbEntity
  8
0
 62
     7
370
    40
100
AcDbLine
 10
395.17482
 20
463.669413
 30
0.0
 11
395.298467
 21
463.599537
 31
0.0
  0
LINE
  5
92
330
1F
100
AcDbEntity
  8
0
 62
     7
370
    40
100
AcDbLine
 10
400.373445
 20
462.999512
 30
0.0
 11
400.159723
 21
463.1161
 31
0.0
  0
LINE
  5
93
330
1F
100
AcDbEntity
  8
0
 62
     7
370
    40
100
AcDbLine
 10
400.159723
 20
463.1161
 30
0.0
 11
399.796482
 21
463.314252
 31
0.0
  0
LINE
  5
94
330
1F
100
AcDbEntity
  8
0
 62
     7
370
    40
100
AcDbLine
 10
399.796482
 20
463.314252
 30
0.0
 11
399.443687
 21
463.514634
 31
0.0
  0
LINE
  5
95
330
1F
100
AcDbEntity
  8
0
 62
     7
370
    40
100
AcDbLine
 10
399.443687
 20
463.514634
 30
0.0
 11
399.298468
 21
463.597116
 31
0.0
  0
LINE
  5
96
330
1F
100
AcDbEntity
  8
0
 62
     7
370
    40
100
AcDbLine
 10
394.207985
 20
458.19175
 30
0.0
 11
394.447918
 21
458.065713
 31
0.0
  0
LINE
  5
97
330
1F
100
AcDbEntity
  8
0
 62
     7
370
    40
100
AcDbLine
 10
394.447918
 20
458.065713
 30
0.0
 11
394.811774
 21
457.874578
 31
0.0
  0
LINE
  5
98
330
1F
100
AcDbEntity
  8
0
 62
     7
370
    40
100
AcDbLine
 10
394.811774
 20
457.874578
 30
0.0
 11
395.17482
 21
457.669415
 31
0.0
  0
LINE
  5
99
330
1F
100
AcDbEntity
  8
0
 62
     7
370
    40
100
AcDbLine
 10
395.17482
 20
457.669415
 30
0.0
 11
395.298467
 21
457.59954
 31
0.0
  0
LINE
  5
9A
330
1F
100
AcDbEntity
  8
0
 62
     7
370
    40
100
AcDbLine
 10
400.373445
 20
456.999508
 30
0.0
 11
400.159723
 21
457.116098
 31
0.0
  0
LINE
  5
9B
330
1F
100
AcDbEntity
  8
0
 62
     7
370
    40
100
AcDbLine
 10
400.159723
 20
457.116098
 30
0.0
 11
399.796484
 21
457.314255
 31
0.0
  0
LINE
  5
9C
330
1F
100
AcDbEntity
  8
0
 62
     7
370
    40
100
AcDbLine
 10
399.796484
 20
457.314255
 30
0.0
 11
399.443687
 21
457.514637
 31
0.0
  0
LINE
  5
9D
330
1F
100
AcDbEntity
  8
0
 62
     7
370
    40
100
AcDbLine
 10
399.443687
 20
457.514637
 30
0.0
 11
399.298468
 21
457.597119
 31
0.0
  0
LINE
  5
9E
330
1F
100
AcDbEntity
  8
0
 62
     7
370
    40
100
AcDbLine
 10
395.066057
 20
448.729825
 30
0.0
 11
395.298467
 21
448.599537
 31
0.0
  0
LINE
  5
9F
330
1F
100
AcDbEntity
  8
0
 62
     7
370
    40
100
AcDbLine
 10
399.611861
 20
448.420105
 30
0.0
 11
399.298468
 21
448.597115
 31
0.0
  0
LINE
  5
A0
330
1F
100
AcDbEntity
  8
0
 62
     7
370
    40
100
AcDbLine
 10
394.207985
 20
455.191744
 30
0.0
 11
394.447918
 21
455.06571
 31
0.0
  0
LINE
  5
A1
330
1F
100
AcDbEntity
  8
0
 62
     7
370
    40
100
AcDbLine
 10
394.447918
 20
455.06571
 30
0.0
 11
394.811776
 21
454.87458
 31
0.0
  0
LINE
  5
A2
330
1F
100
AcDbEntity
  8
0
 62
     7
370
    40
100
AcDbLine
 10
394.811776
 20
454.87458
 30
0.0
 11
395.17482
 21
454.669417
 31
0.0
  0
LINE
  5
A3
330
1F
100
AcDbEntity
  8
0
 62
     7
370
    40
100
AcDbLine
 10
395.17482
 20
454.669417
 30
0.0
 11
395.298467
 21
454.599542
 31
0.0
  0
LINE
  5
A4
330
1F
100
AcDbEntity
  8
0
 62
     7
370
    40
100
AcDbLine
 10
400.315159
 20
466.030952
 30
0.0
 11
400.121748
 21
466.136677
 31
0.0
  0
LINE
  5
A5
330
1F
100
AcDbEntity
  8
0
 62
     7
370
    40
100
AcDbLine
 10
400.121748
 20
466.136677
 30
0.0
 11
399.845497
 21
466.287684
 31
0.0
  0
LINE
  5
A6
330
1F
100
AcDbEntity
  8
0
 62
     7
370
    40
100
AcDbLine
 10
399.845497
 20
466.287684
 30
0.0
 11
399.576768
 21
466.439783
 31
0.0
  0
LINE
  5
A7
330
1F
100
AcDbEntity
  8
0
 62
     7
370
    40
100
AcDbLine
 10
399.576768
 20
466.439783
 30
0.0
 11
399.496184
 21
466.485393
 31
0.0
  0
LINE
  5
A8
330
1F
100
AcDbEntity
  8
0
 62
     7
370
    40
100
AcDbLine
 10
395.065349
 20
391.096563
 30
0.0
 11
395.298467
 21
390.964949
 31
0.0
  0
LINE
  5
A9
330
1F
100
AcDbEntity
  8
0
 62
     7
370
    40
100
AcDbLine
 10
395.065349
 20
394.096565
 30
0.0
 11
395.298467
 21
393.964947
 31
0.0
  0
LINE
  5
AA
330
1F
100
AcDbEntity
  8
0
 62
     7
370
    40
100
AcDbLine
 10
394.735978
 20
376.27769
 30
0.0
 11
394.799896
 21
376.243489
 31
0.0
  0
LINE
  5
AB
330
1F
100
AcDbEntity
  8
0
 62
     7
370
    40
100
AcDbLine
 10
394.799896
 20
376.243489
 30
0.0
 11
394.987838
 21
376.142927
 31
0.0
  0
LINE
  5
AC
330
1F
100
AcDbEntity
  8
0
 62
     7
370
    40
100
AcDbLine
 10
394.987838
 20
376.142927
 30
0.0
 11
395.174975
 21
376.035704
 31
0.0
  0
LINE
  5
AD
330
1F
100
AcDbEntity
  8
0
 62
     7
370
    40
100
AcDbLine
 10
395.174975
 20
376.035704
 30
0.0
 11
395.298467
 21
375.964948
 31
0.0
  0
LINE
  5
AE
330
1F
100
AcDbEntity
  8
0
 62
     7
370
    40
100
AcDbLine
 10
394.735978
 20
382.277691
 30
0.0
 11
394.799896
 21
382.24349
 31
0.0
  0
LINE
  5
AF
330
1F
100
AcDbEntity
  8
0
 62
     7
370
    40
100
AcDbLine
 10
394.799896
 20
382.24349
 30
0.0
 11
394.987838
 21
382.142928
 31
0.0
  0
LINE
  5
B0
330
1F
100
AcDbEntity
  8
0
 62
     7
370
    40
100
AcDbLine
 10
394.987838
 20
382.142928
 30
0.0
 11
395.174975
 21
382.035705
 31
0.0
  0
LINE
  5
B1
330
1F
100
AcDbEntity
  8
0
 62
     7
370
    40
100
AcDbLine
 10
395.174975
 20
382.035705
 30
0.0
 11
395.298467
 21
381.964949
 31
0.0
  0
LINE
  5
B2
330
1F
100
AcDbEntity
  8
0
 62
     7
370
    40
100
AcDbLine
 10
394.735978
 20
379.277692
 30
0.0
 11
394.799896
 21
379.24349
 31
0.0
  0
LINE
  5
B3
330
1F
100
AcDbEntity
  8
0
 62
     7
370
    40
100
AcDbLine
 10
394.799896
 20
379.24349
 30
0.0
 11
394.987836
 21
379.142925
 31
0.0
  0
LINE
  5
B4
330
1F
100
AcDbEntity
  8
0
 62
     7
370
    40
100
AcDbLine
 10
394.987836
 20
379.142925
 30
0.0
 11
395.174974
 21
379.035702
 31
0.0
  0
LINE
  5
B5
330
1F
100
AcDbEntity
  8
0
 62
     7
370
    40
100
AcDbLine
 10
395.174974
 20
379.035702
 30
0.0
 11
395.298467
 21
378.964947
 31
0.0
  0
LINE
  5
B6
330
1F
100
AcDbEntity
  8
0
 62
     7
370
    40
100
AcDbLine
 10
395.065349
 20
385.096566
 30
0.0
 11
395.298467
 21
384.964948
 31
0.0
  0
LINE
  5
B7
330
1F
100
AcDbEntity
  8
0
 62
     7
370
    40
100
AcDbLine
 10
395.065349
 20
388.096564
 30
0.0
 11
395.298467
 21
387.964946
 31
0.0
  0
LINE
  5
B8
330
1F
100
AcDbEntity
  8
0
 62
     7
370
    40
100
AcDbLine
 10
399.524954
 20
393.82631
 30
0.0
 11
399.298468
 21
393.954434
 31
0.0
  0
LINE
  5
B9
330
1F
100
AcDbEntity
  8
0
 62
     7
370
    40
100
AcDbLine
 10
399.779496
 20
378.68517
 30
0.0
 11
399.74026
 21
378.706299
 31
0.0
  0
LINE
  5
BA
330
1F
100
AcDbEntity
  8
0
 62
     7
370
    40
100
AcDbLine
 10
399.74026
 20
378.706299
 30
0.0
 11
399.579226
 21
378.793018
 31
0.0
  0
LINE
  5
BB
330
1F
100
AcDbEntity
  8
0
 62
     7
370
    40
100
AcDbLine
 10
399.579226
 20
378.793018
 30
0.0
 11
399.419373
 21
378.884922
 31
0.0
  0
LINE
  5
BC
330
1F
100
AcDbEntity
  8
0
 62
     7
370
    40
100
AcDbLine
 10
399.419373
 20
378.884922
 30
0.0
 11
399.298468
 21
378.954434
 31
0.0
  0
LINE
  5
BD
330
1F
100
AcDbEntity
  8
0
 62
     7
370
    40
100
AcDbLine
 10
399.524954
 20
384.826311
 30
0.0
 11
399.298468
 21
384.954435
 31
0.0
  0
LINE
  5
BE
330
1F
100
AcDbEntity
  8
0
 62
     7
370
    40
100
AcDbLine
 10
399.779496
 20
375.685171
 30
0.0
 11
399.74026
 21
375.706299
 31
0.0
  0
LINE
  5
BF
330
1F
100
AcDbEntity
  8
0
 62
     7
370
    40
100
AcDbLine
 10
399.74026
 20
375.706299
 30
0.0
 11
399.579223
 21
375.793014
 31
0.0
  0
LINE
  5
C0
330
1F
100
AcDbEntity
  8
0
 62
     7
370
    40
100
AcDbLine
 10
399.579223
 20
375.793014
 30
0.0
 11
399.419372
 21
375.884921
 31
0.0
  0
LINE
  5
C1
330
1F
100
AcDbEntity
  8
0
 62
     7
370
    40
100
AcDbLine
 10
399.419372
 20
375.884921
 30
0.0
 11
399.298468
 21
375.954435
 31
0.0
  0
LINE
  5
C2
330
1F
100
AcDbEntity
  8
0
 62
     7
370
    40
100
AcDbLine
 10
399.524954
 20
390.826312
 30
0.0
 11
399.298468
 21
390.954432
 31
0.0
  0
LINE
  5
C3
330
1F
100
AcDbEntity
  8
0
 62
     7
370
    40
100
AcDbLine
 10
399.524954
 20
387.826313
 30
0.0
 11
399.298468
 21
387.954433
 31
0.0
  0
LINE
  5
C4
330
1F
100
AcDbEntity
  8
0
 62
     7
370
    40
100
AcDbLine
 10
399.779496
 20
381.685168
 30
0.0
 11
399.74026
 21
381.706298
 31
0.0
  0
LINE
  5
C5
330
1F
100
AcDbEntity
  8
0
 62
     7
370
    40
100
AcDbLine
 10
399.74026
 20
381.706298
 30
0.0
 11
399.579226
 21
381.793017
 31
0.0
  0
LINE
  5
C6
330
1F
100
AcDbEntity
  8
0
 62
     7
370
    40
100
AcDbLine
 10
399.579226
 20
381.793017
 30
0.0
 11
399.419373
 21
381.884921
 31
0.0
  0
LINE
  5
C7
330
1F
100
AcDbEntity
  8
0
 62
     7
370
    40
100
AcDbLine
 10
399.419373
 20
381.884921
 30
0.0
 11
399.298468
 21
381.954432
 31
0.0
  0
LINE
  5
C8
330
1F
100
AcDbEntity
  8
0
 62
     7
370
    40
100
AcDbLine
 10
399.575618
 20
396.802251
 30
0.0
 11
399.298468
 21
396.960431
 31
0.0
  0
LINE
  5
C9
330
1F
100
AcDbEntity
  8
0
 62
     7
370
    40
100
AcDbLine
 10
398.295266
 20
371.885386
 30
0.0
 11
398.295266
 21
369.885388
 31
0.0
  0
LINE
  5
CA
330
1F
100
AcDbEntity
  8
0
 62
     7
370
    40
100
AcDbLine
 10
299.524953
 20
386.32631
 30
0.0
 11
299.298466
 21
386.454434
 31
0.0
  0
LINE
  5
CB
330
1F
100
AcDbEntity
  8
0
 62
     7
370
    40
100
AcDbLine
 10
300.377571
 20
379.861337
 30
0.0
 11
300.138615
 21
379.988817
 31
0.0
  0
LINE
  5
CC
330
1F
100
AcDbEntity
  8
0
 62
     7
370
    40
100
AcDbLine
 10
300.138615
 20
379.988817
 30
0.0
 11
299.777736
 21
380.181342
 31
0.0
  0
LINE
  5
CD
330
1F
100
AcDbEntity
  8
0
 62
     7
370
    40
100
AcDbLine
 10
299.777736
 20
380.181342
 30
0.0
 11
299.419497
 21
380.385469
 31
0.0
  0
LINE
  5
CE
330
1F
100
AcDbEntity
  8
0
 62
     7
370
    40
100
AcDbLine
 10
299.419497
 20
380.385469
 30
0.0
 11
299.298466
 21
380.454433
 31
0.0
  0
LINE
  5
CF
330
1F
100
AcDbEntity
  8
0
 62
     7
370
    40
100
AcDbLine
 10
300.377571
 20
376.861338
 30
0.0
 11
300.138615
 21
376.988818
 31
0.0
  0
LINE
  5
D0
330
1F
100
AcDbEntity
  8
0
 62
     7
370
    40
100
AcDbLine
 10
300.138615
 20
376.988818
 30
0.0
 11
299.777736
 21
377.181343
 31
0.0
  0
LINE
  5
D1
330
1F
100
AcDbEntity
  8
0
 62
     7
370
    40
100
AcDbLine
 10
299.777736
 20
377.181343
 30
0.0
 11
299.419497
 21
377.38547
 31
0.0
  0
LINE
  5
D2
330
1F
100
AcDbEntity
  8
0
 62
     7
370
    40
100
AcDbLine
 10
299.419497
 20
377.38547
 30
0.0
 11
299.298466
 21
377.454434
 31
0.0
  0
LINE
  5
D3
330
1F
100
AcDbEntity
  8
0
 62
     7
370
    40
100
AcDbLine
 10
300.377571
 20
382.861336
 30
0.0
 11
300.138615
 21
382.988815
 31
0.0
  0
LINE
  5
D4
330
1F
100
AcDbEntity
  8
0
 62
     7
370
    40
100
AcDbLine
 10
300.138615
 20
382.988815
 30
0.0
 11
299.777734
 21
383.181339
 31
0.0
  0
LINE
  5
D5
330
1F
100
AcDbEntity
  8
0
 62
     7
370
    40
100
AcDbLine
 10
299.777734
 20
383.181339
 30
0.0
 11
299.419497
 21
383.38547
 31
0.0
  0
LINE
  5
D6
330
1F
100
AcDbEntity
  8
0
 62
     7
370
    40
100
AcDbLine
 10
299.419497
 20
383.38547
 30
0.0
 11
299.298466
 21
383.454435
 31
0.0
  0
LINE
  5
D7
330
1F
100
AcDbEntity
  8
0
 62
     7
370
    40
100
AcDbLine
 10
295.065352
 20
389.596564
 30
0.0
 11
295.298469
 21
389.464949
 31
0.0
  0
LINE
  5
D8
330
1F
100
AcDbEntity
  8
0
 62
     7
370
    40
100
AcDbLine
 10
295.065352
 20
386.596565
 30
0.0
 11
295.298469
 21
386.464947
 31
0.0
  0
LINE
  5
D9
330
1F
100
AcDbEntity
  8
0
 62
     7
370
    40
100
AcDbLine
 10
294.210807
 20
381.060948
 30
0.0
 11
294.449975
 21
380.933928
 31
0.0
  0
LINE
  5
DA
330
1F
100
AcDbEntity
  8
0
 62
     7
370
    40
100
AcDbLine
 10
294.449975
 20
380.933928
 30
0.0
 11
294.813221
 21
380.741012
 31
0.0
  0
LINE
  5
DB
330
1F
100
AcDbEntity
  8
0
 62
     7
370
    40
100
AcDbLine
 10
294.813221
 20
380.741012
 30
0.0
 11
295.174919
 21
380.535236
 31
0.0
  0
LINE
  5
DC
330
1F
100
AcDbEntity
  8
0
 62
     7
370
    40
100
AcDbLine
 10
295.174919
 20
380.535236
 30
0.0
 11
295.298469
 21
380.464946
 31
0.0
  0
LINE
  5
DD
330
1F
100
AcDbEntity
  8
0
 62
     7
370
    40
100
AcDbLine
 10
294.210807
 20
378.060945
 30
0.0
 11
294.449975
 21
377.933928
 31
0.0
  0
LINE
  5
DE
330
1F
100
AcDbEntity
  8
0
 62
     7
370
    40
100
AcDbLine
 10
294.449975
 20
377.933928
 30
0.0
 11
294.813222
 21
377.741014
 31
0.0
  0
LINE
  5
DF
330
1F
100
AcDbEntity
  8
0
 62
     7
370
    40
100
AcDbLine
 10
294.813222
 20
377.741014
 30
0.0
 11
295.174919
 21
377.535237
 31
0.0
  0
LINE
  5
E0
330
1F
100
AcDbEntity
  8
0
 62
     7
370
    40
100
AcDbLine
 10
295.174919
 20
377.535237
 30
0.0
 11
295.298469
 21
377.464947
 31
0.0
  0
LINE
  5
E1
330
1F
100
AcDbEntity
  8
0
 62
     7
370
    40
100
AcDbLine
 10
295.065352
 20
395.596565
 30
0.0
 11
295.298469
 21
395.464946
 31
0.0
  0
LINE
  5
E2
330
1F
100
AcDbEntity
  8
0
 62
     7
370
    40
100
AcDbLine
 10
295.065352
 20
392.596562
 30
0.0
 11
295.298469
 21
392.464948
 31
0.0
  0
LINE
  5
E3
330
1F
100
AcDbEntity
  8
0
 62
     7
370
    40
100
AcDbLine
 10
294.210807
 20
384.060946
 30
0.0
 11
294.449975
 21
383.933929
 31
0.0
  0
LINE
  5
E4
330
1F
100
AcDbEntity
  8
0
 62
     7
370
    40
100
AcDbLine
 10
294.449975
 20
383.933929
 30
0.0
 11
294.813222
 21
383.741015
 31
0.0
  0
LINE
  5
E5
330
1F
100
AcDbEntity
  8
0
 62
     7
370
    40
100
AcDbLine
 10
294.813222
 20
383.741015
 30
0.0
 11
295.174919
 21
383.535238
 31
0.0
  0
LINE
  5
E6
330
1F
100
AcDbEntity
  8
0
 62
     7
370
    40
100
AcDbLine
 10
295.174919
 20
383.535238
 30
0.0
 11
295.298469
 21
383.464948
 31
0.0
  0
LINE
  5
E7
330
1F
100
AcDbEntity
  8
0
 62
     7
370
    40
100
AcDbLine
 10
299.524953
 20
395.326314
 30
0.0
 11
299.298466
 21
395.454434
 31
0.0
  0
LINE
  5
E8
330
1F
100
AcDbEntity
  8
0
 62
     7
370
    40
100
AcDbLine
 10
299.524953
 20
389.326313
 30
0.0
 11
299.298466
 21
389.454433
 31
0.0
  0
LINE
  5
E9
330
1F
100
AcDbEntity
  8
0
 62
     7
370
    40
100
AcDbLine
 10
299.524953
 20
392.326311
 30
0.0
 11
299.298466
 21
392.454435
 31
0.0
  0
LINE
  5
EA
330
1F
100
AcDbEntity
  8
0
 62
     7
370
    40
100
AcDbLine
 10
294.339606
 20
374.999334
 30
0.0
 11
294.532745
 21
374.893074
 31
0.0
  0
LINE
  5
EB
330
1F
100
AcDbEntity
  8
0
 62
     7
370
    40
100
AcDbLine
 10
294.532745
 20
374.893074
 30
0.0
 11
294.857744
 21
374.714268
 31
0.0
  0
LINE
  5
EC
330
1F
100
AcDbEntity
  8
0
 62
     7
370
    40
100
AcDbLine
 10
294.857744
 20
374.714268
 30
0.0
 11
295.171266
 21
374.533635
 31
0.0
  0
LINE
  5
ED
330
1F
100
AcDbEntity
  8
0
 62
     7
370
    40
100
AcDbLine
 10
295.171266
 20
374.533635
 30
0.0
 11
295.298469
 21
374.460348
 31
0.0
  0
LINE
  5
EE
330
1F
100
AcDbEntity
  8
0
 62
     7
370
    40
100
AcDbLine
 10
298.295264
 20
371.885386
 30
0.0
 11
298.295264
 21
369.885388
 31
0.0
  0
LINE
  5
EF
330
1F
100
AcDbEntity
  8
0
 62
     7
370
    40
100
AcDbLine
 10
300.373447
 20
452.499506
 30
0.0
 11
300.159725
 21
452.616097
 31
0.0
  0
LINE
  5
F0
330
1F
100
AcDbEntity
  8
0
 62
     7
370
    40
100
AcDbLine
 10
300.159725
 20
452.616097
 30
0.0
 11
299.796485
 21
452.814254
 31
0.0
  0
LINE
  5
F1
330
1F
100
AcDbEntity
  8
0
 62
     7
370
    40
100
AcDbLine
 10
299.796485
 20
452.814254
 30
0.0
 11
299.443687
 21
453.014635
 31
0.0
  0
LINE
  5
F2
330
1F
100
AcDbEntity
  8
0
 62
     7
370
    40
100
AcDbLine
 10
299.443687
 20
453.014635
 30
0.0
 11
299.298466
 21
453.097117
 31
0.0
  0
LINE
  5
F3
330
1F
100
AcDbEntity
  8
0
 62
     7
370
    40
100
AcDbLine
 10
294.207984
 20
453.691748
 30
0.0
 11
294.447916
 21
453.565711
 31
0.0
  0
LINE
  5
F4
330
1F
100
AcDbEntity
  8
0
 62
     7
370
    40
100
AcDbLine
 10
294.447916
 20
453.565711
 30
0.0
 11
294.811773
 21
453.374575
 31
0.0
  0
LINE
  5
F5
330
1F
100
AcDbEntity
  8
0
 62
     7
370
    40
100
AcDbLine
 10
294.811773
 20
453.374575
 30
0.0
 11
295.174821
 21
453.169414
 31
0.0
  0
LINE
  5
F6
330
1F
100
AcDbEntity
  8
0
 62
     7
370
    40
100
AcDbLine
 10
295.174821
 20
453.169414
 30
0.0
 11
295.298469
 21
453.099539
 31
0.0
  0
LINE
  5
F7
330
1F
100
AcDbEntity
  8
0
 62
     7
370
    40
100
AcDbLine
 10
299.61186
 20
449.920108
 30
0.0
 11
299.298466
 21
450.097118
 31
0.0
  0
LINE
  5
F8
330
1F
100
AcDbEntity
  8
0
 62
     7
370
    40
100
AcDbLine
 10
295.066056
 20
450.229828
 30
0.0
 11
295.298469
 21
450.09954
 31
0.0
  0
LINE
  5
F9
330
1F
100
AcDbEntity
  8
0
 62
     7
370
    40
100
AcDbLine
 10
300.373447
 20
455.499512
 30
0.0
 11
300.159725
 21
455.6161
 31
0.0
  0
LINE
  5
FA
330
1F
100
AcDbEntity
  8
0
 62
     7
370
    40
100
AcDbLine
 10
300.159725
 20
455.6161
 30
0.0
 11
299.796484
 21
455.814252
 31
0.0
  0
LINE
  5
FB
330
1F
100
AcDbEntity
  8
0
 62
     7
370
    40
100
AcDbLine
 10
299.796484
 20
455.814252
 30
0.0
 11
299.443687
 21
456.014634
 31
0.0
  0
LINE
  5
FC
330
1F
100
AcDbEntity
  8
0
 62
     7
370
    40
100
AcDbLine
 10
299.443687
 20
456.014634
 30
0.0
 11
299.298466
 21
456.097116
 31
0.0
  0
LINE
  5
FD
330
1F
100
AcDbEntity
  8
0
 62
     7
370
    40
100
AcDbLine
 10
299.61186
 20
446.920101
 30
0.0
 11
299.298466
 21
447.09712
 31
0.0
  0
LINE
  5
FE
330
1F
100
AcDbEntity
  8
0
 62
     7
370
    40
100
AcDbLine
 10
295.066056
 20
447.22983
 30
0.0
 11
295.298469
 21
447.099541
 31
0.0
  0
LINE
  5
FF
330
1F
100
AcDbEntity
  8
0
 62
     7
370
    40
100
AcDbLine
 10
294.207984
 20
456.691747
 30
0.0
 11
294.447916
 21
456.565709
 31
0.0
  0
LINE
  5
100
330
1F
100
AcDbEntity
  8
0
 62
     7
370
    40
100
AcDbLine
 10
294.447916
 20
456.565709
 30
0.0
 11
294.811773
 21
456.374574
 31
0.0
  0
LINE
  5
101
330
1F
100
AcDbEntity
  8
0
 62
     7
370
    40
100
AcDbLine
 10
294.811773
 20
456.374574
 30
0.0
 11
295.174821
 21
456.169412
 31
0.0
  0
LINE
  5
102
330
1F
100
AcDbEntity
  8
0
 62
     7
370
    40
100
AcDbLine
 10
295.174821
 20
456.169412
 30
0.0
 11
295.298469
 21
456.099537
 31
0.0
  0
LINE
  5
103
330
1F
100
AcDbEntity
  8
0
 62
     7
370
    40
100
AcDbLine
 10
300.373447
 20
461.499509
 30
0.0
 11
300.159725
 21
461.616096
 31
0.0
  0
LINE
  5
104
330
1F
100
AcDbEntity
  8
0
 62
     7
370
    40
100
AcDbLine
 10
300.159725
 20
461.616096
 30
0.0
 11
299.796482
 21
461.814248
 31
0.0
  0
LINE
  5
105
330
1F
100
AcDbEntity
  8
0
 62
     7
370
    40
100
AcDbLine
 10
299.796482
 20
461.814248
 30
0.0
 11
299.443686
 21
462.014635
 31
0.0
  0
LINE
  5
106
330
1F
100
AcDbEntity
  8
0
 62
     7
370
    40
100
AcDbLine
 10
299.443686
 20
462.014635
 30
0.0
 11
299.298466
 21
462.09712
 31
0.0
  0
LINE
  5
107
330
1F
100
AcDbEntity
  8
0
 62
     7
370
    40
100
AcDbLine
 10
294.207984
 20
462.691744
 30
0.0
 11
294.447917
 21
462.56571
 31
0.0
  0
LINE
  5
108
330
1F
100
AcDbEntity
  8
0
 62
     7
370
    40
100
AcDbLine
 10
294.447917
 20
462.56571
 30
0.0
 11
294.811775
 21
462.374579
 31
0.0
  0
LINE
  5
109
330
1F
100
AcDbEntity
  8
0
 62
     7
370
    40
100
AcDbLine
 10
294.811775
 20
462.374579
 30
0.0
 11
295.174821
 21
462.169417
 31
0.0
  0
LINE
  5
10A
330
1F
100
AcDbEntity
  8
0
 62
     7
370
    40
100
AcDbLine
 10
295.174821
 20
462.169417
 30
0.0
 11
295.298469
 21
462.099542
 31
0.0
  0
LINE
  5
10B
330
1F
100
AcDbEntity
  8
0
 62
     7
370
    40
100
AcDbLine
 10
300.373447
 20
464.499508
 30
0.0
 11
300.159733
 21
464.616101
 31
0.0
  0
LINE
  5
10C
330
1F
100
AcDbEntity
  8
0
 62
     7
370
    40
100
AcDbLine
 10
300.159733
 20
464.616101
 30
0.0
 11
299.79445
 21
464.815384
 31
0.0
  0
LINE
  5
10D
330
1F
100
AcDbEntity
  8
0
 62
     7
370
    40
100
AcDbLine
 10
299.79445
 20
464.815384
 30
0.0
 11
299.439663
 21
465.016895
 31
0.0
  0
LINE
  5
10E
330
1F
100
AcDbEntity
  8
0
 62
     7
370
    40
100
AcDbLine
 10
299.439663
 20
465.016895
 30
0.0
 11
299.29245
 21
465.100509
 31
0.0
  0
LINE
  5
10F
330
1F
100
AcDbEntity
  8
0
 62
     7
370
    40
100
AcDbLine
 10
294.265539
 20
465.661016
 30
0.0
 11
294.486275
 21
465.545011
 31
0.0
  0
LINE
  5
110
330
1F
100
AcDbEntity
  8
0
 62
     7
370
    40
100
AcDbLine
 10
294.486275
 20
465.545011
 30
0.0
 11
294.830935
 21
465.363878
 31
0.0
  0
LINE
  5
111
330
1F
100
AcDbEntity
  8
0
 62
     7
370
    40
100
AcDbLine
 10
294.830935
 20
465.363878
 30
0.0
 11
295.174823
 21
465.169449
 31
0.0
  0
LINE
  5
112
330
1F
100
AcDbEntity
  8
0
 62
     7
370
    40
100
AcDbLine
 10
295.174823
 20
465.169449
 30
0.0
 11
295.298469
 21
465.099541
 31
0.0
  0
LINE
  5
113
330
1F
100
AcDbEntity
  8
0
 62
     7
370
    40
100
AcDbLine
 10
300.373447
 20
458.499511
 30
0.0
 11
300.159725
 21
458.616099
 31
0.0
  0
LINE
  5
114
330
1F
100
AcDbEntity
  8
0
 62
     7
370
    40
100
AcDbLine
 10
300.159725
 20
458.616099
 30
0.0
 11
299.796484
 21
458.814251
 31
0.0
  0
LINE
  5
115
330
1F
100
AcDbEntity
  8
0
 62
     7
370
    40
100
AcDbLine
 10
299.796484
 20
458.814251
 30
0.0
 11
299.443687
 21
459.014632
 31
0.0
  0
LINE
  5
116
330
1F
100
AcDbEntity
  8
0
 62
     7
370
    40
100
AcDbLine
 10
299.443687
 20
459.014632
 30
0.0
 11
299.298466
 21
459.097114
 31
0.0
  0
LINE
  5
117
330
1F
100
AcDbEntity
  8
0
 62
     7
370
    40
100
AcDbLine
 10
294.207984
 20
459.691745
 30
0.0
 11
294.447917
 21
459.565712
 31
0.0
  0
LINE
  5
118
330
1F
100
AcDbEntity
  8
0
 62
     7
370
    40
100
AcDbLine
 10
294.447917
 20
459.565712
 30
0.0
 11
294.811778
 21
459.374583
 31
0.0
  0
LINE
  5
119
330
1F
100
AcDbEntity
  8
0
 62
     7
370
    40
100
AcDbLine
 10
294.811778
 20
459.374583
 30
0.0
 11
295.174821
 21
459.169414
 31
0.0
  0
LINE
  5
11A
330
1F
100
AcDbEntity
  8
0
 62
     7
370
    40
100
AcDbLine
 10
295.174821
 20
459.169414
 30
0.0
 11
295.298469
 21
459.099536
 31
0.0
  0
LINE
  5
11B
330
1F
100
AcDbEntity
  8
0
 62
     7
370
    40
100
AcDbLine
 10
295.055658
 20
444.235166
 30
0.0
 11
295.298469
 21
444.095586
 31
0.0
  0
LINE
  5
11C
330
1F
100
AcDbEntity
  8
0
 62
     7
370
    40
100
AcDbLine
 10
436.544848
 20
467.885387
 30
0.0
 11
436.544848
 21
467.985389
 31
0.0
  0
LINE
  5
11D
330
1F
100
AcDbEntity
  8
0
 62
     7
370
    40
100
AcDbLine
 10
430.045244
 20
467.985389
 30
0.0
 11
430.045244
 21
467.885387
 31
0.0
  0
LINE
  5
11E
330
1F
100
AcDbEntity
  8
0
 62
     7
370
    40
100
AcDbLine
 10
258.052085
 20
467.985389
 30
0.0
 11
258.052085
 21
467.885387
 31
0.0
  0
LINE
  5
11F
330
1F
100
AcDbEntity
  8
0
 62
     7
370
    40
100
AcDbLine
 10
335.036467
 20
467.885387
 30
0.0
 11
335.036467
 21
467.985389
 31
0.0
  0
LINE
  5
120
330
1F
100
AcDbEntity
  8
0
 62
     7
370
    40
100
AcDbLine
 10
369.194425
 20
467.885387
 30
0.0
 11
369.194425
 21
467.985389
 31
0.0
  0
LINE
  5
121
330
1F
100
AcDbEntity
  8
0
 62
     7
370
    40
100
AcDbLine
 10
329.108403
 20
467.885387
 30
0.0
 11
329.108403
 21
467.985389
 31
0.0
  0
LINE
  5
122
330
1F
100
AcDbEntity
  8
0
 62
     7
370
    40
100
AcDbLine
 10
319.382251
 20
467.985389
 30
0.0
 11
319.382251
 21
467.885387
 31
0.0
  0
LINE
  5
123
330
1F
100
AcDbEntity
  8
0
 62
     7
370
    40
100
AcDbLine
 10
369.885701
 20
467.885387
 30
0.0
 11
369.885701
 21
467.985389
 31
0.0
  0
LINE
  5
124
330
1F
100
AcDbEntity
  8
0
 62
     7
370
    40
100
AcDbLine
 10
335.582606
 20
467.985389
 30
0.0
 11
335.582606
 21
467.885387
 31
0.0
  0
LINE
  5
125
330
1F
100
AcDbEntity
  8
0
 62
     7
370
    40
100
AcDbLine
 10
358.294933
 20
467.885387
 30
0.0
 11
358.294933
 21
467.985389
 31
0.0
  0
LINE
  5
126
330
1F
100
AcDbEntity
  8
0
 62
     7
370
    40
100
AcDbLine
 10
317.298467
 20
419.385386
 30
0.0
 11
317.298467
 21
413.385388
 31
0.0
  0
LINE
  5
127
330
1F
100
AcDbEntity
  8
0
 62
     7
370
    40
100
AcDbLine
 10
377.298468
 20
413.385388
 30
0.0
 11
377.298468
 21
419.385386
 31
0.0
  0
LINE
  5
128
330
1F
100
AcDbEntity
  8
0
 62
     7
370
    40
100
AcDbLine
 10
412.798469
 20
419.385386
 30
0.0
 11
412.798469
 21
457.885389
 31
0.0
  0
LINE
  5
129
330
1F
100
AcDbEntity
  8
0
 62
     7
370
    40
100
AcDbLine
 10
406.798468
 20
457.885389
 30
0.0
 11
406.798468
 21
419.385386
 31
0.0
  0
LINE
  5
12A
330
1F
100
AcDbEntity
  8
0
 62
     7
370
    40
100
AcDbLine
 10
287.798469
 20
419.385386
 30
0.0
 11
287.798469
 21
457.885389
 31
0.0
  0
LINE
  5
12B
330
1F
100
AcDbEntity
  8
0
 62
     7
370
    40
100
AcDbLine
 10
281.798464
 20
457.885389
 30
0.0
 11
281.798464
 21
419.385386
 31
0.0
  0
LINE
  5
12C
330
1F
100
AcDbEntity
  8
0
 62
     7
370
    40
100
AcDbLine
 10
424.29847
 20
383.385387
 30
0.0
 11
424.29847
 21
386.885387
 31
0.0
  0
LINE
  5
12D
330
1F
100
AcDbEntity
  8
0
 62
     7
370
    40
100
AcDbLine
 10
270.298471
 20
386.885387
 30
0.0
 11
270.298471
 21
383.385387
 31
0.0
  0
LINE
  5
12E
330
1F
100
AcDbEntity
  8
0
 62
     7
370
    40
100
AcDbLine
 10
424.29847
 20
369.385387
 30
0.0
 11
424.29847
 21
372.885388
 31
0.0
  0
LINE
  5
12F
330
1F
100
AcDbEntity
  8
0
 62
     7
370
    40
100
AcDbLine
 10
270.298471
 20
372.885388
 30
0.0
 11
270.298471
 21
369.385387
 31
0.0
  0
LINE
  5
130
330
1F
100
AcDbEntity
  8
0
 62
     7
370
    40
100
AcDbLine
 10
417.298471
 20
372.885388
 30
0.0
 11
417.298471
 21
383.385387
 31
0.0
  0
LINE
  5
131
330
1F
100
AcDbEntity
  8
0
 62
     7
370
    40
100
AcDbLine
 10
277.29847
 20
383.385387
 30
0.0
 11
277.29847
 21
372.885388
 31
0.0
  0
LINE
  5
132
330
1F
100
AcDbEntity
  8
0
 62
     7
370
    40
100
AcDbLine
 10
280.8369
 20
386.885387
 30
0.0
 11
280.298469
 21
386.885387
 31
0.0
  0
LINE
  5
133
330
1F
100
AcDbEntity
  8
0
 62
     7
370
    40
100
AcDbLine
 10
281.439838
 20
386.2996
 30
0.0
 11
280.8369
 21
386.885387
 31
0.0
  0
LINE
  5
134
330
1F
100
AcDbEntity
  8
0
 62
     7
370
    40
100
AcDbLine
 10
343.230112
 20
386.885387
 30
0.0
 11
343.09494
 21
386.2996
 31
0.0
  0
LINE
  5
135
330
1F
100
AcDbEntity
  8
0
 62
     7
370
    40
100
AcDbLine
 10
343.230112
 20
386.885387
 30
0.0
 11
355.77549
 21
386.885387
 31
0.0
  0
LINE
  5
136
330
1F
100
AcDbEntity
  8
0
 62
     7
370
    40
100
AcDbLine
 10
355.871044
 20
386.2996
 30
0.0
 11
355.77549
 21
386.885387
 31
0.0
  0
LINE
  5
137
330
1F
100
AcDbEntity
  8
0
 62
     7
370
    40
100
AcDbLine
 10
414.174837
 20
386.885387
 30
0.0
 11
413.579521
 21
386.2996
 31
0.0
  0
LINE
  5
138
330
1F
100
AcDbEntity
  8
0
 62
     7
370
    40
100
AcDbLine
 10
414.174837
 20
386.885387
 30
0.0
 11
414.298464
 21
386.885387
 31
0.0
  0
LINE
  5
139
330
1F
100
AcDbEntity
  8
0
 62
     7
370
    40
100
AcDbLine
 10
414.298464
 20
386.885387
 30
0.0
 11
406.298467
 21
378.885389
 31
0.0
  0
LINE
  5
13A
330
1F
100
AcDbEntity
  8
0
 62
     7
370
    40
100
AcDbLine
 10
406.576888
 20
379.471173
 30
0.0
 11
405.986019
 21
378.885389
 31
0.0
  0
LINE
  5
13B
330
1F
100
AcDbEntity
  8
0
 62
     7
370
    40
100
AcDbLine
 10
289.139648
 20
378.885389
 30
0.0
 11
288.54878
 21
379.471173
 31
0.0
  0
LINE
  5
13C
330
1F
100
AcDbEntity
  8
0
 62
     7
370
    40
100
AcDbLine
 10
288.298466
 20
378.885389
 30
0.0
 11
280.298469
 21
386.885387
 31
0.0
  0
LINE
  5
13D
330
1F
100
AcDbEntity
  8
0
 62
     7
370
    40
100
AcDbLine
 10
413.798471
 20
379.021426
 30
0.0
 11
413.798471
 21
369.385387
 31
0.0
  0
LINE
  5
13E
330
1F
100
AcDbEntity
  8
0
 62
     7
370
    40
100
AcDbLine
 10
280.79847
 20
369.385387
 30
0.0
 11
280.79847
 21
379.021426
 31
0.0
  0
LINE
  5
13F
330
1F
100
AcDbEntity
  8
0
 62
     7
370
    40
100
AcDbLine
 10
413.798471
 20
369.385387
 30
0.0
 11
409.79847
 21
369.385387
 31
0.0
  0
LINE
  5
140
330
1F
100
AcDbEntity
  8
0
 62
     7
370
    40
100
AcDbLine
 10
284.798467
 20
369.385387
 30
0.0
 11
280.79847
 21
369.385387
 31
0.0
  0
LINE
  5
141
330
1F
100
AcDbEntity
  8
0
 62
     7
370
    40
100
AcDbLine
 10
409.79847
 20
377.43564
 30
0.0
 11
412.0913612188
 21
379.7285337812
 31
0.0
  0
LINE
  5
142
330
1F
100
AcDbEntity
  8
0
 62
     7
370
    40
100
AcDbLine
 10
282.5055747812
 20
379.7285337812
 30
0.0
 11
284.798467
 21
377.43564
 31
0.0
  0
LINE
  5
143
330
1F
100
AcDbEntity
  8
0
 62
     7
370
    40
100
AcDbLine
 10
409.79847
 20
361.885388
 30
0.0
 11
409.79847
 21
377.43564
 31
0.0
  0
LINE
  5
144
330
1F
100
AcDbEntity
  8
0
 62
     7
370
    40
100
AcDbLine
 10
284.798467
 20
377.43564
 30
0.0
 11
284.798467
 21
361.885388
 31
0.0
  0
LINE
  5
145
330
1F
100
AcDbEntity
  8
0
 62
     7
370
    40
100
AcDbLine
 10
408.458722
 20
356.885388
 30
0.0
 11
409.79847
 21
361.885388
 31
0.0
  0
LINE
  5
146
330
1F
100
AcDbEntity
  8
0
 62
     7
370
    40
100
AcDbLine
 10
284.798467
 20
361.885388
 30
0.0
 11
286.138215
 21
356.885388
 31
0.0
  0
LINE
  5
147
330
1F
100
AcDbEntity
  8
0
 62
     7
370
    40
100
AcDbLine
 10
406.298467
 20
375.385386
 30
0.0
 11
406.298467
 21
356.885388
 31
0.0
  0
LINE
  5
148
330
1F
100
AcDbEntity
  8
0
 62
     7
370
    40
100
AcDbLine
 10
288.298466
 20
356.885388
 30
0.0
 11
288.298466
 21
375.385386
 31
0.0
  0
LINE
  5
149
330
1F
100
AcDbEntity
  8
0
 62
     7
370
    40
100
AcDbLine
 10
406.298467
 20
356.885388
 30
0.0
 11
288.298466
 21
356.885388
 31
0.0
  0
LINE
  5
14A
330
1F
100
AcDbEntity
  8
0
 62
     7
370
    40
100
AcDbLine
 10
406.298467
 20
375.385386
 30
0.0
 11
400.637527
 21
375.385386
 31
0.0
  0
LINE
  5
14B
330
1F
100
AcDbEntity
  8
0
 62
     7
370
    40
100
AcDbLine
 10
400.637527
 20
375.385386
 30
0.0
 11
400.637527
 21
384.885387
 31
0.0
  0
LINE
  5
14C
330
1F
100
AcDbEntity
  8
0
 62
     7
370
    40
100
AcDbLine
 10
402.254374
 20
384.885387
 30
0.0
 11
400.637527
 21
384.885387
 31
0.0
  0
LINE
  5
14D
330
1F
100
AcDbEntity
  8
0
 62
     7
370
    40
100
AcDbLine
 10
402.254374
 20
384.885387
 30
0.0
 11
402.254374
 21
378.885389
 31
0.0
  0
LINE
  5
14E
330
1F
100
AcDbEntity
  8
0
 62
     7
370
    40
100
AcDbLine
 10
406.298467
 20
378.885389
 30
0.0
 11
402.254374
 21
378.885389
 31
0.0
  0
LINE
  5
14F
330
1F
100
AcDbEntity
  8
0
 62
     7
370
    40
100
AcDbLine
 10
414.298464
 20
386.885387
 30
0.0
 11
414.298464
 21
392.885388
 31
0.0
  0
LINE
  5
150
330
1F
100
AcDbEntity
  8
0
 62
     7
370
    40
100
AcDbLine
 10
417.798464
 20
392.885388
 30
0.0
 11
414.298464
 21
392.885388
 31
0.0
  0
LINE
  5
151
330
1F
100
AcDbEntity
  8
0
 62
     7
370
    40
100
AcDbLine
 10
417.798464
 20
392.885388
 30
0.0
 11
417.798464
 21
386.885387
 31
0.0
  0
LINE
  5
152
330
1F
100
AcDbEntity
  8
0
 62
     7
370
    40
100
AcDbLine
 10
406.298467
 20
356.885388
 30
0.0
 11
408.458722
 21
356.885388
 31
0.0
  0
LINE
  5
153
330
1F
100
AcDbEntity
  8
0
 62
     7
370
    40
100
AcDbLine
 10
424.29847
 20
386.885387
 30
0.0
 11
417.798464
 21
386.885387
 31
0.0
  0
LINE
  5
154
330
1F
100
AcDbEntity
  8
0
 62
     7
370
    40
100
AcDbLine
 10
424.29847
 20
372.885388
 30
0.0
 11
417.298471
 21
372.885388
 31
0.0
  0
LINE
  5
155
330
1F
100
AcDbEntity
  8
0
 62
     7
370
    40
100
AcDbLine
 10
417.298471
 20
383.385387
 30
0.0
 11
424.29847
 21
383.385387
 31
0.0
  0
LINE
  5
156
330
1F
100
AcDbEntity
  8
0
 62
     7
370
    40
100
AcDbLine
 10
413.798471
 20
369.385387
 30
0.0
 11
424.29847
 21
369.385387
 31
0.0
  0
LINE
  5
157
330
1F
100
AcDbEntity
  8
0
 62
     7
370
    40
100
AcDbLine
 10
276.798469
 20
386.885387
 30
0.0
 11
276.798469
 21
392.885388
 31
0.0
  0
LINE
  5
158
330
1F
100
AcDbEntity
  8
0
 62
     7
370
    40
100
AcDbLine
 10
280.298469
 20
392.885388
 30
0.0
 11
276.798469
 21
392.885388
 31
0.0
  0
LINE
  5
159
330
1F
100
AcDbEntity
  8
0
 62
     7
370
    40
100
AcDbLine
 10
280.298469
 20
392.885388
 30
0.0
 11
280.298469
 21
386.885387
 31
0.0
  0
LINE
  5
15A
330
1F
100
AcDbEntity
  8
0
 62
     7
370
    40
100
AcDbLine
 10
292.342559
 20
378.885389
 30
0.0
 11
288.298466
 21
378.885389
 31
0.0
  0
LINE
  5
15B
330
1F
100
AcDbEntity
  8
0
 62
     7
370
    40
100
AcDbLine
 10
292.342559
 20
378.885389
 30
0.0
 11
292.342559
 21
384.885387
 31
0.0
  0
LINE
  5
15C
330
1F
100
AcDbEntity
  8
0
 62
     7
370
    40
100
AcDbLine
 10
293.959406
 20
384.885387
 30
0.0
 11
292.342559
 21
384.885387
 31
0.0
  0
LINE
  5
15D
330
1F
100
AcDbEntity
  8
0
 62
     7
370
    40
100
AcDbLine
 10
293.959406
 20
384.885387
 30
0.0
 11
293.959406
 21
375.385386
 31
0.0
  0
LINE
  5
15E
330
1F
100
AcDbEntity
  8
0
 62
     7
370
    40
100
AcDbLine
 10
293.959406
 20
375.385386
 30
0.0
 11
288.298466
 21
375.385386
 31
0.0
  0
LINE
  5
15F
330
1F
100
AcDbEntity
  8
0
 62
     7
370
    40
100
AcDbLine
 10
286.138215
 20
356.885388
 30
0.0
 11
288.298466
 21
356.885388
 31
0.0
  0
LINE
  5
160
330
1F
100
AcDbEntity
  8
0
 62
     7
370
    40
100
AcDbLine
 10
276.798469
 20
386.885387
 30
0.0
 11
270.298471
 21
386.885387
 31
0.0
  0
LINE
  5
161
330
1F
100
AcDbEntity
  8
0
 62
     7
370
    40
100
AcDbLine
 10
277.29847
 20
372.885388
 30
0.0
 11
270.298471
 21
372.885388
 31
0.0
  0
LINE
  5
162
330
1F
100
AcDbEntity
  8
0
 62
     7
370
    40
100
AcDbLine
 10
270.298471
 20
383.385387
 30
0.0
 11
277.29847
 21
383.385387
 31
0.0
  0
LINE
  5
163
330
1F
100
AcDbEntity
  8
0
 62
     7
370
    40
100
AcDbLine
 10
270.298471
 20
369.385387
 30
0.0
 11
280.79847
 21
369.385387
 31
0.0
  0
LINE
  5
164
330
1F
100
AcDbEntity
  8
0
 62
     7
370
    40
100
AcDbLine
 10
302.308992
 20
384.885387
 30
0.0
 11
302.308992
 21
378.885389
 31
0.0
  0
LINE
  5
165
330
1F
100
AcDbEntity
  8
0
 62
     7
370
    40
100
AcDbLine
 10
300.692146
 20
375.385386
 30
0.0
 11
300.692146
 21
384.885387
 31
0.0
  0
LINE
  5
166
330
1F
100
AcDbEntity
  8
0
 62
     7
370
    40
100
AcDbLine
 10
393.904791
 20
384.885387
 30
0.0
 11
393.904791
 21
375.385386
 31
0.0
  0
LINE
  5
167
330
1F
100
AcDbEntity
  8
0
 62
     7
370
    40
100
AcDbLine
 10
399.448682
 20
384.885387
 30
0.0
 11
399.298468
 21
384.885387
 31
0.0
  0
LINE
  5
168
330
1F
100
AcDbEntity
  8
0
 62
     7
370
    40
100
AcDbLine
 10
395.610553
 20
384.885387
 30
0.0
 11
395.428901
 21
384.885387
 31
0.0
  0
LINE
  5
169
330
1F
100
AcDbEntity
  8
0
 62
     7
370
    40
100
AcDbLine
 10
400.486399
 20
375.385386
 30
0.0
 11
400.313866
 21
375.385386
 31
0.0
  0
LINE
  5
16A
330
1F
100
AcDbEntity
  8
0
 62
     7
370
    40
100
AcDbLine
 10
395.298467
 20
375.385386
 30
0.0
 11
393.904791
 21
375.385386
 31
0.0
  0
LINE
  5
16B
330
1F
100
AcDbEntity
  8
0
 62
     7
370
    40
100
AcDbLine
 10
389.443648
 20
378.885389
 30
0.0
 11
389.443648
 21
375.385386
 31
0.0
  0
LINE
  5
16C
330
1F
100
AcDbEntity
  8
0
 62
     7
370
    40
100
AcDbLine
 10
393.904791
 20
384.885387
 30
0.0
 11
392.287944
 21
384.885387
 31
0.0
  0
LINE
  5
16D
330
1F
100
AcDbEntity
  8
0
 62
     7
370
    40
100
AcDbLine
 10
392.287944
 20
378.885389
 30
0.0
 11
392.287944
 21
384.885387
 31
0.0
  0
LINE
  5
16E
330
1F
100
AcDbEntity
  8
0
 62
     7
370
    40
100
AcDbLine
 10
392.287944
 20
378.885389
 30
0.0
 11
389.443648
 21
378.885389
 31
0.0
  0
LINE
  5
16F
330
1F
100
AcDbEntity
  8
0
 62
     7
370
    40
100
AcDbLine
 10
393.904791
 20
375.385386
 30
0.0
 11
389.443648
 21
375.385386
 31
0.0
  0
LINE
  5
170
330
1F
100
AcDbEntity
  8
0
 62
     7
370
    40
100
AcDbLine
 10
305.153289
 20
375.385386
 30
0.0
 11
305.153289
 21
378.885389
 31
0.0
  0
LINE
  5
171
330
1F
100
AcDbEntity
  8
0
 62
     7
370
    40
100
AcDbLine
 10
302.308992
 20
384.885387
 30
0.0
 11
300.692146
 21
384.885387
 31
0.0
  0
LINE
  5
172
330
1F
100
AcDbEntity
  8
0
 62
     7
370
    40
100
AcDbLine
 10
305.153289
 20
375.385386
 30
0.0
 11
300.692146
 21
375.385386
 31
0.0
  0
LINE
  5
173
330
1F
100
AcDbEntity
  8
0
 62
     7
370
    40
100
AcDbLine
 10
305.153289
 20
378.885389
 30
0.0
 11
302.308992
 21
378.885389
 31
0.0
  0
LINE
  5
174
330
1F
100
AcDbEntity
  8
0
 62
     7
370
    40
100
AcDbLine
 10
280.673315
 20
392.144208
 30
0.0
 11
280.669115
 21
392.250068
 31
0.0
  0
LINE
  5
175
330
1F
100
AcDbEntity
  8
0
 62
     7
370
    40
100
AcDbLine
 10
280.669115
 20
392.250068
 30
0.0
 11
280.660715
 21
392.46179
 31
0.0
  0
LINE
  5
176
330
1F
100
AcDbEntity
  8
0
 62
     7
370
    40
100
AcDbLine
 10
280.660715
 20
392.46179
 30
0.0
 11
280.635738
 21
392.704687
 31
0.0
  0
LINE
  5
177
330
1F
100
AcDbEntity
  8
0
 62
     7
370
    40
100
AcDbLine
 10
280.635738
 20
392.704687
 30
0.0
 11
280.606965
 21
392.858487
 31
0.0
  0
LINE
  5
178
330
1F
100
AcDbEntity
  8
0
 62
     7
370
    40
100
AcDbLine
 10
280.606965
 20
392.858487
 30
0.0
 11
280.587381
 21
392.876807
 31
0.0
  0
LINE
  5
179
330
1F
100
AcDbEntity
  8
0
 62
     7
370
    40
100
AcDbLine
 10
280.587381
 20
392.876807
 30
0.0
 11
280.578208
 21
392.885388
 31
0.0
  0
LINE
  5
17A
330
1F
100
AcDbEntity
  8
0
 62
     7
370
    40
100
AcDbLine
 10
305.153289
 20
378.885389
 30
0.0
 11
305.325777
 21
378.885389
 31
0.0
  0
LINE
  5
17B
330
1F
100
AcDbEntity
  8
0
 62
     7
370
    40
100
AcDbLine
 10
414.277014
 20
392.885388
 30
0.0
 11
414.273995
 21
392.874359
 31
0.0
  0
LINE
  5
17C
330
1F
100
AcDbEntity
  8
0
 62
     7
370
    40
100
AcDbLine
 10
414.273995
 20
392.874359
 30
0.0
 11
414.267957
 21
392.852303
 31
0.0
  0
LINE
  5
17D
330
1F
100
AcDbEntity
  8
0
 62
     7
370
    40
100
AcDbLine
 10
414.267957
 20
392.852303
 30
0.0
 11
414.258078
 21
392.67957
 31
0.0
  0
LINE
  5
17E
330
1F
100
AcDbEntity
  8
0
 62
     7
370
    40
100
AcDbLine
 10
414.258078
 20
392.67957
 30
0.0
 11
414.249819
 21
392.437172
 31
0.0
  0
LINE
  5
17F
330
1F
100
AcDbEntity
  8
0
 62
     7
370
    40
100
AcDbLine
 10
414.249819
 20
392.437172
 30
0.0
 11
414.246953
 21
392.237664
 31
0.0
  0
LINE
  5
180
330
1F
100
AcDbEntity
  8
0
 62
     7
370
    40
100
AcDbLine
 10
414.246953
 20
392.237664
 30
0.0
 11
414.24561
 21
392.144208
 31
0.0
  0
LINE
  5
181
330
1F
100
AcDbEntity
  8
0
 62
     7
370
    40
100
AcDbLine
 10
355.871044
 20
386.2996
 30
0.0
 11
355.851124
 21
386.44082
 31
0.0
  0
LINE
  5
182
330
1F
100
AcDbEntity
  8
0
 62
     7
370
    40
100
AcDbLine
 10
355.851124
 20
386.44082
 30
0.0
 11
355.811266
 21
386.7234
 31
0.0
  0
LINE
  5
183
330
1F
100
AcDbEntity
  8
0
 62
     7
370
    40
100
AcDbLine
 10
355.811266
 20
386.7234
 30
0.0
 11
355.82548
 21
386.871454
 31
0.0
  0
LINE
  5
184
330
1F
100
AcDbEntity
  8
0
 62
     7
370
    40
100
AcDbLine
 10
355.82548
 20
386.871454
 30
0.0
 11
355.853447
 21
386.882555
 31
0.0
  0
LINE
  5
185
330
1F
100
AcDbEntity
  8
0
 62
     7
370
    40
100
AcDbLine
 10
355.853447
 20
386.882555
 30
0.0
 11
355.860581
 21
386.885387
 31
0.0
  0
LINE
  5
186
330
1F
100
AcDbEntity
  8
0
 62
     7
370
    40
100
AcDbLine
 10
355.860581
 20
386.885387
 30
0.0
 11
391.548467
 21
386.885387
 31
0.0
  0
LINE
  5
187
330
1F
100
AcDbEntity
  8
0
 62
     7
370
    40
100
AcDbLine
 10
403.048468
 20
386.885387
 30
0.0
 11
414.174837
 21
386.885387
 31
0.0
  0
LINE
  5
188
330
1F
100
AcDbEntity
  8
0
 62
     7
370
    40
100
AcDbLine
 10
343.199656
 20
386.885387
 30
0.0
 11
343.201999
 21
386.863944
 31
0.0
  0
LINE
  5
189
330
1F
100
AcDbEntity
  8
0
 62
     7
370
    40
100
AcDbLine
 10
343.201999
 20
386.863944
 30
0.0
 11
343.206683
 21
386.821073
 31
0.0
  0
LINE
  5
18A
330
1F
100
AcDbEntity
  8
0
 62
     7
370
    40
100
AcDbLine
 10
343.206683
 20
386.821073
 30
0.0
 11
343.154533
 21
386.561427
 31
0.0
  0
LINE
  5
18B
330
1F
100
AcDbEntity
  8
0
 62
     7
370
    40
100
AcDbLine
 10
343.154533
 20
386.561427
 30
0.0
 11
343.108177
 21
386.35776
 31
0.0
  0
LINE
  5
18C
330
1F
100
AcDbEntity
  8
0
 62
     7
370
    40
100
AcDbLine
 10
343.108177
 20
386.35776
 30
0.0
 11
343.09494
 21
386.2996
 31
0.0
  0
LINE
  5
18D
330
1F
100
AcDbEntity
  8
0
 62
     7
370
    40
100
AcDbLine
 10
280.8369
 20
386.885387
 30
0.0
 11
291.548469
 21
386.885387
 31
0.0
  0
LINE
  5
18E
330
1F
100
AcDbEntity
  8
0
 62
     7
370
    40
100
AcDbLine
 10
303.048466
 20
386.885387
 30
0.0
 11
343.199656
 21
386.885387
 31
0.0
  0
LINE
  5
18F
330
1F
100
AcDbEntity
  8
0
 62
     7
370
    40
100
AcDbLine
 10
345.602982
 20
392.885388
 30
0.0
 11
345.490477
 21
392.874359
 31
0.0
  0
LINE
  5
190
330
1F
100
AcDbEntity
  8
0
 62
     7
370
    40
100
AcDbLine
 10
345.490477
 20
392.874359
 30
0.0
 11
345.265467
 21
392.852303
 31
0.0
  0
LINE
  5
191
330
1F
100
AcDbEntity
  8
0
 62
     7
370
    40
100
AcDbLine
 10
345.265467
 20
392.852303
 30
0.0
 11
344.967881
 21
392.679569
 31
0.0
  0
LINE
  5
192
330
1F
100
AcDbEntity
  8
0
 62
     7
370
    40
100
AcDbLine
 10
344.967881
 20
392.679569
 30
0.0
 11
344.743837
 21
392.437172
 31
0.0
  0
LINE
  5
193
330
1F
100
AcDbEntity
  8
0
 62
     7
370
    40
100
AcDbLine
 10
344.743837
 20
392.437172
 30
0.0
 11
344.671462
 21
392.237664
 31
0.0
  0
LINE
  5
194
330
1F
100
AcDbEntity
  8
0
 62
     7
370
    40
100
AcDbLine
 10
344.671462
 20
392.237664
 30
0.0
 11
344.637558
 21
392.144208
 31
0.0
  0
LINE
  5
195
330
1F
100
AcDbEntity
  8
0
 62
     7
370
    40
100
AcDbLine
 10
350.048467
 20
392.885388
 30
0.0
 11
353.414552
 21
392.885388
 31
0.0
  0
LINE
  5
196
330
1F
100
AcDbEntity
  8
0
 62
     7
370
    40
100
AcDbLine
 10
354.375794
 20
392.144208
 30
0.0
 11
354.33623
 21
392.250068
 31
0.0
  0
LINE
  5
197
330
1F
100
AcDbEntity
  8
0
 62
     7
370
    40
100
AcDbLine
 10
354.33623
 20
392.250068
 30
0.0
 11
354.257102
 21
392.46179
 31
0.0
  0
LINE
  5
198
330
1F
100
AcDbEntity
  8
0
 62
     7
370
    40
100
AcDbLine
 10
354.257102
 20
392.46179
 30
0.0
 11
354.01445
 21
392.704687
 31
0.0
  0
LINE
  5
199
330
1F
100
AcDbEntity
  8
0
 62
     7
370
    40
100
AcDbLine
 10
354.01445
 20
392.704687
 30
0.0
 11
353.723701
 21
392.858487
 31
0.0
  0
LINE
  5
19A
330
1F
100
AcDbEntity
  8
0
 62
     7
370
    40
100
AcDbLine
 10
353.723701
 20
392.858487
 30
0.0
 11
353.513165
 21
392.876807
 31
0.0
  0
LINE
  5
19B
330
1F
100
AcDbEntity
  8
0
 62
     7
370
    40
100
AcDbLine
 10
353.513165
 20
392.876807
 30
0.0
 11
353.414552
 21
392.885388
 31
0.0
  0
LINE
  5
19C
330
1F
100
AcDbEntity
  8
0
 62
     7
370
    40
100
AcDbLine
 10
353.414552
 20
392.885388
 30
0.0
 11
353.773967
 21
392.885388
 31
0.0
  0
LINE
  5
19D
330
1F
100
AcDbEntity
  8
0
 62
     7
370
    40
100
AcDbLine
 10
353.773967
 20
392.885388
 30
0.0
 11
353.886023
 21
392.87436
 31
0.0
  0
LINE
  5
19E
330
1F
100
AcDbEntity
  8
0
 62
     7
370
    40
100
AcDbLine
 10
353.886023
 20
392.87436
 30
0.0
 11
354.110135
 21
392.852303
 31
0.0
  0
LINE
  5
19F
330
1F
100
AcDbEntity
  8
0
 62
     7
370
    40
100
AcDbLine
 10
354.110135
 20
392.852303
 30
0.0
 11
354.406411
 21
392.679566
 31
0.0
  0
LINE
  5
1A0
330
1F
100
AcDbEntity
  8
0
 62
     7
370
    40
100
AcDbLine
 10
354.406411
 20
392.679566
 30
0.0
 11
354.629421
 21
392.437169
 31
0.0
  0
LINE
  5
1A1
330
1F
100
AcDbEntity
  8
0
 62
     7
370
    40
100
AcDbLine
 10
354.629421
 20
392.437169
 30
0.0
 11
354.701448
 21
392.237663
 31
0.0
  0
LINE
  5
1A2
330
1F
100
AcDbEntity
  8
0
 62
     7
370
    40
100
AcDbLine
 10
354.701448
 20
392.237663
 30
0.0
 11
354.735188
 21
392.144208
 31
0.0
  0
LINE
  5
1A3
330
1F
100
AcDbEntity
  8
0
 62
     7
370
    40
100
AcDbLine
 10
344.508922
 20
392.144208
 30
0.0
 11
344.548677
 21
392.250068
 31
0.0
  0
LINE
  5
1A4
330
1F
100
AcDbEntity
  8
0
 62
     7
370
    40
100
AcDbLine
 10
344.548677
 20
392.250068
 30
0.0
 11
344.628187
 21
392.46179
 31
0.0
  0
LINE
  5
1A5
330
1F
100
AcDbEntity
  8
0
 62
     7
370
    40
100
AcDbLine
 10
344.628187
 20
392.46179
 30
0.0
 11
344.871958
 21
392.704688
 31
0.0
  0
LINE
  5
1A6
330
1F
100
AcDbEntity
  8
0
 62
     7
370
    40
100
AcDbLine
 10
344.871958
 20
392.704688
 30
0.0
 11
345.163972
 21
392.858486
 31
0.0
  0
LINE
  5
1A7
330
1F
100
AcDbEntity
  8
0
 62
     7
370
    40
100
AcDbLine
 10
345.163972
 20
392.858486
 30
0.0
 11
345.375338
 21
392.876807
 31
0.0
  0
LINE
  5
1A8
330
1F
100
AcDbEntity
  8
0
 62
     7
370
    40
100
AcDbLine
 10
345.375338
 20
392.876807
 30
0.0
 11
345.474338
 21
392.885388
 31
0.0
  0
LINE
  5
1A9
330
1F
100
AcDbEntity
  8
0
 62
     7
370
    40
100
AcDbLine
 10
399.072026
 20
468.485382
 30
0.0
 11
399.072026
 21
468.985391
 31
0.0
  0
LINE
  5
1AA
330
1F
100
AcDbEntity
  8
0
 62
     7
370
    40
100
AcDbLine
 10
401.048732
 20
468.985391
 30
0.0
 11
399.072026
 21
468.985391
 31
0.0
  0
LINE
  5
1AB
330
1F
100
AcDbEntity
  8
0
 62
     7
370
    40
100
AcDbLine
 10
401.048732
 20
468.985391
 30
0.0
 11
401.048732
 21
470.056978
 31
0.0
  0
LINE
  5
1AC
330
1F
100
AcDbEntity
  8
0
 62
     7
370
    40
100
AcDbLine
 10
402.348467
 20
469.485384
 30
0.0
 11
401.7984680094
 21
469.4853879917
 31
0.0
  0
LINE
  5
1AD
330
1F
100
AcDbEntity
  8
0
 62
     7
370
    40
100
AcDbLine
 10
402.548467
 20
466.485393
 30
0.0
 11
402.548468
 21
469.285388
 31
0.0
  0
LINE
  5
1AE
330
1F
100
AcDbEntity
  8
0
 62
     7
370
    40
100
AcDbLine
 10
399.301027
 20
466.485393
 30
0.0
 11
402.548467
 21
466.485393
 31
0.0
  0
LINE
  5
1AF
330
1F
100
AcDbEntity
  8
0
 62
     7
370
    15
100
AcDbLine
 10
399.301027
 20
466.485393
 30
0.0
 11
399.649561
 21
466.303957
 31
0.0
  0
LINE
  5
1B0
330
1F
100
AcDbEntity
  8
0
 62
     7
370
    15
100
AcDbLine
 10
399.649561
 20
466.303957
 30
0.0
 11
400.000659
 21
466.121179
 31
0.0
  0
LINE
  5
1B1
330
1F
100
AcDbEntity
  8
0
 62
     7
370
    15
100
AcDbLine
 10
400.000659
 20
466.121179
 30
0.0
 11
400.548466
 21
465.836015
 31
0.0
  0
LINE
  5
1B2
330
1F
100
AcDbEntity
  8
0
 62
     7
370
    15
100
AcDbLine
 10
400.548466
 20
465.836015
 30
0.0
 11
400.197373
 21
465.653238
 31
0.0
  0
LINE
  5
1B3
330
1F
100
AcDbEntity
  8
0
 62
     7
370
    15
100
AcDbLine
 10
400.197373
 20
465.653238
 30
0.0
 11
399.846275
 21
465.470475
 31
0.0
  0
LINE
  5
1B4
330
1F
100
AcDbEntity
  8
0
 62
     7
370
    15
100
AcDbLine
 10
399.846275
 20
465.470475
 30
0.0
 11
399.298468
 21
465.185297
 31
0.0
  0
LINE
  5
1B5
330
1F
100
AcDbEntity
  8
0
 62
     7
370
    40
100
AcDbLine
 10
399.298468
 20
463.486721
 30
0.0
 11
399.298468
 21
465.185297
 31
0.0
  0
LINE
  5
1B6
330
1F
100
AcDbEntity
  8
0
 62
     7
370
    15
100
AcDbLine
 10
399.298468
 20
463.486721
 30
0.0
 11
399.649561
 21
463.303951
 31
0.0
  0
LINE
  5
1B7
330
1F
100
AcDbEntity
  8
0
 62
     7
370
    15
100
AcDbLine
 10
399.649561
 20
463.303951
 30
0.0
 11
400.000659
 21
463.12118
 31
0.0
  0
LINE
  5
1B8
330
1F
100
AcDbEntity
  8
0
 62
     7
370
    15
100
AcDbLine
 10
400.000659
 20
463.12118
 30
0.0
 11
400.548466
 21
462.836009
 31
0.0
  0
LINE
  5
1B9
330
1F
100
AcDbEntity
  8
0
 62
     7
370
    15
100
AcDbLine
 10
400.548466
 20
462.836009
 30
0.0
 11
400.197373
 21
462.653239
 31
0.0
  0
LINE
  5
1BA
330
1F
100
AcDbEntity
  8
0
 62
     7
370
    15
100
AcDbLine
 10
400.197373
 20
462.653239
 30
0.0
 11
399.846275
 21
462.470476
 31
0.0
  0
LINE
  5
1BB
330
1F
100
AcDbEntity
  8
0
 62
     7
370
    15
100
AcDbLine
 10
399.846275
 20
462.470476
 30
0.0
 11
399.298468
 21
462.185306
 31
0.0
  0
LINE
  5
1BC
330
1F
100
AcDbEntity
  8
0
 62
     7
370
    40
100
AcDbLine
 10
399.298468
 20
460.486722
 30
0.0
 11
399.298468
 21
462.185306
 31
0.0
  0
LINE
  5
1BD
330
1F
100
AcDbEntity
  8
0
 62
     7
370
    15
100
AcDbLine
 10
399.298468
 20
460.486722
 30
0.0
 11
399.649561
 21
460.303952
 31
0.0
  0
LINE
  5
1BE
330
1F
100
AcDbEntity
  8
0
 62
     7
370
    15
100
AcDbLine
 10
399.649561
 20
460.303952
 30
0.0
 11
400.000659
 21
460.121182
 31
0.0
  0
LINE
  5
1BF
330
1F
100
AcDbEntity
  8
0
 62
     7
370
    15
100
AcDbLine
 10
400.000659
 20
460.121182
 30
0.0
 11
400.548466
 21
459.836011
 31
0.0
  0
LINE
  5
1C0
330
1F
100
AcDbEntity
  8
0
 62
     7
370
    15
100
AcDbLine
 10
400.548466
 20
459.836011
 30
0.0
 11
400.197373
 21
459.653241
 31
0.0
  0
LINE
  5
1C1
330
1F
100
AcDbEntity
  8
0
 62
     7
370
    15
100
AcDbLine
 10
400.197373
 20
459.653241
 30
0.0
 11
399.846275
 21
459.47047
 31
0.0
  0
LINE
  5
1C2
330
1F
100
AcDbEntity
  8
0
 62
     7
370
    15
100
AcDbLine
 10
399.846275
 20
459.47047
 30
0.0
 11
399.298468
 21
459.185299
 31
0.0
  0
LINE
  5
1C3
330
1F
100
AcDbEntity
  8
0
 62
     7
370
    40
100
AcDbLine
 10
399.298468
 20
457.486724
 30
0.0
 11
399.298468
 21
459.185299
 31
0.0
  0
LINE
  5
1C4
330
1F
100
AcDbEntity
  8
0
 62
     7
370
    15
100
AcDbLine
 10
399.298468
 20
457.486724
 30
0.0
 11
399.649561
 21
457.303953
 31
0.0
  0
LINE
  5
1C5
330
1F
100
AcDbEntity
  8
0
 62
     7
370
    15
100
AcDbLine
 10
399.649561
 20
457.303953
 30
0.0
 11
400.000659
 21
457.121183
 31
0.0
  0
LINE
  5
1C6
330
1F
100
AcDbEntity
  8
0
 62
     7
370
    15
100
AcDbLine
 10
400.000659
 20
457.121183
 30
0.0
 11
400.548466
 21
456.836012
 31
0.0
  0
LINE
  5
1C7
330
1F
100
AcDbEntity
  8
0
 62
     7
370
    15
100
AcDbLine
 10
400.548466
 20
456.836012
 30
0.0
 11
400.197373
 21
456.653242
 31
0.0
  0
LINE
  5
1C8
330
1F
100
AcDbEntity
  8
0
 62
     7
370
    15
100
AcDbLine
 10
400.197373
 20
456.653242
 30
0.0
 11
399.846275
 21
456.470472
 31
0.0
  0
LINE
  5
1C9
330
1F
100
AcDbEntity
  8
0
 62
     7
370
    15
100
AcDbLine
 10
399.846275
 20
456.470472
 30
0.0
 11
399.298468
 21
456.185301
 31
0.0
  0
LINE
  5
1CA
330
1F
100
AcDbEntity
  8
0
 62
     7
370
    40
100
AcDbLine
 10
399.298468
 20
454.486717
 30
0.0
 11
399.298468
 21
456.185301
 31
0.0
  0
LINE
  5
1CB
330
1F
100
AcDbEntity
  8
0
 62
     7
370
    15
100
AcDbLine
 10
399.298468
 20
454.486717
 30
0.0
 11
399.649561
 21
454.303955
 31
0.0
  0
LINE
  5
1CC
330
1F
100
AcDbEntity
  8
0
 62
     7
370
    15
100
AcDbLine
 10
399.649561
 20
454.303955
 30
0.0
 11
400.000659
 21
454.121185
 31
0.0
  0
LINE
  5
1CD
330
1F
100
AcDbEntity
  8
0
 62
     7
370
    15
100
AcDbLine
 10
400.000659
 20
454.121185
 30
0.0
 11
400.548466
 21
453.836014
 31
0.0
  0
LINE
  5
1CE
330
1F
100
AcDbEntity
  8
0
 62
     7
370
    15
100
AcDbLine
 10
400.548466
 20
453.836014
 30
0.0
 11
400.197373
 21
453.653243
 31
0.0
  0
LINE
  5
1CF
330
1F
100
AcDbEntity
  8
0
 62
     7
370
    15
100
AcDbLine
 10
400.197373
 20
453.653243
 30
0.0
 11
399.846275
 21
453.470473
 31
0.0
  0
LINE
  5
1D0
330
1F
100
AcDbEntity
  8
0
 62
     7
370
    15
100
AcDbLine
 10
399.846275
 20
453.470473
 30
0.0
 11
399.298468
 21
453.185302
 31
0.0
  0
LINE
  5
1D1
330
1F
100
AcDbEntity
  8
0
 62
     7
370
    40
100
AcDbLine
 10
399.298468
 20
451.486719
 30
0.0
 11
399.298468
 21
453.185302
 31
0.0
  0
LINE
  5
1D2
330
1F
100
AcDbEntity
  8
0
 62
     7
370
    15
100
AcDbLine
 10
399.298468
 20
451.486719
 30
0.0
 11
399.649561
 21
451.303949
 31
0.0
  0
LINE
  5
1D3
330
1F
100
AcDbEntity
  8
0
 62
     7
370
    15
100
AcDbLine
 10
399.649561
 20
451.303949
 30
0.0
 11
400.000659
 21
451.121186
 31
0.0
  0
LINE
  5
1D4
330
1F
100
AcDbEntity
  8
0
 62
     7
370
    15
100
AcDbLine
 10
400.000659
 20
451.121186
 30
0.0
 11
400.548466
 21
450.836007
 31
0.0
  0
LINE
  5
1D5
330
1F
100
AcDbEntity
  8
0
 62
     7
370
    15
100
AcDbLine
 10
400.548466
 20
450.836007
 30
0.0
 11
400.197373
 21
450.653245
 31
0.0
  0
LINE
  5
1D6
330
1F
100
AcDbEntity
  8
0
 62
     7
370
    15
100
AcDbLine
 10
400.197373
 20
450.653245
 30
0.0
 11
399.846275
 21
450.470475
 31
0.0
  0
LINE
  5
1D7
330
1F
100
AcDbEntity
  8
0
 62
     7
370
    15
100
AcDbLine
 10
399.846275
 20
450.470475
 30
0.0
 11
399.298468
 21
450.185304
 31
0.0
  0
LINE
  5
1D8
330
1F
100
AcDbEntity
  8
0
 62
     7
370
    40
100
AcDbLine
 10
399.298468
 20
448.48672
 30
0.0
 11
399.298468
 21
450.185304
 31
0.0
  0
LINE
  5
1D9
330
1F
100
AcDbEntity
  8
0
 62
     7
370
    15
100
AcDbLine
 10
399.298468
 20
448.48672
 30
0.0
 11
399.649561
 21
448.30395
 31
0.0
  0
LINE
  5
1DA
330
1F
100
AcDbEntity
  8
0
 62
     7
370
    15
100
AcDbLine
 10
399.649561
 20
448.30395
 30
0.0
 11
400.000659
 21
448.12118
 31
0.0
  0
LINE
  5
1DB
330
1F
100
AcDbEntity
  8
0
 62
     7
370
    15
100
AcDbLine
 10
400.000659
 20
448.12118
 30
0.0
 11
400.548466
 21
447.836009
 31
0.0
  0
LINE
  5
1DC
330
1F
100
AcDbEntity
  8
0
 62
     7
370
    15
100
AcDbLine
 10
400.548466
 20
447.836009
 30
0.0
 11
400.197373
 21
447.653246
 31
0.0
  0
LINE
  5
1DD
330
1F
100
AcDbEntity
  8
0
 62
     7
370
    15
100
AcDbLine
 10
400.197373
 20
447.653246
 30
0.0
 11
399.846275
 21
447.470476
 31
0.0
  0
LINE
  5
1DE
330
1F
100
AcDbEntity
  8
0
 62
     7
370
    15
100
AcDbLine
 10
399.846275
 20
447.470476
 30
0.0
 11
399.298468
 21
447.185305
 31
0.0
  0
LINE
  5
1DF
330
1F
100
AcDbEntity
  8
0
 62
     7
370
    40
100
AcDbLine
 10
399.298468
 20
445.486722
 30
0.0
 11
399.298468
 21
447.185305
 31
0.0
  0
LINE
  5
1E0
330
1F
100
AcDbEntity
  8
0
 62
     7
370
    15
100
AcDbLine
 10
399.298468
 20
445.486722
 30
0.0
 11
399.649561
 21
445.303951
 31
0.0
  0
LINE
  5
1E1
330
1F
100
AcDbEntity
  8
0
 62
     7
370
    15
100
AcDbLine
 10
399.649561
 20
445.303951
 30
0.0
 11
400.000659
 21
445.121181
 31
0.0
  0
LINE
  5
1E2
330
1F
100
AcDbEntity
  8
0
 62
     7
370
    15
100
AcDbLine
 10
400.000659
 20
445.121181
 30
0.0
 11
400.548466
 21
444.83601
 31
0.0
  0
LINE
  5
1E3
330
1F
100
AcDbEntity
  8
0
 62
     7
370
    15
100
AcDbLine
 10
400.548466
 20
444.83601
 30
0.0
 11
400.197373
 21
444.65324
 31
0.0
  0
LINE
  5
1E4
330
1F
100
AcDbEntity
  8
0
 62
     7
370
    15
100
AcDbLine
 10
400.197373
 20
444.65324
 30
0.0
 11
399.846275
 21
444.470477
 31
0.0
  0
LINE
  5
1E5
330
1F
100
AcDbEntity
  8
0
 62
     7
370
    15
100
AcDbLine
 10
399.846275
 20
444.470477
 30
0.0
 11
399.298468
 21
444.185299
 31
0.0
  0
LINE
  5
1E6
330
1F
100
AcDbEntity
  8
0
 62
     7
370
    40
100
AcDbLine
 10
399.298468
 20
442.885806
 30
0.0
 11
399.298468
 21
444.185299
 31
0.0
  0
LINE
  5
1E7
330
1F
100
AcDbEntity
  8
0
 62
     7
370
    40
100
AcDbLine
 10
397.298467
 20
441.485387
 30
0.0
 11
399.298468
 21
442.885806
 31
0.0
  0
LINE
  5
1E8
330
1F
100
AcDbEntity
  8
0
 62
     7
370
    40
100
AcDbLine
 10
395.298467
 20
442.885806
 30
0.0
 11
397.298467
 21
441.485387
 31
0.0
  0
LINE
  5
1E9
330
1F
100
AcDbEntity
  8
0
 62
     7
370
    40
100
AcDbLine
 10
395.298467
 20
445.685302
 30
0.0
 11
395.298467
 21
442.885806
 31
0.0
  0
LINE
  5
1EA
330
1F
100
AcDbEntity
  8
0
 62
     7
370
    15
100
AcDbLine
 10
395.298467
 20
445.685302
 30
0.0
 11
394.947373
 21
445.868072
 31
0.0
  0
LINE
  5
1EB
330
1F
100
AcDbEntity
  8
0
 62
     7
370
    15
100
AcDbLine
 10
394.947373
 20
445.868072
 30
0.0
 11
394.596276
 21
446.050842
 31
0.0
  0
LINE
  5
1EC
330
1F
100
AcDbEntity
  8
0
 62
     7
370
    15
100
AcDbLine
 10
394.596276
 20
446.050842
 30
0.0
 11
394.048468
 21
446.336013
 31
0.0
  0
LINE
  5
1ED
330
1F
100
AcDbEntity
  8
0
 62
     7
370
    15
100
AcDbLine
 10
394.048468
 20
446.336013
 30
0.0
 11
394.399562
 21
446.518776
 31
0.0
  0
LINE
  5
1EE
330
1F
100
AcDbEntity
  8
0
 62
     7
370
    15
100
AcDbLine
 10
394.399562
 20
446.518776
 30
0.0
 11
394.750659
 21
446.701546
 31
0.0
  0
LINE
  5
1EF
330
1F
100
AcDbEntity
  8
0
 62
     7
370
    15
100
AcDbLine
 10
394.750659
 20
446.701546
 30
0.0
 11
395.298467
 21
446.986717
 31
0.0
  0
LINE
  5
1F0
330
1F
100
AcDbEntity
  8
0
 62
     7
370
    40
100
AcDbLine
 10
395.298467
 20
448.685301
 30
0.0
 11
395.298467
 21
446.986717
 31
0.0
  0
LINE
  5
1F1
330
1F
100
AcDbEntity
  8
0
 62
     7
370
    15
100
AcDbLine
 10
395.298467
 20
448.685301
 30
0.0
 11
394.947373
 21
448.868071
 31
0.0
  0
LINE
  5
1F2
330
1F
100
AcDbEntity
  8
0
 62
     7
370
    15
100
AcDbLine
 10
394.947373
 20
448.868071
 30
0.0
 11
394.596276
 21
449.050841
 31
0.0
  0
LINE
  5
1F3
330
1F
100
AcDbEntity
  8
0
 62
     7
370
    15
100
AcDbLine
 10
394.596276
 20
449.050841
 30
0.0
 11
394.048468
 21
449.336012
 31
0.0
  0
LINE
  5
1F4
330
1F
100
AcDbEntity
  8
0
 62
     7
370
    15
100
AcDbLine
 10
394.048468
 20
449.336012
 30
0.0
 11
394.399562
 21
449.518782
 31
0.0
  0
LINE
  5
1F5
330
1F
100
AcDbEntity
  8
0
 62
     7
370
    15
100
AcDbLine
 10
394.399562
 20
449.518782
 30
0.0
 11
394.750659
 21
449.701545
 31
0.0
  0
LINE
  5
1F6
330
1F
100
AcDbEntity
  8
0
 62
     7
370
    15
100
AcDbLine
 10
394.750659
 20
449.701545
 30
0.0
 11
395.298467
 21
449.986723
 31
0.0
  0
LINE
  5
1F7
330
1F
100
AcDbEntity
  8
0
 62
     7
370
    40
100
AcDbLine
 10
395.298467
 20
451.685299
 30
0.0
 11
395.298467
 21
449.986723
 31
0.0
  0
LINE
  5
1F8
330
1F
100
AcDbEntity
  8
0
 62
     7
370
    15
100
AcDbLine
 10
395.298467
 20
451.685299
 30
0.0
 11
394.947373
 21
451.868069
 31
0.0
  0
LINE
  5
1F9
330
1F
100
AcDbEntity
  8
0
 62
     7
370
    15
100
AcDbLine
 10
394.947373
 20
451.868069
 30
0.0
 11
394.596276
 21
452.05084
 31
0.0
  0
LINE
  5
1FA
330
1F
100
AcDbEntity
  8
0
 62
     7
370
    15
100
AcDbLine
 10
394.596276
 20
452.05084
 30
0.0
 11
394.048468
 21
452.33601
 31
0.0
  0
LINE
  5
1FB
330
1F
100
AcDbEntity
  8
0
 62
     7
370
    15
100
AcDbLine
 10
394.048468
 20
452.33601
 30
0.0
 11
394.399562
 21
452.518781
 31
0.0
  0
LINE
  5
1FC
330
1F
100
AcDbEntity
  8
0
 62
     7
370
    15
100
AcDbLine
 10
394.399562
 20
452.518781
 30
0.0
 11
394.750659
 21
452.701551
 31
0.0
  0
LINE
  5
1FD
330
1F
100
AcDbEntity
  8
0
 62
     7
370
    15
100
AcDbLine
 10
394.750659
 20
452.701551
 30
0.0
 11
395.298467
 21
452.986722
 31
0.0
  0
LINE
  5
1FE
330
1F
100
AcDbEntity
  8
0
 62
     7
370
    40
100
AcDbLine
 10
395.298467
 20
454.685305
 30
0.0
 11
395.298467
 21
452.986722
 31
0.0
  0
LINE
  5
1FF
330
1F
100
AcDbEntity
  8
0
 62
     7
370
    15
100
AcDbLine
 10
395.298467
 20
454.685305
 30
0.0
 11
394.947373
 21
454.868068
 31
0.0
  0
LINE
  5
200
330
1F
100
AcDbEntity
  8
0
 62
     7
370
    15
100
AcDbLine
 10
394.947373
 20
454.868068
 30
0.0
 11
394.596276
 21
455.050838
 31
0.0
  0
LINE
  5
201
330
1F
100
AcDbEntity
  8
0
 62
     7
370
    15
100
AcDbLine
 10
394.596276
 20
455.050838
 30
0.0
 11
394.048468
 21
455.336009
 31
0.0
  0
LINE
  5
202
330
1F
100
AcDbEntity
  8
0
 62
     7
370
    15
100
AcDbLine
 10
394.048468
 20
455.336009
 30
0.0
 11
394.399562
 21
455.518779
 31
0.0
  0
LINE
  5
203
330
1F
100
AcDbEntity
  8
0
 62
     7
370
    15
100
AcDbLine
 10
394.399562
 20
455.518779
 30
0.0
 11
394.750659
 21
455.70155
 31
0.0
  0
LINE
  5
204
330
1F
100
AcDbEntity
  8
0
 62
     7
370
    15
100
AcDbLine
 10
394.750659
 20
455.70155
 30
0.0
 11
395.298467
 21
455.98672
 31
0.0
  0
LINE
  5
205
330
1F
100
AcDbEntity
  8
0
 62
     7
370
    40
100
AcDbLine
 10
395.298467
 20
457.685304
 30
0.0
 11
395.298467
 21
455.98672
 31
0.0
  0
LINE
  5
206
330
1F
100
AcDbEntity
  8
0
 62
     7
370
    15
100
AcDbLine
 10
395.298467
 20
457.685304
 30
0.0
 11
394.947373
 21
457.868074
 31
0.0
  0
LINE
  5
207
330
1F
100
AcDbEntity
  8
0
 62
     7
370
    15
100
AcDbLine
 10
394.947373
 20
457.868074
 30
0.0
 11
394.596276
 21
458.050837
 31
0.0
  0
LINE
  5
208
330
1F
100
AcDbEntity
  8
0
 62
     7
370
    15
100
AcDbLine
 10
394.596276
 20
458.050837
 30
0.0
 11
394.048468
 21
458.336008
 31
0.0
  0
LINE
  5
209
330
1F
100
AcDbEntity
  8
0
 62
     7
370
    15
100
AcDbLine
 10
394.048468
 20
458.336008
 30
0.0
 11
394.399562
 21
458.518778
 31
0.0
  0
LINE
  5
20A
330
1F
100
AcDbEntity
  8
0
 62
     7
370
    15
100
AcDbLine
 10
394.399562
 20
458.518778
 30
0.0
 11
394.750659
 21
458.701548
 31
0.0
  0
LINE
  5
20B
330
1F
100
AcDbEntity
  8
0
 62
     7
370
    15
100
AcDbLine
 10
394.750659
 20
458.701548
 30
0.0
 11
395.298467
 21
458.986719
 31
0.0
  0
LINE
  5
20C
330
1F
100
AcDbEntity
  8
0
 62
     7
370
    40
100
AcDbLine
 10
395.298467
 20
460.685302
 30
0.0
 11
395.298467
 21
458.986719
 31
0.0
  0
LINE
  5
20D
330
1F
100
AcDbEntity
  8
0
 62
     7
370
    15
100
AcDbLine
 10
395.298467
 20
460.685302
 30
0.0
 11
394.947373
 21
460.868073
 31
0.0
  0
LINE
  5
20E
330
1F
100
AcDbEntity
  8
0
 62
     7
370
    15
100
AcDbLine
 10
394.947373
 20
460.868073
 30
0.0
 11
394.596276
 21
461.050843
 31
0.0
  0
LINE
  5
20F
330
1F
100
AcDbEntity
  8
0
 62
     7
370
    15
100
AcDbLine
 10
394.596276
 20
461.050843
 30
0.0
 11
394.048468
 21
461.336014
 31
0.0
  0
LINE
  5
210
330
1F
100
AcDbEntity
  8
0
 62
     7
370
    15
100
AcDbLine
 10
394.048468
 20
461.336014
 30
0.0
 11
394.399562
 21
461.518777
 31
0.0
  0
LINE
  5
211
330
1F
100
AcDbEntity
  8
0
 62
     7
370
    15
100
AcDbLine
 10
394.399562
 20
461.518777
 30
0.0
 11
394.750659
 21
461.701547
 31
0.0
  0
LINE
  5
212
330
1F
100
AcDbEntity
  8
0
 62
     7
370
    15
100
AcDbLine
 10
394.750659
 20
461.701547
 30
0.0
 11
395.298467
 21
461.986718
 31
0.0
  0
LINE
  5
213
330
1F
100
AcDbEntity
  8
0
 62
     7
370
    40
100
AcDbLine
 10
395.298467
 20
463.685301
 30
0.0
 11
395.298467
 21
461.986718
 31
0.0
  0
LINE
  5
214
330
1F
100
AcDbEntity
  8
0
 62
     7
370
    15
100
AcDbLine
 10
395.298467
 20
463.685301
 30
0.0
 11
394.947373
 21
463.868071
 31
0.0
  0
LINE
  5
215
330
1F
100
AcDbEntity
  8
0
 62
     7
370
    15
100
AcDbLine
 10
394.947373
 20
463.868071
 30
0.0
 11
394.596276
 21
464.050841
 31
0.0
  0
LINE
  5
216
330
1F
100
AcDbEntity
  8
0
 62
     7
370
    15
100
AcDbLine
 10
394.596276
 20
464.050841
 30
0.0
 11
394.048468
 21
464.336012
 31
0.0
  0
LINE
  5
217
330
1F
100
AcDbEntity
  8
0
 62
     7
370
    15
100
AcDbLine
 10
394.048468
 20
464.336012
 30
0.0
 11
394.399562
 21
464.518783
 31
0.0
  0
LINE
  5
218
330
1F
100
AcDbEntity
  8
0
 62
     7
370
    15
100
AcDbLine
 10
394.399562
 20
464.518783
 30
0.0
 11
394.750659
 21
464.701545
 31
0.0
  0
LINE
  5
219
330
1F
100
AcDbEntity
  8
0
 62
     7
370
    15
100
AcDbLine
 10
394.750659
 20
464.701545
 30
0.0
 11
395.298467
 21
464.986724
 31
0.0
  0
LINE
  5
21A
330
1F
100
AcDbEntity
  8
0
 62
     7
370
    40
100
AcDbLine
 10
395.298467
 20
466.485393
 30
0.0
 11
395.298467
 21
464.986724
 31
0.0
  0
LINE
  5
21B
330
1F
100
AcDbEntity
  8
0
 62
     7
370
    40
100
AcDbLine
 10
392.048468
 20
466.485393
 30
0.0
 11
395.298467
 21
466.485393
 31
0.0
  0
LINE
  5
21C
330
1F
100
AcDbEntity
  8
0
 62
     7
370
    40
100
AcDbLine
 10
392.048468
 20
469.285381
 30
0.0
 11
392.048468
 21
466.485393
 31
0.0
  0
LINE
  5
21D
330
1F
100
AcDbEntity
  8
0
 62
     7
370
    40
100
AcDbLine
 10
392.798469
 20
469.485384
 30
0.0
 11
392.248468
 21
469.485388
 31
0.0
  0
LINE
  5
21E
330
1F
100
AcDbEntity
  8
0
 62
     7
370
    40
100
AcDbLine
 10
393.5482038014
 20
470.0569785102
 30
0.0
 11
393.548203
 21
468.985391
 31
0.0
  0
LINE
  5
21F
330
1F
100
AcDbEntity
  8
0
 62
     7
370
    40
100
AcDbLine
 10
395.524909
 20
468.985391
 30
0.0
 11
393.548203
 21
468.985391
 31
0.0
  0
LINE
  5
220
330
1F
100
AcDbEntity
  8
0
 62
     7
370
    40
100
AcDbLine
 10
395.524909
 20
468.485382
 30
0.0
 11
395.524909
 21
468.985391
 31
0.0
  0
LINE
  5
221
330
1F
100
AcDbEntity
  8
0
 62
     7
370
    40
100
AcDbLine
 10
395.524909
 20
468.485382
 30
0.0
 11
399.072026
 21
468.485382
 31
0.0
  0
LINE
  5
222
330
1F
100
AcDbEntity
  8
0
 62
     7
370
    15
100
AcDbLine
 10
393.554666048
 20
470.0351631851
 30
0.0
 11
393.553861
 21
470.040736
 31
0.0
  0
LINE
  5
223
330
1F
100
AcDbEntity
  8
0
 62
     7
370
    15
100
AcDbLine
 10
393.553861
 20
470.040736
 30
0.0
 11
393.553053
 21
470.045504
 31
0.0
  0
LINE
  5
224
330
1F
100
AcDbEntity
  8
0
 62
     7
370
    15
100
AcDbLine
 10
393.553053
 20
470.045504
 30
0.0
 11
393.552245
 21
470.049453
 31
0.0
  0
LINE
  5
225
330
1F
100
AcDbEntity
  8
0
 62
     7
370
    15
100
AcDbLine
 10
393.552245
 20
470.049453
 30
0.0
 11
393.551436
 21
470.052582
 31
0.0
  0
LINE
  5
226
330
1F
100
AcDbEntity
  8
0
 62
     7
370
    15
100
AcDbLine
 10
393.551436
 20
470.052582
 30
0.0
 11
393.550628
 21
470.054907
 31
0.0
  0
LINE
  5
227
330
1F
100
AcDbEntity
  8
0
 62
     7
370
    15
100
AcDbLine
 10
393.550628
 20
470.054907
 30
0.0
 11
393.549819
 21
470.056412
 31
0.0
  0
LINE
  5
228
330
1F
100
AcDbEntity
  8
0
 62
     7
370
    15
100
AcDbLine
 10
393.549819
 20
470.056412
 30
0.0
 11
393.549011
 21
470.057097
 31
0.0
  0
LINE
  5
229
330
1F
100
AcDbEntity
  8
0
 62
     7
370
    15
100
AcDbLine
 10
393.549011
 20
470.057097
 30
0.0
 11
393.5482038014
 21
470.0569785102
 31
0.0
  0
LINE
  5
22A
330
1F
100
AcDbEntity
  8
0
 62
     7
370
    40
100
AcDbLine
 10
394.048468
 20
452.33601
 30
0.0
 11
394.048523
 21
452.33336
 31
0.0
  0
LINE
  5
22B
330
1F
100
AcDbEntity
  8
0
 62
     7
370
    40
100
AcDbLine
 10
394.048523
 20
452.33336
 30
0.0
 11
394.049584
 21
452.282124
 31
0.0
  0
LINE
  5
22C
330
1F
100
AcDbEntity
  8
0
 62
     7
370
    40
100
AcDbLine
 10
394.049584
 20
452.282124
 30
0.0
 11
394.153363
 21
452.234683
 31
0.0
  0
LINE
  5
22D
330
1F
100
AcDbEntity
  8
0
 62
     7
370
    40
100
AcDbLine
 10
394.153363
 20
452.234683
 30
0.0
 11
394.251772
 21
452.189696
 31
0.0
  0
LINE
  5
22E
330
1F
100
AcDbEntity
  8
0
 62
     7
370
    40
100
AcDbLine
 10
394.048468
 20
461.336014
 30
0.0
 11
394.048523
 21
461.33336
 31
0.0
  0
LINE
  5
22F
330
1F
100
AcDbEntity
  8
0
 62
     7
370
    40
100
AcDbLine
 10
394.048523
 20
461.33336
 30
0.0
 11
394.049584
 21
461.282077
 31
0.0
  0
LINE
  5
230
330
1F
100
AcDbEntity
  8
0
 62
     7
370
    40
100
AcDbLine
 10
394.049584
 20
461.282077
 30
0.0
 11
394.153363
 21
461.234661
 31
0.0
  0
LINE
  5
231
330
1F
100
AcDbEntity
  8
0
 62
     7
370
    40
100
AcDbLine
 10
394.153363
 20
461.234661
 30
0.0
 11
394.251772
 21
461.189699
 31
0.0
  0
LINE
  5
232
330
1F
100
AcDbEntity
  8
0
 62
     7
370
    40
100
AcDbLine
 10
400.340059
 20
460.0004
 30
0.0
 11
400.548466
 21
459.836011
 31
0.0
  0
LINE
  5
233
330
1F
100
AcDbEntity
  8
0
 62
     7
370
    40
100
AcDbLine
 10
394.048468
 20
455.336009
 30
0.0
 11
394.048523
 21
455.333358
 31
0.0
  0
LINE
  5
234
330
1F
100
AcDbEntity
  8
0
 62
     7
370
    40
100
AcDbLine
 10
394.048523
 20
455.333358
 30
0.0
 11
394.049584
 21
455.282123
 31
0.0
  0
LINE
  5
235
330
1F
100
AcDbEntity
  8
0
 62
     7
370
    40
100
AcDbLine
 10
394.049584
 20
455.282123
 30
0.0
 11
394.153363
 21
455.234685
 31
0.0
  0
LINE
  5
236
330
1F
100
AcDbEntity
  8
0
 62
     7
370
    40
100
AcDbLine
 10
394.153363
 20
455.234685
 30
0.0
 11
394.251772
 21
455.189702
 31
0.0
  0
LINE
  5
237
330
1F
100
AcDbEntity
  8
0
 62
     7
370
    40
100
AcDbLine
 10
400.340059
 20
454.000403
 30
0.0
 11
400.548466
 21
453.836014
 31
0.0
  0
LINE
  5
238
330
1F
100
AcDbEntity
  8
0
 62
     7
370
    40
100
AcDbLine
 10
394.048468
 20
464.336012
 30
0.0
 11
394.048523
 21
464.333362
 31
0.0
  0
LINE
  5
239
330
1F
100
AcDbEntity
  8
0
 62
     7
370
    40
100
AcDbLine
 10
394.048523
 20
464.333362
 30
0.0
 11
394.049584
 21
464.282126
 31
0.0
  0
LINE
  5
23A
330
1F
100
AcDbEntity
  8
0
 62
     7
370
    40
100
AcDbLine
 10
394.049584
 20
464.282126
 30
0.0
 11
394.153363
 21
464.234685
 31
0.0
  0
LINE
  5
23B
330
1F
100
AcDbEntity
  8
0
 62
     7
370
    40
100
AcDbLine
 10
394.153363
 20
464.234685
 30
0.0
 11
394.251772
 21
464.189698
 31
0.0
  0
LINE
  5
23C
330
1F
100
AcDbEntity
  8
0
 62
     7
370
    40
100
AcDbLine
 10
400.340059
 20
463.000399
 30
0.0
 11
400.548466
 21
462.836009
 31
0.0
  0
LINE
  5
23D
330
1F
100
AcDbEntity
  8
0
 62
     7
370
    40
100
AcDbLine
 10
394.048468
 20
458.336008
 30
0.0
 11
394.048523
 21
458.333357
 31
0.0
  0
LINE
  5
23E
330
1F
100
AcDbEntity
  8
0
 62
     7
370
    40
100
AcDbLine
 10
394.048523
 20
458.333357
 30
0.0
 11
394.049584
 21
458.282121
 31
0.0
  0
LINE
  5
23F
330
1F
100
AcDbEntity
  8
0
 62
     7
370
    40
100
AcDbLine
 10
394.049584
 20
458.282121
 30
0.0
 11
394.153363
 21
458.234684
 31
0.0
  0
LINE
  5
240
330
1F
100
AcDbEntity
  8
0
 62
     7
370
    40
100
AcDbLine
 10
394.153363
 20
458.234684
 30
0.0
 11
394.251772
 21
458.189701
 31
0.0
  0
LINE
  5
241
330
1F
100
AcDbEntity
  8
0
 62
     7
370
    40
100
AcDbLine
 10
400.340059
 20
457.000402
 30
0.0
 11
400.548466
 21
456.836012
 31
0.0
  0
LINE
  5
242
330
1F
100
AcDbEntity
  8
0
 62
     7
370
    40
100
AcDbLine
 10
400.498469
 20
465.875444
 30
0.0
 11
400.548466
 21
465.836015
 31
0.0
  0
LINE
  5
243
330
1F
100
AcDbEntity
  8
0
 62
     7
370
    40
100
AcDbLine
 10
395.531096
 20
470.485386
 30
0.0
 11
395.531096
 21
468.985391
 31
0.0
  0
LINE
  5
244
330
1F
100
AcDbEntity
  8
0
 62
     7
370
    40
100
AcDbLine
 10
395.531096
 20
470.485386
 30
0.0
 11
395.542544
 21
470.485386
 31
0.0
  0
LINE
  5
245
330
1F
100
AcDbEntity
  8
0
 62
     7
370
    40
100
AcDbLine
 10
395.524909
 20
468.985391
 30
0.0
 11
395.531096
 21
468.985391
 31
0.0
  0
LINE
  5
246
330
1F
100
AcDbEntity
  8
0
 62
     7
370
    40
100
AcDbLine
 10
393.554666
 20
468.985391
 30
0.0
 11
393.554666048
 21
470.0351631851
 31
0.0
  0
LINE
  5
247
330
1F
100
AcDbEntity
  8
0
 62
     7
370
    40
100
AcDbLine
 10
400.214852
 20
470.485386
 30
0.0
 11
399.077711
 21
470.485386
 31
0.0
  0
LINE
  5
248
330
1F
100
AcDbEntity
  8
0
 62
     7
370
    40
100
AcDbLine
 10
400.3053316565
 20
470.4643910696
 30
0.0
 11
400.283659
 21
470.472799
 31
0.0
  0
LINE
  5
249
330
1F
100
AcDbEntity
  8
0
 62
     7
370
    40
100
AcDbLine
 10
400.283659
 20
470.472799
 30
0.0
 11
400.254272
 21
470.484201
 31
0.0
  0
LINE
  5
24A
330
1F
100
AcDbEntity
  8
0
 62
     7
370
    40
100
AcDbLine
 10
400.254272
 20
470.484201
 30
0.0
 11
400.223049
 21
470.48514
 31
0.0
  0
LINE
  5
24B
330
1F
100
AcDbEntity
  8
0
 62
     7
370
    40
100
AcDbLine
 10
400.223049
 20
470.48514
 30
0.0
 11
400.214852
 21
470.485386
 31
0.0
  0
LINE
  5
24C
330
1F
100
AcDbEntity
  8
0
 62
     7
370
    40
100
AcDbLine
 10
399.077711
 20
470.485386
 30
0.0
 11
399.077711
 21
468.985391
 31
0.0
  0
LINE
  5
24D
330
1F
100
AcDbEntity
  8
0
 62
     7
370
    40
100
AcDbLine
 10
394.393955
 20
470.485386
 30
0.0
 11
394.370791
 21
470.483393
 31
0.0
  0
LINE
  5
24E
330
1F
100
AcDbEntity
  8
0
 62
     7
370
    40
100
AcDbLine
 10
394.370791
 20
470.483393
 30
0.0
 11
394.339384
 21
470.48069
 31
0.0
  0
LINE
  5
24F
330
1F
100
AcDbEntity
  8
0
 62
     7
370
    40
100
AcDbLine
 10
394.339384
 20
470.48069
 30
0.0
 11
394.310937
 21
470.467779
 31
0.0
  0
LINE
  5
250
330
1F
100
AcDbEntity
  8
0
 62
     7
370
    40
100
AcDbLine
 10
394.310937
 20
470.467779
 30
0.0
 11
394.303471803
 21
470.464391166
 31
0.0
  0
LINE
  5
251
330
1F
100
AcDbEntity
  8
0
 62
     7
370
    40
100
AcDbLine
 10
395.531096
 20
470.485386
 30
0.0
 11
394.393955
 21
470.485386
 31
0.0
  0
LINE
  5
252
330
1F
100
AcDbEntity
  8
0
 62
     7
370
    40
100
AcDbLine
 10
396.644981
 20
470.485386
 30
0.0
 11
397.983984
 21
470.485386
 31
0.0
  0
LINE
  5
253
330
1F
100
AcDbEntity
  8
0
 62
     7
370
    40
100
AcDbLine
 10
397.983984
 20
470.485386
 30
0.0
 11
398.291704
 21
470.485386
 31
0.0
  0
LINE
  5
254
330
1F
100
AcDbEntity
  8
0
 62
     7
370
    40
100
AcDbLine
 10
396.644981
 20
470.485386
 30
0.0
 11
396.346518
 21
470.485386
 31
0.0
  0
LINE
  5
255
330
1F
100
AcDbEntity
  8
0
 62
     7
370
    40
100
AcDbLine
 10
399.077711
 20
470.485386
 30
0.0
 11
398.291704
 21
470.485386
 31
0.0
  0
LINE
  5
256
330
1F
100
AcDbEntity
  8
0
 62
     7
370
    40
100
AcDbLine
 10
395.542544
 20
470.485386
 30
0.0
 11
396.346518
 21
470.485386
 31
0.0
  0
LINE
  5
257
330
1F
100
AcDbEntity
  8
0
 62
     7
370
    40
100
AcDbLine
 10
406.298467
 20
466.485393
 30
0.0
 11
406.298467
 21
464.885381
 31
0.0
  0
LINE
  5
258
330
1F
100
AcDbEntity
  8
0
 62
     7
370
    40
100
AcDbLine
 10
388.298468
 20
464.885381
 30
0.0
 11
388.298468
 21
466.485393
 31
0.0
  0
LINE
  5
259
330
1F
100
AcDbEntity
  8
0
 62
     7
370
    40
100
AcDbLine
 10
400.498469
 20
464.885381
 30
0.0
 11
400.498469
 21
466.485393
 31
0.0
  0
LINE
  5
25A
330
1F
100
AcDbEntity
  8
0
 62
     7
370
    40
100
AcDbLine
 10
394.098469
 20
466.485393
 30
0.0
 11
394.098469
 21
464.885381
 31
0.0
  0
LINE
  5
25B
330
1F
100
AcDbEntity
  8
0
 62
     7
370
    40
100
AcDbLine
 10
400.498469
 20
464.885381
 30
0.0
 11
399.298468
 21
464.885381
 31
0.0
  0
LINE
  5
25C
330
1F
100
AcDbEntity
  8
0
 62
     7
370
    40
100
AcDbLine
 10
395.081283
 20
464.885381
 30
0.0
 11
394.098469
 21
464.885381
 31
0.0
  0
LINE
  5
25D
330
1F
100
AcDbEntity
  8
0
 62
     7
370
    40
100
AcDbLine
 10
388.298468
 20
466.485393
 30
0.0
 11
394.098469
 21
466.485393
 31
0.0
  0
LINE
  5
25E
330
1F
100
AcDbEntity
  8
0
 62
     7
370
    40
100
AcDbLine
 10
394.098469
 20
464.885381
 30
0.0
 11
388.298468
 21
464.885381
 31
0.0
  0
LINE
  5
25F
330
1F
100
AcDbEntity
  8
0
 62
     7
370
    40
100
AcDbLine
 10
400.498469
 20
466.485393
 30
0.0
 11
406.298467
 21
466.485393
 31
0.0
  0
LINE
  5
260
330
1F
100
AcDbEntity
  8
0
 62
     7
370
    40
100
AcDbLine
 10
406.298467
 20
464.885381
 30
0.0
 11
400.498469
 21
464.885381
 31
0.0
  0
LINE
  5
261
330
1F
100
AcDbEntity
  8
0
 62
     7
370
    40
100
AcDbLine
 10
406.298467
 20
375.485388
 30
0.0
 11
406.298467
 21
373.885387
 31
0.0
  0
LINE
  5
262
330
1F
100
AcDbEntity
  8
0
 62
     7
370
    40
100
AcDbLine
 10
388.298468
 20
373.885387
 30
0.0
 11
388.298468
 21
375.485388
 31
0.0
  0
LINE
  5
263
330
1F
100
AcDbEntity
  8
0
 62
     7
370
    40
100
AcDbLine
 10
400.498469
 20
373.885387
 30
0.0
 11
400.498469
 21
375.485388
 31
0.0
  0
LINE
  5
264
330
1F
100
AcDbEntity
  8
0
 62
     7
370
    40
100
AcDbLine
 10
394.098469
 20
375.485388
 30
0.0
 11
394.098469
 21
373.885387
 31
0.0
  0
LINE
  5
265
330
1F
100
AcDbEntity
  8
0
 62
     7
370
    40
100
AcDbLine
 10
400.498469
 20
375.485388
 30
0.0
 11
400.486399
 21
375.485388
 31
0.0
  0
LINE
  5
266
330
1F
100
AcDbEntity
  8
0
 62
     7
370
    40
100
AcDbLine
 10
394.121454
 20
375.485388
 30
0.0
 11
394.098469
 21
375.485388
 31
0.0
  0
LINE
  5
267
330
1F
100
AcDbEntity
  8
0
 62
     7
370
    40
100
AcDbLine
 10
388.298468
 20
375.485388
 30
0.0
 11
394.098469
 21
375.485388
 31
0.0
  0
LINE
  5
268
330
1F
100
AcDbEntity
  8
0
 62
     7
370
    40
100
AcDbLine
 10
394.098469
 20
373.885387
 30
0.0
 11
388.298468
 21
373.885387
 31
0.0
  0
LINE
  5
269
330
1F
100
AcDbEntity
  8
0
 62
     7
370
    40
100
AcDbLine
 10
400.498469
 20
375.485388
 30
0.0
 11
406.298467
 21
375.485388
 31
0.0
  0
LINE
  5
26A
330
1F
100
AcDbEntity
  8
0
 62
     7
370
    40
100
AcDbLine
 10
406.298467
 20
373.885387
 30
0.0
 11
400.498469
 21
373.885387
 31
0.0
  0
LINE
  5
26B
330
1F
100
AcDbEntity
  8
0
 62
     7
370
    40
100
AcDbLine
 10
398.351845
 20
369.885388
 30
0.0
 11
398.351845
 21
371.885386
 31
0.0
  0
LINE
  5
26C
330
1F
100
AcDbEntity
  8
0
 62
     7
370
    40
100
AcDbLine
 10
398.351845
 20
371.885386
 30
0.0
 11
396.245089
 21
371.885386
 31
0.0
  0
LINE
  5
26D
330
1F
100
AcDbEntity
  8
0
 62
     7
370
    40
100
AcDbLine
 10
396.245089
 20
369.885388
 30
0.0
 11
396.245089
 21
371.885386
 31
0.0
  0
LINE
  5
26E
330
1F
100
AcDbEntity
  8
0
 62
     7
370
    40
100
AcDbLine
 10
394.34518
 20
369.885388
 30
0.0
 11
396.245089
 21
369.885388
 31
0.0
  0
LINE
  5
26F
330
1F
100
AcDbEntity
  8
0
 62
     7
370
    40
100
AcDbLine
 10
392.248467
 20
370.885388
 30
0.0
 11
392.7984679906
 21
370.8853880083
 31
0.0
  0
LINE
  5
270
330
1F
100
AcDbEntity
  8
0
 62
     7
370
    40
100
AcDbLine
 10
392.048468
 20
373.885387
 30
0.0
 11
392.048468
 21
371.085388
 31
0.0
  0
LINE
  5
271
330
1F
100
AcDbEntity
  8
0
 62
     7
370
    40
100
AcDbLine
 10
395.298467
 20
373.885387
 30
0.0
 11
392.048468
 21
373.885387
 31
0.0
  0
LINE
  5
272
330
1F
100
AcDbEntity
  8
0
 62
     7
370
    40
100
AcDbLine
 10
395.298467
 20
376.054038
 30
0.0
 11
395.298467
 21
373.885387
 31
0.0
  0
LINE
  5
273
330
1F
100
AcDbEntity
  8
0
 62
     7
370
    15
100
AcDbLine
 10
395.298467
 20
376.054038
 30
0.0
 11
394.947373
 21
376.236805
 31
0.0
  0
LINE
  5
274
330
1F
100
AcDbEntity
  8
0
 62
     7
370
    15
100
AcDbLine
 10
394.947373
 20
376.236805
 30
0.0
 11
394.596276
 21
376.419575
 31
0.0
  0
LINE
  5
275
330
1F
100
AcDbEntity
  8
0
 62
     7
370
    15
100
AcDbLine
 10
394.596276
 20
376.419575
 30
0.0
 11
394.048468
 21
376.704746
 31
0.0
  0
LINE
  5
276
330
1F
100
AcDbEntity
  8
0
 62
     7
370
    15
100
AcDbLine
 10
394.048468
 20
376.704746
 30
0.0
 11
394.399562
 21
376.887516
 31
0.0
  0
LINE
  5
277
330
1F
100
AcDbEntity
  8
0
 62
     7
370
    15
100
AcDbLine
 10
394.399562
 20
376.887516
 30
0.0
 11
394.750659
 21
377.070283
 31
0.0
  0
LINE
  5
278
330
1F
100
AcDbEntity
  8
0
 62
     7
370
    15
100
AcDbLine
 10
394.750659
 20
377.070283
 30
0.0
 11
395.298467
 21
377.355454
 31
0.0
  0
LINE
  5
279
330
1F
100
AcDbEntity
  8
0
 62
     7
370
    40
100
AcDbLine
 10
395.298467
 20
379.054037
 30
0.0
 11
395.298467
 21
377.355454
 31
0.0
  0
LINE
  5
27A
330
1F
100
AcDbEntity
  8
0
 62
     7
370
    15
100
AcDbLine
 10
395.298467
 20
379.054037
 30
0.0
 11
394.947373
 21
379.236807
 31
0.0
  0
LINE
  5
27B
330
1F
100
AcDbEntity
  8
0
 62
     7
370
    15
100
AcDbLine
 10
394.947373
 20
379.236807
 30
0.0
 11
394.596276
 21
379.419574
 31
0.0
  0
LINE
  5
27C
330
1F
100
AcDbEntity
  8
0
 62
     7
370
    15
100
AcDbLine
 10
394.596276
 20
379.419574
 30
0.0
 11
394.048468
 21
379.704745
 31
0.0
  0
LINE
  5
27D
330
1F
100
AcDbEntity
  8
0
 62
     7
370
    15
100
AcDbLine
 10
394.048468
 20
379.704745
 30
0.0
 11
394.399562
 21
379.887515
 31
0.0
  0
LINE
  5
27E
330
1F
100
AcDbEntity
  8
0
 62
     7
370
    15
100
AcDbLine
 10
394.399562
 20
379.887515
 30
0.0
 11
394.750659
 21
380.070285
 31
0.0
  0
LINE
  5
27F
330
1F
100
AcDbEntity
  8
0
 62
     7
370
    15
100
AcDbLine
 10
394.750659
 20
380.070285
 30
0.0
 11
395.298467
 21
380.355456
 31
0.0
  0
LINE
  5
280
330
1F
100
AcDbEntity
  8
0
 62
     7
370
    40
100
AcDbLine
 10
395.298467
 20
382.054036
 30
0.0
 11
395.298467
 21
380.355456
 31
0.0
  0
LINE
  5
281
330
1F
100
AcDbEntity
  8
0
 62
     7
370
    15
100
AcDbLine
 10
395.298467
 20
382.054036
 30
0.0
 11
394.947373
 21
382.236806
 31
0.0
  0
LINE
  5
282
330
1F
100
AcDbEntity
  8
0
 62
     7
370
    15
100
AcDbLine
 10
394.947373
 20
382.236806
 30
0.0
 11
394.596276
 21
382.419576
 31
0.0
  0
LINE
  5
283
330
1F
100
AcDbEntity
  8
0
 62
     7
370
    15
100
AcDbLine
 10
394.596276
 20
382.419576
 30
0.0
 11
394.048468
 21
382.704747
 31
0.0
  0
LINE
  5
284
330
1F
100
AcDbEntity
  8
0
 62
     7
370
    15
100
AcDbLine
 10
394.048468
 20
382.704747
 30
0.0
 11
394.399562
 21
382.887513
 31
0.0
  0
LINE
  5
285
330
1F
100
AcDbEntity
  8
0
 62
     7
370
    15
100
AcDbLine
 10
394.399562
 20
382.887513
 30
0.0
 11
394.750659
 21
383.070284
 31
0.0
  0
LINE
  5
286
330
1F
100
AcDbEntity
  8
0
 62
     7
370
    15
100
AcDbLine
 10
394.750659
 20
383.070284
 30
0.0
 11
395.298467
 21
383.355455
 31
0.0
  0
LINE
  5
287
330
1F
100
AcDbEntity
  8
0
 62
     7
370
    40
100
AcDbLine
 10
395.298467
 20
385.054038
 30
0.0
 11
395.298467
 21
383.355455
 31
0.0
  0
LINE
  5
288
330
1F
100
AcDbEntity
  8
0
 62
     7
370
    15
100
AcDbLine
 10
395.298467
 20
385.054038
 30
0.0
 11
394.947373
 21
385.236804
 31
0.0
  0
LINE
  5
289
330
1F
100
AcDbEntity
  8
0
 62
     7
370
    15
100
AcDbLine
 10
394.947373
 20
385.236804
 30
0.0
 11
394.596276
 21
385.419575
 31
0.0
  0
LINE
  5
28A
330
1F
100
AcDbEntity
  8
0
 62
     7
370
    15
100
AcDbLine
 10
394.596276
 20
385.419575
 30
0.0
 11
394.048468
 21
385.704746
 31
0.0
  0
LINE
  5
28B
330
1F
100
AcDbEntity
  8
0
 62
     7
370
    15
100
AcDbLine
 10
394.048468
 20
385.704746
 30
0.0
 11
394.399562
 21
385.887516
 31
0.0
  0
LINE
  5
28C
330
1F
100
AcDbEntity
  8
0
 62
     7
370
    15
100
AcDbLine
 10
394.399562
 20
385.887516
 30
0.0
 11
394.750659
 21
386.070282
 31
0.0
  0
LINE
  5
28D
330
1F
100
AcDbEntity
  8
0
 62
     7
370
    15
100
AcDbLine
 10
394.750659
 20
386.070282
 30
0.0
 11
395.298467
 21
386.355453
 31
0.0
  0
LINE
  5
28E
330
1F
100
AcDbEntity
  8
0
 62
     7
370
    40
100
AcDbLine
 10
395.298467
 20
388.054037
 30
0.0
 11
395.298467
 21
386.355453
 31
0.0
  0
LINE
  5
28F
330
1F
100
AcDbEntity
  8
0
 62
     7
370
    15
100
AcDbLine
 10
395.298467
 20
388.054037
 30
0.0
 11
394.947373
 21
388.236807
 31
0.0
  0
LINE
  5
290
330
1F
100
AcDbEntity
  8
0
 62
     7
370
    15
100
AcDbLine
 10
394.947373
 20
388.236807
 30
0.0
 11
394.596276
 21
388.419573
 31
0.0
  0
LINE
  5
291
330
1F
100
AcDbEntity
  8
0
 62
     7
370
    15
100
AcDbLine
 10
394.596276
 20
388.419573
 30
0.0
 11
394.048468
 21
388.704744
 31
0.0
  0
LINE
  5
292
330
1F
100
AcDbEntity
  8
0
 62
     7
370
    15
100
AcDbLine
 10
394.048468
 20
388.704744
 30
0.0
 11
394.399562
 21
388.887514
 31
0.0
  0
LINE
  5
293
330
1F
100
AcDbEntity
  8
0
 62
     7
370
    15
100
AcDbLine
 10
394.399562
 20
388.887514
 30
0.0
 11
394.750659
 21
389.070285
 31
0.0
  0
LINE
  5
294
330
1F
100
AcDbEntity
  8
0
 62
     7
370
    15
100
AcDbLine
 10
394.750659
 20
389.070285
 30
0.0
 11
395.298467
 21
389.355455
 31
0.0
  0
LINE
  5
295
330
1F
100
AcDbEntity
  8
0
 62
     7
370
    40
100
AcDbLine
 10
395.298467
 20
391.054039
 30
0.0
 11
395.298467
 21
389.355455
 31
0.0
  0
LINE
  5
296
330
1F
100
AcDbEntity
  8
0
 62
     7
370
    15
100
AcDbLine
 10
395.298467
 20
391.054039
 30
0.0
 11
394.947373
 21
391.236805
 31
0.0
  0
LINE
  5
297
330
1F
100
AcDbEntity
  8
0
 62
     7
370
    15
100
AcDbLine
 10
394.947373
 20
391.236805
 30
0.0
 11
394.596276
 21
391.419576
 31
0.0
  0
LINE
  5
298
330
1F
100
AcDbEntity
  8
0
 62
     7
370
    15
100
AcDbLine
 10
394.596276
 20
391.419576
 30
0.0
 11
394.048468
 21
391.704746
 31
0.0
  0
LINE
  5
299
330
1F
100
AcDbEntity
  8
0
 62
     7
370
    15
100
AcDbLine
 10
394.048468
 20
391.704746
 30
0.0
 11
394.399562
 21
391.887513
 31
0.0
  0
LINE
  5
29A
330
1F
100
AcDbEntity
  8
0
 62
     7
370
    15
100
AcDbLine
 10
394.399562
 20
391.887513
 30
0.0
 11
394.750659
 21
392.070283
 31
0.0
  0
LINE
  5
29B
330
1F
100
AcDbEntity
  8
0
 62
     7
370
    15
100
AcDbLine
 10
394.750659
 20
392.070283
 30
0.0
 11
395.298467
 21
392.355454
 31
0.0
  0
LINE
  5
29C
330
1F
100
AcDbEntity
  8
0
 62
     7
370
    40
100
AcDbLine
 10
395.298467
 20
394.054037
 30
0.0
 11
395.298467
 21
392.355454
 31
0.0
  0
LINE
  5
29D
330
1F
100
AcDbEntity
  8
0
 62
     7
370
    15
100
AcDbLine
 10
395.298467
 20
394.054037
 30
0.0
 11
394.947373
 21
394.236804
 31
0.0
  0
LINE
  5
29E
330
1F
100
AcDbEntity
  8
0
 62
     7
370
    15
100
AcDbLine
 10
394.947373
 20
394.236804
 30
0.0
 11
394.596276
 21
394.419574
 31
0.0
  0
LINE
  5
29F
330
1F
100
AcDbEntity
  8
0
 62
     7
370
    15
100
AcDbLine
 10
394.596276
 20
394.419574
 30
0.0
 11
394.048468
 21
394.704745
 31
0.0
  0
LINE
  5
2A0
330
1F
100
AcDbEntity
  8
0
 62
     7
370
    15
100
AcDbLine
 10
394.048468
 20
394.704745
 30
0.0
 11
394.399562
 21
394.887515
 31
0.0
  0
LINE
  5
2A1
330
1F
100
AcDbEntity
  8
0
 62
     7
370
    15
100
AcDbLine
 10
394.399562
 20
394.887515
 30
0.0
 11
394.750659
 21
395.070282
 31
0.0
  0
LINE
  5
2A2
330
1F
100
AcDbEntity
  8
0
 62
     7
370
    15
100
AcDbLine
 10
394.750659
 20
395.070282
 30
0.0
 11
395.298467
 21
395.355456
 31
0.0
  0
LINE
  5
2A3
330
1F
100
AcDbEntity
  8
0
 62
     7
370
    40
100
AcDbLine
 10
395.298467
 20
397.484974
 30
0.0
 11
395.298467
 21
395.355456
 31
0.0
  0
LINE
  5
2A4
330
1F
100
AcDbEntity
  8
0
 62
     7
370
    40
100
AcDbLine
 10
397.298467
 20
398.885389
 30
0.0
 11
395.298467
 21
397.484974
 31
0.0
  0
LINE
  5
2A5
330
1F
100
AcDbEntity
  8
0
 62
     7
370
    40
100
AcDbLine
 10
399.298468
 20
397.484974
 30
0.0
 11
397.298467
 21
398.885389
 31
0.0
  0
LINE
  5
2A6
330
1F
100
AcDbEntity
  8
0
 62
     7
370
    40
100
AcDbLine
 10
399.298468
 20
396.855456
 30
0.0
 11
399.298468
 21
397.484974
 31
0.0
  0
LINE
  5
2A7
330
1F
100
AcDbEntity
  8
0
 62
     7
370
    15
100
AcDbLine
 10
399.298468
 20
396.855456
 30
0.0
 11
399.649561
 21
396.672686
 31
0.0
  0
LINE
  5
2A8
330
1F
100
AcDbEntity
  8
0
 62
     7
370
    15
100
AcDbLine
 10
399.649561
 20
396.672686
 30
0.0
 11
400.000659
 21
396.489919
 31
0.0
  0
LINE
  5
2A9
330
1F
100
AcDbEntity
  8
0
 62
     7
370
    15
100
AcDbLine
 10
400.000659
 20
396.489919
 30
0.0
 11
400.548466
 21
396.204744
 31
0.0
  0
LINE
  5
2AA
330
1F
100
AcDbEntity
  8
0
 62
     7
370
    15
100
AcDbLine
 10
400.548466
 20
396.204744
 30
0.0
 11
400.197373
 21
396.021978
 31
0.0
  0
LINE
  5
2AB
330
1F
100
AcDbEntity
  8
0
 62
     7
370
    15
100
AcDbLine
 10
400.197373
 20
396.021978
 30
0.0
 11
399.846275
 21
395.839208
 31
0.0
  0
LINE
  5
2AC
330
1F
100
AcDbEntity
  8
0
 62
     7
370
    15
100
AcDbLine
 10
399.846275
 20
395.839208
 30
0.0
 11
399.298468
 21
395.554037
 31
0.0
  0
LINE
  5
2AD
330
1F
100
AcDbEntity
  8
0
 62
     7
370
    40
100
AcDbLine
 10
399.298468
 20
393.855453
 30
0.0
 11
399.298468
 21
395.554037
 31
0.0
  0
LINE
  5
2AE
330
1F
100
AcDbEntity
  8
0
 62
     7
370
    15
100
AcDbLine
 10
399.298468
 20
393.855453
 30
0.0
 11
399.649561
 21
393.672687
 31
0.0
  0
LINE
  5
2AF
330
1F
100
AcDbEntity
  8
0
 62
     7
370
    15
100
AcDbLine
 10
399.649561
 20
393.672687
 30
0.0
 11
400.000659
 21
393.489917
 31
0.0
  0
LINE
  5
2B0
330
1F
100
AcDbEntity
  8
0
 62
     7
370
    15
100
AcDbLine
 10
400.000659
 20
393.489917
 30
0.0
 11
400.548466
 21
393.204746
 31
0.0
  0
LINE
  5
2B1
330
1F
100
AcDbEntity
  8
0
 62
     7
370
    15
100
AcDbLine
 10
400.548466
 20
393.204746
 30
0.0
 11
400.197373
 21
393.021976
 31
0.0
  0
LINE
  5
2B2
330
1F
100
AcDbEntity
  8
0
 62
     7
370
    15
100
AcDbLine
 10
400.197373
 20
393.021976
 30
0.0
 11
399.846275
 21
392.839209
 31
0.0
  0
LINE
  5
2B3
330
1F
100
AcDbEntity
  8
0
 62
     7
370
    15
100
AcDbLine
 10
399.846275
 20
392.839209
 30
0.0
 11
399.298468
 21
392.554038
 31
0.0
  0
LINE
  5
2B4
330
1F
100
AcDbEntity
  8
0
 62
     7
370
    40
100
AcDbLine
 10
399.298468
 20
390.855455
 30
0.0
 11
399.298468
 21
392.554038
 31
0.0
  0
LINE
  5
2B5
330
1F
100
AcDbEntity
  8
0
 62
     7
370
    15
100
AcDbLine
 10
399.298468
 20
390.855455
 30
0.0
 11
399.649561
 21
390.672685
 31
0.0
  0
LINE
  5
2B6
330
1F
100
AcDbEntity
  8
0
 62
     7
370
    15
100
AcDbLine
 10
399.649561
 20
390.672685
 30
0.0
 11
400.000659
 21
390.489918
 31
0.0
  0
LINE
  5
2B7
330
1F
100
AcDbEntity
  8
0
 62
     7
370
    15
100
AcDbLine
 10
400.000659
 20
390.489918
 30
0.0
 11
400.548466
 21
390.204747
 31
0.0
  0
LINE
  5
2B8
330
1F
100
AcDbEntity
  8
0
 62
     7
370
    15
100
AcDbLine
 10
400.548466
 20
390.204747
 30
0.0
 11
400.197373
 21
390.021977
 31
0.0
  0
LINE
  5
2B9
330
1F
100
AcDbEntity
  8
0
 62
     7
370
    15
100
AcDbLine
 10
400.197373
 20
390.021977
 30
0.0
 11
399.846275
 21
389.839211
 31
0.0
  0
LINE
  5
2BA
330
1F
100
AcDbEntity
  8
0
 62
     7
370
    15
100
AcDbLine
 10
399.846275
 20
389.839211
 30
0.0
 11
399.298468
 21
389.554036
 31
0.0
  0
LINE
  5
2BB
330
1F
100
AcDbEntity
  8
0
 62
     7
370
    40
100
AcDbLine
 10
399.298468
 20
387.855456
 30
0.0
 11
399.298468
 21
389.554036
 31
0.0
  0
LINE
  5
2BC
330
1F
100
AcDbEntity
  8
0
 62
     7
370
    15
100
AcDbLine
 10
399.298468
 20
387.855456
 30
0.0
 11
399.649561
 21
387.672686
 31
0.0
  0
LINE
  5
2BD
330
1F
100
AcDbEntity
  8
0
 62
     7
370
    15
100
AcDbLine
 10
399.649561
 20
387.672686
 30
0.0
 11
400.000659
 21
387.489916
 31
0.0
  0
LINE
  5
2BE
330
1F
100
AcDbEntity
  8
0
 62
     7
370
    15
100
AcDbLine
 10
400.000659
 20
387.489916
 30
0.0
 11
400.548466
 21
387.204745
 31
0.0
  0
LINE
  5
2BF
330
1F
100
AcDbEntity
  8
0
 62
     7
370
    15
100
AcDbLine
 10
400.548466
 20
387.204745
 30
0.0
 11
400.197373
 21
387.021978
 31
0.0
  0
LINE
  5
2C0
330
1F
100
AcDbEntity
  8
0
 62
     7
370
    15
100
AcDbLine
 10
400.197373
 20
387.021978
 30
0.0
 11
399.846275
 21
386.839208
 31
0.0
  0
LINE
  5
2C1
330
1F
100
AcDbEntity
  8
0
 62
     7
370
    15
100
AcDbLine
 10
399.846275
 20
386.839208
 30
0.0
 11
399.298468
 21
386.554037
 31
0.0
  0
LINE
  5
2C2
330
1F
100
AcDbEntity
  8
0
 62
     7
370
    40
100
AcDbLine
 10
399.298468
 20
384.855454
 30
0.0
 11
399.298468
 21
386.554037
 31
0.0
  0
LINE
  5
2C3
330
1F
100
AcDbEntity
  8
0
 62
     7
370
    15
100
AcDbLine
 10
399.298468
 20
384.855454
 30
0.0
 11
399.649561
 21
384.672687
 31
0.0
  0
LINE
  5
2C4
330
1F
100
AcDbEntity
  8
0
 62
     7
370
    15
100
AcDbLine
 10
399.649561
 20
384.672687
 30
0.0
 11
400.000659
 21
384.489917
 31
0.0
  0
LINE
  5
2C5
330
1F
100
AcDbEntity
  8
0
 62
     7
370
    15
100
AcDbLine
 10
400.000659
 20
384.489917
 30
0.0
 11
400.548466
 21
384.204746
 31
0.0
  0
LINE
  5
2C6
330
1F
100
AcDbEntity
  8
0
 62
     7
370
    15
100
AcDbLine
 10
400.548466
 20
384.204746
 30
0.0
 11
400.197373
 21
384.021976
 31
0.0
  0
LINE
  5
2C7
330
1F
100
AcDbEntity
  8
0
 62
     7
370
    15
100
AcDbLine
 10
400.197373
 20
384.021976
 30
0.0
 11
399.846275
 21
383.83921
 31
0.0
  0
LINE
  5
2C8
330
1F
100
AcDbEntity
  8
0
 62
     7
370
    15
100
AcDbLine
 10
399.846275
 20
383.83921
 30
0.0
 11
399.298468
 21
383.554039
 31
0.0
  0
LINE
  5
2C9
330
1F
100
AcDbEntity
  8
0
 62
     7
370
    40
100
AcDbLine
 10
399.298468
 20
381.855455
 30
0.0
 11
399.298468
 21
383.554039
 31
0.0
  0
LINE
  5
2CA
330
1F
100
AcDbEntity
  8
0
 62
     7
370
    15
100
AcDbLine
 10
399.298468
 20
381.855455
 30
0.0
 11
399.649561
 21
381.672685
 31
0.0
  0
LINE
  5
2CB
330
1F
100
AcDbEntity
  8
0
 62
     7
370
    15
100
AcDbLine
 10
399.649561
 20
381.672685
 30
0.0
 11
400.000659
 21
381.489919
 31
0.0
  0
LINE
  5
2CC
330
1F
100
AcDbEntity
  8
0
 62
     7
370
    15
100
AcDbLine
 10
400.000659
 20
381.489919
 30
0.0
 11
400.548466
 21
381.204748
 31
0.0
  0
LINE
  5
2CD
330
1F
100
AcDbEntity
  8
0
 62
     7
370
    15
100
AcDbLine
 10
400.548466
 20
381.204748
 30
0.0
 11
400.197373
 21
381.021977
 31
0.0
  0
LINE
  5
2CE
330
1F
100
AcDbEntity
  8
0
 62
     7
370
    15
100
AcDbLine
 10
400.197373
 20
381.021977
 30
0.0
 11
399.846275
 21
380.839207
 31
0.0
  0
LINE
  5
2CF
330
1F
100
AcDbEntity
  8
0
 62
     7
370
    15
100
AcDbLine
 10
399.846275
 20
380.839207
 30
0.0
 11
399.298468
 21
380.554036
 31
0.0
  0
LINE
  5
2D0
330
1F
100
AcDbEntity
  8
0
 62
     7
370
    40
100
AcDbLine
 10
399.298468
 20
378.855457
 30
0.0
 11
399.298468
 21
380.554036
 31
0.0
  0
LINE
  5
2D1
330
1F
100
AcDbEntity
  8
0
 62
     7
370
    15
100
AcDbLine
 10
399.298468
 20
378.855457
 30
0.0
 11
399.649561
 21
378.672686
 31
0.0
  0
LINE
  5
2D2
330
1F
100
AcDbEntity
  8
0
 62
     7
370
    15
100
AcDbLine
 10
399.649561
 20
378.672686
 30
0.0
 11
400.000659
 21
378.489916
 31
0.0
  0
LINE
  5
2D3
330
1F
100
AcDbEntity
  8
0
 62
     7
370
    15
100
AcDbLine
 10
400.000659
 20
378.489916
 30
0.0
 11
400.548466
 21
378.204745
 31
0.0
  0
LINE
  5
2D4
330
1F
100
AcDbEntity
  8
0
 62
     7
370
    15
100
AcDbLine
 10
400.548466
 20
378.204745
 30
0.0
 11
400.197373
 21
378.021979
 31
0.0
  0
LINE
  5
2D5
330
1F
100
AcDbEntity
  8
0
 62
     7
370
    15
100
AcDbLine
 10
400.197373
 20
378.021979
 30
0.0
 11
399.846275
 21
377.839209
 31
0.0
  0
LINE
  5
2D6
330
1F
100
AcDbEntity
  8
0
 62
     7
370
    15
100
AcDbLine
 10
399.846275
 20
377.839209
 30
0.0
 11
399.298468
 21
377.554038
 31
0.0
  0
LINE
  5
2D7
330
1F
100
AcDbEntity
  8
0
 62
     7
370
    40
100
AcDbLine
 10
399.298468
 20
375.855454
 30
0.0
 11
399.298468
 21
377.554038
 31
0.0
  0
LINE
  5
2D8
330
1F
100
AcDbEntity
  8
0
 62
     7
370
    15
100
AcDbLine
 10
399.298468
 20
375.855454
 30
0.0
 11
399.649561
 21
375.672688
 31
0.0
  0
LINE
  5
2D9
330
1F
100
AcDbEntity
  8
0
 62
     7
370
    15
100
AcDbLine
 10
399.649561
 20
375.672688
 30
0.0
 11
400.000659
 21
375.489918
 31
0.0
  0
LINE
  5
2DA
330
1F
100
AcDbEntity
  8
0
 62
     7
370
    15
100
AcDbLine
 10
400.000659
 20
375.489918
 30
0.0
 11
400.548466
 21
375.204747
 31
0.0
  0
LINE
  5
2DB
330
1F
100
AcDbEntity
  8
0
 62
     7
370
    15
100
AcDbLine
 10
400.548466
 20
375.204747
 30
0.0
 11
400.197373
 21
375.021976
 31
0.0
  0
LINE
  5
2DC
330
1F
100
AcDbEntity
  8
0
 62
     7
370
    15
100
AcDbLine
 10
400.197373
 20
375.021976
 30
0.0
 11
399.846275
 21
374.83921
 31
0.0
  0
LINE
  5
2DD
330
1F
100
AcDbEntity
  8
0
 62
     7
370
    15
100
AcDbLine
 10
399.846275
 20
374.83921
 30
0.0
 11
399.298468
 21
374.554039
 31
0.0
  0
LINE
  5
2DE
330
1F
100
AcDbEntity
  8
0
 62
     7
370
    40
100
AcDbLine
 10
399.298468
 20
373.885387
 30
0.0
 11
399.298468
 21
374.554039
 31
0.0
  0
LINE
  5
2DF
330
1F
100
AcDbEntity
  8
0
 62
     7
370
    40
100
AcDbLine
 10
402.548467
 20
373.885387
 30
0.0
 11
399.298468
 21
373.885387
 31
0.0
  0
LINE
  5
2E0
330
1F
100
AcDbEntity
  8
0
 62
     7
370
    40
100
AcDbLine
 10
402.548467
 20
371.085388
 30
0.0
 11
402.548467
 21
373.885387
 31
0.0
  0
LINE
  5
2E1
330
1F
100
AcDbEntity
  8
0
 62
     7
370
    40
100
AcDbLine
 10
401.798469
 20
370.885388
 30
0.0
 11
402.348468
 21
370.885388
 31
0.0
  0
LINE
  5
2E2
330
1F
100
AcDbEntity
  8
0
 62
     7
370
    40
100
AcDbLine
 10
398.351845
 20
369.885388
 30
0.0
 11
400.251755
 21
369.885388
 31
0.0
  0
LINE
  5
2E3
330
1F
100
AcDbEntity
  8
0
 62
     7
370
    40
100
AcDbLine
 10
400.548466
 20
375.204747
 30
0.0
 11
400.545909
 21
375.229308
 31
0.0
  0
LINE
  5
2E4
330
1F
100
AcDbEntity
  8
0
 62
     7
370
    40
100
AcDbLine
 10
400.545909
 20
375.229308
 30
0.0
 11
400.540531
 21
375.280945
 31
0.0
  0
LINE
  5
2E5
330
1F
100
AcDbEntity
  8
0
 62
     7
370
    40
100
AcDbLine
 10
400.540531
 20
375.280945
 30
0.0
 11
400.387745
 21
375.33724
 31
0.0
  0
LINE
  5
2E6
330
1F
100
AcDbEntity
  8
0
 62
     7
370
    40
100
AcDbLine
 10
400.387745
 20
375.33724
 30
0.0
 11
400.30763
 21
375.366759
 31
0.0
  0
LINE
  5
2E7
330
1F
100
AcDbEntity
  8
0
 62
     7
370
    40
100
AcDbLine
 10
394.218222
 20
376.560197
 30
0.0
 11
394.21139
 21
376.562491
 31
0.0
  0
LINE
  5
2E8
330
1F
100
AcDbEntity
  8
0
 62
     7
370
    40
100
AcDbLine
 10
394.21139
 20
376.562491
 30
0.0
 11
394.055854
 21
376.614714
 31
0.0
  0
LINE
  5
2E9
330
1F
100
AcDbEntity
  8
0
 62
     7
370
    40
100
AcDbLine
 10
394.055854
 20
376.614714
 30
0.0
 11
394.052078
 21
376.660741
 31
0.0
  0
LINE
  5
2EA
330
1F
100
AcDbEntity
  8
0
 62
     7
370
    40
100
AcDbLine
 10
394.052078
 20
376.660741
 30
0.0
 11
394.048468
 21
376.704746
 31
0.0
  0
LINE
  5
2EB
330
1F
100
AcDbEntity
  8
0
 62
     7
370
    40
100
AcDbLine
 10
400.548466
 20
381.204748
 30
0.0
 11
400.534113
 21
381.230899
 31
0.0
  0
LINE
  5
2EC
330
1F
100
AcDbEntity
  8
0
 62
     7
370
    40
100
AcDbLine
 10
394.218222
 20
382.560198
 30
0.0
 11
394.21139
 21
382.562492
 31
0.0
  0
LINE
  5
2ED
330
1F
100
AcDbEntity
  8
0
 62
     7
370
    40
100
AcDbLine
 10
394.21139
 20
382.562492
 30
0.0
 11
394.055854
 21
382.614715
 31
0.0
  0
LINE
  5
2EE
330
1F
100
AcDbEntity
  8
0
 62
     7
370
    40
100
AcDbLine
 10
394.055854
 20
382.614715
 30
0.0
 11
394.052078
 21
382.660742
 31
0.0
  0
LINE
  5
2EF
330
1F
100
AcDbEntity
  8
0
 62
     7
370
    40
100
AcDbLine
 10
394.052078
 20
382.660742
 30
0.0
 11
394.048468
 21
382.704747
 31
0.0
  0
LINE
  5
2F0
330
1F
100
AcDbEntity
  8
0
 62
     7
370
    40
100
AcDbLine
 10
400.548466
 20
378.204745
 30
0.0
 11
400.534113
 21
378.2309
 31
0.0
  0
LINE
  5
2F1
330
1F
100
AcDbEntity
  8
0
 62
     7
370
    40
100
AcDbLine
 10
394.218222
 20
379.5602
 30
0.0
 11
394.21139
 21
379.562492
 31
0.0
  0
LINE
  5
2F2
330
1F
100
AcDbEntity
  8
0
 62
     7
370
    40
100
AcDbLine
 10
394.21139
 20
379.562492
 30
0.0
 11
394.055853
 21
379.614686
 31
0.0
  0
LINE
  5
2F3
330
1F
100
AcDbEntity
  8
0
 62
     7
370
    40
100
AcDbLine
 10
394.055853
 20
379.614686
 30
0.0
 11
394.052077
 21
379.660727
 31
0.0
  0
LINE
  5
2F4
330
1F
100
AcDbEntity
  8
0
 62
     7
370
    40
100
AcDbLine
 10
394.052077
 20
379.660727
 30
0.0
 11
394.048468
 21
379.704745
 31
0.0
  0
LINE
  5
2F5
330
1F
100
AcDbEntity
  8
0
 62
     7
370
    40
100
AcDbLine
 10
400.548466
 20
384.204746
 30
0.0
 11
400.534113
 21
384.230901
 31
0.0
  0
LINE
  5
2F6
330
1F
100
AcDbEntity
  8
0
 62
     7
370
    40
100
AcDbLine
 10
397.3029378555
 20
369.9063907258
 30
0.0
 11
397.306469
 21
369.897977
 31
0.0
  0
LINE
  5
2F7
330
1F
100
AcDbEntity
  8
0
 62
     7
370
    40
100
AcDbLine
 10
397.306469
 20
369.897977
 30
0.0
 11
397.311258
 21
369.886569
 31
0.0
  0
LINE
  5
2F8
330
1F
100
AcDbEntity
  8
0
 62
     7
370
    40
100
AcDbLine
 10
397.311258
 20
369.886569
 30
0.0
 11
397.316341
 21
369.885633
 31
0.0
  0
LINE
  5
2F9
330
1F
100
AcDbEntity
  8
0
 62
     7
370
    40
100
AcDbLine
 10
397.316341
 20
369.885633
 30
0.0
 11
397.317675
 21
369.885388
 31
0.0
  0
LINE
  5
2FA
330
1F
100
AcDbEntity
  8
0
 62
     7
370
    40
100
AcDbLine
 10
398.295266
 20
369.885388
 30
0.0
 11
398.351845
 21
369.885388
 31
0.0
  0
LINE
  5
2FB
330
1F
100
AcDbEntity
  8
0
 62
     7
370
    40
100
AcDbLine
 10
397.502919
 20
371.385389
 30
0.0
 11
396.516272
 21
371.385389
 31
0.0
  0
LINE
  5
2FC
330
1F
100
AcDbEntity
  8
0
 62
     7
370
    40
100
AcDbLine
 10
396.516272
 20
369.885388
 30
0.0
 11
396.516272
 21
371.385389
 31
0.0
  0
LINE
  5
2FD
330
1F
100
AcDbEntity
  8
0
 62
     7
370
    40
100
AcDbLine
 10
397.502919
 20
371.385389
 30
0.0
 11
397.502919
 21
369.885388
 31
0.0
  0
LINE
  5
2FE
330
1F
100
AcDbEntity
  8
0
 62
     7
370
    40
100
AcDbLine
 10
396.516272
 20
369.885388
 30
0.0
 11
396.245089
 21
369.885388
 31
0.0
  0
LINE
  5
2FF
330
1F
100
AcDbEntity
  8
0
 62
     7
370
    40
100
AcDbLine
 10
398.295266
 20
369.885388
 30
0.0
 11
397.502919
 21
369.885388
 31
0.0
  0
LINE
  5
300
330
1F
100
AcDbEntity
  8
0
 62
     7
370
    40
100
AcDbLine
 10
397.180957
 20
371.385389
 30
0.0
 11
397.1809566962
 21
370.3356076445
 31
0.0
  0
LINE
  5
301
330
1F
100
AcDbEntity
  8
0
 62
     7
370
    40
100
AcDbLine
 10
397.317675
 20
369.885388
 30
0.0
 11
397.502919
 21
369.885388
 31
0.0
  0
LINE
  5
302
330
1F
100
AcDbEntity
  8
0
 62
     7
370
    40
100
AcDbLine
 10
306.298469
 20
375.485388
 30
0.0
 11
306.298469
 21
373.885387
 31
0.0
  0
LINE
  5
303
330
1F
100
AcDbEntity
  8
0
 62
     7
370
    40
100
AcDbLine
 10
288.298466
 20
373.885387
 30
0.0
 11
288.298466
 21
375.485388
 31
0.0
  0
LINE
  5
304
330
1F
100
AcDbEntity
  8
0
 62
     7
370
    40
100
AcDbLine
 10
300.498468
 20
373.885387
 30
0.0
 11
300.498468
 21
375.485388
 31
0.0
  0
LINE
  5
305
330
1F
100
AcDbEntity
  8
0
 62
     7
370
    40
100
AcDbLine
 10
294.098467
 20
375.485388
 30
0.0
 11
294.098467
 21
373.885387
 31
0.0
  0
LINE
  5
306
330
1F
100
AcDbEntity
  8
0
 62
     7
370
    40
100
AcDbLine
 10
300.498468
 20
375.485388
 30
0.0
 11
299.298466
 21
375.485388
 31
0.0
  0
LINE
  5
307
330
1F
100
AcDbEntity
  8
0
 62
     7
370
    40
100
AcDbLine
 10
294.532624
 20
375.485388
 30
0.0
 11
294.098467
 21
375.485388
 31
0.0
  0
LINE
  5
308
330
1F
100
AcDbEntity
  8
0
 62
     7
370
    40
100
AcDbLine
 10
294.098467
 20
373.885387
 30
0.0
 11
288.298466
 21
373.885387
 31
0.0
  0
LINE
  5
309
330
1F
100
AcDbEntity
  8
0
 62
     7
370
    40
100
AcDbLine
 10
288.298466
 20
375.485388
 30
0.0
 11
294.098467
 21
375.485388
 31
0.0
  0
LINE
  5
30A
330
1F
100
AcDbEntity
  8
0
 62
     7
370
    40
100
AcDbLine
 10
306.298469
 20
373.885387
 30
0.0
 11
300.498468
 21
373.885387
 31
0.0
  0
LINE
  5
30B
330
1F
100
AcDbEntity
  8
0
 62
     7
370
    40
100
AcDbLine
 10
300.498468
 20
375.485388
 30
0.0
 11
306.298469
 21
375.485388
 31
0.0
  0
LINE
  5
30C
330
1F
100
AcDbEntity
  8
0
 62
     7
370
    40
100
AcDbLine
 10
306.298469
 20
466.485393
 30
0.0
 11
306.298469
 21
464.885381
 31
0.0
  0
LINE
  5
30D
330
1F
100
AcDbEntity
  8
0
 62
     7
370
    40
100
AcDbLine
 10
288.298466
 20
464.885381
 30
0.0
 11
288.298466
 21
466.485393
 31
0.0
  0
LINE
  5
30E
330
1F
100
AcDbEntity
  8
0
 62
     7
370
    40
100
AcDbLine
 10
300.498468
 20
464.885381
 30
0.0
 11
300.498468
 21
466.485393
 31
0.0
  0
LINE
  5
30F
330
1F
100
AcDbEntity
  8
0
 62
     7
370
    40
100
AcDbLine
 10
294.098467
 20
466.485393
 30
0.0
 11
294.098467
 21
464.885381
 31
0.0
  0
LINE
  5
310
330
1F
100
AcDbEntity
  8
0
 62
     7
370
    40
100
AcDbLine
 10
300.498468
 20
464.885381
 30
0.0
 11
299.706911
 21
464.885381
 31
0.0
  0
LINE
  5
311
330
1F
100
AcDbEntity
  8
0
 62
     7
370
    40
100
AcDbLine
 10
295.298469
 20
464.885381
 30
0.0
 11
294.098467
 21
464.885381
 31
0.0
  0
LINE
  5
312
330
1F
100
AcDbEntity
  8
0
 62
     7
370
    40
100
AcDbLine
 10
306.298469
 20
464.885381
 30
0.0
 11
300.498468
 21
464.885381
 31
0.0
  0
LINE
  5
313
330
1F
100
AcDbEntity
  8
0
 62
     7
370
    40
100
AcDbLine
 10
300.498468
 20
466.485393
 30
0.0
 11
306.298469
 21
466.485393
 31
0.0
  0
LINE
  5
314
330
1F
100
AcDbEntity
  8
0
 62
     7
370
    40
100
AcDbLine
 10
294.098467
 20
464.885381
 30
0.0
 11
288.298466
 21
464.885381
 31
0.0
  0
LINE
  5
315
330
1F
100
AcDbEntity
  8
0
 62
     7
370
    40
100
AcDbLine
 10
288.298466
 20
466.485393
 30
0.0
 11
294.098467
 21
466.485393
 31
0.0
  0
LINE
  5
316
330
1F
100
AcDbEntity
  8
0
 62
     7
370
    40
100
AcDbLine
 10
296.245092
 20
371.885386
 30
0.0
 11
296.245092
 21
369.885388
 31
0.0
  0
LINE
  5
317
330
1F
100
AcDbEntity
  8
0
 62
     7
370
    40
100
AcDbLine
 10
294.345179
 20
369.885388
 30
0.0
 11
296.245092
 21
369.885388
 31
0.0
  0
LINE
  5
318
330
1F
100
AcDbEntity
  8
0
 62
     7
370
    40
100
AcDbLine
 10
292.248466
 20
370.885388
 30
0.0
 11
292.7984679906
 21
370.8853880083
 31
0.0
  0
LINE
  5
319
330
1F
100
AcDbEntity
  8
0
 62
     7
370
    40
100
AcDbLine
 10
292.048466
 20
373.885387
 30
0.0
 11
292.048468
 21
371.085388
 31
0.0
  0
LINE
  5
31A
330
1F
100
AcDbEntity
  8
0
 62
     7
370
    40
100
AcDbLine
 10
295.298469
 20
373.885387
 30
0.0
 11
292.048466
 21
373.885387
 31
0.0
  0
LINE
  5
31B
330
1F
100
AcDbEntity
  8
0
 62
     7
370
    40
100
AcDbLine
 10
295.298469
 20
374.554039
 30
0.0
 11
295.298469
 21
373.885387
 31
0.0
  0
LINE
  5
31C
330
1F
100
AcDbEntity
  8
0
 62
     7
370
    15
100
AcDbLine
 10
295.298469
 20
374.554039
 30
0.0
 11
294.947372
 21
374.736805
 31
0.0
  0
LINE
  5
31D
330
1F
100
AcDbEntity
  8
0
 62
     7
370
    15
100
AcDbLine
 10
294.947372
 20
374.736805
 30
0.0
 11
294.596278
 21
374.919576
 31
0.0
  0
LINE
  5
31E
330
1F
100
AcDbEntity
  8
0
 62
     7
370
    15
100
AcDbLine
 10
294.596278
 20
374.919576
 30
0.0
 11
294.048467
 21
375.204747
 31
0.0
  0
LINE
  5
31F
330
1F
100
AcDbEntity
  8
0
 62
     7
370
    15
100
AcDbLine
 10
294.048467
 20
375.204747
 30
0.0
 11
294.399564
 21
375.387513
 31
0.0
  0
LINE
  5
320
330
1F
100
AcDbEntity
  8
0
 62
     7
370
    15
100
AcDbLine
 10
294.399564
 20
375.387513
 30
0.0
 11
294.750658
 21
375.570283
 31
0.0
  0
LINE
  5
321
330
1F
100
AcDbEntity
  8
0
 62
     7
370
    15
100
AcDbLine
 10
294.750658
 20
375.570283
 30
0.0
 11
295.298469
 21
375.855454
 31
0.0
  0
LINE
  5
322
330
1F
100
AcDbEntity
  8
0
 62
     7
370
    40
100
AcDbLine
 10
295.298469
 20
377.554038
 30
0.0
 11
295.298469
 21
375.855454
 31
0.0
  0
LINE
  5
323
330
1F
100
AcDbEntity
  8
0
 62
     7
370
    15
100
AcDbLine
 10
295.298469
 20
377.554038
 30
0.0
 11
294.947372
 21
377.736804
 31
0.0
  0
LINE
  5
324
330
1F
100
AcDbEntity
  8
0
 62
     7
370
    15
100
AcDbLine
 10
294.947372
 20
377.736804
 30
0.0
 11
294.596278
 21
377.919574
 31
0.0
  0
LINE
  5
325
330
1F
100
AcDbEntity
  8
0
 62
     7
370
    15
100
AcDbLine
 10
294.596278
 20
377.919574
 30
0.0
 11
294.048467
 21
378.204745
 31
0.0
  0
LINE
  5
326
330
1F
100
AcDbEntity
  8
0
 62
     7
370
    15
100
AcDbLine
 10
294.048467
 20
378.204745
 30
0.0
 11
294.399564
 21
378.387515
 31
0.0
  0
LINE
  5
327
330
1F
100
AcDbEntity
  8
0
 62
     7
370
    15
100
AcDbLine
 10
294.399564
 20
378.387515
 30
0.0
 11
294.750658
 21
378.570282
 31
0.0
  0
LINE
  5
328
330
1F
100
AcDbEntity
  8
0
 62
     7
370
    15
100
AcDbLine
 10
294.750658
 20
378.570282
 30
0.0
 11
295.298469
 21
378.855457
 31
0.0
  0
LINE
  5
329
330
1F
100
AcDbEntity
  8
0
 62
     7
370
    40
100
AcDbLine
 10
295.298469
 20
380.554036
 30
0.0
 11
295.298469
 21
378.855457
 31
0.0
  0
LINE
  5
32A
330
1F
100
AcDbEntity
  8
0
 62
     7
370
    15
100
AcDbLine
 10
295.298469
 20
380.554036
 30
0.0
 11
294.947372
 21
380.736806
 31
0.0
  0
LINE
  5
32B
330
1F
100
AcDbEntity
  8
0
 62
     7
370
    15
100
AcDbLine
 10
294.947372
 20
380.736806
 30
0.0
 11
294.596278
 21
380.919573
 31
0.0
  0
LINE
  5
32C
330
1F
100
AcDbEntity
  8
0
 62
     7
370
    15
100
AcDbLine
 10
294.596278
 20
380.919573
 30
0.0
 11
294.048467
 21
381.204748
 31
0.0
  0
LINE
  5
32D
330
1F
100
AcDbEntity
  8
0
 62
     7
370
    15
100
AcDbLine
 10
294.048467
 20
381.204748
 30
0.0
 11
294.399564
 21
381.387514
 31
0.0
  0
LINE
  5
32E
330
1F
100
AcDbEntity
  8
0
 62
     7
370
    15
100
AcDbLine
 10
294.399564
 20
381.387514
 30
0.0
 11
294.750658
 21
381.570284
 31
0.0
  0
LINE
  5
32F
330
1F
100
AcDbEntity
  8
0
 62
     7
370
    15
100
AcDbLine
 10
294.750658
 20
381.570284
 30
0.0
 11
295.298469
 21
381.855455
 31
0.0
  0
LINE
  5
330
330
1F
100
AcDbEntity
  8
0
 62
     7
370
    40
100
AcDbLine
 10
295.298469
 20
383.554039
 30
0.0
 11
295.298469
 21
381.855455
 31
0.0
  0
LINE
  5
331
330
1F
100
AcDbEntity
  8
0
 62
     7
370
    15
100
AcDbLine
 10
295.298469
 20
383.554039
 30
0.0
 11
294.947372
 21
383.736805
 31
0.0
  0
LINE
  5
332
330
1F
100
AcDbEntity
  8
0
 62
     7
370
    15
100
AcDbLine
 10
294.947372
 20
383.736805
 30
0.0
 11
294.596278
 21
383.919575
 31
0.0
  0
LINE
  5
333
330
1F
100
AcDbEntity
  8
0
 62
     7
370
    15
100
AcDbLine
 10
294.596278
 20
383.919575
 30
0.0
 11
294.048467
 21
384.204746
 31
0.0
  0
LINE
  5
334
330
1F
100
AcDbEntity
  8
0
 62
     7
370
    15
100
AcDbLine
 10
294.048467
 20
384.204746
 30
0.0
 11
294.399564
 21
384.387513
 31
0.0
  0
LINE
  5
335
330
1F
100
AcDbEntity
  8
0
 62
     7
370
    15
100
AcDbLine
 10
294.399564
 20
384.387513
 30
0.0
 11
294.750658
 21
384.570283
 31
0.0
  0
LINE
  5
336
330
1F
100
AcDbEntity
  8
0
 62
     7
370
    15
100
AcDbLine
 10
294.750658
 20
384.570283
 30
0.0
 11
295.298469
 21
384.855454
 31
0.0
  0
LINE
  5
337
330
1F
100
AcDbEntity
  8
0
 62
     7
370
    40
100
AcDbLine
 10
295.298469
 20
386.554037
 30
0.0
 11
295.298469
 21
384.855454
 31
0.0
  0
LINE
  5
338
330
1F
100
AcDbEntity
  8
0
 62
     7
370
    15
100
AcDbLine
 10
295.298469
 20
386.554037
 30
0.0
 11
294.947372
 21
386.736807
 31
0.0
  0
LINE
  5
339
330
1F
100
AcDbEntity
  8
0
 62
     7
370
    15
100
AcDbLine
 10
294.947372
 20
386.736807
 30
0.0
 11
294.596278
 21
386.919574
 31
0.0
  0
LINE
  5
33A
330
1F
100
AcDbEntity
  8
0
 62
     7
370
    15
100
AcDbLine
 10
294.596278
 20
386.919574
 30
0.0
 11
294.048467
 21
387.204745
 31
0.0
  0
LINE
  5
33B
330
1F
100
AcDbEntity
  8
0
 62
     7
370
    15
100
AcDbLine
 10
294.048467
 20
387.204745
 30
0.0
 11
294.399564
 21
387.387515
 31
0.0
  0
LINE
  5
33C
330
1F
100
AcDbEntity
  8
0
 62
     7
370
    15
100
AcDbLine
 10
294.399564
 20
387.387515
 30
0.0
 11
294.750658
 21
387.570281
 31
0.0
  0
LINE
  5
33D
330
1F
100
AcDbEntity
  8
0
 62
     7
370
    15
100
AcDbLine
 10
294.750658
 20
387.570281
 30
0.0
 11
295.298469
 21
387.855456
 31
0.0
  0
LINE
  5
33E
330
1F
100
AcDbEntity
  8
0
 62
     7
370
    40
100
AcDbLine
 10
295.298469
 20
389.554036
 30
0.0
 11
295.298469
 21
387.855456
 31
0.0
  0
LINE
  5
33F
330
1F
100
AcDbEntity
  8
0
 62
     7
370
    15
100
AcDbLine
 10
295.298469
 20
389.554036
 30
0.0
 11
294.947372
 21
389.736806
 31
0.0
  0
LINE
  5
340
330
1F
100
AcDbEntity
  8
0
 62
     7
370
    15
100
AcDbLine
 10
294.947372
 20
389.736806
 30
0.0
 11
294.596278
 21
389.919572
 31
0.0
  0
LINE
  5
341
330
1F
100
AcDbEntity
  8
0
 62
     7
370
    15
100
AcDbLine
 10
294.596278
 20
389.919572
 30
0.0
 11
294.048467
 21
390.204747
 31
0.0
  0
LINE
  5
342
330
1F
100
AcDbEntity
  8
0
 62
     7
370
    15
100
AcDbLine
 10
294.048467
 20
390.204747
 30
0.0
 11
294.399564
 21
390.387514
 31
0.0
  0
LINE
  5
343
330
1F
100
AcDbEntity
  8
0
 62
     7
370
    15
100
AcDbLine
 10
294.399564
 20
390.387514
 30
0.0
 11
294.750658
 21
390.570284
 31
0.0
  0
LINE
  5
344
330
1F
100
AcDbEntity
  8
0
 62
     7
370
    15
100
AcDbLine
 10
294.750658
 20
390.570284
 30
0.0
 11
295.298469
 21
390.855455
 31
0.0
  0
LINE
  5
345
330
1F
100
AcDbEntity
  8
0
 62
     7
370
    40
100
AcDbLine
 10
295.298469
 20
392.554038
 30
0.0
 11
295.298469
 21
390.855455
 31
0.0
  0
LINE
  5
346
330
1F
100
AcDbEntity
  8
0
 62
     7
370
    15
100
AcDbLine
 10
295.298469
 20
392.554038
 30
0.0
 11
294.947372
 21
392.736805
 31
0.0
  0
LINE
  5
347
330
1F
100
AcDbEntity
  8
0
 62
     7
370
    15
100
AcDbLine
 10
294.947372
 20
392.736805
 30
0.0
 11
294.596278
 21
392.919575
 31
0.0
  0
LINE
  5
348
330
1F
100
AcDbEntity
  8
0
 62
     7
370
    15
100
AcDbLine
 10
294.596278
 20
392.919575
 30
0.0
 11
294.048467
 21
393.204746
 31
0.0
  0
LINE
  5
349
330
1F
100
AcDbEntity
  8
0
 62
     7
370
    15
100
AcDbLine
 10
294.048467
 20
393.204746
 30
0.0
 11
294.399564
 21
393.387516
 31
0.0
  0
LINE
  5
34A
330
1F
100
AcDbEntity
  8
0
 62
     7
370
    15
100
AcDbLine
 10
294.399564
 20
393.387516
 30
0.0
 11
294.750658
 21
393.570282
 31
0.0
  0
LINE
  5
34B
330
1F
100
AcDbEntity
  8
0
 62
     7
370
    15
100
AcDbLine
 10
294.750658
 20
393.570282
 30
0.0
 11
295.298469
 21
393.855453
 31
0.0
  0
LINE
  5
34C
330
1F
100
AcDbEntity
  8
0
 62
     7
370
    40
100
AcDbLine
 10
295.298469
 20
395.554037
 30
0.0
 11
295.298469
 21
393.855453
 31
0.0
  0
LINE
  5
34D
330
1F
100
AcDbEntity
  8
0
 62
     7
370
    15
100
AcDbLine
 10
295.298469
 20
395.554037
 30
0.0
 11
294.947372
 21
395.736807
 31
0.0
  0
LINE
  5
34E
330
1F
100
AcDbEntity
  8
0
 62
     7
370
    15
100
AcDbLine
 10
294.947372
 20
395.736807
 30
0.0
 11
294.596278
 21
395.919573
 31
0.0
  0
LINE
  5
34F
330
1F
100
AcDbEntity
  8
0
 62
     7
370
    15
100
AcDbLine
 10
294.596278
 20
395.919573
 30
0.0
 11
294.048467
 21
396.204744
 31
0.0
  0
LINE
  5
350
330
1F
100
AcDbEntity
  8
0
 62
     7
370
    15
100
AcDbLine
 10
294.048467
 20
396.204744
 30
0.0
 11
294.399564
 21
396.387515
 31
0.0
  0
LINE
  5
351
330
1F
100
AcDbEntity
  8
0
 62
     7
370
    15
100
AcDbLine
 10
294.399564
 20
396.387515
 30
0.0
 11
294.750658
 21
396.570285
 31
0.0
  0
LINE
  5
352
330
1F
100
AcDbEntity
  8
0
 62
     7
370
    15
100
AcDbLine
 10
294.750658
 20
396.570285
 30
0.0
 11
295.298469
 21
396.855456
 31
0.0
  0
LINE
  5
353
330
1F
100
AcDbEntity
  8
0
 62
     7
370
    40
100
AcDbLine
 10
295.298469
 20
397.484974
 30
0.0
 11
295.298469
 21
396.855456
 31
0.0
  0
LINE
  5
354
330
1F
100
AcDbEntity
  8
0
 62
     7
370
    40
100
AcDbLine
 10
297.298466
 20
398.885389
 30
0.0
 11
295.298469
 21
397.484974
 31
0.0
  0
LINE
  5
355
330
1F
100
AcDbEntity
  8
0
 62
     7
370
    40
100
AcDbLine
 10
299.298466
 20
397.484974
 30
0.0
 11
297.298466
 21
398.885389
 31
0.0
  0
LINE
  5
356
330
1F
100
AcDbEntity
  8
0
 62
     7
370
    40
100
AcDbLine
 10
299.298466
 20
395.355456
 30
0.0
 11
299.298466
 21
397.484974
 31
0.0
  0
LINE
  5
357
330
1F
100
AcDbEntity
  8
0
 62
     7
370
    15
100
AcDbLine
 10
299.298466
 20
395.355456
 30
0.0
 11
299.649564
 21
395.172686
 31
0.0
  0
LINE
  5
358
330
1F
100
AcDbEntity
  8
0
 62
     7
370
    15
100
AcDbLine
 10
299.649564
 20
395.172686
 30
0.0
 11
300.000657
 21
394.989916
 31
0.0
  0
LINE
  5
359
330
1F
100
AcDbEntity
  8
0
 62
     7
370
    15
100
AcDbLine
 10
300.000657
 20
394.989916
 30
0.0
 11
300.548469
 21
394.704745
 31
0.0
  0
LINE
  5
35A
330
1F
100
AcDbEntity
  8
0
 62
     7
370
    15
100
AcDbLine
 10
300.548469
 20
394.704745
 30
0.0
 11
300.197371
 21
394.521979
 31
0.0
  0
LINE
  5
35B
330
1F
100
AcDbEntity
  8
0
 62
     7
370
    15
100
AcDbLine
 10
300.197371
 20
394.521979
 30
0.0
 11
299.846277
 21
394.339208
 31
0.0
  0
LINE
  5
35C
330
1F
100
AcDbEntity
  8
0
 62
     7
370
    15
100
AcDbLine
 10
299.846277
 20
394.339208
 30
0.0
 11
299.298466
 21
394.054037
 31
0.0
  0
LINE
  5
35D
330
1F
100
AcDbEntity
  8
0
 62
     7
370
    40
100
AcDbLine
 10
299.298466
 20
392.355454
 30
0.0
 11
299.298466
 21
394.054037
 31
0.0
  0
LINE
  5
35E
330
1F
100
AcDbEntity
  8
0
 62
     7
370
    15
100
AcDbLine
 10
299.298466
 20
392.355454
 30
0.0
 11
299.649564
 21
392.172688
 31
0.0
  0
LINE
  5
35F
330
1F
100
AcDbEntity
  8
0
 62
     7
370
    15
100
AcDbLine
 10
299.649564
 20
392.172688
 30
0.0
 11
300.000657
 21
391.989917
 31
0.0
  0
LINE
  5
360
330
1F
100
AcDbEntity
  8
0
 62
     7
370
    15
100
AcDbLine
 10
300.000657
 20
391.989917
 30
0.0
 11
300.548469
 21
391.704746
 31
0.0
  0
LINE
  5
361
330
1F
100
AcDbEntity
  8
0
 62
     7
370
    15
100
AcDbLine
 10
300.548469
 20
391.704746
 30
0.0
 11
300.197371
 21
391.521976
 31
0.0
  0
LINE
  5
362
330
1F
100
AcDbEntity
  8
0
 62
     7
370
    15
100
AcDbLine
 10
300.197371
 20
391.521976
 30
0.0
 11
299.846277
 21
391.33921
 31
0.0
  0
LINE
  5
363
330
1F
100
AcDbEntity
  8
0
 62
     7
370
    15
100
AcDbLine
 10
299.846277
 20
391.33921
 30
0.0
 11
299.298466
 21
391.054039
 31
0.0
  0
LINE
  5
364
330
1F
100
AcDbEntity
  8
0
 62
     7
370
    40
100
AcDbLine
 10
299.298466
 20
389.355455
 30
0.0
 11
299.298466
 21
391.054039
 31
0.0
  0
LINE
  5
365
330
1F
100
AcDbEntity
  8
0
 62
     7
370
    15
100
AcDbLine
 10
299.298466
 20
389.355455
 30
0.0
 11
299.649564
 21
389.172685
 31
0.0
  0
LINE
  5
366
330
1F
100
AcDbEntity
  8
0
 62
     7
370
    15
100
AcDbLine
 10
299.649564
 20
389.172685
 30
0.0
 11
300.000657
 21
388.989919
 31
0.0
  0
LINE
  5
367
330
1F
100
AcDbEntity
  8
0
 62
     7
370
    15
100
AcDbLine
 10
300.000657
 20
388.989919
 30
0.0
 11
300.548469
 21
388.704744
 31
0.0
  0
LINE
  5
368
330
1F
100
AcDbEntity
  8
0
 62
     7
370
    15
100
AcDbLine
 10
300.548469
 20
388.704744
 30
0.0
 11
300.197371
 21
388.521978
 31
0.0
  0
LINE
  5
369
330
1F
100
AcDbEntity
  8
0
 62
     7
370
    15
100
AcDbLine
 10
300.197371
 20
388.521978
 30
0.0
 11
299.846277
 21
388.339207
 31
0.0
  0
LINE
  5
36A
330
1F
100
AcDbEntity
  8
0
 62
     7
370
    15
100
AcDbLine
 10
299.846277
 20
388.339207
 30
0.0
 11
299.298466
 21
388.054037
 31
0.0
  0
LINE
  5
36B
330
1F
100
AcDbEntity
  8
0
 62
     7
370
    40
100
AcDbLine
 10
299.298466
 20
386.355453
 30
0.0
 11
299.298466
 21
388.054037
 31
0.0
  0
LINE
  5
36C
330
1F
100
AcDbEntity
  8
0
 62
     7
370
    15
100
AcDbLine
 10
299.298466
 20
386.355453
 30
0.0
 11
299.649564
 21
386.172687
 31
0.0
  0
LINE
  5
36D
330
1F
100
AcDbEntity
  8
0
 62
     7
370
    15
100
AcDbLine
 10
299.649564
 20
386.172687
 30
0.0
 11
300.000657
 21
385.989916
 31
0.0
  0
LINE
  5
36E
330
1F
100
AcDbEntity
  8
0
 62
     7
370
    15
100
AcDbLine
 10
300.000657
 20
385.989916
 30
0.0
 11
300.548469
 21
385.704746
 31
0.0
  0
LINE
  5
36F
330
1F
100
AcDbEntity
  8
0
 62
     7
370
    15
100
AcDbLine
 10
300.548469
 20
385.704746
 30
0.0
 11
300.197371
 21
385.521979
 31
0.0
  0
LINE
  5
370
330
1F
100
AcDbEntity
  8
0
 62
     7
370
    15
100
AcDbLine
 10
300.197371
 20
385.521979
 30
0.0
 11
299.846277
 21
385.339209
 31
0.0
  0
LINE
  5
371
330
1F
100
AcDbEntity
  8
0
 62
     7
370
    15
100
AcDbLine
 10
299.846277
 20
385.339209
 30
0.0
 11
299.298466
 21
385.054038
 31
0.0
  0
LINE
  5
372
330
1F
100
AcDbEntity
  8
0
 62
     7
370
    40
100
AcDbLine
 10
299.298466
 20
383.355455
 30
0.0
 11
299.298466
 21
385.054038
 31
0.0
  0
LINE
  5
373
330
1F
100
AcDbEntity
  8
0
 62
     7
370
    15
100
AcDbLine
 10
299.298466
 20
383.355455
 30
0.0
 11
299.649564
 21
383.172684
 31
0.0
  0
LINE
  5
374
330
1F
100
AcDbEntity
  8
0
 62
     7
370
    15
100
AcDbLine
 10
299.649564
 20
383.172684
 30
0.0
 11
300.000657
 21
382.989918
 31
0.0
  0
LINE
  5
375
330
1F
100
AcDbEntity
  8
0
 62
     7
370
    15
100
AcDbLine
 10
300.000657
 20
382.989918
 30
0.0
 11
300.548469
 21
382.704747
 31
0.0
  0
LINE
  5
376
330
1F
100
AcDbEntity
  8
0
 62
     7
370
    15
100
AcDbLine
 10
300.548469
 20
382.704747
 30
0.0
 11
300.197371
 21
382.521977
 31
0.0
  0
LINE
  5
377
330
1F
100
AcDbEntity
  8
0
 62
     7
370
    15
100
AcDbLine
 10
300.197371
 20
382.521977
 30
0.0
 11
299.846277
 21
382.33921
 31
0.0
  0
LINE
  5
378
330
1F
100
AcDbEntity
  8
0
 62
     7
370
    15
100
AcDbLine
 10
299.846277
 20
382.33921
 30
0.0
 11
299.298466
 21
382.054036
 31
0.0
  0
LINE
  5
379
330
1F
100
AcDbEntity
  8
0
 62
     7
370
    40
100
AcDbLine
 10
299.298466
 20
380.355456
 30
0.0
 11
299.298466
 21
382.054036
 31
0.0
  0
LINE
  5
37A
330
1F
100
AcDbEntity
  8
0
 62
     7
370
    15
100
AcDbLine
 10
299.298466
 20
380.355456
 30
0.0
 11
299.649564
 21
380.172686
 31
0.0
  0
LINE
  5
37B
330
1F
100
AcDbEntity
  8
0
 62
     7
370
    15
100
AcDbLine
 10
299.649564
 20
380.172686
 30
0.0
 11
300.000657
 21
379.989919
 31
0.0
  0
LINE
  5
37C
330
1F
100
AcDbEntity
  8
0
 62
     7
370
    15
100
AcDbLine
 10
300.000657
 20
379.989919
 30
0.0
 11
300.548469
 21
379.704745
 31
0.0
  0
LINE
  5
37D
330
1F
100
AcDbEntity
  8
0
 62
     7
370
    15
100
AcDbLine
 10
300.548469
 20
379.704745
 30
0.0
 11
300.197371
 21
379.521978
 31
0.0
  0
LINE
  5
37E
330
1F
100
AcDbEntity
  8
0
 62
     7
370
    15
100
AcDbLine
 10
300.197371
 20
379.521978
 30
0.0
 11
299.846277
 21
379.339208
 31
0.0
  0
LINE
  5
37F
330
1F
100
AcDbEntity
  8
0
 62
     7
370
    15
100
AcDbLine
 10
299.846277
 20
379.339208
 30
0.0
 11
299.298466
 21
379.054037
 31
0.0
  0
LINE
  5
380
330
1F
100
AcDbEntity
  8
0
 62
     7
370
    40
100
AcDbLine
 10
299.298466
 20
377.355454
 30
0.0
 11
299.298466
 21
379.054037
 31
0.0
  0
LINE
  5
381
330
1F
100
AcDbEntity
  8
0
 62
     7
370
    15
100
AcDbLine
 10
299.298466
 20
377.355454
 30
0.0
 11
299.649564
 21
377.172687
 31
0.0
  0
LINE
  5
382
330
1F
100
AcDbEntity
  8
0
 62
     7
370
    15
100
AcDbLine
 10
299.649564
 20
377.172687
 30
0.0
 11
300.000657
 21
376.989917
 31
0.0
  0
LINE
  5
383
330
1F
100
AcDbEntity
  8
0
 62
     7
370
    15
100
AcDbLine
 10
300.000657
 20
376.989917
 30
0.0
 11
300.548469
 21
376.704746
 31
0.0
  0
LINE
  5
384
330
1F
100
AcDbEntity
  8
0
 62
     7
370
    15
100
AcDbLine
 10
300.548469
 20
376.704746
 30
0.0
 11
300.197371
 21
376.521976
 31
0.0
  0
LINE
  5
385
330
1F
100
AcDbEntity
  8
0
 62
     7
370
    15
100
AcDbLine
 10
300.197371
 20
376.521976
 30
0.0
 11
299.846277
 21
376.339209
 31
0.0
  0
LINE
  5
386
330
1F
100
AcDbEntity
  8
0
 62
     7
370
    15
100
AcDbLine
 10
299.846277
 20
376.339209
 30
0.0
 11
299.298466
 21
376.054038
 31
0.0
  0
LINE
  5
387
330
1F
100
AcDbEntity
  8
0
 62
     7
370
    40
100
AcDbLine
 10
299.298466
 20
373.885387
 30
0.0
 11
299.298466
 21
376.054038
 31
0.0
  0
LINE
  5
388
330
1F
100
AcDbEntity
  8
0
 62
     7
370
    40
100
AcDbLine
 10
302.548469
 20
373.885387
 30
0.0
 11
299.298466
 21
373.885387
 31
0.0
  0
LINE
  5
389
330
1F
100
AcDbEntity
  8
0
 62
     7
370
    40
100
AcDbLine
 10
302.548469
 20
371.085388
 30
0.0
 11
302.548469
 21
373.885387
 31
0.0
  0
LINE
  5
38A
330
1F
100
AcDbEntity
  8
0
 62
     7
370
    40
100
AcDbLine
 10
301.798467
 20
370.885388
 30
0.0
 11
302.348468
 21
370.885388
 31
0.0
  0
LINE
  5
38B
330
1F
100
AcDbEntity
  8
0
 62
     7
370
    40
100
AcDbLine
 10
298.351844
 20
369.885388
 30
0.0
 11
300.251755
 21
369.885388
 31
0.0
  0
LINE
  5
38C
330
1F
100
AcDbEntity
  8
0
 62
     7
370
    40
100
AcDbLine
 10
298.351844
 20
371.885386
 30
0.0
 11
298.351844
 21
369.885388
 31
0.0
  0
LINE
  5
38D
330
1F
100
AcDbEntity
  8
0
 62
     7
370
    40
100
AcDbLine
 10
298.351844
 20
371.885386
 30
0.0
 11
296.245092
 21
371.885386
 31
0.0
  0
LINE
  5
38E
330
1F
100
AcDbEntity
  8
0
 62
     7
370
    40
100
AcDbLine
 10
300.548469
 20
379.704745
 30
0.0
 11
300.545911
 21
379.729307
 31
0.0
  0
LINE
  5
38F
330
1F
100
AcDbEntity
  8
0
 62
     7
370
    40
100
AcDbLine
 10
300.545911
 20
379.729307
 30
0.0
 11
300.540534
 21
379.780948
 31
0.0
  0
LINE
  5
390
330
1F
100
AcDbEntity
  8
0
 62
     7
370
    40
100
AcDbLine
 10
300.540534
 20
379.780948
 30
0.0
 11
300.387747
 21
379.83724
 31
0.0
  0
LINE
  5
391
330
1F
100
AcDbEntity
  8
0
 62
     7
370
    40
100
AcDbLine
 10
300.387747
 20
379.83724
 30
0.0
 11
300.307632
 21
379.866757
 31
0.0
  0
LINE
  5
392
330
1F
100
AcDbEntity
  8
0
 62
     7
370
    40
100
AcDbLine
 10
294.218224
 20
381.060199
 30
0.0
 11
294.211393
 21
381.062493
 31
0.0
  0
LINE
  5
393
330
1F
100
AcDbEntity
  8
0
 62
     7
370
    40
100
AcDbLine
 10
294.211393
 20
381.062493
 30
0.0
 11
294.055857
 21
381.114715
 31
0.0
  0
LINE
  5
394
330
1F
100
AcDbEntity
  8
0
 62
     7
370
    40
100
AcDbLine
 10
294.055857
 20
381.114715
 30
0.0
 11
294.052079
 21
381.160742
 31
0.0
  0
LINE
  5
395
330
1F
100
AcDbEntity
  8
0
 62
     7
370
    40
100
AcDbLine
 10
294.052079
 20
381.160742
 30
0.0
 11
294.048467
 21
381.204748
 31
0.0
  0
LINE
  5
396
330
1F
100
AcDbEntity
  8
0
 62
     7
370
    40
100
AcDbLine
 10
300.548469
 20
376.704746
 30
0.0
 11
300.545911
 21
376.729307
 31
0.0
  0
LINE
  5
397
330
1F
100
AcDbEntity
  8
0
 62
     7
370
    40
100
AcDbLine
 10
300.545911
 20
376.729307
 30
0.0
 11
300.540533
 21
376.780944
 31
0.0
  0
LINE
  5
398
330
1F
100
AcDbEntity
  8
0
 62
     7
370
    40
100
AcDbLine
 10
300.540533
 20
376.780944
 30
0.0
 11
300.387747
 21
376.83724
 31
0.0
  0
LINE
  5
399
330
1F
100
AcDbEntity
  8
0
 62
     7
370
    40
100
AcDbLine
 10
300.387747
 20
376.83724
 30
0.0
 11
300.307632
 21
376.866759
 31
0.0
  0
LINE
  5
39A
330
1F
100
AcDbEntity
  8
0
 62
     7
370
    40
100
AcDbLine
 10
294.218224
 20
378.060196
 30
0.0
 11
294.211393
 21
378.06249
 31
0.0
  0
LINE
  5
39B
330
1F
100
AcDbEntity
  8
0
 62
     7
370
    40
100
AcDbLine
 10
294.211393
 20
378.06249
 30
0.0
 11
294.055857
 21
378.114713
 31
0.0
  0
LINE
  5
39C
330
1F
100
AcDbEntity
  8
0
 62
     7
370
    40
100
AcDbLine
 10
294.055857
 20
378.114713
 30
0.0
 11
294.052079
 21
378.16074
 31
0.0
  0
LINE
  5
39D
330
1F
100
AcDbEntity
  8
0
 62
     7
370
    40
100
AcDbLine
 10
294.052079
 20
378.16074
 30
0.0
 11
294.048467
 21
378.204745
 31
0.0
  0
LINE
  5
39E
330
1F
100
AcDbEntity
  8
0
 62
     7
370
    40
100
AcDbLine
 10
300.548469
 20
382.704747
 30
0.0
 11
300.545911
 21
382.729308
 31
0.0
  0
LINE
  5
39F
330
1F
100
AcDbEntity
  8
0
 62
     7
370
    40
100
AcDbLine
 10
300.545911
 20
382.729308
 30
0.0
 11
300.540533
 21
382.780945
 31
0.0
  0
LINE
  5
3A0
330
1F
100
AcDbEntity
  8
0
 62
     7
370
    40
100
AcDbLine
 10
300.540533
 20
382.780945
 30
0.0
 11
300.387747
 21
382.837241
 31
0.0
  0
LINE
  5
3A1
330
1F
100
AcDbEntity
  8
0
 62
     7
370
    40
100
AcDbLine
 10
300.387747
 20
382.837241
 30
0.0
 11
300.307632
 21
382.86676
 31
0.0
  0
LINE
  5
3A2
330
1F
100
AcDbEntity
  8
0
 62
     7
370
    40
100
AcDbLine
 10
294.218224
 20
384.060197
 30
0.0
 11
294.211393
 21
384.062491
 31
0.0
  0
LINE
  5
3A3
330
1F
100
AcDbEntity
  8
0
 62
     7
370
    40
100
AcDbLine
 10
294.211393
 20
384.062491
 30
0.0
 11
294.055857
 21
384.114714
 31
0.0
  0
LINE
  5
3A4
330
1F
100
AcDbEntity
  8
0
 62
     7
370
    40
100
AcDbLine
 10
294.055857
 20
384.114714
 30
0.0
 11
294.052079
 21
384.160741
 31
0.0
  0
LINE
  5
3A5
330
1F
100
AcDbEntity
  8
0
 62
     7
370
    40
100
AcDbLine
 10
294.052079
 20
384.160741
 30
0.0
 11
294.048467
 21
384.204746
 31
0.0
  0
LINE
  5
3A6
330
1F
100
AcDbEntity
  8
0
 62
     7
370
    40
100
AcDbLine
 10
297.302935819
 20
369.90639127
 30
0.0
 11
297.306467
 21
369.897977
 31
0.0
  0
LINE
  5
3A7
330
1F
100
AcDbEntity
  8
0
 62
     7
370
    40
100
AcDbLine
 10
297.306467
 20
369.897977
 30
0.0
 11
297.311254
 21
369.886569
 31
0.0
  0
LINE
  5
3A8
330
1F
100
AcDbEntity
  8
0
 62
     7
370
    40
100
AcDbLine
 10
297.311254
 20
369.886569
 30
0.0
 11
297.316342
 21
369.885633
 31
0.0
  0
LINE
  5
3A9
330
1F
100
AcDbEntity
  8
0
 62
     7
370
    40
100
AcDbLine
 10
297.316342
 20
369.885633
 30
0.0
 11
297.317677
 21
369.885388
 31
0.0
  0
LINE
  5
3AA
330
1F
100
AcDbEntity
  8
0
 62
     7
370
    40
100
AcDbLine
 10
298.351844
 20
369.885388
 30
0.0
 11
298.295264
 21
369.885388
 31
0.0
  0
LINE
  5
3AB
330
1F
100
AcDbEntity
  8
0
 62
     7
370
    40
100
AcDbLine
 10
296.516274
 20
371.385389
 30
0.0
 11
296.516274
 21
369.885388
 31
0.0
  0
LINE
  5
3AC
330
1F
100
AcDbEntity
  8
0
 62
     7
370
    40
100
AcDbLine
 10
297.502917
 20
369.885388
 30
0.0
 11
297.502917
 21
371.385389
 31
0.0
  0
LINE
  5
3AD
330
1F
100
AcDbEntity
  8
0
 62
     7
370
    40
100
AcDbLine
 10
296.516274
 20
371.385389
 30
0.0
 11
297.502917
 21
371.385389
 31
0.0
  0
LINE
  5
3AE
330
1F
100
AcDbEntity
  8
0
 62
     7
370
    40
100
AcDbLine
 10
296.245092
 20
369.885388
 30
0.0
 11
296.516274
 21
369.885388
 31
0.0
  0
LINE
  5
3AF
330
1F
100
AcDbEntity
  8
0
 62
     7
370
    40
100
AcDbLine
 10
297.502917
 20
369.885388
 30
0.0
 11
298.295264
 21
369.885388
 31
0.0
  0
LINE
  5
3B0
330
1F
100
AcDbEntity
  8
0
 62
     7
370
    40
100
AcDbLine
 10
297.180955
 20
371.385389
 30
0.0
 11
297.1809554895
 21
370.3356079356
 31
0.0
  0
LINE
  5
3B1
330
1F
100
AcDbEntity
  8
0
 62
     7
370
    40
100
AcDbLine
 10
297.317677
 20
369.885388
 30
0.0
 11
297.502917
 21
369.885388
 31
0.0
  0
LINE
  5
3B2
330
1F
100
AcDbEntity
  8
0
 62
     7
370
    40
100
AcDbLine
 10
295.524911
 20
468.985391
 30
0.0
 11
293.548205
 21
468.985391
 31
0.0
  0
LINE
  5
3B3
330
1F
100
AcDbEntity
  8
0
 62
     7
370
    40
100
AcDbLine
 10
295.524911
 20
468.985391
 30
0.0
 11
295.524911
 21
468.485382
 31
0.0
  0
LINE
  5
3B4
330
1F
100
AcDbEntity
  8
0
 62
     7
370
    40
100
AcDbLine
 10
295.524911
 20
468.485382
 30
0.0
 11
299.072024
 21
468.485382
 31
0.0
  0
LINE
  5
3B5
330
1F
100
AcDbEntity
  8
0
 62
     7
370
    40
100
AcDbLine
 10
299.072024
 20
468.985391
 30
0.0
 11
299.072024
 21
468.485382
 31
0.0
  0
LINE
  5
3B6
330
1F
100
AcDbEntity
  8
0
 62
     7
370
    40
100
AcDbLine
 10
301.04873
 20
468.985391
 30
0.0
 11
299.072024
 21
468.985391
 31
0.0
  0
LINE
  5
3B7
330
1F
100
AcDbEntity
  8
0
 62
     7
370
    40
100
AcDbLine
 10
301.04873
 20
468.985391
 30
0.0
 11
301.04873
 21
470.056978
 31
0.0
  0
LINE
  5
3B8
330
1F
100
AcDbEntity
  8
0
 62
     7
370
    40
100
AcDbLine
 10
302.348469
 20
469.485384
 30
0.0
 11
301.7984680094
 21
469.4853879917
 31
0.0
  0
LINE
  5
3B9
330
1F
100
AcDbEntity
  8
0
 62
     7
370
    40
100
AcDbLine
 10
302.548469
 20
466.485393
 30
0.0
 11
302.548468
 21
469.285388
 31
0.0
  0
LINE
  5
3BA
330
1F
100
AcDbEntity
  8
0
 62
     7
370
    40
100
AcDbLine
 10
299.298466
 20
466.485393
 30
0.0
 11
302.548469
 21
466.485393
 31
0.0
  0
LINE
  5
3BB
330
1F
100
AcDbEntity
  8
0
 62
     7
370
    40
100
AcDbLine
 10
299.298466
 20
464.986724
 30
0.0
 11
299.298466
 21
466.485393
 31
0.0
  0
LINE
  5
3BC
330
1F
100
AcDbEntity
  8
0
 62
     7
370
    15
100
AcDbLine
 10
299.298466
 20
464.986724
 30
0.0
 11
299.649564
 21
464.803946
 31
0.0
  0
LINE
  5
3BD
330
1F
100
AcDbEntity
  8
0
 62
     7
370
    15
100
AcDbLine
 10
299.649564
 20
464.803946
 30
0.0
 11
300.000657
 21
464.621183
 31
0.0
  0
LINE
  5
3BE
330
1F
100
AcDbEntity
  8
0
 62
     7
370
    15
100
AcDbLine
 10
300.000657
 20
464.621183
 30
0.0
 11
300.548469
 21
464.336012
 31
0.0
  0
LINE
  5
3BF
330
1F
100
AcDbEntity
  8
0
 62
     7
370
    15
100
AcDbLine
 10
300.548469
 20
464.336012
 30
0.0
 11
300.197371
 21
464.153242
 31
0.0
  0
LINE
  5
3C0
330
1F
100
AcDbEntity
  8
0
 62
     7
370
    15
100
AcDbLine
 10
300.197371
 20
464.153242
 30
0.0
 11
299.846277
 21
463.970472
 31
0.0
  0
LINE
  5
3C1
330
1F
100
AcDbEntity
  8
0
 62
     7
370
    15
100
AcDbLine
 10
299.846277
 20
463.970472
 30
0.0
 11
299.298466
 21
463.685301
 31
0.0
  0
LINE
  5
3C2
330
1F
100
AcDbEntity
  8
0
 62
     7
370
    40
100
AcDbLine
 10
299.298466
 20
461.986718
 30
0.0
 11
299.298466
 21
463.685301
 31
0.0
  0
LINE
  5
3C3
330
1F
100
AcDbEntity
  8
0
 62
     7
370
    15
100
AcDbLine
 10
299.298466
 20
461.986718
 30
0.0
 11
299.649564
 21
461.803948
 31
0.0
  0
LINE
  5
3C4
330
1F
100
AcDbEntity
  8
0
 62
     7
370
    15
100
AcDbLine
 10
299.649564
 20
461.803948
 30
0.0
 11
300.000657
 21
461.621185
 31
0.0
  0
LINE
  5
3C5
330
1F
100
AcDbEntity
  8
0
 62
     7
370
    15
100
AcDbLine
 10
300.000657
 20
461.621185
 30
0.0
 11
300.548469
 21
461.336014
 31
0.0
  0
LINE
  5
3C6
330
1F
100
AcDbEntity
  8
0
 62
     7
370
    15
100
AcDbLine
 10
300.548469
 20
461.336014
 30
0.0
 11
300.197371
 21
461.153244
 31
0.0
  0
LINE
  5
3C7
330
1F
100
AcDbEntity
  8
0
 62
     7
370
    15
100
AcDbLine
 10
300.197371
 20
461.153244
 30
0.0
 11
299.846277
 21
460.970473
 31
0.0
  0
LINE
  5
3C8
330
1F
100
AcDbEntity
  8
0
 62
     7
370
    15
100
AcDbLine
 10
299.846277
 20
460.970473
 30
0.0
 11
299.298466
 21
460.685302
 31
0.0
  0
LINE
  5
3C9
330
1F
100
AcDbEntity
  8
0
 62
     7
370
    40
100
AcDbLine
 10
299.298466
 20
458.986719
 30
0.0
 11
299.298466
 21
460.685302
 31
0.0
  0
LINE
  5
3CA
330
1F
100
AcDbEntity
  8
0
 62
     7
370
    15
100
AcDbLine
 10
299.298466
 20
458.986719
 30
0.0
 11
299.649564
 21
458.803949
 31
0.0
  0
LINE
  5
3CB
330
1F
100
AcDbEntity
  8
0
 62
     7
370
    15
100
AcDbLine
 10
299.649564
 20
458.803949
 30
0.0
 11
300.000657
 21
458.621186
 31
0.0
  0
LINE
  5
3CC
330
1F
100
AcDbEntity
  8
0
 62
     7
370
    15
100
AcDbLine
 10
300.000657
 20
458.621186
 30
0.0
 11
300.548469
 21
458.336008
 31
0.0
  0
LINE
  5
3CD
330
1F
100
AcDbEntity
  8
0
 62
     7
370
    15
100
AcDbLine
 10
300.548469
 20
458.336008
 30
0.0
 11
300.197371
 21
458.153245
 31
0.0
  0
LINE
  5
3CE
330
1F
100
AcDbEntity
  8
0
 62
     7
370
    15
100
AcDbLine
 10
300.197371
 20
458.153245
 30
0.0
 11
299.846277
 21
457.970475
 31
0.0
  0
LINE
  5
3CF
330
1F
100
AcDbEntity
  8
0
 62
     7
370
    15
100
AcDbLine
 10
299.846277
 20
457.970475
 30
0.0
 11
299.298466
 21
457.685304
 31
0.0
  0
LINE
  5
3D0
330
1F
100
AcDbEntity
  8
0
 62
     7
370
    40
100
AcDbLine
 10
299.298466
 20
455.98672
 30
0.0
 11
299.298466
 21
457.685304
 31
0.0
  0
LINE
  5
3D1
330
1F
100
AcDbEntity
  8
0
 62
     7
370
    15
100
AcDbLine
 10
299.298466
 20
455.98672
 30
0.0
 11
299.649564
 21
455.80395
 31
0.0
  0
LINE
  5
3D2
330
1F
100
AcDbEntity
  8
0
 62
     7
370
    15
100
AcDbLine
 10
299.649564
 20
455.80395
 30
0.0
 11
300.000657
 21
455.62118
 31
0.0
  0
LINE
  5
3D3
330
1F
100
AcDbEntity
  8
0
 62
     7
370
    15
100
AcDbLine
 10
300.000657
 20
455.62118
 30
0.0
 11
300.548469
 21
455.336009
 31
0.0
  0
LINE
  5
3D4
330
1F
100
AcDbEntity
  8
0
 62
     7
370
    15
100
AcDbLine
 10
300.548469
 20
455.336009
 30
0.0
 11
300.197371
 21
455.153239
 31
0.0
  0
LINE
  5
3D5
330
1F
100
AcDbEntity
  8
0
 62
     7
370
    15
100
AcDbLine
 10
300.197371
 20
455.153239
 30
0.0
 11
299.846277
 21
454.970476
 31
0.0
  0
LINE
  5
3D6
330
1F
100
AcDbEntity
  8
0
 62
     7
370
    15
100
AcDbLine
 10
299.846277
 20
454.970476
 30
0.0
 11
299.298466
 21
454.685305
 31
0.0
  0
LINE
  5
3D7
330
1F
100
AcDbEntity
  8
0
 62
     7
370
    40
100
AcDbLine
 10
299.298466
 20
452.986722
 30
0.0
 11
299.298466
 21
454.685305
 31
0.0
  0
LINE
  5
3D8
330
1F
100
AcDbEntity
  8
0
 62
     7
370
    15
100
AcDbLine
 10
299.298466
 20
452.986722
 30
0.0
 11
299.649564
 21
452.803952
 31
0.0
  0
LINE
  5
3D9
330
1F
100
AcDbEntity
  8
0
 62
     7
370
    15
100
AcDbLine
 10
299.649564
 20
452.803952
 30
0.0
 11
300.000657
 21
452.621181
 31
0.0
  0
LINE
  5
3DA
330
1F
100
AcDbEntity
  8
0
 62
     7
370
    15
100
AcDbLine
 10
300.000657
 20
452.621181
 30
0.0
 11
300.548469
 21
452.33601
 31
0.0
  0
LINE
  5
3DB
330
1F
100
AcDbEntity
  8
0
 62
     7
370
    15
100
AcDbLine
 10
300.548469
 20
452.33601
 30
0.0
 11
300.197371
 21
452.15324
 31
0.0
  0
LINE
  5
3DC
330
1F
100
AcDbEntity
  8
0
 62
     7
370
    15
100
AcDbLine
 10
300.197371
 20
452.15324
 30
0.0
 11
299.846277
 21
451.970478
 31
0.0
  0
LINE
  5
3DD
330
1F
100
AcDbEntity
  8
0
 62
     7
370
    15
100
AcDbLine
 10
299.846277
 20
451.970478
 30
0.0
 11
299.298466
 21
451.685299
 31
0.0
  0
LINE
  5
3DE
330
1F
100
AcDbEntity
  8
0
 62
     7
370
    40
100
AcDbLine
 10
299.298466
 20
449.986723
 30
0.0
 11
299.298466
 21
451.685299
 31
0.0
  0
LINE
  5
3DF
330
1F
100
AcDbEntity
  8
0
 62
     7
370
    15
100
AcDbLine
 10
299.298466
 20
449.986723
 30
0.0
 11
299.649564
 21
449.803953
 31
0.0
  0
LINE
  5
3E0
330
1F
100
AcDbEntity
  8
0
 62
     7
370
    15
100
AcDbLine
 10
299.649564
 20
449.803953
 30
0.0
 11
300.000657
 21
449.621183
 31
0.0
  0
LINE
  5
3E1
330
1F
100
AcDbEntity
  8
0
 62
     7
370
    15
100
AcDbLine
 10
300.000657
 20
449.621183
 30
0.0
 11
300.548469
 21
449.336012
 31
0.0
  0
LINE
  5
3E2
330
1F
100
AcDbEntity
  8
0
 62
     7
370
    15
100
AcDbLine
 10
300.548469
 20
449.336012
 30
0.0
 11
300.197371
 21
449.153242
 31
0.0
  0
LINE
  5
3E3
330
1F
100
AcDbEntity
  8
0
 62
     7
370
    15
100
AcDbLine
 10
300.197371
 20
449.153242
 30
0.0
 11
299.846277
 21
448.970471
 31
0.0
  0
LINE
  5
3E4
330
1F
100
AcDbEntity
  8
0
 62
     7
370
    15
100
AcDbLine
 10
299.846277
 20
448.970471
 30
0.0
 11
299.298466
 21
448.685301
 31
0.0
  0
LINE
  5
3E5
330
1F
100
AcDbEntity
  8
0
 62
     7
370
    40
100
AcDbLine
 10
299.298466
 20
446.986717
 30
0.0
 11
299.298466
 21
448.685301
 31
0.0
  0
LINE
  5
3E6
330
1F
100
AcDbEntity
  8
0
 62
     7
370
    15
100
AcDbLine
 10
299.298466
 20
446.986717
 30
0.0
 11
299.649564
 21
446.803954
 31
0.0
  0
LINE
  5
3E7
330
1F
100
AcDbEntity
  8
0
 62
     7
370
    15
100
AcDbLine
 10
299.649564
 20
446.803954
 30
0.0
 11
300.000657
 21
446.621184
 31
0.0
  0
LINE
  5
3E8
330
1F
100
AcDbEntity
  8
0
 62
     7
370
    15
100
AcDbLine
 10
300.000657
 20
446.621184
 30
0.0
 11
300.548469
 21
446.336013
 31
0.0
  0
LINE
  5
3E9
330
1F
100
AcDbEntity
  8
0
 62
     7
370
    15
100
AcDbLine
 10
300.548469
 20
446.336013
 30
0.0
 11
300.197371
 21
446.153243
 31
0.0
  0
LINE
  5
3EA
330
1F
100
AcDbEntity
  8
0
 62
     7
370
    15
100
AcDbLine
 10
300.197371
 20
446.153243
 30
0.0
 11
299.846277
 21
445.970473
 31
0.0
  0
LINE
  5
3EB
330
1F
100
AcDbEntity
  8
0
 62
     7
370
    15
100
AcDbLine
 10
299.846277
 20
445.970473
 30
0.0
 11
299.298466
 21
445.685302
 31
0.0
  0
LINE
  5
3EC
330
1F
100
AcDbEntity
  8
0
 62
     7
370
    40
100
AcDbLine
 10
299.298466
 20
442.885806
 30
0.0
 11
299.298466
 21
445.685302
 31
0.0
  0
LINE
  5
3ED
330
1F
100
AcDbEntity
  8
0
 62
     7
370
    40
100
AcDbLine
 10
297.298466
 20
441.485387
 30
0.0
 11
299.298466
 21
442.885806
 31
0.0
  0
LINE
  5
3EE
330
1F
100
AcDbEntity
  8
0
 62
     7
370
    40
100
AcDbLine
 10
295.298469
 20
442.885806
 30
0.0
 11
297.298466
 21
441.485387
 31
0.0
  0
LINE
  5
3EF
330
1F
100
AcDbEntity
  8
0
 62
     7
370
    40
100
AcDbLine
 10
295.298469
 20
444.185299
 30
0.0
 11
295.298469
 21
442.885806
 31
0.0
  0
LINE
  5
3F0
330
1F
100
AcDbEntity
  8
0
 62
     7
370
    15
100
AcDbLine
 10
295.298469
 20
444.185299
 30
0.0
 11
294.947372
 21
444.368069
 31
0.0
  0
LINE
  5
3F1
330
1F
100
AcDbEntity
  8
0
 62
     7
370
    15
100
AcDbLine
 10
294.947372
 20
444.368069
 30
0.0
 11
294.596278
 21
444.550839
 31
0.0
  0
LINE
  5
3F2
330
1F
100
AcDbEntity
  8
0
 62
     7
370
    15
100
AcDbLine
 10
294.596278
 20
444.550839
 30
0.0
 11
294.048467
 21
444.83601
 31
0.0
  0
LINE
  5
3F3
330
1F
100
AcDbEntity
  8
0
 62
     7
370
    15
100
AcDbLine
 10
294.048467
 20
444.83601
 30
0.0
 11
294.399564
 21
445.01878
 31
0.0
  0
LINE
  5
3F4
330
1F
100
AcDbEntity
  8
0
 62
     7
370
    15
100
AcDbLine
 10
294.399564
 20
445.01878
 30
0.0
 11
294.750658
 21
445.201551
 31
0.0
  0
LINE
  5
3F5
330
1F
100
AcDbEntity
  8
0
 62
     7
370
    15
100
AcDbLine
 10
294.750658
 20
445.201551
 30
0.0
 11
295.298469
 21
445.486722
 31
0.0
  0
LINE
  5
3F6
330
1F
100
AcDbEntity
  8
0
 62
     7
370
    40
100
AcDbLine
 10
295.298469
 20
447.185305
 30
0.0
 11
295.298469
 21
445.486722
 31
0.0
  0
LINE
  5
3F7
330
1F
100
AcDbEntity
  8
0
 62
     7
370
    15
100
AcDbLine
 10
295.298469
 20
447.185305
 30
0.0
 11
294.947372
 21
447.368068
 31
0.0
  0
LINE
  5
3F8
330
1F
100
AcDbEntity
  8
0
 62
     7
370
    15
100
AcDbLine
 10
294.947372
 20
447.368068
 30
0.0
 11
294.596278
 21
447.550838
 31
0.0
  0
LINE
  5
3F9
330
1F
100
AcDbEntity
  8
0
 62
     7
370
    15
100
AcDbLine
 10
294.596278
 20
447.550838
 30
0.0
 11
294.048467
 21
447.836009
 31
0.0
  0
LINE
  5
3FA
330
1F
100
AcDbEntity
  8
0
 62
     7
370
    15
100
AcDbLine
 10
294.048467
 20
447.836009
 30
0.0
 11
294.399564
 21
448.018779
 31
0.0
  0
LINE
  5
3FB
330
1F
100
AcDbEntity
  8
0
 62
     7
370
    15
100
AcDbLine
 10
294.399564
 20
448.018779
 30
0.0
 11
294.750658
 21
448.201549
 31
0.0
  0
LINE
  5
3FC
330
1F
100
AcDbEntity
  8
0
 62
     7
370
    15
100
AcDbLine
 10
294.750658
 20
448.201549
 30
0.0
 11
295.298469
 21
448.48672
 31
0.0
  0
LINE
  5
3FD
330
1F
100
AcDbEntity
  8
0
 62
     7
370
    40
100
AcDbLine
 10
295.298469
 20
450.185304
 30
0.0
 11
295.298469
 21
448.48672
 31
0.0
  0
LINE
  5
3FE
330
1F
100
AcDbEntity
  8
0
 62
     7
370
    15
100
AcDbLine
 10
295.298469
 20
450.185304
 30
0.0
 11
294.947372
 21
450.368074
 31
0.0
  0
LINE
  5
3FF
330
1F
100
AcDbEntity
  8
0
 62
     7
370
    15
100
AcDbLine
 10
294.947372
 20
450.368074
 30
0.0
 11
294.596278
 21
450.550836
 31
0.0
  0
LINE
  5
400
330
1F
100
AcDbEntity
  8
0
 62
     7
370
    15
100
AcDbLine
 10
294.596278
 20
450.550836
 30
0.0
 11
294.048467
 21
450.836007
 31
0.0
  0
LINE
  5
401
330
1F
100
AcDbEntity
  8
0
 62
     7
370
    15
100
AcDbLine
 10
294.048467
 20
450.836007
 30
0.0
 11
294.399564
 21
451.018778
 31
0.0
  0
LINE
  5
402
330
1F
100
AcDbEntity
  8
0
 62
     7
370
    15
100
AcDbLine
 10
294.399564
 20
451.018778
 30
0.0
 11
294.750658
 21
451.201548
 31
0.0
  0
LINE
  5
403
330
1F
100
AcDbEntity
  8
0
 62
     7
370
    15
100
AcDbLine
 10
294.750658
 20
451.201548
 30
0.0
 11
295.298469
 21
451.486719
 31
0.0
  0
LINE
  5
404
330
1F
100
AcDbEntity
  8
0
 62
     7
370
    40
100
AcDbLine
 10
295.298469
 20
453.185302
 30
0.0
 11
295.298469
 21
451.486719
 31
0.0
  0
LINE
  5
405
330
1F
100
AcDbEntity
  8
0
 62
     7
370
    15
100
AcDbLine
 10
295.298469
 20
453.185302
 30
0.0
 11
294.947372
 21
453.368072
 31
0.0
  0
LINE
  5
406
330
1F
100
AcDbEntity
  8
0
 62
     7
370
    15
100
AcDbLine
 10
294.947372
 20
453.368072
 30
0.0
 11
294.596278
 21
453.550843
 31
0.0
  0
LINE
  5
407
330
1F
100
AcDbEntity
  8
0
 62
     7
370
    15
100
AcDbLine
 10
294.596278
 20
453.550843
 30
0.0
 11
294.048467
 21
453.836014
 31
0.0
  0
LINE
  5
408
330
1F
100
AcDbEntity
  8
0
 62
     7
370
    15
100
AcDbLine
 10
294.048467
 20
453.836014
 30
0.0
 11
294.399564
 21
454.018776
 31
0.0
  0
LINE
  5
409
330
1F
100
AcDbEntity
  8
0
 62
     7
370
    15
100
AcDbLine
 10
294.399564
 20
454.018776
 30
0.0
 11
294.750658
 21
454.201546
 31
0.0
  0
LINE
  5
40A
330
1F
100
AcDbEntity
  8
0
 62
     7
370
    15
100
AcDbLine
 10
294.750658
 20
454.201546
 30
0.0
 11
295.298469
 21
454.486717
 31
0.0
  0
LINE
  5
40B
330
1F
100
AcDbEntity
  8
0
 62
     7
370
    40
100
AcDbLine
 10
295.298469
 20
456.185301
 30
0.0
 11
295.298469
 21
454.486717
 31
0.0
  0
LINE
  5
40C
330
1F
100
AcDbEntity
  8
0
 62
     7
370
    15
100
AcDbLine
 10
295.298469
 20
456.185301
 30
0.0
 11
294.947372
 21
456.368071
 31
0.0
  0
LINE
  5
40D
330
1F
100
AcDbEntity
  8
0
 62
     7
370
    15
100
AcDbLine
 10
294.947372
 20
456.368071
 30
0.0
 11
294.596278
 21
456.550841
 31
0.0
  0
LINE
  5
40E
330
1F
100
AcDbEntity
  8
0
 62
     7
370
    15
100
AcDbLine
 10
294.596278
 20
456.550841
 30
0.0
 11
294.048467
 21
456.836012
 31
0.0
  0
LINE
  5
40F
330
1F
100
AcDbEntity
  8
0
 62
     7
370
    15
100
AcDbLine
 10
294.048467
 20
456.836012
 30
0.0
 11
294.399564
 21
457.018782
 31
0.0
  0
LINE
  5
410
330
1F
100
AcDbEntity
  8
0
 62
     7
370
    15
100
AcDbLine
 10
294.399564
 20
457.018782
 30
0.0
 11
294.750658
 21
457.201545
 31
0.0
  0
LINE
  5
411
330
1F
100
AcDbEntity
  8
0
 62
     7
370
    15
100
AcDbLine
 10
294.750658
 20
457.201545
 30
0.0
 11
295.298469
 21
457.486724
 31
0.0
  0
LINE
  5
412
330
1F
100
AcDbEntity
  8
0
 62
     7
370
    40
100
AcDbLine
 10
295.298469
 20
459.185299
 30
0.0
 11
295.298469
 21
457.486724
 31
0.0
  0
LINE
  5
413
330
1F
100
AcDbEntity
  8
0
 62
     7
370
    15
100
AcDbLine
 10
295.298469
 20
459.185299
 30
0.0
 11
294.947372
 21
459.36807
 31
0.0
  0
LINE
  5
414
330
1F
100
AcDbEntity
  8
0
 62
     7
370
    15
100
AcDbLine
 10
294.947372
 20
459.36807
 30
0.0
 11
294.596278
 21
459.55084
 31
0.0
  0
LINE
  5
415
330
1F
100
AcDbEntity
  8
0
 62
     7
370
    15
100
AcDbLine
 10
294.596278
 20
459.55084
 30
0.0
 11
294.048467
 21
459.836011
 31
0.0
  0
LINE
  5
416
330
1F
100
AcDbEntity
  8
0
 62
     7
370
    15
100
AcDbLine
 10
294.048467
 20
459.836011
 30
0.0
 11
294.399564
 21
460.018781
 31
0.0
  0
LINE
  5
417
330
1F
100
AcDbEntity
  8
0
 62
     7
370
    15
100
AcDbLine
 10
294.399564
 20
460.018781
 30
0.0
 11
294.750658
 21
460.201551
 31
0.0
  0
LINE
  5
418
330
1F
100
AcDbEntity
  8
0
 62
     7
370
    15
100
AcDbLine
 10
294.750658
 20
460.201551
 30
0.0
 11
295.298469
 21
460.486722
 31
0.0
  0
LINE
  5
419
330
1F
100
AcDbEntity
  8
0
 62
     7
370
    40
100
AcDbLine
 10
295.298469
 20
462.185306
 30
0.0
 11
295.298469
 21
460.486722
 31
0.0
  0
LINE
  5
41A
330
1F
100
AcDbEntity
  8
0
 62
     7
370
    15
100
AcDbLine
 10
295.298469
 20
462.185306
 30
0.0
 11
294.947372
 21
462.368068
 31
0.0
  0
LINE
  5
41B
330
1F
100
AcDbEntity
  8
0
 62
     7
370
    15
100
AcDbLine
 10
294.947372
 20
462.368068
 30
0.0
 11
294.596278
 21
462.550838
 31
0.0
  0
LINE
  5
41C
330
1F
100
AcDbEntity
  8
0
 62
     7
370
    15
100
AcDbLine
 10
294.596278
 20
462.550838
 30
0.0
 11
294.048467
 21
462.836009
 31
0.0
  0
LINE
  5
41D
330
1F
100
AcDbEntity
  8
0
 62
     7
370
    15
100
AcDbLine
 10
294.048467
 20
462.836009
 30
0.0
 11
294.399564
 21
463.01878
 31
0.0
  0
LINE
  5
41E
330
1F
100
AcDbEntity
  8
0
 62
     7
370
    15
100
AcDbLine
 10
294.399564
 20
463.01878
 30
0.0
 11
294.750658
 21
463.20155
 31
0.0
  0
LINE
  5
41F
330
1F
100
AcDbEntity
  8
0
 62
     7
370
    15
100
AcDbLine
 10
294.750658
 20
463.20155
 30
0.0
 11
295.298469
 21
463.486721
 31
0.0
  0
LINE
  5
420
330
1F
100
AcDbEntity
  8
0
 62
     7
370
    40
100
AcDbLine
 10
295.298469
 20
465.185297
 30
0.0
 11
295.298469
 21
463.486721
 31
0.0
  0
LINE
  5
421
330
1F
100
AcDbEntity
  8
0
 62
     7
370
    15
100
AcDbLine
 10
295.298469
 20
465.185297
 30
0.0
 11
294.947372
 21
465.368074
 31
0.0
  0
LINE
  5
422
330
1F
100
AcDbEntity
  8
0
 62
     7
370
    15
100
AcDbLine
 10
294.947372
 20
465.368074
 30
0.0
 11
294.596278
 21
465.550837
 31
0.0
  0
LINE
  5
423
330
1F
100
AcDbEntity
  8
0
 62
     7
370
    15
100
AcDbLine
 10
294.596278
 20
465.550837
 30
0.0
 11
294.048467
 21
465.836015
 31
0.0
  0
LINE
  5
424
330
1F
100
AcDbEntity
  8
0
 62
     7
370
    15
100
AcDbLine
 10
294.048467
 20
465.836015
 30
0.0
 11
294.399564
 21
466.018778
 31
0.0
  0
LINE
  5
425
330
1F
100
AcDbEntity
  8
0
 62
     7
370
    15
100
AcDbLine
 10
294.399564
 20
466.018778
 30
0.0
 11
294.750658
 21
466.201541
 31
0.0
  0
LINE
  5
426
330
1F
100
AcDbEntity
  8
0
 62
     7
370
    15
100
AcDbLine
 10
294.750658
 20
466.201541
 30
0.0
 11
295.29591
 21
466.485393
 31
0.0
  0
LINE
  5
427
330
1F
100
AcDbEntity
  8
0
 62
     7
370
    40
100
AcDbLine
 10
292.048466
 20
466.485393
 30
0.0
 11
295.29591
 21
466.485393
 31
0.0
  0
LINE
  5
428
330
1F
100
AcDbEntity
  8
0
 62
     7
370
    40
100
AcDbLine
 10
292.048466
 20
469.285381
 30
0.0
 11
292.048466
 21
466.485393
 31
0.0
  0
LINE
  5
429
330
1F
100
AcDbEntity
  8
0
 62
     7
370
    40
100
AcDbLine
 10
292.798468
 20
469.485384
 30
0.0
 11
292.248468
 21
469.485388
 31
0.0
  0
LINE
  5
42A
330
1F
100
AcDbEntity
  8
0
 62
     7
370
    40
100
AcDbLine
 10
293.5482038014
 20
470.0569785102
 30
0.0
 11
293.548205
 21
468.985391
 31
0.0
  0
LINE
  5
42B
330
1F
100
AcDbEntity
  8
0
 62
     7
370
    15
100
AcDbLine
 10
293.5546685741
 20
470.0351630804
 30
0.0
 11
293.55386
 21
470.040736
 31
0.0
  0
LINE
  5
42C
330
1F
100
AcDbEntity
  8
0
 62
     7
370
    15
100
AcDbLine
 10
293.55386
 20
470.040736
 30
0.0
 11
293.553055
 21
470.045504
 31
0.0
  0
LINE
  5
42D
330
1F
100
AcDbEntity
  8
0
 62
     7
370
    15
100
AcDbLine
 10
293.553055
 20
470.045504
 30
0.0
 11
293.552247
 21
470.049453
 31
0.0
  0
LINE
  5
42E
330
1F
100
AcDbEntity
  8
0
 62
     7
370
    15
100
AcDbLine
 10
293.552247
 20
470.049453
 30
0.0
 11
293.551438
 21
470.052582
 31
0.0
  0
LINE
  5
42F
330
1F
100
AcDbEntity
  8
0
 62
     7
370
    15
100
AcDbLine
 10
293.551438
 20
470.052582
 30
0.0
 11
293.55063
 21
470.054907
 31
0.0
  0
LINE
  5
430
330
1F
100
AcDbEntity
  8
0
 62
     7
370
    15
100
AcDbLine
 10
293.55063
 20
470.054907
 30
0.0
 11
293.549822
 21
470.056412
 31
0.0
  0
LINE
  5
431
330
1F
100
AcDbEntity
  8
0
 62
     7
370
    15
100
AcDbLine
 10
293.549822
 20
470.056412
 30
0.0
 11
293.549013
 21
470.057097
 31
0.0
  0
LINE
  5
432
330
1F
100
AcDbEntity
  8
0
 62
     7
370
    15
100
AcDbLine
 10
293.549013
 20
470.057097
 30
0.0
 11
293.5482038014
 21
470.0569785102
 31
0.0
  0
LINE
  5
433
330
1F
100
AcDbEntity
  8
0
 62
     7
370
    40
100
AcDbLine
 10
294.048467
 20
453.836014
 30
0.0
 11
294.048522
 21
453.83336
 31
0.0
  0
LINE
  5
434
330
1F
100
AcDbEntity
  8
0
 62
     7
370
    40
100
AcDbLine
 10
294.048522
 20
453.83336
 30
0.0
 11
294.049582
 21
453.782076
 31
0.0
  0
LINE
  5
435
330
1F
100
AcDbEntity
  8
0
 62
     7
370
    40
100
AcDbLine
 10
294.049582
 20
453.782076
 30
0.0
 11
294.153363
 21
453.734661
 31
0.0
  0
LINE
  5
436
330
1F
100
AcDbEntity
  8
0
 62
     7
370
    40
100
AcDbLine
 10
294.153363
 20
453.734661
 30
0.0
 11
294.251774
 21
453.689699
 31
0.0
  0
LINE
  5
437
330
1F
100
AcDbEntity
  8
0
 62
     7
370
    40
100
AcDbLine
 10
300.340061
 20
452.5004
 30
0.0
 11
300.548469
 21
452.33601
 31
0.0
  0
LINE
  5
438
330
1F
100
AcDbEntity
  8
0
 62
     7
370
    40
100
AcDbLine
 10
294.048467
 20
456.836012
 30
0.0
 11
294.048522
 21
456.833361
 31
0.0
  0
LINE
  5
439
330
1F
100
AcDbEntity
  8
0
 62
     7
370
    40
100
AcDbLine
 10
294.048522
 20
456.833361
 30
0.0
 11
294.049582
 21
456.782126
 31
0.0
  0
LINE
  5
43A
330
1F
100
AcDbEntity
  8
0
 62
     7
370
    40
100
AcDbLine
 10
294.049582
 20
456.782126
 30
0.0
 11
294.153363
 21
456.734684
 31
0.0
  0
LINE
  5
43B
330
1F
100
AcDbEntity
  8
0
 62
     7
370
    40
100
AcDbLine
 10
294.153363
 20
456.734684
 30
0.0
 11
294.251774
 21
456.689698
 31
0.0
  0
LINE
  5
43C
330
1F
100
AcDbEntity
  8
0
 62
     7
370
    40
100
AcDbLine
 10
300.340061
 20
455.500399
 30
0.0
 11
300.548469
 21
455.336009
 31
0.0
  0
LINE
  5
43D
330
1F
100
AcDbEntity
  8
0
 62
     7
370
    40
100
AcDbLine
 10
294.048467
 20
462.836009
 30
0.0
 11
294.048522
 21
462.833359
 31
0.0
  0
LINE
  5
43E
330
1F
100
AcDbEntity
  8
0
 62
     7
370
    40
100
AcDbLine
 10
294.048522
 20
462.833359
 30
0.0
 11
294.049582
 21
462.782123
 31
0.0
  0
LINE
  5
43F
330
1F
100
AcDbEntity
  8
0
 62
     7
370
    40
100
AcDbLine
 10
294.049582
 20
462.782123
 30
0.0
 11
294.153363
 21
462.734686
 31
0.0
  0
LINE
  5
440
330
1F
100
AcDbEntity
  8
0
 62
     7
370
    40
100
AcDbLine
 10
294.153363
 20
462.734686
 30
0.0
 11
294.251774
 21
462.689702
 31
0.0
  0
LINE
  5
441
330
1F
100
AcDbEntity
  8
0
 62
     7
370
    40
100
AcDbLine
 10
300.340061
 20
461.500403
 30
0.0
 11
300.548469
 21
461.336014
 31
0.0
  0
LINE
  5
442
330
1F
100
AcDbEntity
  8
0
 62
     7
370
    40
100
AcDbLine
 10
294.048467
 20
465.836015
 30
0.0
 11
294.04829
 21
465.833356
 31
0.0
  0
LINE
  5
443
330
1F
100
AcDbEntity
  8
0
 62
     7
370
    40
100
AcDbLine
 10
294.04829
 20
465.833356
 30
0.0
 11
294.047321
 21
465.818789
 31
0.0
  0
LINE
  5
444
330
1F
100
AcDbEntity
  8
0
 62
     7
370
    40
100
AcDbLine
 10
294.047321
 20
465.818789
 30
0.0
 11
294.075463
 21
465.805294
 31
0.0
  0
LINE
  5
445
330
1F
100
AcDbEntity
  8
0
 62
     7
370
    40
100
AcDbLine
 10
294.075463
 20
465.805294
 30
0.0
 11
294.098467
 21
465.794262
 31
0.0
  0
LINE
  5
446
330
1F
100
AcDbEntity
  8
0
 62
     7
370
    40
100
AcDbLine
 10
300.340061
 20
464.500402
 30
0.0
 11
300.548469
 21
464.336012
 31
0.0
  0
LINE
  5
447
330
1F
100
AcDbEntity
  8
0
 62
     7
370
    40
100
AcDbLine
 10
294.048467
 20
459.836011
 30
0.0
 11
294.048522
 21
459.83336
 31
0.0
  0
LINE
  5
448
330
1F
100
AcDbEntity
  8
0
 62
     7
370
    40
100
AcDbLine
 10
294.048522
 20
459.83336
 30
0.0
 11
294.049582
 21
459.782124
 31
0.0
  0
LINE
  5
449
330
1F
100
AcDbEntity
  8
0
 62
     7
370
    40
100
AcDbLine
 10
294.049582
 20
459.782124
 30
0.0
 11
294.153363
 21
459.734683
 31
0.0
  0
LINE
  5
44A
330
1F
100
AcDbEntity
  8
0
 62
     7
370
    40
100
AcDbLine
 10
294.153363
 20
459.734683
 30
0.0
 11
294.251774
 21
459.689696
 31
0.0
  0
LINE
  5
44B
330
1F
100
AcDbEntity
  8
0
 62
     7
370
    40
100
AcDbLine
 10
300.340061
 20
458.500405
 30
0.0
 11
300.548469
 21
458.336008
 31
0.0
  0
LINE
  5
44C
330
1F
100
AcDbEntity
  8
0
 62
     7
370
    40
100
AcDbLine
 10
295.531095
 20
468.985391
 30
0.0
 11
295.531095
 21
470.485386
 31
0.0
  0
LINE
  5
44D
330
1F
100
AcDbEntity
  8
0
 62
     7
370
    40
100
AcDbLine
 10
295.542543
 20
470.485386
 30
0.0
 11
295.531095
 21
470.485386
 31
0.0
  0
LINE
  5
44E
330
1F
100
AcDbEntity
  8
0
 62
     7
370
    40
100
AcDbLine
 10
295.531095
 20
468.985391
 30
0.0
 11
295.524911
 21
468.985391
 31
0.0
  0
LINE
  5
44F
330
1F
100
AcDbEntity
  8
0
 62
     7
370
    40
100
AcDbLine
 10
293.554668
 20
468.985391
 30
0.0
 11
293.5546685741
 21
470.0351630804
 31
0.0
  0
LINE
  5
450
330
1F
100
AcDbEntity
  8
0
 62
     7
370
    40
100
AcDbLine
 10
300.21485
 20
470.485386
 30
0.0
 11
299.077709
 21
470.485386
 31
0.0
  0
LINE
  5
451
330
1F
100
AcDbEntity
  8
0
 62
     7
370
    40
100
AcDbLine
 10
300.3053336757
 20
470.4643901926
 30
0.0
 11
300.28366
 21
470.472799
 31
0.0
  0
LINE
  5
452
330
1F
100
AcDbEntity
  8
0
 62
     7
370
    40
100
AcDbLine
 10
300.28366
 20
470.472799
 30
0.0
 11
300.254271
 21
470.484201
 31
0.0
  0
LINE
  5
453
330
1F
100
AcDbEntity
  8
0
 62
     7
370
    40
100
AcDbLine
 10
300.254271
 20
470.484201
 30
0.0
 11
300.223047
 21
470.48514
 31
0.0
  0
LINE
  5
454
330
1F
100
AcDbEntity
  8
0
 62
     7
370
    40
100
AcDbLine
 10
300.223047
 20
470.48514
 30
0.0
 11
300.21485
 21
470.485386
 31
0.0
  0
LINE
  5
455
330
1F
100
AcDbEntity
  8
0
 62
     7
370
    40
100
AcDbLine
 10
299.077709
 20
468.985391
 30
0.0
 11
299.077709
 21
470.485386
 31
0.0
  0
LINE
  5
456
330
1F
100
AcDbEntity
  8
0
 62
     7
370
    40
100
AcDbLine
 10
294.393954
 20
470.485386
 30
0.0
 11
294.370791
 21
470.483393
 31
0.0
  0
LINE
  5
457
330
1F
100
AcDbEntity
  8
0
 62
     7
370
    40
100
AcDbLine
 10
294.370791
 20
470.483393
 30
0.0
 11
294.339385
 21
470.480689
 31
0.0
  0
LINE
  5
458
330
1F
100
AcDbEntity
  8
0
 62
     7
370
    40
100
AcDbLine
 10
294.339385
 20
470.480689
 30
0.0
 11
294.31094
 21
470.467779
 31
0.0
  0
LINE
  5
459
330
1F
100
AcDbEntity
  8
0
 62
     7
370
    40
100
AcDbLine
 10
294.31094
 20
470.467779
 30
0.0
 11
294.3034743435
 21
470.4643910696
 31
0.0
  0
LINE
  5
45A
330
1F
100
AcDbEntity
  8
0
 62
     7
370
    40
100
AcDbLine
 10
295.531095
 20
470.485386
 30
0.0
 11
294.393954
 21
470.485386
 31
0.0
  0
LINE
  5
45B
330
1F
100
AcDbEntity
  8
0
 62
     7
370
    40
100
AcDbLine
 10
297.983986
 20
470.485386
 30
0.0
 11
296.644983
 21
470.485386
 31
0.0
  0
LINE
  5
45C
330
1F
100
AcDbEntity
  8
0
 62
     7
370
    40
100
AcDbLine
 10
297.983986
 20
470.485386
 30
0.0
 11
298.291706
 21
470.485386
 31
0.0
  0
LINE
  5
45D
330
1F
100
AcDbEntity
  8
0
 62
     7
370
    40
100
AcDbLine
 10
296.644983
 20
470.485386
 30
0.0
 11
296.346516
 21
470.485386
 31
0.0
  0
LINE
  5
45E
330
1F
100
AcDbEntity
  8
0
 62
     7
370
    40
100
AcDbLine
 10
299.077709
 20
470.485386
 30
0.0
 11
298.291706
 21
470.485386
 31
0.0
  0
LINE
  5
45F
330
1F
100
AcDbEntity
  8
0
 62
     7
370
    40
100
AcDbLine
 10
295.542543
 20
470.485386
 30
0.0
 11
296.346516
 21
470.485386
 31
0.0
  0
LINE
  5
460
330
1F
100
AcDbEntity
  8
0
 62
     7
370
    40
100
AcDbLine
 10
240.888906
 20
392.885388
 30
0.0
 11
240.888906
 21
394.885388
 31
0.0
  0
LINE
  5
461
330
1F
100
AcDbEntity
  8
0
 62
     7
370
    40
100
AcDbLine
 10
227.790845
 20
392.885388
 30
0.0
 11
240.888906
 21
392.885388
 31
0.0
  0
LINE
  5
462
330
1F
100
AcDbEntity
  8
0
 62
     7
370
    40
100
AcDbLine
 10
227.790845
 20
392.885388
 30
0.0
 11
227.790845
 21
394.885388
 31
0.0
  0
LINE
  5
463
330
1F
100
AcDbEntity
  8
0
 62
     7
370
    40
100
AcDbLine
 10
227.790845
 20
394.885388
 30
0.0
 11
227.798466
 21
394.885388
 31
0.0
  0
LINE
  5
464
330
1F
100
AcDbEntity
  8
0
 62
     7
370
    40
100
AcDbLine
 10
227.798466
 20
394.885388
 30
0.0
 11
240.014647
 21
464.166802
 31
0.0
  0
LINE
  5
465
330
1F
100
AcDbEntity
  8
0
 62
     7
370
    40
100
AcDbLine
 10
244.446285
 20
467.885388
 30
0.0
 11
258.108792
 21
467.885387
 31
0.0
  0
LINE
  5
466
330
1F
100
AcDbEntity
  8
0
 62
     7
370
    40
100
AcDbLine
 10
258.108792
 20
467.885387
 30
0.0
 11
258.108792
 21
467.985389
 31
0.0
  0
LINE
  5
467
330
1F
100
AcDbEntity
  8
0
 62
     7
370
    40
100
AcDbLine
 10
264.49499
 20
467.985389
 30
0.0
 11
258.108792
 21
467.985389
 31
0.0
  0
LINE
  5
468
330
1F
100
AcDbEntity
  8
0
 62
     7
370
    40
100
AcDbLine
 10
264.49499
 20
467.985389
 30
0.0
 11
264.49499
 21
467.885387
 31
0.0
  0
LINE
  5
469
330
1F
100
AcDbEntity
  8
0
 62
     7
370
    40
100
AcDbLine
 10
264.49499
 20
467.885387
 30
0.0
 11
288.298466
 21
467.885387
 31
0.0
  0
LINE
  5
46A
330
1F
100
AcDbEntity
  8
0
 62
     7
370
    40
100
AcDbLine
 10
288.298466
 20
467.885387
 30
0.0
 11
288.298466
 21
464.885381
 31
0.0
  0
LINE
  5
46B
330
1F
100
AcDbEntity
  8
0
 62
     7
370
    40
100
AcDbLine
 10
293.298469
 20
464.885381
 30
0.0
 11
288.298466
 21
464.885381
 31
0.0
  0
LINE
  5
46C
330
1F
100
AcDbEntity
  8
0
 62
     7
370
    40
100
AcDbLine
 10
293.298469
 20
464.885381
 30
0.0
 11
293.298469
 21
451.385391
 31
0.0
  0
LINE
  5
46D
330
1F
100
AcDbEntity
  8
0
 62
     7
370
    40
100
AcDbLine
 10
291.298469
 20
451.385391
 30
0.0
 11
293.298469
 21
451.385391
 31
0.0
  0
LINE
  5
46E
330
1F
100
AcDbEntity
  8
0
 62
     7
370
    40
100
AcDbLine
 10
291.298469
 20
451.385391
 30
0.0
 11
291.298469
 21
457.885389
 31
0.0
  0
LINE
  5
46F
330
1F
100
AcDbEntity
  8
0
 62
     7
370
    40
100
AcDbLine
 10
252.006073
 20
457.885389
 30
0.0
 11
291.298469
 21
457.885389
 31
0.0
  0
LINE
  5
470
330
1F
100
AcDbEntity
  8
0
 62
     7
370
    40
100
AcDbLine
 10
252.006073
 20
457.885389
 30
0.0
 11
240.897474
 21
394.885388
 31
0.0
  0
LINE
  5
471
330
1F
100
AcDbEntity
  8
0
 62
     7
370
    40
100
AcDbLine
 10
240.897474
 20
394.885388
 30
0.0
 11
240.888906
 21
394.885388
 31
0.0
  0
LINE
  5
472
330
1F
100
AcDbEntity
  8
0
 62
     7
370
    40
100
AcDbLine
 10
306.298469
 20
464.885381
 30
0.0
 11
306.298469
 21
467.885387
 31
0.0
  0
LINE
  5
473
330
1F
100
AcDbEntity
  8
0
 62
     7
370
    40
100
AcDbLine
 10
306.298469
 20
467.885387
 30
0.0
 11
302.548469
 21
467.885387
 31
0.0
  0
LINE
  5
474
330
1F
100
AcDbEntity
  8
0
 62
     7
370
    40
100
AcDbLine
 10
292.048466
 20
467.885387
 30
0.0
 11
288.298466
 21
467.885387
 31
0.0
  0
LINE
  5
475
330
1F
100
AcDbEntity
  8
0
 62
     7
370
    40
100
AcDbLine
 10
453.699467
 20
394.885388
 30
0.0
 11
442.590867
 21
457.885389
 31
0.0
  0
LINE
  5
476
330
1F
100
AcDbEntity
  8
0
 62
     7
370
    40
100
AcDbLine
 10
403.298468
 20
457.885389
 30
0.0
 11
442.590867
 21
457.885389
 31
0.0
  0
LINE
  5
477
330
1F
100
AcDbEntity
  8
0
 62
     7
370
    40
100
AcDbLine
 10
403.298468
 20
457.885389
 30
0.0
 11
403.298468
 21
451.385391
 31
0.0
  0
LINE
  5
478
330
1F
100
AcDbEntity
  8
0
 62
     7
370
    40
100
AcDbLine
 10
401.298468
 20
451.385391
 30
0.0
 11
403.298468
 21
451.385391
 31
0.0
  0
LINE
  5
479
330
1F
100
AcDbEntity
  8
0
 62
     7
370
    40
100
AcDbLine
 10
401.298468
 20
451.385391
 30
0.0
 11
401.298468
 21
464.885381
 31
0.0
  0
LINE
  5
47A
330
1F
100
AcDbEntity
  8
0
 62
     7
370
    40
100
AcDbLine
 10
406.298467
 20
464.885381
 30
0.0
 11
401.298468
 21
464.885381
 31
0.0
  0
LINE
  5
47B
330
1F
100
AcDbEntity
  8
0
 62
     7
370
    40
100
AcDbLine
 10
406.298467
 20
464.885381
 30
0.0
 11
406.298467
 21
467.885387
 31
0.0
  0
LINE
  5
47C
330
1F
100
AcDbEntity
  8
0
 62
     7
370
    40
100
AcDbLine
 10
430.101951
 20
467.885387
 30
0.0
 11
430.101951
 21
467.985389
 31
0.0
  0
LINE
  5
47D
330
1F
100
AcDbEntity
  8
0
 62
     7
370
    40
100
AcDbLine
 10
436.488149
 20
467.985389
 30
0.0
 11
430.101951
 21
467.985389
 31
0.0
  0
LINE
  5
47E
330
1F
100
AcDbEntity
  8
0
 62
     7
370
    40
100
AcDbLine
 10
436.488149
 20
467.985389
 30
0.0
 11
436.488149
 21
467.885387
 31
0.0
  0
LINE
  5
47F
330
1F
100
AcDbEntity
  8
0
 62
     7
370
    40
100
AcDbLine
 10
454.5822848886
 20
464.1668047995
 30
0.0
 11
466.798467
 21
394.885388
 31
0.0
  0
LINE
  5
480
330
1F
100
AcDbEntity
  8
0
 62
     7
370
    40
100
AcDbLine
 10
466.798467
 20
394.885388
 30
0.0
 11
466.806096
 21
394.885388
 31
0.0
  0
LINE
  5
481
330
1F
100
AcDbEntity
  8
0
 62
     7
370
    40
100
AcDbLine
 10
466.806096
 20
394.885388
 30
0.0
 11
466.806096
 21
392.885388
 31
0.0
  0
LINE
  5
482
330
1F
100
AcDbEntity
  8
0
 62
     7
370
    40
100
AcDbLine
 10
453.708027
 20
392.885388
 30
0.0
 11
466.806096
 21
392.885388
 31
0.0
  0
LINE
  5
483
330
1F
100
AcDbEntity
  8
0
 62
     7
370
    40
100
AcDbLine
 10
453.708027
 20
394.885388
 30
0.0
 11
453.708027
 21
392.885388
 31
0.0
  0
LINE
  5
484
330
1F
100
AcDbEntity
  8
0
 62
     7
370
    40
100
AcDbLine
 10
453.708027
 20
394.885388
 30
0.0
 11
453.699467
 21
394.885388
 31
0.0
  0
LINE
  5
485
330
1F
100
AcDbEntity
  8
0
 62
     7
370
    40
100
AcDbLine
 10
436.488149
 20
467.885387
 30
0.0
 11
450.15065
 21
467.885388
 31
0.0
  0
LINE
  5
486
330
1F
100
AcDbEntity
  8
0
 62
     7
370
    40
100
AcDbLine
 10
406.298467
 20
467.885387
 30
0.0
 11
430.101951
 21
467.885387
 31
0.0
  0
LINE
  5
487
330
1F
100
AcDbEntity
  8
0
 62
     7
370
    40
100
AcDbLine
 10
388.298468
 20
467.885387
 30
0.0
 11
388.298468
 21
464.885381
 31
0.0
  0
LINE
  5
488
330
1F
100
AcDbEntity
  8
0
 62
     7
370
    40
100
AcDbLine
 10
393.298467
 20
464.885381
 30
0.0
 11
388.298468
 21
464.885381
 31
0.0
  0
LINE
  5
489
330
1F
100
AcDbEntity
  8
0
 62
     7
370
    40
100
AcDbLine
 10
393.298467
 20
464.885381
 30
0.0
 11
393.298467
 21
451.385391
 31
0.0
  0
LINE
  5
48A
330
1F
100
AcDbEntity
  8
0
 62
     7
370
    40
100
AcDbLine
 10
391.298466
 20
451.385391
 30
0.0
 11
393.298467
 21
451.385391
 31
0.0
  0
LINE
  5
48B
330
1F
100
AcDbEntity
  8
0
 62
     7
370
    40
100
AcDbLine
 10
391.298466
 20
451.385391
 30
0.0
 11
391.298466
 21
457.885389
 31
0.0
  0
LINE
  5
48C
330
1F
100
AcDbEntity
  8
0
 62
     7
370
    40
100
AcDbLine
 10
337.298468
 20
457.885389
 30
0.0
 11
391.298466
 21
457.885389
 31
0.0
  0
LINE
  5
48D
330
1F
100
AcDbEntity
  8
0
 62
     7
370
    40
100
AcDbLine
 10
337.298468
 20
467.885387
 30
0.0
 11
337.298468
 21
457.885389
 31
0.0
  0
LINE
  5
48E
330
1F
100
AcDbEntity
  8
0
 62
     7
370
    40
100
AcDbLine
 10
337.298468
 20
467.885387
 30
0.0
 11
388.298468
 21
467.885387
 31
0.0
  0
LINE
  5
48F
330
1F
100
AcDbEntity
  8
0
 62
     7
370
    40
100
AcDbLine
 10
301.298466
 20
451.385391
 30
0.0
 11
303.298467
 21
451.385391
 31
0.0
  0
LINE
  5
490
330
1F
100
AcDbEntity
  8
0
 62
     7
370
    40
100
AcDbLine
 10
301.298466
 20
451.385391
 30
0.0
 11
301.298466
 21
464.885381
 31
0.0
  0
LINE
  5
491
330
1F
100
AcDbEntity
  8
0
 62
     7
370
    40
100
AcDbLine
 10
315.298467
 20
467.885387
 30
0.0
 11
315.298467
 21
457.885389
 31
0.0
  0
LINE
  5
492
330
1F
100
AcDbEntity
  8
0
 62
     7
370
    40
100
AcDbLine
 10
303.298467
 20
457.885389
 30
0.0
 11
315.298467
 21
457.885389
 31
0.0
  0
LINE
  5
493
330
1F
100
AcDbEntity
  8
0
 62
     7
370
    40
100
AcDbLine
 10
303.298467
 20
457.885389
 30
0.0
 11
303.298467
 21
451.385391
 31
0.0
  0
LINE
  5
494
330
1F
100
AcDbEntity
  8
0
 62
     7
370
    40
100
AcDbLine
 10
306.298469
 20
464.885381
 30
0.0
 11
301.298466
 21
464.885381
 31
0.0
  0
LINE
  5
495
330
1F
100
AcDbEntity
  8
0
 62
     7
370
    40
100
AcDbLine
 10
306.298469
 20
467.885387
 30
0.0
 11
315.298467
 21
467.885387
 31
0.0
  0
LINE
  5
496
330
1F
100
AcDbEntity
  8
0
 62
     7
370
    40
100
AcDbLine
 10
315.778865
 20
457.885389
 30
0.0
 11
315.778865
 21
467.885387
 31
0.0
  0
LINE
  5
497
330
1F
100
AcDbEntity
  8
0
 62
     7
370
    40
100
AcDbLine
 10
315.778865
 20
457.885389
 30
0.0
 11
315.298467
 21
457.885389
 31
0.0
  0
LINE
  5
498
330
1F
100
AcDbEntity
  8
0
 62
     7
370
    40
100
AcDbLine
 10
315.778865
 20
467.885387
 30
0.0
 11
315.298467
 21
467.885387
 31
0.0
  0
LINE
  5
499
330
1F
100
AcDbEntity
  8
0
 62
     7
370
    40
100
AcDbLine
 10
406.298467
 20
467.885387
 30
0.0
 11
402.548467
 21
467.885387
 31
0.0
  0
LINE
  5
49A
330
1F
100
AcDbEntity
  8
0
 62
     7
370
    40
100
AcDbLine
 10
392.048468
 20
467.885387
 30
0.0
 11
388.298468
 21
467.885387
 31
0.0
  0
LINE
  5
49B
330
1F
100
AcDbEntity
  8
0
 62
     7
370
    40
100
AcDbLine
 10
240.897474
 20
394.885388
 30
0.0
 11
241.339234
 21
394.885388
 31
0.0
  0
LINE
  5
49C
330
1F
100
AcDbEntity
  8
0
 62
     7
370
    40
100
AcDbLine
 10
241.621462
 20
394.885388
 30
0.0
 11
242.941906
 21
394.885388
 31
0.0
  0
LINE
  5
49D
330
1F
100
AcDbEntity
  8
0
 62
     7
370
    40
100
AcDbLine
 10
243.50327
 20
394.885388
 30
0.0
 11
245.687936
 21
394.885388
 31
0.0
  0
LINE
  5
49E
330
1F
100
AcDbEntity
  8
0
 62
     7
370
    40
100
AcDbLine
 10
246.522282
 20
394.885388
 30
0.0
 11
249.547225
 21
394.885388
 31
0.0
  0
LINE
  5
49F
330
1F
100
AcDbEntity
  8
0
 62
     7
370
    40
100
AcDbLine
 10
250.645411
 20
394.885388
 30
0.0
 11
254.477498
 21
394.885388
 31
0.0
  0
LINE
  5
4A0
330
1F
100
AcDbEntity
  8
0
 62
     7
370
    40
100
AcDbLine
 10
255.827499
 20
394.885388
 30
0.0
 11
260.424745
 21
394.885388
 31
0.0
  0
LINE
  5
4A1
330
1F
100
AcDbEntity
  8
0
 62
     7
370
    40
100
AcDbLine
 10
262.011764
 20
394.885388
 30
0.0
 11
267.323789
 21
394.885388
 31
0.0
  0
LINE
  5
4A2
330
1F
100
AcDbEntity
  8
0
 62
     7
370
    40
100
AcDbLine
 10
269.130443
 20
394.885388
 30
0.0
 11
270.298471
 21
394.885388
 31
0.0
  0
LINE
  5
4A3
330
1F
100
AcDbEntity
  8
0
 62
     7
370
    40
100
AcDbLine
 10
305.254568
 20
394.885388
 30
0.0
 11
313.134824
 21
394.885388
 31
0.0
  0
LINE
  5
4A4
330
1F
100
AcDbEntity
  8
0
 62
     7
370
    40
100
AcDbLine
 10
315.702678
 20
394.885388
 30
0.0
 11
323.855958
 21
394.885388
 31
0.0
  0
LINE
  5
4A5
330
1F
100
AcDbEntity
  8
0
 62
     7
370
    40
100
AcDbLine
 10
326.496956
 20
394.885388
 30
0.0
 11
334.83393
 21
394.885388
 31
0.0
  0
LINE
  5
4A6
330
1F
100
AcDbEntity
  8
0
 62
     7
370
    40
100
AcDbLine
 10
337.519139
 20
394.885388
 30
0.0
 11
344.548468
 21
394.885388
 31
0.0
  0
LINE
  5
4A7
330
1F
100
AcDbEntity
  8
0
 62
     7
370
    40
100
AcDbLine
 10
350.048467
 20
394.885388
 30
0.0
 11
357.077796
 21
394.885388
 31
0.0
  0
LINE
  5
4A8
330
1F
100
AcDbEntity
  8
0
 62
     7
370
    40
100
AcDbLine
 10
359.763005
 20
394.885388
 30
0.0
 11
368.099979
 21
394.885388
 31
0.0
  0
LINE
  5
4A9
330
1F
100
AcDbEntity
  8
0
 62
     7
370
    40
100
AcDbLine
 10
370.740977
 20
394.885388
 30
0.0
 11
378.894259
 21
394.885388
 31
0.0
  0
LINE
  5
4AA
330
1F
100
AcDbEntity
  8
0
 62
     7
370
    40
100
AcDbLine
 10
381.462109
 20
394.885388
 30
0.0
 11
389.342365
 21
394.885388
 31
0.0
  0
LINE
  5
4AB
330
1F
100
AcDbEntity
  8
0
 62
     7
370
    40
100
AcDbLine
 10
424.29847
 20
394.885388
 30
0.0
 11
425.46649
 21
394.885388
 31
0.0
  0
LINE
  5
4AC
330
1F
100
AcDbEntity
  8
0
 62
     7
370
    40
100
AcDbLine
 10
427.273144
 20
394.885388
 30
0.0
 11
432.585169
 21
394.885388
 31
0.0
  0
LINE
  5
4AD
330
1F
100
AcDbEntity
  8
0
 62
     7
370
    40
100
AcDbLine
 10
434.172195
 20
394.885388
 30
0.0
 11
438.769434
 21
394.885388
 31
0.0
  0
LINE
  5
4AE
330
1F
100
AcDbEntity
  8
0
 62
     7
370
    40
100
AcDbLine
 10
440.119435
 20
394.885388
 30
0.0
 11
443.951522
 21
394.885388
 31
0.0
  0
LINE
  5
4AF
330
1F
100
AcDbEntity
  8
0
 62
     7
370
    40
100
AcDbLine
 10
445.049708
 20
394.885388
 30
0.0
 11
448.074658
 21
394.885388
 31
0.0
  0
LINE
  5
4B0
330
1F
100
AcDbEntity
  8
0
 62
     7
370
    40
100
AcDbLine
 10
448.909004
 20
394.885388
 30
0.0
 11
451.093663
 21
394.885388
 31
0.0
  0
LINE
  5
4B1
330
1F
100
AcDbEntity
  8
0
 62
     7
370
    40
100
AcDbLine
 10
451.655027
 20
394.885388
 30
0.0
 11
452.975471
 21
394.885388
 31
0.0
  0
LINE
  5
4B2
330
1F
100
AcDbEntity
  8
0
 62
     7
370
    40
100
AcDbLine
 10
453.257699
 20
394.885388
 30
0.0
 11
453.699467
 21
394.885388
 31
0.0
  0
LINE
  5
4B3
330
1F
100
AcDbEntity
  8
0
 62
     7
370
    40
100
AcDbLine
 10
436.488149
 20
467.985389
 30
0.0
 11
436.544848
 21
467.985389
 31
0.0
  0
LINE
  5
4B4
330
1F
100
AcDbEntity
  8
0
 62
     7
370
    40
100
AcDbLine
 10
430.045244
 20
467.985389
 30
0.0
 11
430.101951
 21
467.985389
 31
0.0
  0
LINE
  5
4B5
330
1F
100
AcDbEntity
  8
0
 62
     7
370
    40
100
AcDbLine
 10
315.778865
 20
457.885389
 30
0.0
 11
337.298468
 21
457.885389
 31
0.0
  0
LINE
  5
4B6
330
1F
100
AcDbEntity
  8
0
 62
     7
370
    40
100
AcDbLine
 10
315.778865
 20
467.885387
 30
0.0
 11
337.298468
 21
467.885387
 31
0.0
  0
LINE
  5
4B7
330
1F
100
AcDbEntity
  8
0
 62
     7
370
    40
100
AcDbLine
 10
258.052085
 20
467.985389
 30
0.0
 11
258.108792
 21
467.985389
 31
0.0
  0
LINE
  5
4B8
330
1F
100
AcDbEntity
  8
0
 62
     7
370
    40
100
AcDbLine
 10
264.551689
 20
467.985389
 30
0.0
 11
264.551689
 21
467.885387
 31
0.0
  0
LINE
  5
4B9
330
1F
100
AcDbEntity
  8
0
 62
     7
370
    40
100
AcDbLine
 10
264.49499
 20
467.985389
 30
0.0
 11
264.551689
 21
467.985389
 31
0.0
  0
LINE
  5
4BA
330
1F
100
AcDbEntity
  8
0
 62
     7
370
    40
100
AcDbLine
 10
241.339234
 20
394.885388
 30
0.0
 11
252.386977
 21
457.885389
 31
0.0
  0
LINE
  5
4BB
330
1F
100
AcDbEntity
  8
0
 62
     7
370
    40
100
AcDbLine
 10
241.339234
 20
394.885388
 30
0.0
 11
241.621462
 21
394.885388
 31
0.0
  0
LINE
  5
4BC
330
1F
100
AcDbEntity
  8
0
 62
     7
370
    40
100
AcDbLine
 10
241.621462
 20
394.885388
 30
0.0
 11
252.669205
 21
457.885389
 31
0.0
  0
LINE
  5
4BD
330
1F
100
AcDbEntity
  8
0
 62
     7
370
    40
100
AcDbLine
 10
453.257699
 20
394.885388
 30
0.0
 11
442.209956
 21
457.885389
 31
0.0
  0
LINE
  5
4BE
330
1F
100
AcDbEntity
  8
0
 62
     7
370
    40
100
AcDbLine
 10
452.975471
 20
394.885388
 30
0.0
 11
453.257699
 21
394.885388
 31
0.0
  0
LINE
  5
4BF
330
1F
100
AcDbEntity
  8
0
 62
     7
370
    40
100
AcDbLine
 10
452.975471
 20
394.885388
 30
0.0
 11
441.927728
 21
457.885389
 31
0.0
  0
LINE
  5
4C0
330
1F
100
AcDbEntity
  8
0
 62
     7
370
    40
100
AcDbLine
 10
242.941906
 20
394.885388
 30
0.0
 11
253.807758
 21
457.885389
 31
0.0
  0
LINE
  5
4C1
330
1F
100
AcDbEntity
  8
0
 62
     7
370
    40
100
AcDbLine
 10
243.50327
 20
394.885388
 30
0.0
 11
254.369122
 21
457.885389
 31
0.0
  0
LINE
  5
4C2
330
1F
100
AcDbEntity
  8
0
 62
     7
370
    40
100
AcDbLine
 10
242.941906
 20
394.885388
 30
0.0
 11
243.50327
 21
394.885388
 31
0.0
  0
LINE
  5
4C3
330
1F
100
AcDbEntity
  8
0
 62
     7
370
    40
100
AcDbLine
 10
451.655027
 20
394.885388
 30
0.0
 11
440.789175
 21
457.885389
 31
0.0
  0
LINE
  5
4C4
330
1F
100
AcDbEntity
  8
0
 62
     7
370
    40
100
AcDbLine
 10
451.093663
 20
394.885388
 30
0.0
 11
451.655027
 21
394.885388
 31
0.0
  0
LINE
  5
4C5
330
1F
100
AcDbEntity
  8
0
 62
     7
370
    40
100
AcDbLine
 10
451.093663
 20
394.885388
 30
0.0
 11
440.227819
 21
457.885389
 31
0.0
  0
LINE
  5
4C6
330
1F
100
AcDbEntity
  8
0
 62
     7
370
    40
100
AcDbLine
 10
245.687936
 20
394.885388
 30
0.0
 11
248.528448
 21
411.823762
 31
0.0
  0
LINE
  5
4C7
330
1F
100
AcDbEntity
  8
0
 62
     7
370
    40
100
AcDbLine
 10
248.790328
 20
413.385388
 30
0.0
 11
256.252837
 21
457.885389
 31
0.0
  0
LINE
  5
4C8
330
1F
100
AcDbEntity
  8
0
 62
     7
370
    40
100
AcDbLine
 10
245.687936
 20
394.885388
 30
0.0
 11
246.522282
 21
394.885388
 31
0.0
  0
LINE
  5
4C9
330
1F
100
AcDbEntity
  8
0
 62
     7
370
    40
100
AcDbLine
 10
246.522282
 20
394.885388
 30
0.0
 11
249.326912
 21
411.609818
 31
0.0
  0
LINE
  5
4CA
330
1F
100
AcDbEntity
  8
0
 62
     7
370
    40
100
AcDbLine
 10
249.624674
 20
413.385388
 30
0.0
 11
257.087183
 21
457.885389
 31
0.0
  0
LINE
  5
4CB
330
1F
100
AcDbEntity
  8
0
 62
     7
370
    40
100
AcDbLine
 10
448.074658
 20
394.885388
 30
0.0
 11
448.909004
 21
394.885388
 31
0.0
  0
LINE
  5
4CC
330
1F
100
AcDbEntity
  8
0
 62
     7
370
    40
100
AcDbLine
 10
448.074658
 20
394.885388
 30
0.0
 11
445.270021
 21
411.609818
 31
0.0
  0
LINE
  5
4CD
330
1F
100
AcDbEntity
  8
0
 62
     7
370
    40
100
AcDbLine
 10
444.972266
 20
413.385388
 30
0.0
 11
437.50975
 21
457.885389
 31
0.0
  0
LINE
  5
4CE
330
1F
100
AcDbEntity
  8
0
 62
     7
370
    40
100
AcDbLine
 10
448.909004
 20
394.885388
 30
0.0
 11
446.068485
 21
411.823762
 31
0.0
  0
LINE
  5
4CF
330
1F
100
AcDbEntity
  8
0
 62
     7
370
    40
100
AcDbLine
 10
445.806612
 20
413.385388
 30
0.0
 11
438.344096
 21
457.885389
 31
0.0
  0
LINE
  5
4D0
330
1F
100
AcDbEntity
  8
0
 62
     7
370
    40
100
AcDbLine
 10
250.645411
 20
394.885388
 30
0.0
 11
253.173408
 21
410.57915
 31
0.0
  0
LINE
  5
4D1
330
1F
100
AcDbEntity
  8
0
 62
     7
370
    40
100
AcDbLine
 10
253.625442
 20
413.385388
 30
0.0
 11
260.793623
 21
457.885389
 31
0.0
  0
LINE
  5
4D2
330
1F
100
AcDbEntity
  8
0
 62
     7
370
    40
100
AcDbLine
 10
249.547225
 20
394.885388
 30
0.0
 11
250.645411
 21
394.885388
 31
0.0
  0
LINE
  5
4D3
330
1F
100
AcDbEntity
  8
0
 62
     7
370
    40
100
AcDbLine
 10
249.547225
 20
394.885388
 30
0.0
 11
252.120656
 21
410.861236
 31
0.0
  0
LINE
  5
4D4
330
1F
100
AcDbEntity
  8
0
 62
     7
370
    40
100
AcDbLine
 10
252.527256
 20
413.385388
 30
0.0
 11
259.695438
 21
457.885389
 31
0.0
  0
LINE
  5
4D5
330
1F
100
AcDbEntity
  8
0
 62
     7
370
    40
100
AcDbLine
 10
445.049708
 20
394.885388
 30
0.0
 11
442.476277
 21
410.861236
 31
0.0
  0
LINE
  5
4D6
330
1F
100
AcDbEntity
  8
0
 62
     7
370
    40
100
AcDbLine
 10
442.069677
 20
413.385388
 30
0.0
 11
434.901495
 21
457.885389
 31
0.0
  0
LINE
  5
4D7
330
1F
100
AcDbEntity
  8
0
 62
     7
370
    40
100
AcDbLine
 10
443.951522
 20
394.885388
 30
0.0
 11
445.049708
 21
394.885388
 31
0.0
  0
LINE
  5
4D8
330
1F
100
AcDbEntity
  8
0
 62
     7
370
    40
100
AcDbLine
 10
443.951522
 20
394.885388
 30
0.0
 11
441.423525
 21
410.57915
 31
0.0
  0
LINE
  5
4D9
330
1F
100
AcDbEntity
  8
0
 62
     7
370
    40
100
AcDbLine
 10
440.971491
 20
413.385388
 30
0.0
 11
433.80331
 21
457.885389
 31
0.0
  0
LINE
  5
4DA
330
1F
100
AcDbEntity
  8
0
 62
     7
370
    40
100
AcDbLine
 10
254.477498
 20
394.885388
 30
0.0
 11
256.728535
 21
409.626556
 31
0.0
  0
LINE
  5
4DB
330
1F
100
AcDbEntity
  8
0
 62
     7
370
    40
100
AcDbLine
 10
257.30252
 20
413.385388
 30
0.0
 11
264.097829
 21
457.885389
 31
0.0
  0
LINE
  5
4DC
330
1F
100
AcDbEntity
  8
0
 62
     7
370
    40
100
AcDbLine
 10
254.477498
 20
394.885388
 30
0.0
 11
255.827499
 21
394.885388
 31
0.0
  0
LINE
  5
4DD
330
1F
100
AcDbEntity
  8
0
 62
     7
370
    40
100
AcDbLine
 10
255.827499
 20
394.885388
 30
0.0
 11
258.025465
 21
409.279046
 31
0.0
  0
LINE
  5
4DE
330
1F
100
AcDbEntity
  8
0
 62
     7
370
    40
100
AcDbLine
 10
258.65252
 20
413.385388
 30
0.0
 11
265.44783
 21
457.885389
 31
0.0
  0
LINE
  5
4DF
330
1F
100
AcDbEntity
  8
0
 62
     7
370
    40
100
AcDbLine
 10
438.769434
 20
394.885388
 30
0.0
 11
440.119435
 21
394.885388
 31
0.0
  0
LINE
  5
4E0
330
1F
100
AcDbEntity
  8
0
 62
     7
370
    40
100
AcDbLine
 10
438.769434
 20
394.885388
 30
0.0
 11
436.571469
 21
409.279046
 31
0.0
  0
LINE
  5
4E1
330
1F
100
AcDbEntity
  8
0
 62
     7
370
    40
100
AcDbLine
 10
435.944413
 20
413.385388
 30
0.0
 11
429.149103
 21
457.885389
 31
0.0
  0
LINE
  5
4E2
330
1F
100
AcDbEntity
  8
0
 62
     7
370
    40
100
AcDbLine
 10
440.119435
 20
394.885388
 30
0.0
 11
437.868406
 21
409.626556
 31
0.0
  0
LINE
  5
4E3
330
1F
100
AcDbEntity
  8
0
 62
     7
370
    40
100
AcDbLine
 10
437.294413
 20
413.385388
 30
0.0
 11
430.499104
 21
457.885389
 31
0.0
  0
LINE
  5
4E4
330
1F
100
AcDbEntity
  8
0
 62
     7
370
    40
100
AcDbLine
 10
260.424745
 20
394.885388
 30
0.0
 11
262.350541
 21
408.385386
 31
0.0
  0
LINE
  5
4E5
330
1F
100
AcDbEntity
  8
0
 62
     7
370
    40
100
AcDbLine
 10
263.063793
 20
413.385388
 30
0.0
 11
269.411792
 21
457.885389
 31
0.0
  0
LINE
  5
4E6
330
1F
100
AcDbEntity
  8
0
 62
     7
370
    40
100
AcDbLine
 10
262.011764
 20
394.885388
 30
0.0
 11
263.93756
 21
408.385386
 31
0.0
  0
LINE
  5
4E7
330
1F
100
AcDbEntity
  8
0
 62
     7
370
    40
100
AcDbLine
 10
264.650819
 20
413.385388
 30
0.0
 11
270.99881
 21
457.885389
 31
0.0
  0
LINE
  5
4E8
330
1F
100
AcDbEntity
  8
0
 62
     7
370
    40
100
AcDbLine
 10
260.424745
 20
394.885388
 30
0.0
 11
262.011764
 21
394.885388
 31
0.0
  0
LINE
  5
4E9
330
1F
100
AcDbEntity
  8
0
 62
     7
370
    40
100
AcDbLine
 10
434.172195
 20
394.885388
 30
0.0
 11
432.246399
 21
408.385386
 31
0.0
  0
LINE
  5
4EA
330
1F
100
AcDbEntity
  8
0
 62
     7
370
    40
100
AcDbLine
 10
431.53314
 20
413.385388
 30
0.0
 11
425.185149
 21
457.885389
 31
0.0
  0
LINE
  5
4EB
330
1F
100
AcDbEntity
  8
0
 62
     7
370
    40
100
AcDbLine
 10
432.585169
 20
394.885388
 30
0.0
 11
434.172195
 21
394.885388
 31
0.0
  0
LINE
  5
4EC
330
1F
100
AcDbEntity
  8
0
 62
     7
370
    40
100
AcDbLine
 10
432.585169
 20
394.885388
 30
0.0
 11
430.659373
 21
408.385386
 31
0.0
  0
LINE
  5
4ED
330
1F
100
AcDbEntity
  8
0
 62
     7
370
    40
100
AcDbLine
 10
429.946122
 20
413.385388
 30
0.0
 11
423.598123
 21
457.885389
 31
0.0
  0
LINE
  5
4EE
330
1F
100
AcDbEntity
  8
0
 62
     7
370
    40
100
AcDbLine
 10
267.323789
 20
394.885388
 30
0.0
 11
269.130443
 21
394.885388
 31
0.0
  0
LINE
  5
4EF
330
1F
100
AcDbEntity
  8
0
 62
     7
370
    40
100
AcDbLine
 10
267.323789
 20
394.885388
 30
0.0
 11
269.09278
 21
408.385386
 31
0.0
  0
LINE
  5
4F0
330
1F
100
AcDbEntity
  8
0
 62
     7
370
    40
100
AcDbLine
 10
270.534185
 20
419.385386
 30
0.0
 11
275.579092
 21
457.885389
 31
0.0
  0
LINE
  5
4F1
330
1F
100
AcDbEntity
  8
0
 62
     7
370
    40
100
AcDbLine
 10
269.130443
 20
394.885388
 30
0.0
 11
270.298471
 21
403.799114
 31
0.0
  0
LINE
  5
4F2
330
1F
100
AcDbEntity
  8
0
 62
     7
370
    40
100
AcDbLine
 10
272.340839
 20
419.385386
 30
0.0
 11
277.385739
 21
457.885389
 31
0.0
  0
LINE
  5
4F3
330
1F
100
AcDbEntity
  8
0
 62
     7
370
    40
100
AcDbLine
 10
427.273144
 20
394.885388
 30
0.0
 11
425.504153
 21
408.385386
 31
0.0
  0
LINE
  5
4F4
330
1F
100
AcDbEntity
  8
0
 62
     7
370
    40
100
AcDbLine
 10
424.062748
 20
419.385386
 30
0.0
 11
419.017848
 21
457.885389
 31
0.0
  0
LINE
  5
4F5
330
1F
100
AcDbEntity
  8
0
 62
     7
370
    40
100
AcDbLine
 10
425.46649
 20
394.885388
 30
0.0
 11
427.273144
 21
394.885388
 31
0.0
  0
LINE
  5
4F6
330
1F
100
AcDbEntity
  8
0
 62
     7
370
    40
100
AcDbLine
 10
425.46649
 20
394.885388
 30
0.0
 11
424.29847
 21
403.799114
 31
0.0
  0
LINE
  5
4F7
330
1F
100
AcDbEntity
  8
0
 62
     7
370
    40
100
AcDbLine
 10
422.256094
 20
419.385386
 30
0.0
 11
417.211194
 21
457.885389
 31
0.0
  0
LINE
  5
4F8
330
1F
100
AcDbEntity
  8
0
 62
     7
370
    40
100
AcDbLine
 10
277.989712
 20
419.385386
 30
0.0
 11
281.798464
 21
451.666881
 31
0.0
  0
LINE
  5
4F9
330
1F
100
AcDbEntity
  8
0
 62
     7
370
    40
100
AcDbLine
 10
279.996199
 20
419.385386
 30
0.0
 11
281.798464
 21
434.66067
 31
0.0
  0
LINE
  5
4FA
330
1F
100
AcDbEntity
  8
0
 62
     7
370
    40
100
AcDbLine
 10
416.607228
 20
419.385386
 30
0.0
 11
412.798469
 21
451.666881
 31
0.0
  0
LINE
  5
4FB
330
1F
100
AcDbEntity
  8
0
 62
     7
370
    40
100
AcDbLine
 10
414.600735
 20
419.385386
 30
0.0
 11
412.798469
 21
434.66067
 31
0.0
  0
LINE
  5
4FC
330
1F
100
AcDbEntity
  8
0
 62
     7
370
    40
100
AcDbLine
 10
287.798469
 20
434.76395
 30
0.0
 11
290.194829
 21
457.885389
 31
0.0
  0
LINE
  5
4FD
330
1F
100
AcDbEntity
  8
0
 62
     7
370
    40
100
AcDbLine
 10
288.388942
 20
419.385386
 30
0.0
 11
291.548469
 21
449.870256
 31
0.0
  0
LINE
  5
4FE
330
1F
100
AcDbEntity
  8
0
 62
     7
370
    40
100
AcDbLine
 10
406.798468
 20
434.76395
 30
0.0
 11
404.402108
 21
457.885389
 31
0.0
  0
LINE
  5
4FF
330
1F
100
AcDbEntity
  8
0
 62
     7
370
    40
100
AcDbLine
 10
406.207991
 20
419.385386
 30
0.0
 11
403.048468
 21
449.870256
 31
0.0
  0
LINE
  5
500
330
1F
100
AcDbEntity
  8
0
 62
     7
370
    40
100
AcDbLine
 10
323.358509
 20
467.985389
 30
0.0
 11
323.608792
 21
467.985389
 31
0.0
  0
LINE
  5
501
330
1F
100
AcDbEntity
  8
0
 62
     7
370
    40
100
AcDbLine
 10
329.034542
 20
467.985389
 30
0.0
 11
323.608792
 21
467.985389
 31
0.0
  0
LINE
  5
502
330
1F
100
AcDbEntity
  8
0
 62
     7
370
    40
100
AcDbLine
 10
321.387491
 20
467.985389
 30
0.0
 11
323.358509
 21
467.985389
 31
0.0
  0
LINE
  5
503
330
1F
100
AcDbEntity
  8
0
 62
     7
370
    40
100
AcDbLine
 10
321.387491
 20
467.985389
 30
0.0
 11
319.416472
 21
467.985389
 31
0.0
  0
LINE
  5
504
330
1F
100
AcDbEntity
  8
0
 62
     7
370
    40
100
AcDbLine
 10
367.117609
 20
467.985389
 30
0.0
 11
367.117609
 21
467.885387
 31
0.0
  0
LINE
  5
505
330
1F
100
AcDbEntity
  8
0
 62
     7
370
    40
100
AcDbLine
 10
367.117609
 20
467.985389
 30
0.0
 11
368.776173
 21
467.985389
 31
0.0
  0
LINE
  5
506
330
1F
100
AcDbEntity
  8
0
 62
     7
370
    40
100
AcDbLine
 10
368.776173
 20
467.985389
 30
0.0
 11
368.776173
 21
467.885387
 31
0.0
  0
LINE
  5
507
330
1F
100
AcDbEntity
  8
0
 62
     7
370
    40
100
AcDbLine
 10
369.166017
 20
467.985389
 30
0.0
 11
368.776173
 21
467.985389
 31
0.0
  0
LINE
  5
508
330
1F
100
AcDbEntity
  8
0
 62
     7
370
    40
100
AcDbLine
 10
365.459044
 20
467.985389
 30
0.0
 11
365.459044
 21
467.885387
 31
0.0
  0
LINE
  5
509
330
1F
100
AcDbEntity
  8
0
 62
     7
370
    40
100
AcDbLine
 10
365.811584
 20
467.985389
 30
0.0
 11
365.811584
 21
467.885387
 31
0.0
  0
LINE
  5
50A
330
1F
100
AcDbEntity
  8
0
 62
     7
370
    40
100
AcDbLine
 10
365.811584
 20
467.985389
 30
0.0
 11
365.459044
 21
467.985389
 31
0.0
  0
LINE
  5
50B
330
1F
100
AcDbEntity
  8
0
 62
     7
370
    40
100
AcDbLine
 10
363.80048
 20
467.985389
 30
0.0
 11
363.80048
 21
467.885387
 31
0.0
  0
LINE
  5
50C
330
1F
100
AcDbEntity
  8
0
 62
     7
370
    40
100
AcDbLine
 10
363.80048
 20
467.985389
 30
0.0
 11
365.459044
 21
467.985389
 31
0.0
  0
LINE
  5
50D
330
1F
100
AcDbEntity
  8
0
 62
     7
370
    40
100
AcDbLine
 10
289.395952
 20
429.101591
 30
0.0
 11
288.53934
 21
419.385386
 31
0.0
  0
LINE
  5
50E
330
1F
100
AcDbEntity
  8
0
 62
     7
370
    40
100
AcDbLine
 10
405.200981
 20
429.101591
 30
0.0
 11
406.057597
 21
419.385386
 31
0.0
  0
LINE
  5
50F
330
1F
100
AcDbEntity
  8
0
 62
     7
370
    40
100
AcDbLine
 10
329.462924
 20
467.985389
 30
0.0
 11
329.462924
 21
467.885387
 31
0.0
  0
LINE
  5
510
330
1F
100
AcDbEntity
  8
0
 62
     7
370
    40
100
AcDbLine
 10
329.462924
 20
467.985389
 30
0.0
 11
330.70316
 21
467.985389
 31
0.0
  0
LINE
  5
511
330
1F
100
AcDbEntity
  8
0
 62
     7
370
    40
100
AcDbLine
 10
330.70316
 20
467.985389
 30
0.0
 11
330.70316
 21
467.885387
 31
0.0
  0
LINE
  5
512
330
1F
100
AcDbEntity
  8
0
 62
     7
370
    40
100
AcDbLine
 10
330.70316
 20
467.985389
 30
0.0
 11
333.984538
 21
467.985389
 31
0.0
  0
LINE
  5
513
330
1F
100
AcDbEntity
  8
0
 62
     7
370
    40
100
AcDbLine
 10
362.713241
 20
467.985389
 30
0.0
 11
362.713241
 21
467.885387
 31
0.0
  0
LINE
  5
514
330
1F
100
AcDbEntity
  8
0
 62
     7
370
    40
100
AcDbLine
 10
362.978493
 20
467.985389
 30
0.0
 11
362.713241
 21
467.985389
 31
0.0
  0
LINE
  5
515
330
1F
100
AcDbEntity
  8
0
 62
     7
370
    40
100
AcDbLine
 10
362.978493
 20
467.985389
 30
0.0
 11
362.978493
 21
467.885387
 31
0.0
  0
LINE
  5
516
330
1F
100
AcDbEntity
  8
0
 62
     7
370
    40
100
AcDbLine
 10
358.619428
 20
467.985389
 30
0.0
 11
358.619428
 21
467.885387
 31
0.0
  0
LINE
  5
517
330
1F
100
AcDbEntity
  8
0
 62
     7
370
    40
100
AcDbLine
 10
358.619428
 20
467.985389
 30
0.0
 11
362.713241
 21
467.985389
 31
0.0
  0
LINE
  5
518
330
1F
100
AcDbEntity
  8
0
 62
     7
370
    40
100
AcDbLine
 10
333.984538
 20
467.985389
 30
0.0
 11
335.036467
 21
467.985389
 31
0.0
  0
LINE
  5
519
330
1F
100
AcDbEntity
  8
0
 62
     7
370
    40
100
AcDbLine
 10
369.166017
 20
467.985389
 30
0.0
 11
369.194425
 21
467.985389
 31
0.0
  0
LINE
  5
51A
330
1F
100
AcDbEntity
  8
0
 62
     7
370
    40
100
AcDbLine
 10
336.133266
 20
467.985389
 30
0.0
 11
336.133266
 21
467.885387
 31
0.0
  0
LINE
  5
51B
330
1F
100
AcDbEntity
  8
0
 62
     7
370
    40
100
AcDbLine
 10
336.133266
 20
467.985389
 30
0.0
 11
337.819593
 21
467.985389
 31
0.0
  0
LINE
  5
51C
330
1F
100
AcDbEntity
  8
0
 62
     7
370
    40
100
AcDbLine
 10
337.819593
 20
467.985389
 30
0.0
 11
337.819593
 21
467.885387
 31
0.0
  0
LINE
  5
51D
330
1F
100
AcDbEntity
  8
0
 62
     7
370
    40
100
AcDbLine
 10
335.589727
 20
467.985389
 30
0.0
 11
336.133266
 21
467.985389
 31
0.0
  0
LINE
  5
51E
330
1F
100
AcDbEntity
  8
0
 62
     7
370
    40
100
AcDbLine
 10
365.811584
 20
467.985389
 30
0.0
 11
367.117609
 21
467.985389
 31
0.0
  0
LINE
  5
51F
330
1F
100
AcDbEntity
  8
0
 62
     7
370
    40
100
AcDbLine
 10
356.147619
 20
467.985389
 30
0.0
 11
356.147619
 21
467.885387
 31
0.0
  0
LINE
  5
520
330
1F
100
AcDbEntity
  8
0
 62
     7
370
    40
100
AcDbLine
 10
356.147619
 20
467.985389
 30
0.0
 11
357.836785
 21
467.985389
 31
0.0
  0
LINE
  5
521
330
1F
100
AcDbEntity
  8
0
 62
     7
370
    40
100
AcDbLine
 10
357.836785
 20
467.985389
 30
0.0
 11
357.836785
 21
467.885387
 31
0.0
  0
LINE
  5
522
330
1F
100
AcDbEntity
  8
0
 62
     7
370
    40
100
AcDbLine
 10
358.289987
 20
467.985389
 30
0.0
 11
357.836785
 21
467.985389
 31
0.0
  0
LINE
  5
523
330
1F
100
AcDbEntity
  8
0
 62
     7
370
    40
100
AcDbLine
 10
339.505922
 20
467.985389
 30
0.0
 11
339.505922
 21
467.885387
 31
0.0
  0
LINE
  5
524
330
1F
100
AcDbEntity
  8
0
 62
     7
370
    40
100
AcDbLine
 10
341.19225
 20
467.985389
 30
0.0
 11
341.19225
 21
467.885387
 31
0.0
  0
LINE
  5
525
330
1F
100
AcDbEntity
  8
0
 62
     7
370
    40
100
AcDbLine
 10
339.505922
 20
467.985389
 30
0.0
 11
341.19225
 21
467.985389
 31
0.0
  0
LINE
  5
526
330
1F
100
AcDbEntity
  8
0
 62
     7
370
    40
100
AcDbLine
 10
339.308987
 20
467.985389
 30
0.0
 11
339.308987
 21
467.885387
 31
0.0
  0
LINE
  5
527
330
1F
100
AcDbEntity
  8
0
 62
     7
370
    40
100
AcDbLine
 10
339.308987
 20
467.985389
 30
0.0
 11
339.505922
 21
467.985389
 31
0.0
  0
LINE
  5
528
330
1F
100
AcDbEntity
  8
0
 62
     7
370
    40
100
AcDbLine
 10
353.14466
 20
467.985389
 30
0.0
 11
353.14466
 21
467.885387
 31
0.0
  0
LINE
  5
529
330
1F
100
AcDbEntity
  8
0
 62
     7
370
    40
100
AcDbLine
 10
354.927668
 20
467.985389
 30
0.0
 11
354.927668
 21
467.885387
 31
0.0
  0
LINE
  5
52A
330
1F
100
AcDbEntity
  8
0
 62
     7
370
    40
100
AcDbLine
 10
353.14466
 20
467.985389
 30
0.0
 11
354.927668
 21
467.985389
 31
0.0
  0
LINE
  5
52B
330
1F
100
AcDbEntity
  8
0
 62
     7
370
    40
100
AcDbLine
 10
355.329967
 20
467.985389
 30
0.0
 11
354.927668
 21
467.985389
 31
0.0
  0
LINE
  5
52C
330
1F
100
AcDbEntity
  8
0
 62
     7
370
    40
100
AcDbLine
 10
329.034542
 20
467.985389
 30
0.0
 11
329.108403
 21
467.985389
 31
0.0
  0
LINE
  5
52D
330
1F
100
AcDbEntity
  8
0
 62
     7
370
    40
100
AcDbLine
 10
342.139424
 20
467.985389
 30
0.0
 11
342.139424
 21
467.885387
 31
0.0
  0
LINE
  5
52E
330
1F
100
AcDbEntity
  8
0
 62
     7
370
    40
100
AcDbLine
 10
342.139424
 20
467.985389
 30
0.0
 11
345.902298
 21
467.985389
 31
0.0
  0
LINE
  5
52F
330
1F
100
AcDbEntity
  8
0
 62
     7
370
    40
100
AcDbLine
 10
345.902298
 20
467.985389
 30
0.0
 11
345.902298
 21
467.885387
 31
0.0
  0
LINE
  5
530
330
1F
100
AcDbEntity
  8
0
 62
     7
370
    40
100
AcDbLine
 10
341.799247
 20
467.985389
 30
0.0
 11
341.799247
 21
467.885387
 31
0.0
  0
LINE
  5
531
330
1F
100
AcDbEntity
  8
0
 62
     7
370
    40
100
AcDbLine
 10
341.799247
 20
467.985389
 30
0.0
 11
342.139424
 21
467.985389
 31
0.0
  0
LINE
  5
532
330
1F
100
AcDbEntity
  8
0
 62
     7
370
    40
100
AcDbLine
 10
350.235543
 20
467.985389
 30
0.0
 11
350.235543
 21
467.885387
 31
0.0
  0
LINE
  5
533
330
1F
100
AcDbEntity
  8
0
 62
     7
370
    40
100
AcDbLine
 10
351.924708
 20
467.985389
 30
0.0
 11
351.924708
 21
467.885387
 31
0.0
  0
LINE
  5
534
330
1F
100
AcDbEntity
  8
0
 62
     7
370
    40
100
AcDbLine
 10
350.235543
 20
467.985389
 30
0.0
 11
351.924708
 21
467.985389
 31
0.0
  0
LINE
  5
535
330
1F
100
AcDbEntity
  8
0
 62
     7
370
    40
100
AcDbLine
 10
352.327006
 20
467.985389
 30
0.0
 11
351.924708
 21
467.985389
 31
0.0
  0
LINE
  5
536
330
1F
100
AcDbEntity
  8
0
 62
     7
370
    40
100
AcDbLine
 10
369.194425
 20
467.985389
 30
0.0
 11
369.522286
 21
467.985389
 31
0.0
  0
LINE
  5
537
330
1F
100
AcDbEntity
  8
0
 62
     7
370
    40
100
AcDbLine
 10
346.184901
 20
467.985389
 30
0.0
 11
349.95294
 21
467.985389
 31
0.0
  0
LINE
  5
538
330
1F
100
AcDbEntity
  8
0
 62
     7
370
    40
100
AcDbLine
 10
349.95294
 20
467.985389
 30
0.0
 11
349.95294
 21
467.885387
 31
0.0
  0
LINE
  5
539
330
1F
100
AcDbEntity
  8
0
 62
     7
370
    40
100
AcDbLine
 10
346.184901
 20
467.985389
 30
0.0
 11
346.184901
 21
467.885387
 31
0.0
  0
LINE
  5
53A
330
1F
100
AcDbEntity
  8
0
 62
     7
370
    40
100
AcDbLine
 10
369.857293
 20
467.985389
 30
0.0
 11
369.522286
 21
467.985389
 31
0.0
  0
LINE
  5
53B
330
1F
100
AcDbEntity
  8
0
 62
     7
370
    40
100
AcDbLine
 10
363.095228
 20
467.985389
 30
0.0
 11
363.095228
 21
467.885387
 31
0.0
  0
LINE
  5
53C
330
1F
100
AcDbEntity
  8
0
 62
     7
370
    40
100
AcDbLine
 10
363.3469
 20
467.985389
 30
0.0
 11
363.3469
 21
467.885387
 31
0.0
  0
LINE
  5
53D
330
1F
100
AcDbEntity
  8
0
 62
     7
370
    40
100
AcDbLine
 10
363.3469
 20
467.985389
 30
0.0
 11
363.095228
 21
467.985389
 31
0.0
  0
LINE
  5
53E
330
1F
100
AcDbEntity
  8
0
 62
     7
370
    40
100
AcDbLine
 10
363.095228
 20
467.985389
 30
0.0
 11
362.978493
 21
467.985389
 31
0.0
  0
LINE
  5
53F
330
1F
100
AcDbEntity
  8
0
 62
     7
370
    40
100
AcDbLine
 10
337.819593
 20
467.985389
 30
0.0
 11
339.308987
 21
467.985389
 31
0.0
  0
LINE
  5
540
330
1F
100
AcDbEntity
  8
0
 62
     7
370
    40
100
AcDbLine
 10
319.382251
 20
467.985389
 30
0.0
 11
319.416472
 21
467.985389
 31
0.0
  0
LINE
  5
541
330
1F
100
AcDbEntity
  8
0
 62
     7
370
    40
100
AcDbLine
 10
369.857293
 20
467.985389
 30
0.0
 11
369.885701
 21
467.985389
 31
0.0
  0
LINE
  5
542
330
1F
100
AcDbEntity
  8
0
 62
     7
370
    40
100
AcDbLine
 10
303.048466
 20
394.885388
 30
0.0
 11
305.254568
 21
394.885388
 31
0.0
  0
LINE
  5
543
330
1F
100
AcDbEntity
  8
0
 62
     7
370
    40
100
AcDbLine
 10
303.048466
 20
398.517226
 30
0.0
 11
303.756197
 21
408.385386
 31
0.0
  0
LINE
  5
544
330
1F
100
AcDbEntity
  8
0
 62
     7
370
    40
100
AcDbLine
 10
304.545105
 20
419.385386
 30
0.0
 11
307.306272
 21
457.885389
 31
0.0
  0
LINE
  5
545
330
1F
100
AcDbEntity
  8
0
 62
     7
370
    40
100
AcDbLine
 10
305.254568
 20
394.885388
 30
0.0
 11
306.222771
 21
408.385386
 31
0.0
  0
LINE
  5
546
330
1F
100
AcDbEntity
  8
0
 62
     7
370
    40
100
AcDbLine
 10
307.011676
 20
419.385386
 30
0.0
 11
309.772842
 21
457.885389
 31
0.0
  0
LINE
  5
547
330
1F
100
AcDbEntity
  8
0
 62
     7
370
    40
100
AcDbLine
 10
391.548467
 20
398.517226
 30
0.0
 11
390.840736
 21
408.385386
 31
0.0
  0
LINE
  5
548
330
1F
100
AcDbEntity
  8
0
 62
     7
370
    40
100
AcDbLine
 10
390.051831
 20
419.385386
 30
0.0
 11
387.290665
 21
457.885389
 31
0.0
  0
LINE
  5
549
330
1F
100
AcDbEntity
  8
0
 62
     7
370
    40
100
AcDbLine
 10
389.342365
 20
394.885388
 30
0.0
 11
391.548467
 21
394.885388
 31
0.0
  0
LINE
  5
54A
330
1F
100
AcDbEntity
  8
0
 62
     7
370
    40
100
AcDbLine
 10
389.342365
 20
394.885388
 30
0.0
 11
388.374162
 21
408.385386
 31
0.0
  0
LINE
  5
54B
330
1F
100
AcDbEntity
  8
0
 62
     7
370
    40
100
AcDbLine
 10
387.585257
 20
419.385386
 30
0.0
 11
384.824091
 21
457.885389
 31
0.0
  0
LINE
  5
54C
330
1F
100
AcDbEntity
  8
0
 62
     7
370
    40
100
AcDbLine
 10
363.46479
 20
467.985389
 30
0.0
 11
363.46479
 21
467.885387
 31
0.0
  0
LINE
  5
54D
330
1F
100
AcDbEntity
  8
0
 62
     7
370
    40
100
AcDbLine
 10
363.3469
 20
467.985389
 30
0.0
 11
363.46479
 21
467.985389
 31
0.0
  0
LINE
  5
54E
330
1F
100
AcDbEntity
  8
0
 62
     7
370
    40
100
AcDbLine
 10
363.730046
 20
467.985389
 30
0.0
 11
363.730046
 21
467.885387
 31
0.0
  0
LINE
  5
54F
330
1F
100
AcDbEntity
  8
0
 62
     7
370
    40
100
AcDbLine
 10
363.730046
 20
467.985389
 30
0.0
 11
363.46479
 21
467.985389
 31
0.0
  0
LINE
  5
550
330
1F
100
AcDbEntity
  8
0
 62
     7
370
    40
100
AcDbLine
 10
355.534071
 20
467.985389
 30
0.0
 11
355.329967
 21
467.985389
 31
0.0
  0
LINE
  5
551
330
1F
100
AcDbEntity
  8
0
 62
     7
370
    40
100
AcDbLine
 10
355.534071
 20
467.985389
 30
0.0
 11
356.147619
 21
467.985389
 31
0.0
  0
LINE
  5
552
330
1F
100
AcDbEntity
  8
0
 62
     7
370
    40
100
AcDbLine
 10
335.582606
 20
467.985389
 30
0.0
 11
335.589727
 21
467.985389
 31
0.0
  0
LINE
  5
553
330
1F
100
AcDbEntity
  8
0
 62
     7
370
    40
100
AcDbLine
 10
352.531112
 20
467.985389
 30
0.0
 11
352.327006
 21
467.985389
 31
0.0
  0
LINE
  5
554
330
1F
100
AcDbEntity
  8
0
 62
     7
370
    40
100
AcDbLine
 10
358.289987
 20
467.985389
 30
0.0
 11
358.294933
 21
467.985389
 31
0.0
  0
LINE
  5
555
330
1F
100
AcDbEntity
  8
0
 62
     7
370
    40
100
AcDbLine
 10
352.531112
 20
467.985389
 30
0.0
 11
353.14466
 21
467.985389
 31
0.0
  0
LINE
  5
556
330
1F
100
AcDbEntity
  8
0
 62
     7
370
    40
100
AcDbLine
 10
315.702678
 20
394.885388
 30
0.0
 11
316.438266
 21
408.385386
 31
0.0
  0
LINE
  5
557
330
1F
100
AcDbEntity
  8
0
 62
     7
370
    40
100
AcDbLine
 10
317.037634
 20
419.385386
 30
0.0
 11
319.135425
 21
457.885389
 31
0.0
  0
LINE
  5
558
330
1F
100
AcDbEntity
  8
0
 62
     7
370
    40
100
AcDbLine
 10
313.134824
 20
394.885388
 30
0.0
 11
315.702678
 21
394.885388
 31
0.0
  0
LINE
  5
559
330
1F
100
AcDbEntity
  8
0
 62
     7
370
    40
100
AcDbLine
 10
313.134824
 20
394.885388
 30
0.0
 11
313.870412
 21
408.385386
 31
0.0
  0
LINE
  5
55A
330
1F
100
AcDbEntity
  8
0
 62
     7
370
    40
100
AcDbLine
 10
314.469782
 20
419.385386
 30
0.0
 11
316.567571
 21
457.885389
 31
0.0
  0
LINE
  5
55B
330
1F
100
AcDbEntity
  8
0
 62
     7
370
    40
100
AcDbLine
 10
312.519756
 20
457.885389
 30
0.0
 11
310.421967
 21
419.385386
 31
0.0
  0
LINE
  5
55C
330
1F
100
AcDbEntity
  8
0
 62
     7
370
    40
100
AcDbLine
 10
309.822597
 20
408.385386
 30
0.0
 11
309.087009
 21
394.885388
 31
0.0
  0
LINE
  5
55D
330
1F
100
AcDbEntity
  8
0
 62
     7
370
    40
100
AcDbLine
 10
381.462109
 20
394.885388
 30
0.0
 11
380.726521
 21
408.385386
 31
0.0
  0
LINE
  5
55E
330
1F
100
AcDbEntity
  8
0
 62
     7
370
    40
100
AcDbLine
 10
380.127151
 20
419.385386
 30
0.0
 11
378.029362
 21
457.885389
 31
0.0
  0
LINE
  5
55F
330
1F
100
AcDbEntity
  8
0
 62
     7
370
    40
100
AcDbLine
 10
382.077177
 20
457.885389
 30
0.0
 11
384.174966
 21
419.385386
 31
0.0
  0
LINE
  5
560
330
1F
100
AcDbEntity
  8
0
 62
     7
370
    40
100
AcDbLine
 10
384.774336
 20
408.385386
 30
0.0
 11
385.509924
 21
394.885388
 31
0.0
  0
LINE
  5
561
330
1F
100
AcDbEntity
  8
0
 62
     7
370
    40
100
AcDbLine
 10
378.894259
 20
394.885388
 30
0.0
 11
381.462109
 21
394.885388
 31
0.0
  0
LINE
  5
562
330
1F
100
AcDbEntity
  8
0
 62
     7
370
    40
100
AcDbLine
 10
378.894259
 20
394.885388
 30
0.0
 11
378.158671
 21
408.385386
 31
0.0
  0
LINE
  5
563
330
1F
100
AcDbEntity
  8
0
 62
     7
370
    40
100
AcDbLine
 10
377.559301
 20
419.385386
 30
0.0
 11
375.461512
 21
457.885389
 31
0.0
  0
LINE
  5
564
330
1F
100
AcDbEntity
  8
0
 62
     7
370
    40
100
AcDbLine
 10
323.855958
 20
394.885388
 30
0.0
 11
326.496956
 21
394.885388
 31
0.0
  0
LINE
  5
565
330
1F
100
AcDbEntity
  8
0
 62
     7
370
    40
100
AcDbLine
 10
323.855958
 20
394.885388
 30
0.0
 11
324.350874
 21
408.385386
 31
0.0
  0
LINE
  5
566
330
1F
100
AcDbEntity
  8
0
 62
     7
370
    40
100
AcDbLine
 10
324.754138
 20
419.385386
 30
0.0
 11
326.165565
 21
457.885389
 31
0.0
  0
LINE
  5
567
330
1F
100
AcDbEntity
  8
0
 62
     7
370
    40
100
AcDbLine
 10
326.496956
 20
394.885388
 30
0.0
 11
326.991872
 21
408.385386
 31
0.0
  0
LINE
  5
568
330
1F
100
AcDbEntity
  8
0
 62
     7
370
    40
100
AcDbLine
 10
327.395136
 20
419.385386
 30
0.0
 11
328.806563
 21
457.885389
 31
0.0
  0
LINE
  5
569
330
1F
100
AcDbEntity
  8
0
 62
     7
370
    40
100
AcDbLine
 10
323.442128
 20
457.885389
 30
0.0
 11
322.030702
 21
419.385386
 31
0.0
  0
LINE
  5
56A
330
1F
100
AcDbEntity
  8
0
 62
     7
370
    40
100
AcDbLine
 10
321.627437
 20
408.385386
 30
0.0
 11
321.132521
 21
394.885388
 31
0.0
  0
LINE
  5
56B
330
1F
100
AcDbEntity
  8
0
 62
     7
370
    40
100
AcDbLine
 10
368.099979
 20
394.885388
 30
0.0
 11
370.740977
 21
394.885388
 31
0.0
  0
LINE
  5
56C
330
1F
100
AcDbEntity
  8
0
 62
     7
370
    40
100
AcDbLine
 10
368.099979
 20
394.885388
 30
0.0
 11
367.605063
 21
408.385386
 31
0.0
  0
LINE
  5
56D
330
1F
100
AcDbEntity
  8
0
 62
     7
370
    40
100
AcDbLine
 10
367.201799
 20
419.385386
 30
0.0
 11
365.790372
 21
457.885389
 31
0.0
  0
LINE
  5
56E
330
1F
100
AcDbEntity
  8
0
 62
     7
370
    40
100
AcDbLine
 10
370.740977
 20
394.885388
 30
0.0
 11
370.246061
 21
408.385386
 31
0.0
  0
LINE
  5
56F
330
1F
100
AcDbEntity
  8
0
 62
     7
370
    40
100
AcDbLine
 10
369.842797
 20
419.385386
 30
0.0
 11
368.43137
 21
457.885389
 31
0.0
  0
LINE
  5
570
330
1F
100
AcDbEntity
  8
0
 62
     7
370
    40
100
AcDbLine
 10
371.154806
 20
457.885389
 30
0.0
 11
372.566233
 21
419.385386
 31
0.0
  0
LINE
  5
571
330
1F
100
AcDbEntity
  8
0
 62
     7
370
    40
100
AcDbLine
 10
372.969498
 20
408.385386
 30
0.0
 11
373.464414
 21
394.885388
 31
0.0
  0
LINE
  5
572
330
1F
100
AcDbEntity
  8
0
 62
     7
370
    40
100
AcDbLine
 10
334.83393
 20
394.885388
 30
0.0
 11
335.082752
 21
408.385386
 31
0.0
  0
LINE
  5
573
330
1F
100
AcDbEntity
  8
0
 62
     7
370
    40
100
AcDbLine
 10
335.285494
 20
419.385386
 30
0.0
 11
335.995095
 21
457.885389
 31
0.0
  0
LINE
  5
574
330
1F
100
AcDbEntity
  8
0
 62
     7
370
    40
100
AcDbLine
 10
334.625876
 20
457.885389
 30
0.0
 11
333.916276
 21
419.385386
 31
0.0
  0
LINE
  5
575
330
1F
100
AcDbEntity
  8
0
 62
     7
370
    40
100
AcDbLine
 10
333.713532
 20
408.385386
 30
0.0
 11
333.464712
 21
394.885388
 31
0.0
  0
LINE
  5
576
330
1F
100
AcDbEntity
  8
0
 62
     7
370
    40
100
AcDbLine
 10
337.519139
 20
394.885388
 30
0.0
 11
337.76796
 21
408.385386
 31
0.0
  0
LINE
  5
577
330
1F
100
AcDbEntity
  8
0
 62
     7
370
    40
100
AcDbLine
 10
337.970703
 20
419.385386
 30
0.0
 11
338.680304
 21
457.885389
 31
0.0
  0
LINE
  5
578
330
1F
100
AcDbEntity
  8
0
 62
     7
370
    40
100
AcDbLine
 10
334.83393
 20
394.885388
 30
0.0
 11
337.519139
 21
394.885388
 31
0.0
  0
LINE
  5
579
330
1F
100
AcDbEntity
  8
0
 62
     7
370
    40
100
AcDbLine
 10
359.763005
 20
394.885388
 30
0.0
 11
359.514183
 21
408.385386
 31
0.0
  0
LINE
  5
57A
330
1F
100
AcDbEntity
  8
0
 62
     7
370
    40
100
AcDbLine
 10
359.311441
 20
419.385386
 30
0.0
 11
358.60184
 21
457.885389
 31
0.0
  0
LINE
  5
57B
330
1F
100
AcDbEntity
  8
0
 62
     7
370
    40
100
AcDbLine
 10
357.077796
 20
394.885388
 30
0.0
 11
359.763005
 21
394.885388
 31
0.0
  0
LINE
  5
57C
330
1F
100
AcDbEntity
  8
0
 62
     7
370
    40
100
AcDbLine
 10
357.077796
 20
394.885388
 30
0.0
 11
356.828974
 21
408.385386
 31
0.0
  0
LINE
  5
57D
330
1F
100
AcDbEntity
  8
0
 62
     7
370
    40
100
AcDbLine
 10
356.626231
 20
419.385386
 30
0.0
 11
355.91663
 21
457.885389
 31
0.0
  0
LINE
  5
57E
330
1F
100
AcDbEntity
  8
0
 62
     7
370
    40
100
AcDbLine
 10
359.971058
 20
457.885389
 30
0.0
 11
360.680659
 21
419.385386
 31
0.0
  0
LINE
  5
57F
330
1F
100
AcDbEntity
  8
0
 62
     7
370
    40
100
AcDbLine
 10
360.883403
 20
408.385386
 30
0.0
 11
361.132224
 21
394.885388
 31
0.0
  0
LINE
  5
580
330
1F
100
AcDbEntity
  8
0
 62
     7
370
    40
100
AcDbLine
 10
345.948468
 20
419.385386
 30
0.0
 11
345.948468
 21
457.885389
 31
0.0
  0
LINE
  5
581
330
1F
100
AcDbEntity
  8
0
 62
     7
370
    40
100
AcDbLine
 10
348.648467
 20
419.385386
 30
0.0
 11
348.648467
 21
457.885389
 31
0.0
  0
LINE
  5
582
330
1F
100
AcDbEntity
  8
0
 62
     7
370
    40
100
AcDbLine
 10
291.548469
 20
384.385389
 30
0.0
 11
294.798468
 21
384.385389
 31
0.0
  0
LINE
  5
583
330
1F
100
AcDbEntity
  8
0
 62
     7
370
    40
100
AcDbLine
 10
291.548469
 20
384.385389
 30
0.0
 11
291.548469
 21
392.885388
 31
0.0
  0
LINE
  5
584
330
1F
100
AcDbEntity
  8
0
 62
     7
370
    40
100
AcDbLine
 10
270.298471
 20
392.885388
 30
0.0
 11
291.548469
 21
392.885388
 31
0.0
  0
LINE
  5
585
330
1F
100
AcDbEntity
  8
0
 62
     7
370
    40
100
AcDbLine
 10
270.298471
 20
407.885385
 30
0.0
 11
270.298471
 21
392.885388
 31
0.0
  0
LINE
  5
586
330
1F
100
AcDbEntity
  8
0
 62
     7
370
    40
100
AcDbLine
 10
270.298471
 20
407.885385
 30
0.0
 11
269.79847
 21
408.385386
 31
0.0
  0
LINE
  5
587
330
1F
100
AcDbEntity
  8
0
 62
     7
370
    40
100
AcDbLine
 10
269.79847
 20
408.385386
 30
0.0
 11
261.360642
 21
408.385386
 31
0.0
  0
LINE
  5
588
330
1F
100
AcDbEntity
  8
0
 62
     7
370
    40
100
AcDbLine
 10
248.298471
 20
411.885385
 30
0.0
 11
261.360642
 21
408.385386
 31
0.0
  0
LINE
  5
589
330
1F
100
AcDbEntity
  8
0
 62
     7
370
    40
100
AcDbLine
 10
248.298471
 20
411.885385
 30
0.0
 11
248.298471
 21
413.385388
 31
0.0
  0
LINE
  5
58A
330
1F
100
AcDbEntity
  8
0
 62
     7
370
    40
100
AcDbLine
 10
266.29847
 20
413.385388
 30
0.0
 11
248.298471
 21
413.385388
 31
0.0
  0
LINE
  5
58B
330
1F
100
AcDbEntity
  8
0
 62
     7
370
    40
100
AcDbLine
 10
266.29847
 20
413.385388
 30
0.0
 11
266.29847
 21
419.385386
 31
0.0
  0
LINE
  5
58C
330
1F
100
AcDbEntity
  8
0
 62
     7
370
    40
100
AcDbLine
 10
266.29847
 20
419.385386
 30
0.0
 11
270.798464
 21
419.385386
 31
0.0
  0
LINE
  5
58D
330
1F
100
AcDbEntity
  8
0
 62
     7
370
    40
100
AcDbLine
 10
270.798464
 20
419.385386
 30
0.0
 11
270.798464
 21
413.385388
 31
0.0
  0
LINE
  5
58E
330
1F
100
AcDbEntity
  8
0
 62
     7
370
    40
100
AcDbLine
 10
291.048468
 20
413.385388
 30
0.0
 11
270.798464
 21
413.385388
 31
0.0
  0
LINE
  5
58F
330
1F
100
AcDbEntity
  8
0
 62
     7
370
    40
100
AcDbLine
 10
291.048468
 20
413.385388
 30
0.0
 11
291.548469
 21
413.885389
 31
0.0
  0
LINE
  5
590
330
1F
100
AcDbEntity
  8
0
 62
     7
370
    40
100
AcDbLine
 10
291.548469
 20
413.885389
 30
0.0
 11
291.548469
 21
451.385391
 31
0.0
  0
LINE
  5
591
330
1F
100
AcDbEntity
  8
0
 62
     7
370
    40
100
AcDbLine
 10
294.798468
 20
451.385391
 30
0.0
 11
291.548469
 21
451.385391
 31
0.0
  0
LINE
  5
592
330
1F
100
AcDbEntity
  8
0
 62
     7
370
    40
100
AcDbLine
 10
294.798468
 20
384.385389
 30
0.0
 11
294.798468
 21
451.385391
 31
0.0
  0
LINE
  5
593
330
1F
100
AcDbEntity
  8
0
 62
     7
370
    40
100
AcDbLine
 10
403.048468
 20
413.885389
 30
0.0
 11
403.548469
 21
413.385388
 31
0.0
  0
LINE
  5
594
330
1F
100
AcDbEntity
  8
0
 62
     7
370
    40
100
AcDbLine
 10
423.798469
 20
413.385388
 30
0.0
 11
403.548469
 21
413.385388
 31
0.0
  0
LINE
  5
595
330
1F
100
AcDbEntity
  8
0
 62
     7
370
    40
100
AcDbLine
 10
423.798469
 20
413.385388
 30
0.0
 11
423.798469
 21
419.385386
 31
0.0
  0
LINE
  5
596
330
1F
100
AcDbEntity
  8
0
 62
     7
370
    40
100
AcDbLine
 10
423.798469
 20
419.385386
 30
0.0
 11
428.29847
 21
419.385386
 31
0.0
  0
LINE
  5
597
330
1F
100
AcDbEntity
  8
0
 62
     7
370
    40
100
AcDbLine
 10
428.29847
 20
419.385386
 30
0.0
 11
428.29847
 21
413.385388
 31
0.0
  0
LINE
  5
598
330
1F
100
AcDbEntity
  8
0
 62
     7
370
    40
100
AcDbLine
 10
446.29847
 20
413.385388
 30
0.0
 11
428.29847
 21
413.385388
 31
0.0
  0
LINE
  5
599
330
1F
100
AcDbEntity
  8
0
 62
     7
370
    40
100
AcDbLine
 10
446.29847
 20
413.385388
 30
0.0
 11
446.29847
 21
411.885385
 31
0.0
  0
LINE
  5
59A
330
1F
100
AcDbEntity
  8
0
 62
     7
370
    40
100
AcDbLine
 10
433.236291
 20
408.385386
 30
0.0
 11
446.29847
 21
411.885385
 31
0.0
  0
LINE
  5
59B
330
1F
100
AcDbEntity
  8
0
 62
     7
370
    40
100
AcDbLine
 10
433.236291
 20
408.385386
 30
0.0
 11
424.798471
 21
408.385386
 31
0.0
  0
LINE
  5
59C
330
1F
100
AcDbEntity
  8
0
 62
     7
370
    40
100
AcDbLine
 10
424.798471
 20
408.385386
 30
0.0
 11
424.29847
 21
407.885385
 31
0.0
  0
LINE
  5
59D
330
1F
100
AcDbEntity
  8
0
 62
     7
370
    40
100
AcDbLine
 10
424.29847
 20
392.885388
 30
0.0
 11
424.29847
 21
407.885385
 31
0.0
  0
LINE
  5
59E
330
1F
100
AcDbEntity
  8
0
 62
     7
370
    40
100
AcDbLine
 10
403.048468
 20
392.885388
 30
0.0
 11
424.29847
 21
392.885388
 31
0.0
  0
LINE
  5
59F
330
1F
100
AcDbEntity
  8
0
 62
     7
370
    40
100
AcDbLine
 10
403.048468
 20
392.885388
 30
0.0
 11
403.048468
 21
384.385389
 31
0.0
  0
LINE
  5
5A0
330
1F
100
AcDbEntity
  8
0
 62
     7
370
    40
100
AcDbLine
 10
399.798469
 20
384.385389
 30
0.0
 11
403.048468
 21
384.385389
 31
0.0
  0
LINE
  5
5A1
330
1F
100
AcDbEntity
  8
0
 62
     7
370
    40
100
AcDbLine
 10
399.798469
 20
451.385391
 30
0.0
 11
399.798469
 21
384.385389
 31
0.0
  0
LINE
  5
5A2
330
1F
100
AcDbEntity
  8
0
 62
     7
370
    40
100
AcDbLine
 10
403.048468
 20
451.385391
 30
0.0
 11
399.798469
 21
451.385391
 31
0.0
  0
LINE
  5
5A3
330
1F
100
AcDbEntity
  8
0
 62
     7
370
    40
100
AcDbLine
 10
403.048468
 20
451.385391
 30
0.0
 11
403.048468
 21
413.885389
 31
0.0
  0
LINE
  5
5A4
330
1F
100
AcDbEntity
  8
0
 62
     7
370
    40
100
AcDbLine
 10
303.048466
 20
407.885385
 30
0.0
 11
303.048466
 21
384.385389
 31
0.0
  0
LINE
  5
5A5
330
1F
100
AcDbEntity
  8
0
 62
     7
370
    40
100
AcDbLine
 10
391.548467
 20
384.385389
 30
0.0
 11
391.548467
 21
407.885385
 31
0.0
  0
LINE
  5
5A6
330
1F
100
AcDbEntity
  8
0
 62
     7
370
    40
100
AcDbLine
 10
270.798464
 20
419.385386
 30
0.0
 11
291.548469
 21
419.385386
 31
0.0
  0
LINE
  5
5A7
330
1F
100
AcDbEntity
  8
0
 62
     7
370
    40
100
AcDbLine
 10
303.048466
 20
419.385386
 30
0.0
 11
317.298467
 21
419.385386
 31
0.0
  0
LINE
  5
5A8
330
1F
100
AcDbEntity
  8
0
 62
     7
370
    40
100
AcDbLine
 10
391.548467
 20
413.885389
 30
0.0
 11
391.548467
 21
451.385391
 31
0.0
  0
LINE
  5
5A9
330
1F
100
AcDbEntity
  8
0
 62
     7
370
    40
100
AcDbLine
 10
394.798466
 20
451.385391
 30
0.0
 11
391.548467
 21
451.385391
 31
0.0
  0
LINE
  5
5AA
330
1F
100
AcDbEntity
  8
0
 62
     7
370
    40
100
AcDbLine
 10
394.798466
 20
384.385389
 30
0.0
 11
394.798466
 21
451.385391
 31
0.0
  0
LINE
  5
5AB
330
1F
100
AcDbEntity
  8
0
 62
     7
370
    40
100
AcDbLine
 10
391.548467
 20
384.385389
 30
0.0
 11
394.798466
 21
384.385389
 31
0.0
  0
LINE
  5
5AC
330
1F
100
AcDbEntity
  8
0
 62
     7
370
    40
100
AcDbLine
 10
391.548467
 20
407.885385
 30
0.0
 11
391.048466
 21
408.385386
 31
0.0
  0
LINE
  5
5AD
330
1F
100
AcDbEntity
  8
0
 62
     7
370
    40
100
AcDbLine
 10
391.048466
 20
408.385386
 30
0.0
 11
303.548467
 21
408.385386
 31
0.0
  0
LINE
  5
5AE
330
1F
100
AcDbEntity
  8
0
 62
     7
370
    40
100
AcDbLine
 10
303.548467
 20
408.385386
 30
0.0
 11
303.048466
 21
407.885385
 31
0.0
  0
LINE
  5
5AF
330
1F
100
AcDbEntity
  8
0
 62
     7
370
    40
100
AcDbLine
 10
299.798467
 20
384.385389
 30
0.0
 11
303.048466
 21
384.385389
 31
0.0
  0
LINE
  5
5B0
330
1F
100
AcDbEntity
  8
0
 62
     7
370
    40
100
AcDbLine
 10
299.798467
 20
451.385391
 30
0.0
 11
299.798467
 21
384.385389
 31
0.0
  0
LINE
  5
5B1
330
1F
100
AcDbEntity
  8
0
 62
     7
370
    40
100
AcDbLine
 10
303.048466
 20
451.385391
 30
0.0
 11
299.798467
 21
451.385391
 31
0.0
  0
LINE
  5
5B2
330
1F
100
AcDbEntity
  8
0
 62
     7
370
    40
100
AcDbLine
 10
303.048466
 20
451.385391
 30
0.0
 11
303.048466
 21
413.885389
 31
0.0
  0
LINE
  5
5B3
330
1F
100
AcDbEntity
  8
0
 62
     7
370
    40
100
AcDbLine
 10
303.048466
 20
413.885389
 30
0.0
 11
303.548467
 21
413.385388
 31
0.0
  0
LINE
  5
5B4
330
1F
100
AcDbEntity
  8
0
 62
     7
370
    40
100
AcDbLine
 10
391.048466
 20
413.385388
 30
0.0
 11
303.548467
 21
413.385388
 31
0.0
  0
LINE
  5
5B5
330
1F
100
AcDbEntity
  8
0
 62
     7
370
    40
100
AcDbLine
 10
391.048466
 20
413.385388
 30
0.0
 11
391.548467
 21
413.885389
 31
0.0
  0
LINE
  5
5B6
330
1F
100
AcDbEntity
  8
0
 62
     7
370
    40
100
AcDbLine
 10
394.798466
 20
384.385389
 30
0.0
 11
395.298467
 21
384.385389
 31
0.0
  0
LINE
  5
5B7
330
1F
100
AcDbEntity
  8
0
 62
     7
370
    40
100
AcDbLine
 10
399.294876
 20
384.385389
 30
0.0
 11
399.798469
 21
384.385389
 31
0.0
  0
LINE
  5
5B8
330
1F
100
AcDbEntity
  8
0
 62
     7
370
    40
100
AcDbLine
 10
399.798469
 20
451.385391
 30
0.0
 11
399.67112
 21
451.385391
 31
0.0
  0
LINE
  5
5B9
330
1F
100
AcDbEntity
  8
0
 62
     7
370
    40
100
AcDbLine
 10
395.298467
 20
451.385391
 30
0.0
 11
394.798466
 21
451.385391
 31
0.0
  0
LINE
  5
5BA
330
1F
100
AcDbEntity
  8
0
 62
     7
370
    40
100
AcDbLine
 10
299.798467
 20
451.385391
 30
0.0
 11
299.298466
 21
451.385391
 31
0.0
  0
LINE
  5
5BB
330
1F
100
AcDbEntity
  8
0
 62
     7
370
    40
100
AcDbLine
 10
295.065687
 20
451.385391
 30
0.0
 11
294.798468
 21
451.385391
 31
0.0
  0
LINE
  5
5BC
330
1F
100
AcDbEntity
  8
0
 62
     7
370
    40
100
AcDbLine
 10
299.298466
 20
384.385389
 30
0.0
 11
299.798467
 21
384.385389
 31
0.0
  0
LINE
  5
5BD
330
1F
100
AcDbEntity
  8
0
 62
     7
370
    40
100
AcDbLine
 10
377.298468
 20
419.385386
 30
0.0
 11
391.548467
 21
419.385386
 31
0.0
  0
LINE
  5
5BE
330
1F
100
AcDbEntity
  8
0
 62
     7
370
    40
100
AcDbLine
 10
403.048468
 20
419.385386
 30
0.0
 11
423.798469
 21
419.385386
 31
0.0
  0
LINE
  5
5BF
330
1F
100
AcDbEntity
  8
0
 62
     7
370
    40
100
AcDbLine
 10
350.048467
 20
407.885385
 30
0.0
 11
350.048467
 21
407.202375
 31
0.0
  0
LINE
  5
5C0
330
1F
100
AcDbEntity
  8
0
 62
     7
370
    40
100
AcDbLine
 10
350.048467
 20
407.202375
 30
0.0
 11
344.548468
 21
407.202375
 31
0.0
  0
LINE
  5
5C1
330
1F
100
AcDbEntity
  8
0
 62
     7
370
    40
100
AcDbLine
 10
344.548468
 20
407.202375
 30
0.0
 11
344.548468
 21
407.885385
 31
0.0
  0
LINE
  5
5C2
330
1F
100
AcDbEntity
  8
0
 62
     7
370
    40
100
AcDbLine
 10
344.048467
 20
408.385386
 30
0.0
 11
344.548468
 21
407.885385
 31
0.0
  0
LINE
  5
5C3
330
1F
100
AcDbEntity
  8
0
 62
     7
370
    40
100
AcDbLine
 10
350.048467
 20
407.885385
 30
0.0
 11
350.548468
 21
408.385386
 31
0.0
  0
LINE
  5
5C4
330
1F
100
AcDbEntity
  8
0
 62
     7
370
    40
100
AcDbLine
 10
350.048467
 20
392.885388
 30
0.0
 11
344.548468
 21
392.885388
 31
0.0
  0
LINE
  5
5C5
330
1F
100
AcDbEntity
  8
0
 62
     7
370
    40
100
AcDbLine
 10
344.548468
 20
392.885388
 30
0.0
 11
344.548468
 21
407.202375
 31
0.0
  0
LINE
  5
5C6
330
1F
100
AcDbEntity
  8
0
 62
     7
370
    40
100
AcDbLine
 10
350.048467
 20
407.202375
 30
0.0
 11
350.048467
 21
392.885388
 31
0.0
  0
LINE
  5
5C7
330
1F
100
AcDbEntity
  8
0
 62
     7
370
    40
100
AcDbLine
 10
317.298467
 20
419.385386
 30
0.0
 11
320.48037
 21
419.385386
 31
0.0
  0
LINE
  5
5C8
330
1F
100
AcDbEntity
  8
0
 62
     7
370
    40
100
AcDbLine
 10
374.116565
 20
419.385386
 30
0.0
 11
377.298468
 21
419.385386
 31
0.0
  0
LINE
  5
5C9
330
1F
100
AcDbEntity
  8
0
 62
     7
370
    40
100
AcDbLine
 10
320.48037
 20
419.385386
 30
0.0
 11
374.116565
 21
419.385386
 31
0.0
  0
LINE
  5
5CA
330
1F
100
AcDbEntity
  8
0
 62
     7
370
    40
100
AcDbLine
 10
431.298469
 20
375.385386
 30
0.0
 11
494.298463
 21
375.385386
 31
0.0
  0
LINE
  5
5CB
330
1F
100
AcDbEntity
  8
0
 62
     7
370
    40
100
AcDbLine
 10
494.298463
 20
300.385387
 30
0.0
 11
414.469195
 21
300.385387
 31
0.0
  0
LINE
  5
5CC
330
1F
100
AcDbEntity
  8
0
 62
     7
370
    40
100
AcDbLine
 10
300.14999931
 20
320.2289974633
 30
0.0
 11
280.409825
 21
357.35486
 31
0.0
  0
LINE
  5
5CD
330
1F
100
AcDbEntity
  8
0
 62
     7
370
    40
100
AcDbLine
 10
279.52688
 20
357.885388
 30
0.0
 11
268.279937
 21
357.885388
 31
0.0
  0
LINE
  5
5CE
330
1F
100
AcDbEntity
  8
0
 62
     7
370
    40
100
AcDbLine
 10
263.519947
 20
367.058805
 30
0.0
 11
265.3821625211
 21
360.1089308647
 31
0.0
  0
LINE
  5
5CF
330
1F
100
AcDbEntity
  8
0
 62
     7
370
    40
100
AcDbLine
 10
263.298468
 20
368.741129
 30
0.0
 11
263.298464
 21
389.385388
 31
0.0
  0
LINE
  5
5D0
330
1F
100
AcDbEntity
  8
0
 62
     7
370
    40
100
AcDbLine
 10
263.298464
 20
389.385388
 30
0.0
 11
167.298471
 21
389.385388
 31
0.0
  0
LINE
  5
5D1
330
1F
100
AcDbEntity
  8
0
 62
     7
370
    40
100
AcDbLine
 10
167.298471
 20
389.385388
 30
0.0
 11
167.298471
 21
389.885389
 31
0.0
  0
LINE
  5
5D2
330
1F
100
AcDbEntity
  8
0
 62
     7
370
    40
100
AcDbLine
 10
170.298468
 20
392.885388
 30
0.0
 11
267.548469
 21
392.885388
 31
0.0
  0
LINE
  5
5D3
330
1F
100
AcDbEntity
  8
0
 62
     7
370
    40
100
AcDbLine
 10
268.548471
 20
391.885386
 30
0.0
 11
267.548469
 21
392.885388
 31
0.0
  0
LINE
  5
5D4
330
1F
100
AcDbEntity
  8
0
 62
     7
370
    40
100
AcDbLine
 10
268.548471
 20
391.885386
 30
0.0
 11
268.548471
 21
371.785388
 31
0.0
  0
LINE
  5
5D5
330
1F
100
AcDbEntity
  8
0
 62
     7
370
    40
100
AcDbLine
 10
268.548471
 20
371.785388
 30
0.0
 11
268.998471
 21
371.785388
 31
0.0
  0
LINE
  5
5D6
330
1F
100
AcDbEntity
  8
0
 62
     7
370
    40
100
AcDbLine
 10
269.798468
 20
370.985388
 30
0.0
 11
269.79847
 21
361.385387
 31
0.0
  0
LINE
  5
5D7
330
1F
100
AcDbEntity
  8
0
 62
     7
370
    40
100
AcDbLine
 10
269.79847
 20
361.385387
 30
0.0
 11
279.526879
 21
361.385387
 31
0.0
  0
LINE
  5
5D8
330
1F
100
AcDbEntity
  8
0
 62
     7
370
    40
100
AcDbLine
 10
283.5001441679
 20
358.9980100325
 30
0.0
 11
303.239015
 21
321.874597
 31
0.0
  0
LINE
  5
5D9
330
1F
100
AcDbEntity
  8
0
 62
     7
370
    40
100
AcDbLine
 10
333.233256
 20
303.885388
 30
0.0
 11
410.505195
 21
303.885386
 31
0.0
  0
LINE
  5
5DA
330
1F
100
AcDbEntity
  8
0
 62
     7
370
    40
100
AcDbLine
 10
410.505195
 20
303.885386
 30
0.0
 11
497.298469
 21
303.885386
 31
0.0
  0
LINE
  5
5DB
330
1F
100
AcDbEntity
  8
0
 62
     7
370
    40
100
AcDbLine
 10
497.298469
 20
301.189234
 30
0.0
 11
497.298469
 21
303.885386
 31
0.0
  0
LINE
  5
5DC
330
1F
100
AcDbEntity
  8
0
 62
     7
370
    40
100
AcDbLine
 10
494.298463
 20
300.385387
 30
0.0
 11
497.298469
 21
301.189234
 31
0.0
  0
LINE
  5
5DD
330
1F
100
AcDbEntity
  8
0
 62
     7
370
    40
100
AcDbLine
 10
414.469195
 20
300.385387
 30
0.0
 11
333.233256
 21
300.385388
 31
0.0
  0
LINE
  5
5DE
330
1F
100
AcDbEntity
  8
0
 62
     7
370
    40
100
AcDbLine
 10
405.810383
 20
337.385388
 30
0.0
 11
416.944002
 21
337.385388
 31
0.0
  0
LINE
  5
5DF
330
1F
100
AcDbEntity
  8
0
 62
     7
370
    40
100
AcDbLine
 10
416.942206
 20
337.885388
 30
0.0
 11
416.944002
 21
337.385388
 31
0.0
  0
LINE
  5
5E0
330
1F
100
AcDbEntity
  8
0
 62
     7
370
    40
100
AcDbLine
 10
420.800169
 20
361.385387
 30
0.0
 11
420.371211
 21
359.984032
 31
0.0
  0
LINE
  5
5E1
330
1F
100
AcDbEntity
  8
0
 62
     7
370
    40
100
AcDbLine
 10
420.371211
 20
359.984032
 30
0.0
 11
419.501582
 21
357.143059
 31
0.0
  0
LINE
  5
5E2
330
1F
100
AcDbEntity
  8
0
 62
     7
370
    40
100
AcDbLine
 10
419.501582
 20
357.143059
 30
0.0
 11
418.332533
 21
352.174302
 31
0.0
  0
LINE
  5
5E3
330
1F
100
AcDbEntity
  8
0
 62
     7
370
    40
100
AcDbLine
 10
418.332533
 20
352.174302
 30
0.0
 11
417.434429
 21
346.748706
 31
0.0
  0
LINE
  5
5E4
330
1F
100
AcDbEntity
  8
0
 62
     7
370
    40
100
AcDbLine
 10
417.434429
 20
346.748706
 30
0.0
 11
416.996082
 21
341.911057
 31
0.0
  0
LINE
  5
5E5
330
1F
100
AcDbEntity
  8
0
 62
     7
370
    40
100
AcDbLine
 10
416.996082
 20
341.911057
 30
0.0
 11
416.955985
 21
338.914956
 31
0.0
  0
LINE
  5
5E6
330
1F
100
AcDbEntity
  8
0
 62
     7
370
    40
100
AcDbLine
 10
416.955985
 20
338.914956
 30
0.0
 11
416.942206
 21
337.885388
 31
0.0
  0
LINE
  5
5E7
330
1F
100
AcDbEntity
  8
0
 62
     7
370
    40
100
AcDbLine
 10
497.298469
 20
371.885386
 30
0.0
 11
431.298469
 21
371.885386
 31
0.0
  0
LINE
  5
5E8
330
1F
100
AcDbEntity
  8
0
 62
     7
370
    40
100
AcDbLine
 10
497.298469
 20
303.885386
 30
0.0
 11
497.298469
 21
371.885386
 31
0.0
  0
LINE
  5
5E9
330
1F
100
AcDbEntity
  8
0
 62
     7
370
    40
100
AcDbLine
 10
431.298469
 20
389.385388
 30
0.0
 11
431.298469
 21
375.385386
 31
0.0
  0
LINE
  5
5EA
330
1F
100
AcDbEntity
  8
0
 62
     7
370
    40
100
AcDbLine
 10
416.942206
 20
337.885388
 30
0.0
 11
416.942206
 21
356.885388
 31
0.0
  0
LINE
  5
5EB
330
1F
100
AcDbEntity
  8
0
 62
     7
370
    40
100
AcDbLine
 10
414.559153
 20
361.385387
 30
0.0
 11
414.872825
 21
361.326186
 31
0.0
  0
LINE
  5
5EC
330
1F
100
AcDbEntity
  8
0
 62
     7
370
    40
100
AcDbLine
 10
414.872825
 20
361.326186
 30
0.0
 11
415.501223
 21
361.207585
 31
0.0
  0
LINE
  5
5ED
330
1F
100
AcDbEntity
  8
0
 62
     7
370
    40
100
AcDbLine
 10
415.501223
 20
361.207585
 30
0.0
 11
416.268737
 21
360.251551
 31
0.0
  0
LINE
  5
5EE
330
1F
100
AcDbEntity
  8
0
 62
     7
370
    40
100
AcDbLine
 10
416.268737
 20
360.251551
 30
0.0
 11
416.764336
 21
358.888653
 31
0.0
  0
LINE
  5
5EF
330
1F
100
AcDbEntity
  8
0
 62
     7
370
    40
100
AcDbLine
 10
416.764336
 20
358.888653
 30
0.0
 11
416.930518
 21
357.681943
 31
0.0
  0
LINE
  5
5F0
330
1F
100
AcDbEntity
  8
0
 62
     7
370
    40
100
AcDbLine
 10
416.930518
 20
357.681943
 30
0.0
 11
416.940077
 21
357.030518
 31
0.0
  0
LINE
  5
5F1
330
1F
100
AcDbEntity
  8
0
 62
     7
370
    40
100
AcDbLine
 10
416.940077
 20
357.030518
 30
0.0
 11
416.942206
 21
356.885388
 31
0.0
  0
LINE
  5
5F2
330
1F
100
AcDbEntity
  8
0
 62
     7
370
    40
100
AcDbLine
 10
424.798471
 20
361.385387
 30
0.0
 11
424.798471
 21
370.985388
 31
0.0
  0
LINE
  5
5F3
330
1F
100
AcDbEntity
  8
0
 62
     7
370
    40
100
AcDbLine
 10
420.800169
 20
361.385387
 30
0.0
 11
424.798471
 21
361.385387
 31
0.0
  0
LINE
  5
5F4
330
1F
100
AcDbEntity
  8
0
 62
     7
370
    40
100
AcDbLine
 10
268.998471
 20
371.785388
 30
0.0
 11
270.298471
 21
371.785388
 31
0.0
  0
LINE
  5
5F5
330
1F
100
AcDbEntity
  8
0
 62
     7
370
    40
100
AcDbLine
 10
424.29847
 20
371.785388
 30
0.0
 11
425.598469
 21
371.785388
 31
0.0
  0
LINE
  5
5F6
330
1F
100
AcDbEntity
  8
0
 62
     7
370
    40
100
AcDbLine
 10
429.214773
 20
363.608931
 30
0.0
 11
431.298469
 21
371.385389
 31
0.0
  0
LINE
  5
5F7
330
1F
100
AcDbEntity
  8
0
 62
     7
370
    40
100
AcDbLine
 10
431.298469
 20
371.885386
 30
0.0
 11
431.298469
 21
371.385389
 31
0.0
  0
LINE
  5
5F8
330
1F
100
AcDbEntity
  8
0
 62
     7
370
    40
100
AcDbLine
 10
279.526879
 20
361.385387
 30
0.0
 11
284.932443
 21
361.385387
 31
0.0
  0
LINE
  5
5F9
330
1F
100
AcDbEntity
  8
0
 62
     7
370
    40
100
AcDbLine
 10
426.04847
 20
391.885386
 30
0.0
 11
417.798464
 21
391.885386
 31
0.0
  0
LINE
  5
5FA
330
1F
100
AcDbEntity
  8
0
 62
     7
370
    40
100
AcDbLine
 10
414.242816
 20
391.885386
 30
0.0
 11
403.048468
 21
391.885386
 31
0.0
  0
LINE
  5
5FB
330
1F
100
AcDbEntity
  8
0
 62
     7
370
    40
100
AcDbLine
 10
391.548467
 20
391.885386
 30
0.0
 11
354.804148
 21
391.885386
 31
0.0
  0
LINE
  5
5FC
330
1F
100
AcDbEntity
  8
0
 62
     7
370
    40
100
AcDbLine
 10
344.439627
 20
391.885386
 30
0.0
 11
303.048466
 21
391.885386
 31
0.0
  0
LINE
  5
5FD
330
1F
100
AcDbEntity
  8
0
 62
     7
370
    40
100
AcDbLine
 10
291.548469
 20
391.885386
 30
0.0
 11
280.680676
 21
391.885386
 31
0.0
  0
LINE
  5
5FE
330
1F
100
AcDbEntity
  8
0
 62
     7
370
    40
100
AcDbLine
 10
276.798469
 20
391.885386
 30
0.0
 11
268.548471
 21
391.885386
 31
0.0
  0
LINE
  5
5FF
330
1F
100
AcDbEntity
  8
0
 62
     7
370
    40
100
AcDbLine
 10
426.04847
 20
371.785388
 30
0.0
 11
426.04847
 21
391.885386
 31
0.0
  0
LINE
  5
600
330
1F
100
AcDbEntity
  8
0
 62
     7
370
    40
100
AcDbLine
 10
497.298469
 20
374.581539
 30
0.0
 11
494.298463
 21
375.385386
 31
0.0
  0
LINE
  5
601
330
1F
100
AcDbEntity
  8
0
 62
     7
370
    40
100
AcDbLine
 10
267.548469
 20
392.885388
 30
0.0
 11
270.298471
 21
392.885388
 31
0.0
  0
LINE
  5
602
330
1F
100
AcDbEntity
  8
0
 62
     7
370
    40
100
AcDbLine
 10
303.048466
 20
392.885388
 30
0.0
 11
344.548468
 21
392.885388
 31
0.0
  0
LINE
  5
603
330
1F
100
AcDbEntity
  8
0
 62
     7
370
    40
100
AcDbLine
 10
353.78864
 20
392.885388
 30
0.0
 11
391.548467
 21
392.885388
 31
0.0
  0
LINE
  5
604
330
1F
100
AcDbEntity
  8
0
 62
     7
370
    40
100
AcDbLine
 10
424.29847
 20
392.885388
 30
0.0
 11
427.048464
 21
392.885388
 31
0.0
  0
LINE
  5
605
330
1F
100
AcDbEntity
  8
0
 62
     7
370
    40
100
AcDbLine
 10
427.048464
 20
392.885388
 30
0.0
 11
426.04847
 21
391.885386
 31
0.0
  0
LINE
  5
606
330
1F
100
AcDbEntity
  8
0
 62
     7
370
    40
100
AcDbLine
 10
527.298468
 20
389.885388
 30
0.0
 11
527.29847
 21
389.385388
 31
0.0
  0
LINE
  5
607
330
1F
100
AcDbEntity
  8
0
 62
     7
370
    40
100
AcDbLine
 10
427.048464
 20
392.885388
 30
0.0
 11
524.298468
 21
392.885388
 31
0.0
  0
LINE
  5
608
330
1F
100
AcDbEntity
  8
0
 62
     7
370
    40
100
AcDbLine
 10
426.316995
 20
361.385388
 30
0.0
 11
424.798471
 21
361.385387
 31
0.0
  0
LINE
  5
609
330
1F
100
AcDbEntity
  8
0
 62
     7
370
    40
100
AcDbLine
 10
425.598469
 20
371.785388
 30
0.0
 11
426.04847
 21
371.785388
 31
0.0
  0
LINE
  5
60A
330
1F
100
AcDbEntity
  8
0
 62
     7
370
    40
100
AcDbLine
 10
527.29847
 20
389.385388
 30
0.0
 11
431.298469
 21
389.385388
 31
0.0
  0
LINE
  5
60B
330
1F
100
AcDbEntity
  8
0
 62
     7
370
    40
100
AcDbLine
 10
497.298469
 20
371.885386
 30
0.0
 11
497.298469
 21
374.581539
 31
0.0
  0
LINE
  5
60C
330
1F
100
AcDbEntity
  8
0
 62
     7
370
    40
100
AcDbLine
 10
405.806803
 20
337.885388
 30
0.0
 11
405.800945
 21
337.874581
 31
0.0
  0
LINE
  5
60D
330
1F
100
AcDbEntity
  8
0
 62
     7
370
    40
100
AcDbLine
 10
405.800945
 20
337.874581
 30
0.0
 11
405.710861
 21
337.708395
 31
0.0
  0
LINE
  5
60E
330
1F
100
AcDbEntity
  8
0
 62
     7
370
    40
100
AcDbLine
 10
405.710861
 20
337.708395
 30
0.0
 11
405.622162
 21
337.541463
 31
0.0
  0
LINE
  5
60F
330
1F
100
AcDbEntity
  8
0
 62
     7
370
    40
100
AcDbLine
 10
405.622162
 20
337.541463
 30
0.0
 11
405.53923
 21
337.385388
 31
0.0
  0
LINE
  5
610
330
1F
100
AcDbEntity
  8
0
 62
     7
370
    40
100
AcDbLine
 10
405.53923
 20
337.385388
 30
0.0
 11
405.810383
 21
337.385388
 31
0.0
  0
LINE
  5
611
330
1F
100
AcDbEntity
  8
0
 62
     7
370
    40
100
AcDbLine
 10
416.942206
 20
337.385388
 30
0.0
 11
416.942206
 21
337.885388
 31
0.0
  0
LINE
  5
612
330
1F
100
AcDbEntity
  8
0
 62
     7
370
    40
100
AcDbLine
 10
409.664494
 20
361.385387
 30
0.0
 11
414.559153
 21
361.385387
 31
0.0
  0
LINE
  5
613
330
1F
100
AcDbEntity
  8
0
 62
     7
370
    15
100
AcDbLine
 10
492.797208
 20
300.385388
 30
0.0
 11
496.297208
 21
303.885388
 31
0.0
  0
LINE
  5
614
330
1F
100
AcDbEntity
  8
0
 62
     7
370
    15
100
AcDbLine
 10
483.816952
 20
300.385388
 30
0.0
 11
487.316952
 21
303.885388
 31
0.0
  0
LINE
  5
615
330
1F
100
AcDbEntity
  8
0
 62
     7
370
    15
100
AcDbLine
 10
474.836696
 20
300.385388
 30
0.0
 11
478.336696
 21
303.885388
 31
0.0
  0
LINE
  5
616
330
1F
100
AcDbEntity
  8
0
 62
     7
370
    15
100
AcDbLine
 10
465.85644
 20
300.385388
 30
0.0
 11
469.35644
 21
303.885388
 31
0.0
  0
LINE
  5
617
330
1F
100
AcDbEntity
  8
0
 62
     7
370
    15
100
AcDbLine
 10
456.876183
 20
300.385388
 30
0.0
 11
460.376183
 21
303.885388
 31
0.0
  0
LINE
  5
618
330
1F
100
AcDbEntity
  8
0
 62
     7
370
    15
100
AcDbLine
 10
447.895927
 20
300.385388
 30
0.0
 11
451.395927
 21
303.885388
 31
0.0
  0
LINE
  5
619
330
1F
100
AcDbEntity
  8
0
 62
     7
370
    15
100
AcDbLine
 10
438.915671
 20
300.385388
 30
0.0
 11
442.415671
 21
303.885388
 31
0.0
  0
LINE
  5
61A
330
1F
100
AcDbEntity
  8
0
 62
     7
370
    15
100
AcDbLine
 10
429.935415
 20
300.385388
 30
0.0
 11
433.435415
 21
303.885388
 31
0.0
  0
LINE
  5
61B
330
1F
100
AcDbEntity
  8
0
 62
     7
370
    15
100
AcDbLine
 10
420.955159
 20
300.385388
 30
0.0
 11
424.455159
 21
303.885388
 31
0.0
  0
LINE
  5
61C
330
1F
100
AcDbEntity
  8
0
 62
     7
370
    15
100
AcDbLine
 10
411.974903
 20
300.385388
 30
0.0
 11
415.474903
 21
303.885388
 31
0.0
  0
LINE
  5
61D
330
1F
100
AcDbEntity
  8
0
 62
     7
370
    15
100
AcDbLine
 10
402.994647
 20
300.385388
 30
0.0
 11
406.494647
 21
303.885388
 31
0.0
  0
LINE
  5
61E
330
1F
100
AcDbEntity
  8
0
 62
     7
370
    15
100
AcDbLine
 10
394.014391
 20
300.385388
 30
0.0
 11
397.514391
 21
303.885388
 31
0.0
  0
LINE
  5
61F
330
1F
100
AcDbEntity
  8
0
 62
     7
370
    15
100
AcDbLine
 10
385.034134
 20
300.385388
 30
0.0
 11
388.534134
 21
303.885388
 31
0.0
  0
LINE
  5
620
330
1F
100
AcDbEntity
  8
0
 62
     7
370
    15
100
AcDbLine
 10
376.053878
 20
300.385388
 30
0.0
 11
379.553878
 21
303.885388
 31
0.0
  0
LINE
  5
621
330
1F
100
AcDbEntity
  8
0
 62
     7
370
    15
100
AcDbLine
 10
367.073622
 20
300.385388
 30
0.0
 11
370.573622
 21
303.885388
 31
0.0
  0
LINE
  5
622
330
1F
100
AcDbEntity
  8
0
 62
     7
370
    15
100
AcDbLine
 10
358.093366
 20
300.385388
 30
0.0
 11
361.593366
 21
303.885388
 31
0.0
  0
LINE
  5
623
330
1F
100
AcDbEntity
  8
0
 62
     7
370
    15
100
AcDbLine
 10
349.11311
 20
300.385388
 30
0.0
 11
352.61311
 21
303.885388
 31
0.0
  0
LINE
  5
624
330
1F
100
AcDbEntity
  8
0
 62
     7
370
    15
100
AcDbLine
 10
340.132854
 20
300.385388
 30
0.0
 11
343.632854
 21
303.885388
 31
0.0
  0
LINE
  5
625
330
1F
100
AcDbEntity
  8
0
 62
     7
370
    15
100
AcDbLine
 10
331.207361
 20
300.440151
 30
0.0
 11
334.652598
 21
303.885388
 31
0.0
  0
LINE
  5
626
330
1F
100
AcDbEntity
  8
0
 62
     7
370
    15
100
AcDbLine
 10
323.466527
 20
301.679573
 30
0.0
 11
326.37187
 21
304.584916
 31
0.0
  0
LINE
  5
627
330
1F
100
AcDbEntity
  8
0
 62
     7
370
    15
100
AcDbLine
 10
316.924254
 20
304.117556
 30
0.0
 11
319.561838
 21
306.75514
 31
0.0
  0
LINE
  5
628
330
1F
100
AcDbEntity
  8
0
 62
     7
370
    15
100
AcDbLine
 10
311.297107
 20
307.470665
 30
0.0
 11
313.807622
 21
309.981181
 31
0.0
  0
LINE
  5
629
330
1F
100
AcDbEntity
  8
0
 62
     7
370
    15
100
AcDbLine
 10
306.467097
 20
311.620911
 30
0.0
 11
308.942093
 21
314.095907
 31
0.0
  0
LINE
  5
62A
330
1F
100
AcDbEntity
  8
0
 62
     7
370
    15
100
AcDbLine
 10
302.403051
 20
316.537121
 30
0.0
 11
304.922747
 21
319.056817
 31
0.0
  0
LINE
  5
62B
330
1F
100
AcDbEntity
  8
0
 62
     7
370
    15
100
AcDbLine
 10
299.096331
 20
322.210658
 30
0.0
 11
301.684286
 21
324.798613
 31
0.0
  0
LINE
  5
62C
330
1F
100
AcDbEntity
  8
0
 62
     7
370
    15
100
AcDbLine
 10
295.978973
 20
328.073556
 30
0.0
 11
298.566928
 21
330.661511
 31
0.0
  0
LINE
  5
62D
330
1F
100
AcDbEntity
  8
0
 62
     7
370
    15
100
AcDbLine
 10
292.861615
 20
333.936454
 30
0.0
 11
295.44957
 21
336.524409
 31
0.0
  0
LINE
  5
62E
330
1F
100
AcDbEntity
  8
0
 62
     7
370
    15
100
AcDbLine
 10
289.744257
 20
339.799352
 30
0.0
 11
292.332212
 21
342.387307
 31
0.0
  0
LINE
  5
62F
330
1F
100
AcDbEntity
  8
0
 62
     7
370
    15
100
AcDbLine
 10
286.626899
 20
345.66225
 30
0.0
 11
289.214854
 21
348.250205
 31
0.0
  0
LINE
  5
630
330
1F
100
AcDbEntity
  8
0
 62
     7
370
    15
100
AcDbLine
 10
283.509541
 20
351.525148
 30
0.0
 11
286.097496
 21
354.113103
 31
0.0
  0
LINE
  5
631
330
1F
100
AcDbEntity
  8
0
 62
     7
370
    15
100
AcDbLine
 10
280.391666
 20
357.387529
 30
0.0
 11
282.885012
 21
359.880876
 31
0.0
  0
LINE
  5
632
330
1F
100
AcDbEntity
  8
0
 62
     7
370
    15
100
AcDbLine
 10
271.909268
 20
357.885388
 30
0.0
 11
275.409268
 21
361.385388
 31
0.0
  0
LINE
  5
633
330
1F
100
AcDbEntity
  8
0
 62
     7
370
    15
100
AcDbLine
 10
265.333641
 20
360.290017
 30
0.0
 11
269.798468
 21
364.754843
 31
0.0
  0
LINE
  5
634
330
1F
100
AcDbEntity
  8
0
 62
     7
370
    15
100
AcDbLine
 10
263.442718
 20
367.379349
 30
0.0
 11
268.548468
 21
372.485099
 31
0.0
  0
LINE
  5
635
330
1F
100
AcDbEntity
  8
0
 62
     7
370
    15
100
AcDbLine
 10
263.298468
 20
376.215355
 30
0.0
 11
268.548468
 21
381.465355
 31
0.0
  0
LINE
  5
636
330
1F
100
AcDbEntity
  8
0
 62
     7
370
    15
100
AcDbLine
 10
263.298468
 20
385.195611
 30
0.0
 11
268.548468
 21
390.445611
 31
0.0
  0
LINE
  5
637
330
1F
100
AcDbEntity
  8
0
 62
     7
370
    15
100
AcDbLine
 10
258.507988
 20
389.385388
 30
0.0
 11
262.007988
 21
392.885388
 31
0.0
  0
LINE
  5
638
330
1F
100
AcDbEntity
  8
0
 62
     7
370
    15
100
AcDbLine
 10
249.527731
 20
389.385388
 30
0.0
 11
253.027731
 21
392.885388
 31
0.0
  0
LINE
  5
639
330
1F
100
AcDbEntity
  8
0
 62
     7
370
    15
100
AcDbLine
 10
240.547475
 20
389.385388
 30
0.0
 11
244.047475
 21
392.885388
 31
0.0
  0
LINE
  5
63A
330
1F
100
AcDbEntity
  8
0
 62
     7
370
    15
100
AcDbLine
 10
231.567219
 20
389.385388
 30
0.0
 11
235.067219
 21
392.885388
 31
0.0
  0
LINE
  5
63B
330
1F
100
AcDbEntity
  8
0
 62
     7
370
    15
100
AcDbLine
 10
222.586963
 20
389.385388
 30
0.0
 11
226.086963
 21
392.885388
 31
0.0
  0
LINE
  5
63C
330
1F
100
AcDbEntity
  8
0
 62
     7
370
    15
100
AcDbLine
 10
213.606707
 20
389.385388
 30
0.0
 11
217.106707
 21
392.885388
 31
0.0
  0
LINE
  5
63D
330
1F
100
AcDbEntity
  8
0
 62
     7
370
    15
100
AcDbLine
 10
204.626451
 20
389.385388
 30
0.0
 11
208.126451
 21
392.885388
 31
0.0
  0
LINE
  5
63E
330
1F
100
AcDbEntity
  8
0
 62
     7
370
    15
100
AcDbLine
 10
195.646195
 20
389.385388
 30
0.0
 11
199.146195
 21
392.885388
 31
0.0
  0
LINE
  5
63F
330
1F
100
AcDbEntity
  8
0
 62
     7
370
    15
100
AcDbLine
 10
186.665939
 20
389.385388
 30
0.0
 11
190.165939
 21
392.885388
 31
0.0
  0
LINE
  5
640
330
1F
100
AcDbEntity
  8
0
 62
     7
370
    15
100
AcDbLine
 10
177.685682
 20
389.385388
 30
0.0
 11
181.185682
 21
392.885388
 31
0.0
  0
LINE
  5
641
330
1F
100
AcDbEntity
  8
0
 62
     7
370
    15
100
AcDbLine
 10
168.705426
 20
389.385388
 30
0.0
 11
172.205426
 21
392.885388
 31
0.0
  0
LINE
  5
642
330
1F
100
AcDbEntity
  8
0
 62
     7
370
    15
100
AcDbLine
 10
518.935415
 20
389.385388
 30
0.0
 11
522.435415
 21
392.885388
 31
0.0
  0
LINE
  5
643
330
1F
100
AcDbEntity
  8
0
 62
     7
370
    15
100
AcDbLine
 10
492.455159
 20
371.885388
 30
0.0
 11
495.605059
 21
375.035288
 31
0.0
  0
LINE
  5
644
330
1F
100
AcDbEntity
  8
0
 62
     7
370
    15
100
AcDbLine
 10
509.955159
 20
389.385388
 30
0.0
 11
513.455159
 21
392.885388
 31
0.0
  0
LINE
  5
645
330
1F
100
AcDbEntity
  8
0
 62
     7
370
    15
100
AcDbLine
 10
483.474903
 20
371.885388
 30
0.0
 11
486.974903
 21
375.385388
 31
0.0
  0
LINE
  5
646
330
1F
100
AcDbEntity
  8
0
 62
     7
370
    15
100
AcDbLine
 10
500.974903
 20
389.385388
 30
0.0
 11
504.474903
 21
392.885388
 31
0.0
  0
LINE
  5
647
330
1F
100
AcDbEntity
  8
0
 62
     7
370
    15
100
AcDbLine
 10
474.494647
 20
371.885388
 30
0.0
 11
477.994647
 21
375.385388
 31
0.0
  0
LINE
  5
648
330
1F
100
AcDbEntity
  8
0
 62
     7
370
    15
100
AcDbLine
 10
491.994647
 20
389.385388
 30
0.0
 11
495.494647
 21
392.885388
 31
0.0
  0
LINE
  5
649
330
1F
100
AcDbEntity
  8
0
 62
     7
370
    15
100
AcDbLine
 10
465.514391
 20
371.885388
 30
0.0
 11
469.014391
 21
375.385388
 31
0.0
  0
LINE
  5
64A
330
1F
100
AcDbEntity
  8
0
 62
     7
370
    15
100
AcDbLine
 10
483.014391
 20
389.385388
 30
0.0
 11
486.514391
 21
392.885388
 31
0.0
  0
LINE
  5
64B
330
1F
100
AcDbEntity
  8
0
 62
     7
370
    15
100
AcDbLine
 10
456.534134
 20
371.885388
 30
0.0
 11
460.034134
 21
375.385388
 31
0.0
  0
LINE
  5
64C
330
1F
100
AcDbEntity
  8
0
 62
     7
370
    15
100
AcDbLine
 10
474.034134
 20
389.385388
 30
0.0
 11
477.534134
 21
392.885388
 31
0.0
  0
LINE
  5
64D
330
1F
100
AcDbEntity
  8
0
 62
     7
370
    15
100
AcDbLine
 10
447.553878
 20
371.885388
 30
0.0
 11
451.053878
 21
375.385388
 31
0.0
  0
LINE
  5
64E
330
1F
100
AcDbEntity
  8
0
 62
     7
370
    15
100
AcDbLine
 10
465.053878
 20
389.385388
 30
0.0
 11
468.553878
 21
392.885388
 31
0.0
  0
LINE
  5
64F
330
1F
100
AcDbEntity
  8
0
 62
     7
370
    15
100
AcDbLine
 10
438.573622
 20
371.885388
 30
0.0
 11
442.073622
 21
375.385388
 31
0.0
  0
LINE
  5
650
330
1F
100
AcDbEntity
  8
0
 62
     7
370
    15
100
AcDbLine
 10
456.073622
 20
389.385388
 30
0.0
 11
459.573622
 21
392.885388
 31
0.0
  0
LINE
  5
651
330
1F
100
AcDbEntity
  8
0
 62
     7
370
    15
100
AcDbLine
 10
424.798468
 20
367.090489
 30
0.0
 11
433.093366
 21
375.385388
 31
0.0
  0
LINE
  5
652
330
1F
100
AcDbEntity
  8
0
 62
     7
370
    15
100
AcDbLine
 10
447.093366
 20
389.385388
 30
0.0
 11
450.593366
 21
392.885388
 31
0.0
  0
LINE
  5
653
330
1F
100
AcDbEntity
  8
0
 62
     7
370
    15
100
AcDbLine
 10
426.048468
 20
377.320745
 30
0.0
 11
431.298468
 21
382.570745
 31
0.0
  0
LINE
  5
654
330
1F
100
AcDbEntity
  8
0
 62
     7
370
    15
100
AcDbLine
 10
438.11311
 20
389.385388
 30
0.0
 11
441.61311
 21
392.885388
 31
0.0
  0
LINE
  5
655
330
1F
100
AcDbEntity
  8
0
 62
     7
370
    15
100
AcDbLine
 10
426.048468
 20
386.301001
 30
0.0
 11
432.632854
 21
392.885388
 31
0.0
  0
LINE
  5
656
330
1F
100
AcDbEntity
  8
0
 62
     7
370
    15
100
AcDbLine
 10
423.652598
 20
392.885388
 30
0.0
 11
424.298468
 21
393.531257
 31
0.0
  0
LINE
  5
657
330
1F
100
AcDbEntity
  8
0
 62
     7
370
    15
100
AcDbLine
 10
441.318117
 20
410.550907
 30
0.0
 11
444.152598
 21
413.385388
 31
0.0
  0
LINE
  5
658
330
1F
100
AcDbEntity
  8
0
 62
     7
370
    15
100
AcDbLine
 10
414.672342
 20
392.885388
 30
0.0
 11
424.298468
 21
402.511514
 31
0.0
  0
LINE
  5
659
330
1F
100
AcDbEntity
  8
0
 62
     7
370
    15
100
AcDbLine
 10
430.172342
 20
408.385388
 30
0.0
 11
435.172342
 21
413.385388
 31
0.0
  0
LINE
  5
65A
330
1F
100
AcDbEntity
  8
0
 62
     7
370
    15
100
AcDbLine
 10
399.798468
 20
386.99177
 30
0.0
 11
403.048468
 21
390.24177
 31
0.0
  0
LINE
  5
65B
330
1F
100
AcDbEntity
  8
0
 62
     7
370
    15
100
AcDbLine
 10
405.692086
 20
392.885388
 30
0.0
 11
428.298468
 21
415.49177
 31
0.0
  0
LINE
  5
65C
330
1F
100
AcDbEntity
  8
0
 62
     7
370
    15
100
AcDbLine
 10
399.798468
 20
395.972026
 30
0.0
 11
417.211829
 21
413.385388
 31
0.0
  0
LINE
  5
65D
330
1F
100
AcDbEntity
  8
0
 62
     7
370
    15
100
AcDbLine
 10
399.798468
 20
404.952282
 30
0.0
 11
408.231573
 21
413.385388
 31
0.0
  0
LINE
  5
65E
330
1F
100
AcDbEntity
  8
0
 62
     7
370
    15
100
AcDbLine
 10
399.798468
 20
413.932538
 30
0.0
 11
403.048468
 21
417.182538
 31
0.0
  0
LINE
  5
65F
330
1F
100
AcDbEntity
  8
0
 62
     7
370
    15
100
AcDbLine
 10
399.798468
 20
422.912794
 30
0.0
 11
403.048468
 21
426.162794
 31
0.0
  0
LINE
  5
660
330
1F
100
AcDbEntity
  8
0
 62
     7
370
    15
100
AcDbLine
 10
399.798468
 20
431.89305
 30
0.0
 11
403.048468
 21
435.14305
 31
0.0
  0
LINE
  5
661
330
1F
100
AcDbEntity
  8
0
 62
     7
370
    15
100
AcDbLine
 10
399.798468
 20
440.873306
 30
0.0
 11
403.048468
 21
444.123306
 31
0.0
  0
LINE
  5
662
330
1F
100
AcDbEntity
  8
0
 62
     7
370
    15
100
AcDbLine
 10
399.798468
 20
449.853562
 30
0.0
 11
401.330293
 21
451.385388
 31
0.0
  0
LINE
  5
663
330
1F
100
AcDbEntity
  8
0
 62
     7
370
    15
100
AcDbLine
 10
291.548468
 20
386.504843
 30
0.0
 11
294.798468
 21
389.754843
 31
0.0
  0
LINE
  5
664
330
1F
100
AcDbEntity
  8
0
 62
     7
370
    15
100
AcDbLine
 10
288.948756
 20
392.885388
 30
0.0
 11
294.798468
 21
398.735099
 31
0.0
  0
LINE
  5
665
330
1F
100
AcDbEntity
  8
0
 62
     7
370
    15
100
AcDbLine
 10
279.9685
 20
392.885388
 30
0.0
 11
294.798468
 21
407.715355
 31
0.0
  0
LINE
  5
666
330
1F
100
AcDbEntity
  8
0
 62
     7
370
    15
100
AcDbLine
 10
270.988244
 20
392.885388
 30
0.0
 11
294.798468
 21
416.695611
 31
0.0
  0
LINE
  5
667
330
1F
100
AcDbEntity
  8
0
 62
     7
370
    15
100
AcDbLine
 10
270.298468
 20
401.175868
 30
0.0
 11
282.507988
 21
413.385388
 31
0.0
  0
LINE
  5
668
330
1F
100
AcDbEntity
  8
0
 62
     7
370
    15
100
AcDbLine
 10
291.548468
 20
422.425868
 30
0.0
 11
294.798468
 21
425.675868
 31
0.0
  0
LINE
  5
669
330
1F
100
AcDbEntity
  8
0
 62
     7
370
    15
100
AcDbLine
 10
268.527731
 20
408.385388
 30
0.0
 11
273.527731
 21
413.385388
 31
0.0
  0
LINE
  5
66A
330
1F
100
AcDbEntity
  8
0
 62
     7
370
    15
100
AcDbLine
 10
291.548468
 20
431.406124
 30
0.0
 11
294.798468
 21
434.656124
 31
0.0
  0
LINE
  5
66B
330
1F
100
AcDbEntity
  8
0
 62
     7
370
    15
100
AcDbLine
 10
259.930643
 20
408.768556
 30
0.0
 11
264.547475
 21
413.385388
 31
0.0
  0
LINE
  5
66C
330
1F
100
AcDbEntity
  8
0
 62
     7
370
    15
100
AcDbLine
 10
266.298468
 20
415.13638
 30
0.0
 11
270.547475
 21
419.385388
 31
0.0
  0
LINE
  5
66D
330
1F
100
AcDbEntity
  8
0
 62
     7
370
    15
100
AcDbLine
 10
291.548468
 20
440.38638
 30
0.0
 11
294.798468
 21
443.63638
 31
0.0
  0
LINE
  5
66E
330
1F
100
AcDbEntity
  8
0
 62
     7
370
    15
100
AcDbLine
 10
252.848139
 20
410.666307
 30
0.0
 11
255.567219
 21
413.385388
 31
0.0
  0
LINE
  5
66F
330
1F
100
AcDbEntity
  8
0
 62
     7
370
    15
100
AcDbLine
 10
291.548468
 20
449.366636
 30
0.0
 11
293.567219
 21
451.385388
 31
0.0
  0
LINE
  5
670
330
1F
100
AcDbEntity
  8
0
 62
     7
370
    15
100
AcDbLine
 10
391.548468
 20
387.722026
 30
0.0
 11
394.798468
 21
390.972026
 31
0.0
  0
LINE
  5
671
330
1F
100
AcDbEntity
  8
0
 62
     7
370
    15
100
AcDbLine
 10
391.548468
 20
396.702282
 30
0.0
 11
394.798468
 21
399.952282
 31
0.0
  0
LINE
  5
672
330
1F
100
AcDbEntity
  8
0
 62
     7
370
    15
100
AcDbLine
 10
391.548468
 20
405.682538
 30
0.0
 11
394.798468
 21
408.932538
 31
0.0
  0
LINE
  5
673
330
1F
100
AcDbEntity
  8
0
 62
     7
370
    15
100
AcDbLine
 10
385.271061
 20
408.385388
 30
0.0
 11
390.271061
 21
413.385388
 31
0.0
  0
LINE
  5
674
330
1F
100
AcDbEntity
  8
0
 62
     7
370
    15
100
AcDbLine
 10
391.548468
 20
414.662794
 30
0.0
 11
394.798468
 21
417.912794
 31
0.0
  0
LINE
  5
675
330
1F
100
AcDbEntity
  8
0
 62
     7
370
    15
100
AcDbLine
 10
376.290805
 20
408.385388
 30
0.0
 11
381.290805
 21
413.385388
 31
0.0
  0
LINE
  5
676
330
1F
100
AcDbEntity
  8
0
 62
     7
370
    15
100
AcDbLine
 10
391.548468
 20
423.64305
 30
0.0
 11
394.798468
 21
426.89305
 31
0.0
  0
LINE
  5
677
330
1F
100
AcDbEntity
  8
0
 62
     7
370
    15
100
AcDbLine
 10
367.310549
 20
408.385388
 30
0.0
 11
372.310549
 21
413.385388
 31
0.0
  0
LINE
  5
678
330
1F
100
AcDbEntity
  8
0
 62
     7
370
    15
100
AcDbLine
 10
391.548468
 20
432.623306
 30
0.0
 11
394.798468
 21
435.873306
 31
0.0
  0
LINE
  5
679
330
1F
100
AcDbEntity
  8
0
 62
     7
370
    15
100
AcDbLine
 10
358.330293
 20
408.385388
 30
0.0
 11
363.330293
 21
413.385388
 31
0.0
  0
LINE
  5
67A
330
1F
100
AcDbEntity
  8
0
 62
     7
370
    15
100
AcDbLine
 10
391.548468
 20
441.603562
 30
0.0
 11
394.798468
 21
444.853562
 31
0.0
  0
LINE
  5
67B
330
1F
100
AcDbEntity
  8
0
 62
     7
370
    15
100
AcDbLine
 10
349.350037
 20
408.385388
 30
0.0
 11
354.350037
 21
413.385388
 31
0.0
  0
LINE
  5
67C
330
1F
100
AcDbEntity
  8
0
 62
     7
370
    15
100
AcDbLine
 10
391.548468
 20
450.583819
 30
0.0
 11
392.350037
 21
451.385388
 31
0.0
  0
LINE
  5
67D
330
1F
100
AcDbEntity
  8
0
 62
     7
370
    15
100
AcDbLine
 10
340.36978
 20
408.385388
 30
0.0
 11
345.36978
 21
413.385388
 31
0.0
  0
LINE
  5
67E
330
1F
100
AcDbEntity
  8
0
 62
     7
370
    15
100
AcDbLine
 10
331.389524
 20
408.385388
 30
0.0
 11
336.389524
 21
413.385388
 31
0.0
  0
LINE
  5
67F
330
1F
100
AcDbEntity
  8
0
 62
     7
370
    15
100
AcDbLine
 10
299.798468
 20
385.774587
 30
0.0
 11
303.048468
 21
389.024587
 31
0.0
  0
LINE
  5
680
330
1F
100
AcDbEntity
  8
0
 62
     7
370
    15
100
AcDbLine
 10
322.409268
 20
408.385388
 30
0.0
 11
327.409268
 21
413.385388
 31
0.0
  0
LINE
  5
681
330
1F
100
AcDbEntity
  8
0
 62
     7
370
    15
100
AcDbLine
 10
299.798468
 20
394.754843
 30
0.0
 11
303.048468
 21
398.004843
 31
0.0
  0
LINE
  5
682
330
1F
100
AcDbEntity
  8
0
 62
     7
370
    15
100
AcDbLine
 10
313.429012
 20
408.385388
 30
0.0
 11
318.429012
 21
413.385388
 31
0.0
  0
LINE
  5
683
330
1F
100
AcDbEntity
  8
0
 62
     7
370
    15
100
AcDbLine
 10
299.798468
 20
403.735099
 30
0.0
 11
303.048468
 21
406.985099
 31
0.0
  0
LINE
  5
684
330
1F
100
AcDbEntity
  8
0
 62
     7
370
    15
100
AcDbLine
 10
304.448756
 20
408.385388
 30
0.0
 11
309.448756
 21
413.385388
 31
0.0
  0
LINE
  5
685
330
1F
100
AcDbEntity
  8
0
 62
     7
370
    15
100
AcDbLine
 10
299.798468
 20
412.715355
 30
0.0
 11
303.048468
 21
415.965355
 31
0.0
  0
LINE
  5
686
330
1F
100
AcDbEntity
  8
0
 62
     7
370
    15
100
AcDbLine
 10
299.798468
 20
421.695611
 30
0.0
 11
303.048468
 21
424.945611
 31
0.0
  0
LINE
  5
687
330
1F
100
AcDbEntity
  8
0
 62
     7
370
    15
100
AcDbLine
 10
299.798468
 20
430.675868
 30
0.0
 11
303.048468
 21
433.925868
 31
0.0
  0
LINE
  5
688
330
1F
100
AcDbEntity
  8
0
 62
     7
370
    15
100
AcDbLine
 10
299.798468
 20
439.656124
 30
0.0
 11
303.048468
 21
442.906124
 31
0.0
  0
LINE
  5
689
330
1F
100
AcDbEntity
  8
0
 62
     7
370
    15
100
AcDbLine
 10
299.798468
 20
448.63638
 30
0.0
 11
302.547475
 21
451.385388
 31
0.0
  0
LINE
  5
68A
330
1F
100
AcDbEntity
  8
0
 62
     7
370
    15
100
AcDbLine
 10
392.350037
 20
451.385388
 30
0.0
 11
393.298468
 21
452.333819
 31
0.0
  0
LINE
  5
68B
330
1F
100
AcDbEntity
  8
0
 62
     7
370
    15
100
AcDbLine
 10
389.86978
 20
457.885388
 30
0.0
 11
393.298468
 21
461.314075
 31
0.0
  0
LINE
  5
68C
330
1F
100
AcDbEntity
  8
0
 62
     7
370
    15
100
AcDbLine
 10
380.889524
 20
457.885388
 30
0.0
 11
388.298468
 21
465.294331
 31
0.0
  0
LINE
  5
68D
330
1F
100
AcDbEntity
  8
0
 62
     7
370
    15
100
AcDbLine
 10
371.909268
 20
457.885388
 30
0.0
 11
381.909268
 21
467.885388
 31
0.0
  0
LINE
  5
68E
330
1F
100
AcDbEntity
  8
0
 62
     7
370
    15
100
AcDbLine
 10
362.929012
 20
457.885388
 30
0.0
 11
372.929012
 21
467.885388
 31
0.0
  0
LINE
  5
68F
330
1F
100
AcDbEntity
  8
0
 62
     7
370
    15
100
AcDbLine
 10
353.948756
 20
457.885388
 30
0.0
 11
363.948756
 21
467.885388
 31
0.0
  0
LINE
  5
690
330
1F
100
AcDbEntity
  8
0
 62
     7
370
    15
100
AcDbLine
 10
344.9685
 20
457.885388
 30
0.0
 11
354.9685
 21
467.885388
 31
0.0
  0
LINE
  5
691
330
1F
100
AcDbEntity
  8
0
 62
     7
370
    15
100
AcDbLine
 10
337.298468
 20
459.195611
 30
0.0
 11
345.988244
 21
467.885388
 31
0.0
  0
LINE
  5
692
330
1F
100
AcDbEntity
  8
0
 62
     7
370
    15
100
AcDbLine
 10
459.573622
 20
392.885388
 30
0.0
 11
466.015283
 21
399.327048
 31
0.0
  0
LINE
  5
693
330
1F
100
AcDbEntity
  8
0
 62
     7
370
    15
100
AcDbLine
 10
453.533664
 20
395.825686
 30
0.0
 11
464.669176
 21
406.961198
 31
0.0
  0
LINE
  5
694
330
1F
100
AcDbEntity
  8
0
 62
     7
370
    15
100
AcDbLine
 10
452.187558
 20
403.459835
 30
0.0
 11
463.32307
 21
414.595347
 31
0.0
  0
LINE
  5
695
330
1F
100
AcDbEntity
  8
0
 62
     7
370
    15
100
AcDbLine
 10
450.841451
 20
411.093985
 30
0.0
 11
461.976963
 21
422.229497
 31
0.0
  0
LINE
  5
696
330
1F
100
AcDbEntity
  8
0
 62
     7
370
    15
100
AcDbLine
 10
449.495345
 20
418.728135
 30
0.0
 11
460.630857
 21
429.863647
 31
0.0
  0
LINE
  5
697
330
1F
100
AcDbEntity
  8
0
 62
     7
370
    15
100
AcDbLine
 10
448.149238
 20
426.362284
 30
0.0
 11
459.28475
 21
437.497796
 31
0.0
  0
LINE
  5
698
330
1F
100
AcDbEntity
  8
0
 62
     7
370
    15
100
AcDbLine
 10
446.803132
 20
433.996434
 30
0.0
 11
457.938644
 21
445.131946
 31
0.0
  0
LINE
  5
699
330
1F
100
AcDbEntity
  8
0
 62
     7
370
    15
100
AcDbLine
 10
445.457025
 20
441.630583
 30
0.0
 11
456.592537
 21
452.766095
 31
0.0
  0
LINE
  5
69A
330
1F
100
AcDbEntity
  8
0
 62
     7
370
    15
100
AcDbLine
 10
444.110918
 20
449.264733
 30
0.0
 11
455.246431
 21
460.400245
 31
0.0
  0
LINE
  5
69B
330
1F
100
AcDbEntity
  8
0
 62
     7
370
    15
100
AcDbLine
 10
442.764812
 20
456.898882
 30
0.0
 11
452.851031
 21
466.985102
 31
0.0
  0
LINE
  5
69C
330
1F
100
AcDbEntity
  8
0
 62
     7
370
    15
100
AcDbLine
 10
434.771061
 20
457.885388
 30
0.0
 11
444.771061
 21
467.885388
 31
0.0
  0
LINE
  5
69D
330
1F
100
AcDbEntity
  8
0
 62
     7
370
    15
100
AcDbLine
 10
425.790805
 20
457.885388
 30
0.0
 11
435.890805
 21
467.985388
 31
0.0
  0
LINE
  5
69E
330
1F
100
AcDbEntity
  8
0
 62
     7
370
    15
100
AcDbLine
 10
416.810549
 20
457.885388
 30
0.0
 11
426.810549
 21
467.885388
 31
0.0
  0
LINE
  5
69F
330
1F
100
AcDbEntity
  8
0
 62
     7
370
    15
100
AcDbLine
 10
401.330293
 20
451.385388
 30
0.0
 11
403.298468
 21
453.353562
 31
0.0
  0
LINE
  5
6A0
330
1F
100
AcDbEntity
  8
0
 62
     7
370
    15
100
AcDbLine
 10
407.830293
 20
457.885388
 30
0.0
 11
417.830293
 21
467.885388
 31
0.0
  0
LINE
  5
6A1
330
1F
100
AcDbEntity
  8
0
 62
     7
370
    15
100
AcDbLine
 10
401.298468
 20
460.333819
 30
0.0
 11
405.850037
 21
464.885388
 31
0.0
  0
LINE
  5
6A2
330
1F
100
AcDbEntity
  8
0
 62
     7
370
    15
100
AcDbLine
 10
406.298468
 20
465.333819
 30
0.0
 11
408.850037
 21
467.885388
 31
0.0
  0
LINE
  5
6A3
330
1F
100
AcDbEntity
  8
0
 62
     7
370
    15
100
AcDbLine
 10
302.547475
 20
451.385388
 30
0.0
 11
303.298468
 21
452.13638
 31
0.0
  0
LINE
  5
6A4
330
1F
100
AcDbEntity
  8
0
 62
     7
370
    15
100
AcDbLine
 10
309.047475
 20
457.885388
 30
0.0
 11
315.298468
 21
464.13638
 31
0.0
  0
LINE
  5
6A5
330
1F
100
AcDbEntity
  8
0
 62
     7
370
    15
100
AcDbLine
 10
301.298468
 20
459.116636
 30
0.0
 11
310.067219
 21
467.885388
 31
0.0
  0
LINE
  5
6A6
330
1F
100
AcDbEntity
  8
0
 62
     7
370
    15
100
AcDbLine
 10
235.067219
 20
392.885388
 30
0.0
 11
241.717428
 21
399.535597
 31
0.0
  0
LINE
  5
6A7
330
1F
100
AcDbEntity
  8
0
 62
     7
370
    15
100
AcDbLine
 10
227.790842
 20
394.589267
 30
0.0
 11
243.639867
 21
410.438292
 31
0.0
  0
LINE
  5
6A8
330
1F
100
AcDbEntity
  8
0
 62
     7
370
    15
100
AcDbLine
 10
291.086963
 20
457.885388
 30
0.0
 11
293.298468
 21
460.096892
 31
0.0
  0
LINE
  5
6A9
330
1F
100
AcDbEntity
  8
0
 62
     7
370
    15
100
AcDbLine
 10
229.659147
 20
405.437828
 30
0.0
 11
245.562307
 21
421.340988
 31
0.0
  0
LINE
  5
6AA
330
1F
100
AcDbEntity
  8
0
 62
     7
370
    15
100
AcDbLine
 10
282.106707
 20
457.885388
 30
0.0
 11
289.106707
 21
464.885388
 31
0.0
  0
LINE
  5
6AB
330
1F
100
AcDbEntity
  8
0
 62
     7
370
    15
100
AcDbLine
 10
231.581587
 20
416.340524
 30
0.0
 11
247.484746
 21
432.243683
 31
0.0
  0
LINE
  5
6AC
330
1F
100
AcDbEntity
  8
0
 62
     7
370
    15
100
AcDbLine
 10
273.126451
 20
457.885388
 30
0.0
 11
283.126451
 21
467.885388
 31
0.0
  0
LINE
  5
6AD
330
1F
100
AcDbEntity
  8
0
 62
     7
370
    15
100
AcDbLine
 10
233.504026
 20
427.243219
 30
0.0
 11
249.407186
 21
443.146379
 31
0.0
  0
LINE
  5
6AE
330
1F
100
AcDbEntity
  8
0
 62
     7
370
    15
100
AcDbLine
 10
264.146195
 20
457.885388
 30
0.0
 11
274.146195
 21
467.885388
 31
0.0
  0
LINE
  5
6AF
330
1F
100
AcDbEntity
  8
0
 62
     7
370
    15
100
AcDbLine
 10
235.426466
 20
438.145915
 30
0.0
 11
251.329625
 21
454.049074
 31
0.0
  0
LINE
  5
6B0
330
1F
100
AcDbEntity
  8
0
 62
     7
370
    15
100
AcDbLine
 10
255.165939
 20
457.885388
 30
0.0
 11
265.165939
 21
467.885388
 31
0.0
  0
LINE
  5
6B1
330
1F
100
AcDbEntity
  8
0
 62
     7
370
    15
100
AcDbLine
 10
237.348905
 20
449.04861
 30
0.0
 11
256.185682
 21
467.885388
 31
0.0
  0
LINE
  5
6B2
330
1F
100
AcDbEntity
  8
0
 62
     7
370
    15
100
AcDbLine
 10
239.271344
 20
459.951306
 30
0.0
 11
247.205426
 21
467.885388
 31
0.0
  0
LINE
  5
6B3
330
1F
100
AcDbEntity
  8
0
 62
     7
370
    15
100
AcDbLine
 10
289.106707
 20
464.885388
 30
0.0
 11
290.706707
 21
466.485388
 31
0.0
  0
LINE
  5
6B4
330
1F
100
AcDbEntity
  8
0
 62
     7
370
    15
100
AcDbLine
 10
288.298468
 20
374.274587
 30
0.0
 11
289.509268
 21
375.485388
 31
0.0
  0
LINE
  5
6B5
330
1F
100
AcDbEntity
  8
0
 62
     7
370
    15
100
AcDbLine
 10
305.86978
 20
373.885388
 30
0.0
 11
306.298468
 21
374.314075
 31
0.0
  0
LINE
  5
6B6
330
1F
100
AcDbEntity
  8
0
 62
     7
370
    15
100
AcDbLine
 10
404.652598
 20
373.885388
 30
0.0
 11
406.252598
 21
375.485388
 31
0.0
  0
LINE
  5
6B7
330
1F
100
AcDbEntity
  8
0
 62
     7
370
    15
100
AcDbLine
 10
388.298468
 20
465.294331
 30
0.0
 11
389.489524
 21
466.485388
 31
0.0
  0
LINE
  5
6B8
330
1F
100
AcDbEntity
  8
0
 62
     7
370
    15
100
AcDbLine
 10
405.850037
 20
464.885388
 30
0.0
 11
406.298468
 21
465.333819
 31
0.0
  0
LINE
  5
6B9
330
1F
100
AcDbEntity
  8
0
 62
     7
370
    15
100
AcDbLine
 10
389.443648
 20
376.63695
 30
0.0
 11
391.692086
 21
378.885388
 31
0.0
  0
LINE
  5
6BA
330
1F
100
AcDbEntity
  8
0
 62
     7
370
    15
100
AcDbLine
 10
392.287944
 20
379.481246
 30
0.0
 11
393.904791
 21
381.098093
 31
0.0
  0
LINE
  5
6BB
330
1F
100
AcDbEntity
  8
0
 62
     7
370
    15
100
AcDbLine
 10
406.298468
 20
357.570745
 30
0.0
 11
409.500288
 21
360.772565
 31
0.0
  0
LINE
  5
6BC
330
1F
100
AcDbEntity
  8
0
 62
     7
370
    15
100
AcDbLine
 10
418.11311
 20
369.385388
 30
0.0
 11
421.61311
 21
372.885388
 31
0.0
  0
LINE
  5
6BD
330
1F
100
AcDbEntity
  8
0
 62
     7
370
    15
100
AcDbLine
 10
406.298468
 20
366.551001
 30
0.0
 11
409.798468
 21
370.051001
 31
0.0
  0
LINE
  5
6BE
330
1F
100
AcDbEntity
  8
0
 62
     7
370
    15
100
AcDbLine
 10
413.798468
 20
374.051001
 30
0.0
 11
417.298468
 21
377.551001
 31
0.0
  0
LINE
  5
6BF
330
1F
100
AcDbEntity
  8
0
 62
     7
370
    15
100
AcDbLine
 10
423.132854
 20
383.385388
 30
0.0
 11
424.298468
 21
384.551001
 31
0.0
  0
LINE
  5
6C0
330
1F
100
AcDbEntity
  8
0
 62
     7
370
    15
100
AcDbLine
 10
406.152598
 20
375.385388
 30
0.0
 11
417.798468
 21
387.031257
 31
0.0
  0
LINE
  5
6C1
330
1F
100
AcDbEntity
  8
0
 62
     7
370
    15
100
AcDbLine
 10
400.637528
 20
378.850574
 30
0.0
 11
402.254375
 21
380.467421
 31
0.0
  0
LINE
  5
6C2
330
1F
100
AcDbEntity
  8
0
 62
     7
370
    15
100
AcDbLine
 10
414.298468
 20
392.511514
 30
0.0
 11
414.672342
 21
392.885388
 31
0.0
  0
LINE
  5
6C3
330
1F
100
AcDbEntity
  8
0
 62
     7
370
    15
100
AcDbLine
 10
284.81771
 20
361.813573
 30
0.0
 11
288.298468
 21
365.294331
 31
0.0
  0
LINE
  5
6C4
330
1F
100
AcDbEntity
  8
0
 62
     7
370
    15
100
AcDbLine
 10
284.798468
 20
370.774587
 30
0.0
 11
288.298468
 21
374.274587
 31
0.0
  0
LINE
  5
6C5
330
1F
100
AcDbEntity
  8
0
 62
     7
370
    15
100
AcDbLine
 10
289.409268
 20
375.385388
 30
0.0
 11
293.959407
 21
379.935527
 31
0.0
  0
LINE
  5
6C6
330
1F
100
AcDbEntity
  8
0
 62
     7
370
    15
100
AcDbLine
 10
274.429012
 20
369.385388
 30
0.0
 11
280.798468
 21
375.754843
 31
0.0
  0
LINE
  5
6C7
330
1F
100
AcDbEntity
  8
0
 62
     7
370
    15
100
AcDbLine
 10
283.638866
 20
378.595242
 30
0.0
 11
286.11374
 21
381.070115
 31
0.0
  0
LINE
  5
6C8
330
1F
100
AcDbEntity
  8
0
 62
     7
370
    15
100
AcDbLine
 10
277.298468
 20
381.235099
 30
0.0
 11
281.623612
 21
385.560243
 31
0.0
  0
LINE
  5
6C9
330
1F
100
AcDbEntity
  8
0
 62
     7
370
    15
100
AcDbLine
 10
270.4685
 20
383.385388
 30
0.0
 11
273.9685
 21
386.885388
 31
0.0
  0
LINE
  5
6CA
330
1F
100
AcDbEntity
  8
0
 62
     7
370
    15
100
AcDbLine
 10
276.798468
 20
389.715355
 30
0.0
 11
279.9685
 21
392.885388
 31
0.0
  0
LINE
  5
6CB
330
1F
100
AcDbEntity
  8
0
 62
     7
370
    15
100
AcDbLine
 10
300.692144
 20
377.688007
 30
0.0
 11
302.308991
 21
379.304854
 31
0.0
  0
LINE
  5
6CC
330
1F
100
AcDbEntity
  8
0
 62
     7
370
    15
100
AcDbLine
 10
421.654724
 20
372.927001
 30
0.0
 11
427.256854
 21
378.529131
 31
0.0
  0
LINE
  5
6CD
330
1F
100
AcDbEntity
  8
0
 62
     7
370
    15
100
AcDbLine
 10
417.308969
 20
377.561502
 30
0.0
 11
422.622353
 21
382.874886
 31
0.0
  0
LINE
  5
6CE
330
1F
100
AcDbEntity
  8
0
 62
     7
370
    15
100
AcDbLine
 10
269.685715
 20
373.622346
 30
0.0
 11
276.561509
 21
380.498141
 31
0.0
  0
LINE
  5
6CF
330
1F
100
AcDbEntity
  8
0
 62
     7
370
    15
100
AcDbLine
 10
378.265862
 20
337.885388
 30
0.0
 11
501.298468
 21
337.885388
 31
0.0
  0
LINE
  5
6D0
330
1F
100
AcDbEntity
  8
0
 62
     7
370
    15
100
AcDbLine
 10
347.298468
 20
467.985389
 30
0.0
 11
347.298468
 21
368.063258
 31
0.0
  0
LINE
  5
6D1
330
1F
100
AcDbEntity
  8
0
 62
     7
370
    15
100
AcDbLine
 10
397.298467
 20
470.485386
 30
0.0
 11
397.298467
 21
369.886569
 31
0.0
  0
CIRCLE
  5
6D2
330
1F
100
AcDbEntity
  8
0
 62
     7
370
    40
100
AcDbCircle
 10
422.298468
 20
377.885388
 30
0.0
 40
5.000000000000114
  0
CIRCLE
  5
6D3
330
1F
100
AcDbEntity
  8
0
 62
     7
370
    40
100
AcDbCircle
 10
272.298468
 20
377.885388
 30
0.0
 40
5.0
  0
ARC
  5
6D4
330
1F
100
AcDbEntity
  8
0
 62
     7
370
    40
100
AcDbCircle
 10
412.798468
 20
379.021427
 30
0.0
 40
1.000003000000492
100
AcDbArc
 50
359.9999427044
 51
135.0
  0
ARC
  5
6D5
330
1F
100
AcDbEntity
  8
0
 62
     7
370
    40
100
AcDbCircle
 10
281.798468
 20
379.021427
 30
0.0
 40
1.000000000000048
100
AcDbArc
 50
45.0
 51
180.0000572959
  0
ARC
  5
6D6
330
1F
100
AcDbEntity
  8
0
 62
     7
370
    40
100
AcDbCircle
 10
397.298468
 20
464.360388
 30
0.0
 40
6.820236432851915
100
AcDbArc
 50
48.715289
 51
56.6416950365
  0
ARC
  5
6D7
330
1F
100
AcDbEntity
  8
0
 62
     7
370
    40
100
AcDbCircle
 10
402.348468
 20
469.285388
 30
0.0
 40
0.1999999999999886
100
AcDbArc
 50
0.0
 51
90.0002864846
  0
ARC
  5
6D8
330
1F
100
AcDbEntity
  8
0
 62
     7
370
    40
100
AcDbCircle
 10
392.248468
 20
469.285388
 30
0.0
 40
0.2000000001224886
100
AcDbArc
 50
90.0
 51
180.0020053523
  0
ARC
  5
6D9
330
1F
100
AcDbEntity
  8
0
 62
     7
370
    40
100
AcDbCircle
 10
397.298468
 20
464.360388
 30
0.0
 40
6.820236432851925
100
AcDbArc
 50
123.358304
 51
131.2847267534
  0
ARC
  5
6DA
330
1F
100
AcDbEntity
  8
0
 62
     7
370
    40
100
AcDbCircle
 10
397.304083
 20
464.360815
 30
0.0
 40
6.801553817704764
100
AcDbArc
 50
56.540143
 51
63.815745
  0
ARC
  5
6DB
330
1F
100
AcDbEntity
  8
0
 62
     7
370
    40
100
AcDbCircle
 10
397.304873
 20
464.360549
 30
0.0
 40
6.801859917162161
100
AcDbArc
 50
116.184419
 51
123.459693
  0
ARC
  5
6DC
330
1F
100
AcDbEntity
  8
0
 62
     7
370
    40
100
AcDbCircle
 10
394.34518
 20
370.085388
 30
0.0
 40
0.1999999999999695
100
AcDbArc
 50
243.506264
 51
270.0
  0
ARC
  5
6DD
330
1F
100
AcDbEntity
  8
0
 62
     7
370
    40
100
AcDbCircle
 10
397.298468
 20
376.010388
 30
0.0
 40
6.820236779069485
100
AcDbArc
 50
228.715289
 51
243.5062586095
  0
ARC
  5
6DE
330
1F
100
AcDbEntity
  8
0
 62
     7
370
    40
100
AcDbCircle
 10
392.248468
 20
371.085388
 30
0.0
 40
0.2000000000024318
100
AcDbArc
 50
180.0
 51
269.9997135211
  0
ARC
  5
6DF
330
1F
100
AcDbEntity
  8
0
 62
     7
370
    40
100
AcDbCircle
 10
402.348468
 20
371.085388
 30
0.0
 40
0.2000000000000455
100
AcDbArc
 50
270.0
 51
0.0
  0
ARC
  5
6E0
330
1F
100
AcDbEntity
  8
0
 62
     7
370
    40
100
AcDbCircle
 10
397.298468
 20
376.010388
 30
0.0
 40
6.82023709265312
100
AcDbArc
 50
296.493736
 51
311.2847172073
  0
ARC
  5
6E1
330
1F
100
AcDbEntity
  8
0
 62
     7
370
    40
100
AcDbCircle
 10
400.251755
 20
370.085388
 30
0.0
 40
0.2000000998825208
100
AcDbArc
 50
270.0
 51
296.4938085702
  0
ARC
  5
6E2
330
1F
100
AcDbEntity
  8
0
 62
     7
370
    40
100
AcDbCircle
 10
396.687655
 20
375.858961
 30
0.0
 40
5.545338479628559
100
AcDbArc
 50
268.228945
 51
275.103659
  0
ARC
  5
6E3
330
1F
100
AcDbEntity
  8
0
 62
     7
370
    40
100
AcDbCircle
 10
402.769386
 20
371.691865
 30
0.0
 40
5.750650058728724
100
AcDbArc
 50
193.6413895911
 51
198.088291
  0
ARC
  5
6E4
330
1F
100
AcDbEntity
  8
0
 62
     7
370
    40
100
AcDbCircle
 10
294.34518
 20
370.085388
 30
0.0
 40
0.2000000000024318
100
AcDbArc
 50
243.506264
 51
269.9997135211
  0
ARC
  5
6E5
330
1F
100
AcDbEntity
  8
0
 62
     7
370
    40
100
AcDbCircle
 10
297.298468
 20
376.010388
 30
0.0
 40
6.820236779069536
100
AcDbArc
 50
228.715289
 51
243.5062586095
  0
ARC
  5
6E6
330
1F
100
AcDbEntity
  8
0
 62
     7
370
    40
100
AcDbCircle
 10
292.248468
 20
371.085388
 30
0.0
 40
0.2000000000099318
100
AcDbArc
 50
180.0
 51
269.9994270422
  0
ARC
  5
6E7
330
1F
100
AcDbEntity
  8
0
 62
     7
370
    40
100
AcDbCircle
 10
302.348468
 20
371.085388
 30
0.0
 40
0.2000010000000429
100
AcDbArc
 50
270.0
 51
0.0
  0
ARC
  5
6E8
330
1F
100
AcDbEntity
  8
0
 62
     7
370
    40
100
AcDbCircle
 10
297.298468
 20
376.010388
 30
0.0
 40
6.82023643285203
100
AcDbArc
 50
296.493736
 51
311.2847045818
  0
ARC
  5
6E9
330
1F
100
AcDbEntity
  8
0
 62
     7
370
    40
100
AcDbCircle
 10
300.251755
 20
370.085388
 30
0.0
 40
0.2000000998826735
100
AcDbArc
 50
270.0
 51
296.4938085701
  0
ARC
  5
6EA
330
1F
100
AcDbEntity
  8
0
 62
     7
370
    40
100
AcDbCircle
 10
296.687658
 20
375.85885
 30
0.0
 40
5.545227255498234
100
AcDbArc
 50
268.228904
 51
275.103718
  0
ARC
  5
6EB
330
1F
100
AcDbEntity
  8
0
 62
     7
370
    40
100
AcDbCircle
 10
302.773464
 20
371.693025
 30
0.0
 40
5.754888240771343
100
AcDbArc
 50
193.6430317105
 51
198.086652
  0
ARC
  5
6EC
330
1F
100
AcDbEntity
  8
0
 62
     7
370
    40
100
AcDbCircle
 10
297.298468
 20
464.360388
 30
0.0
 40
6.820236432851915
100
AcDbArc
 50
48.715289
 51
56.6417090701
  0
ARC
  5
6ED
330
1F
100
AcDbEntity
  8
0
 62
     7
370
    40
100
AcDbCircle
 10
302.348468
 20
469.285388
 30
0.0
 40
0.2000000000000455
100
AcDbArc
 50
0.0
 51
89.9997135154
  0
ARC
  5
6EE
330
1F
100
AcDbEntity
  8
0
 62
     7
370
    40
100
AcDbCircle
 10
292.248468
 20
469.285388
 30
0.0
 40
0.2000020001224823
100
AcDbArc
 50
90.0
 51
180.0020053322
  0
ARC
  5
6EF
330
1F
100
AcDbEntity
  8
0
 62
     7
370
    40
100
AcDbCircle
 10
297.298468
 20
464.360388
 30
0.0
 40
6.820236432852004
100
AcDbArc
 50
123.358304
 51
131.2847330661
  0
ARC
  5
6F0
330
1F
100
AcDbEntity
  8
0
 62
     7
370
    40
100
AcDbCircle
 10
297.303718
 20
464.360174
 30
0.0
 40
6.802290201889638
100
AcDbArc
 50
56.540538
 51
63.81535
  0
ARC
  5
6F1
330
1F
100
AcDbEntity
  8
0
 62
     7
370
    40
100
AcDbCircle
 10
297.304723
 20
464.360815
 30
0.0
 40
6.801553817704733
100
AcDbArc
 50
116.184255
 51
123.459857
  0
ARC
  5
6F2
330
1F
100
AcDbEntity
  8
0
 62
     7
370
    40
100
AcDbCircle
 10
244.446285
 20
463.385388
 30
0.0
 40
4.50000257804814
100
AcDbArc
 50
90.0
 51
170.0000419821
  0
ARC
  5
6F3
330
1F
100
AcDbEntity
  8
0
 62
     7
370
    40
100
AcDbCircle
 10
450.15065
 20
463.385388
 30
0.0
 40
4.500000000000057
100
AcDbArc
 50
10.0
 51
90.0
  0
ARC
  5
6F4
330
1F
100
AcDbEntity
  8
0
 62
     7
370
    40
100
AcDbCircle
 10
333.233256
 20
337.885388
 30
0.0
 40
37.50000000000006
100
AcDbArc
 50
208.088647
 51
270.0
  0
ARC
  5
6F5
330
1F
100
AcDbEntity
  8
0
 62
     7
370
    40
100
AcDbCircle
 10
279.52688
 20
356.885388
 30
0.0
 40
1.0
100
AcDbArc
 50
28.0000918631
 51
90.0
  0
ARC
  5
6F6
330
1F
100
AcDbEntity
  8
0
 62
     7
370
    40
100
AcDbCircle
 10
268.27994
 20
360.885388
 30
0.0
 40
3.0000000000015
100
AcDbArc
 50
195.0
 51
269.9999427042
  0
ARC
  5
6F7
330
1F
100
AcDbEntity
  8
0
 62
     7
370
    40
100
AcDbCircle
 10
269.798468
 20
368.741129
 30
0.0
 40
6.500003076031304
100
AcDbArc
 50
180.0
 51
194.9999946222
  0
ARC
  5
6F8
330
1F
100
AcDbEntity
  8
0
 62
     7
370
    40
100
AcDbCircle
 10
170.298468
 20
389.885388
 30
0.0
 40
3.0
100
AcDbArc
 50
90.0
 51
179.9999809014
  0
ARC
  5
6F9
330
1F
100
AcDbEntity
  8
0
 62
     7
370
    40
100
AcDbCircle
 10
268.998468
 20
370.985388
 30
0.0
 40
0.8000000000056364
100
AcDbArc
 50
0.0
 51
89.9997851408
  0
ARC
  5
6FA
330
1F
100
AcDbEntity
  8
0
 62
     7
370
    40
100
AcDbCircle
 10
279.52688
 20
356.885388
 30
0.0
 40
4.499999999999996
100
AcDbArc
 50
28.0
 51
90.0000127324
  0
ARC
  5
6FB
330
1F
100
AcDbEntity
  8
0
 62
     7
370
    40
100
AcDbCircle
 10
333.233256
 20
337.885388
 30
0.0
 40
34.00000000000011
100
AcDbArc
 50
208.0930992424
 51
270.0
  0
ARC
  5
6FC
330
1F
100
AcDbEntity
  8
0
 62
     7
370
    40
100
AcDbCircle
 10
425.598468
 20
370.985388
 30
0.0
 40
0.8000000000006364
100
AcDbArc
 50
89.9999283803
 51
180.0
  0
ARC
  5
6FD
330
1F
100
AcDbEntity
  8
0
 62
     7
370
    40
100
AcDbCircle
 10
426.316995
 20
364.385388
 30
0.0
 40
3.000000468355492
100
AcDbArc
 50
270.0
 51
345.0000050721
  0
ARC
  5
6FE
330
1F
100
AcDbEntity
  8
0
 62
     7
370
    40
100
AcDbCircle
 10
524.298468
 20
389.885388
 30
0.0
 40
3.0
100
AcDbArc
 50
0.0
 51
90.0
  0
ELLIPSE
  5
6FF
330
1F
100
AcDbEntity
  8
0
 62
     7
370
    40
100
AcDbEllipse
 10
347.298468
 20
392.885388
 30
0.0
 11
7.405230308711055
 21
-250.0396268675836
 31
0.0
210
0.0
220
0.0
230
1.0
 40
0.266316
 41
1.565873386753078
 42
1.586906974001755
  0
ELLIPSE
  5
700
330
1F
100
AcDbEntity
  8
0
 62
     7
370
    40
100
AcDbEllipse
 10
347.298468
 20
392.885388
 30
0.0
 11
-2.652617721504157
 21
-250.0463954931095
 31
0.0
210
0.0
220
0.0
230
1.0
 40
0.26774
 41
4.691231541755674
 42
4.712265129004351
  0
ELLIPSE
  5
701
330
1F
100
AcDbEntity
  8
0
 62
     7
370
    40
100
AcDbEllipse
 10
347.298468
 20
392.885388
 30
0.0
 11
66.69141367183988
 21
-250.0415352964696
 31
0.0
210
0.0
220
0.0
230
1.0
 40
0.025688
 41
4.681539833580381
 42
4.70257342082903
  0
ELLIPSE
  5
702
330
1F
100
AcDbEntity
  8
0
 62
     7
370
    40
100
AcDbEllipse
 10
347.298468
 20
392.885388
 30
0.0
 11
70.17529350283799
 21
-263.1034065894904
 31
0.0
210
0.0
220
0.0
230
1.0
 40
0.025688
 41
4.682731423402711
 42
4.702720578411204
  0
ELLIPSE
  5
703
330
1F
100
AcDbEntity
  8
0
 62
     7
370
    40
100
AcDbEllipse
 10
347.298468
 20
392.885388
 30
0.0
 11
-70.45853116067556
 21
-263.1087845998101
 31
0.0
210
0.0
220
0.0
230
1.0
 40
0.009189
 41
1.576074085969271
 42
1.596063240978399
  0
ELLIPSE
  5
704
330
1F
100
AcDbEntity
  8
0
 62
     7
370
    40
100
AcDbEllipse
 10
347.298468
 20
392.885388
 30
0.0
 11
-66.96058989993338
 21
-250.0466463668032
 31
0.0
210
0.0
220
0.0
230
1.0
 40
0.009189
 41
1.576221243550686
 42
1.597254830800262
  0
DIMENSION
  5
705
330
1F
100
AcDbEntity
  8
0
100
AcDbDimension
  2
_D
 10
199.3987024937
 20
300.385388
 30
0.0
 11
199.3987024937
 21
352.4084568282
 31
0.0
 70
   160
  1
<>
 71
     2
 42
-1.0
  3
SLDDIMSTYLE0
100
AcDbAlignedDimension
 13
170.298468
 23
392.885388
 33
0.0
 14
333.233256
 24
300.385388
 34
0.0
 50
90.0
100
AcDbRotatedDimension
  0
DIMENSION
  5
710
330
1F
100
AcDbEntity
  8
0
 62
     7
100
AcDbDimension
  2
_D_1
 10
347.298468
 20
276.343388
 30
0.0
 11
415.415287
 21
276.343388
 31
0.0
 70
   160
  1
<>
 71
     2
 42
-1.0
  3
SLDDIMSTYLE1
100
AcDbAlignedDimension
 13
497.298468
 23
301.189235
 33
0.0
 14
347.298468
 24
368.063258
 34
0.0
100
AcDbRotatedDimension
  0
DIMENSION
  5
720
330
1F
100
AcDbEntity
  8
0
 62
     7
100
AcDbDimension
  2
_D_2
 10
601.850614
 20
375.385388
 30
0.0
 11
601.850614
 21
406.517388
 31
0.0
 70
   160
  1
DN<>
 71
     2
 42
-1.0
  3
SLDDIMSTYLE1
100
AcDbAlignedDimension
 13
494.298468
 23
300.385388
 33
0.0
 14
494.298468
 24
375.385388
 34
0.0
 50
90.0
100
AcDbRotatedDimension
  0
DIMENSION
  5
72B
330
1F
100
AcDbEntity
  8
0
 62
     7
100
AcDbDimension
  2
_D_3
 10
542.217387
 20
337.885388
 30
0.0
 11
542.217387
 21
421.961388
 31
0.0
 70
   160
  1
<>
 71
     2
 42
-1.0
  3
SLDDIMSTYLE2
100
AcDbAlignedDimension
 13
527.298468
 23
389.385388
 33
0.0
 14
501.298468
 24
337.885388
 34
0.0
 50
90.0
100
AcDbRotatedDimension
  0
DIMENSION
  5
737
330
1F
100
AcDbEntity
  8
0
 62
     7
100
AcDbDimension
  2
_D_4
 10
167.298468
 20
564.433388
 30
0.0
 11
349.392786
 21
564.433388
 31
0.0
 70
   160
  1
%%c<>
 71
     2
 42
-1.0
  3
SLDDIMSTYLE1
100
AcDbAlignedDimension
 13
527.298468
 23
389.385388
 33
0.0
 14
167.298468
 24
389.385388
 34
0.0
 50
0.0
100
AcDbRotatedDimension
  0
DIMENSION
  5
742
330
1F
100
AcDbEntity
  8
0
 62
     7
100
AcDbDimension
  2
_D_5
 10
263.298468
 20
521.296979
 30
0.0
 11
346.31973
 21
521.296979
 31
0.0
 70
   160
  1
%%c<>
 71
     2
 42
-1.0
  3
SLDDIMSTYLE1
100
AcDbAlignedDimension
 13
431.298468
 23
389.385388
 33
0.0
 14
263.298468
 24
389.385388
 34
0.0
100
AcDbRotatedDimension
  0
ENDSEC
  0
SECTION
  2
OBJECTS
  0
DICTIONARY
  5
C
330
0
100
AcDbDictionary
281
     1
  3
ACAD_GROUP
350
D
  3
ACAD_LAYOUT
350
1A
  3
ACAD_MLINESTYLE
350
17
  3
ACAD_PLOTSETTINGS
350
19
  3
ACAD_PLOTSTYLENAME
350
E
  3
ACAD_SCALELIST
350
47
  0
DICTIONARY
  5
D
102
{ACAD_REACTORS
330
C
102
}
330
C
100
AcDbDictionary
281
     1
  0
DICTIONARY
  5
1A
102
{ACAD_REACTORS
330
C
102
}
330
C
100
AcDbDictionary
281
     1
  3
Layout1
350
1E
  3
Layout2
350
26
  3
Model
350
22
  0
DICTIONARY
  5
17
102
{ACAD_REACTORS
330
C
102
}
330
C
100
AcDbDictionary
281
     1
  3
Standard
350
18
  0
DICTIONARY
  5
19
102
{ACAD_REACTORS
330
C
102
}
330
C
100
AcDbDictionary
281
     1
  0
ACDBDICTIONARYWDFLT
  5
E
102
{ACAD_REACTORS
330
C
102
}
330
C
100
AcDbDictionary
281
     1
  3
Normal
350
F
100
AcDbDictionaryWithDefault
340
F
  0
DICTIONARY
  5
47
102
{ACAD_REACTORS
330
C
102
}
330
C
100
AcDbDictionary
281
     1
  3
A0
350
48
  3
A1
350
49
  3
A2
350
4A
  3
A3
350
4B
  3
A4
350
4C
  3
A5
350
4D
  3
A6
350
4E
  3
A7
350
4F
  3
A8
350
50
  3
A9
350
51
  3
B0
350
52
  3
B1
350
53
  3
B2
350
54
  3
B3
350
55
  3
B4
350
56
  3
B5
350
57
  3
B6
350
58
  3
B7
350
59
  3
B8
350
5A
  3
B9
350
5B
  3
C0
350
5C
  3
C1
350
5D
  3
C2
350
5E
  3
C3
350
5F
  3
C4
350
60
  3
C5
350
61
  3
C6
350
62
  3
C7
350
63
  3
C8
350
64
  3
C9
350
65
  3
D0
350
66
  3
D1
350
67
  3
D2
350
68
  0
LAYOUT
  5
1E
102
{ACAD_REACTORS
330
1A
102
}
330
1A
100
AcDbPlotSettings
  1

  2
none_device
  4

  6

 40
0.0
 41
0.0
 42
0.0
 43
0.0
 44
0.0
 45
0.0
 46
0.0
 47
0.0
 48
0.0
 49
0.0
140
0.0
141
0.0
142
1.0
143
1.0
 70
   688
 72
     1
 73
     0
 74
     5
  7

 75
    16
147
1.0
148
0.0
149
0.0
100
AcDbLayout
  1
Layout1
 70
     1
 71
     1
 10
0.0
 20
0.0
 11
420.0
 21
297.0
 12
0.0
 22
0.0
 32
0.0
 14
1.0000000000E+20
 24
1.0000000000E+20
 34
1.0000000000E+20
 15
-1.0000000000E+20
 25
-1.0000000000E+20
 35
-1.0000000000E+20
146
0.0
 13
0.0
 23
0.0
 33
0.0
 16
1.0
 26
0.0
 36
0.0
 17
0.0
 27
1.0
 37
0.0
 76
     0
330
1B
  0
LAYOUT
  5
26
102
{ACAD_REACTORS
330
1A
102
}
330
1A
100
AcDbPlotSettings
  1

  2
none_device
  4

  6

 40
0.0
 41
0.0
 42
0.0
 43
0.0
 44
0.0
 45
0.0
 46
0.0
 47
0.0
 48
0.0
 49
0.0
140
0.0
141
0.0
142
1.0
143
1.0
 70
   688
 72
     1
 73
     0
 74
     5
  7

 75
    16
147
1.0
148
0.0
149
0.0
100
AcDbLayout
  1
Layout2
 70
     1
 71
     2
 10
0.0
 20
0.0
 11
0.0
 21
0.0
 12
0.0
 22
0.0
 32
0.0
 14
0.0
 24
0.0
 34
0.0
 15
0.0
 25
0.0
 35
0.0
146
0.0
 13
0.0
 23
0.0
 33
0.0
 16
1.0
 26
0.0
 36
0.0
 17
0.0
 27
1.0
 37
0.0
 76
     0
330
23
  0
LAYOUT
  5
22
102
{ACAD_REACTORS
330
1A
102
}
330
1A
100
AcDbPlotSettings
  1

  2
none_device
  4
Letter_(8.50_x_11.00_Inches)
  6

 40
6.35
 41
6.35
 42
6.35000508
 43
6.35000508
 44
215.9
 45
279.4
 46
0.0
 47
0.0
 48
0.0
 49
0.0
140
0.0
141
0.0
142
1.0
143
1.0
 70
  1712
 72
     1
 73
     0
 74
     0
  7

 75
     0
147
1.0
148
0.0
149
0.0
100
AcDbLayout
  1
Model
 70
     1
 71
     0
 10
0.0
 20
0.0
 11
841.0
 21
594.0
 12
0.0
 22
0.0
 32
0.0
 14
0.0
 24
0.0
 34
0.0
 15
841.0
 25
594.0
 35
0.0
146
0.0
 13
0.0
 23
0.0
 33
0.0
 16
1.0
 26
0.0
 36
0.0
 17
0.0
 27
1.0
 37
0.0
 76
     0
330
1F
331
29
  0
MLINESTYLE
  5
18
102
{ACAD_REACTORS
330
17
102
}
330
17
100
AcDbMlineStyle
  2
Standard
 70
     0
  3

 62
   256
 51
90.0
 52
90.0
 71
     2
 49
0.5
 62
   256
  6
BYLAYER
 49
-0.5
 62
   256
  6
BYLAYER
  0
ACDBPLACEHOLDER
  5
F
102
{ACAD_REACTORS
330
E
102
}
330
E
  0
SCALE
  5
48
102
{ACAD_REACTORS
330
47
102
}
330
47
100
AcDbScale
 70
     0
300
1:1
140
1.0
141
1.0
290
     1
  0
SCALE
  5
49
102
{ACAD_REACTORS
330
47
102
}
330
47
100
AcDbScale
 70
     0
300
1:2
140
1.0
141
2.0
290
     0
  0
SCALE
  5
4A
102
{ACAD_REACTORS
330
47
102
}
330
47
100
AcDbScale
 70
     0
300
1:4
140
1.0
141
4.0
290
     0
  0
SCALE
  5
4B
102
{ACAD_REACTORS
330
47
102
}
330
47
100
AcDbScale
 70
     0
300
1:5
140
1.0
141
5.0
290
     0
  0
SCALE
  5
4C
102
{ACAD_REACTORS
330
47
102
}
330
47
100
AcDbScale
 70
     0
300
1:8
140
1.0
141
8.0
290
     0
  0
SCALE
  5
4D
102
{ACAD_REACTORS
330
47
102
}
330
47
100
AcDbScale
 70
     0
300
1:10
140
1.0
141
10.0
290
     0
  0
SCALE
  5
4E
102
{ACAD_REACTORS
330
47
102
}
330
47
100
AcDbScale
 70
     0
300
1:16
140
1.0
141
16.0
290
     0
  0
SCALE
  5
4F
102
{ACAD_REACTORS
330
47
102
}
330
47
100
AcDbScale
 70
     0
300
1:20
140
1.0
141
20.0
290
     0
  0
SCALE
  5
50
102
{ACAD_REACTORS
330
47
102
}
330
47
100
AcDbScale
 70
     0
300
1:30
140
1.0
141
30.0
290
     0
  0
SCALE
  5
51
102
{ACAD_REACTORS
330
47
102
}
330
47
100
AcDbScale
 70
     0
300
1:40
140
1.0
141
40.0
290
     0
  0
SCALE
  5
52
102
{ACAD_REACTORS
330
47
102
}
330
47
100
AcDbScale
 70
     0
300
1:50
140
1.0
141
50.0
290
     0
  0
SCALE
  5
53
102
{ACAD_REACTORS
330
47
102
}
330
47
100
AcDbScale
 70
     0
300
1:100
140
1.0
141
100.0
290
     0
  0
SCALE
  5
54
102
{ACAD_REACTORS
330
47
102
}
330
47
100
AcDbScale
 70
     0
300
2:1
140
2.0
141
1.0
290
     0
  0
SCALE
  5
55
102
{ACAD_REACTORS
330
47
102
}
330
47
100
AcDbScale
 70
     0
300
4:1
140
4.0
141
1.0
290
     0
  0
SCALE
  5
56
102
{ACAD_REACTORS
330
47
102
}
330
47
100
AcDbScale
 70
     0
300
8:1
140
8.0
141
1.0
290
     0
  0
SCALE
  5
57
102
{ACAD_REACTORS
330
47
102
}
330
47
100
AcDbScale
 70
     0
300
10:1
140
10.0
141
1.0
290
     0
  0
SCALE
  5
58
102
{ACAD_REACTORS
330
47
102
}
330
47
100
AcDbScale
 70
     0
300
100:1
140
100.0
141
1.0
290
     0
  0
SCALE
  5
59
102
{ACAD_REACTORS
330
47
102
}
330
47
100
AcDbScale
 70
     0
300
1/128" = 1'-0"
140
0.0078125
141
12.0
290
     0
  0
SCALE
  5
5A
102
{ACAD_REACTORS
330
47
102
}
330
47
100
AcDbScale
 70
     0
300
1/64" = 1'-0"
140
0.015625
141
12.0
290
     0
  0
SCALE
  5
5B
102
{ACAD_REACTORS
330
47
102
}
330
47
100
AcDbScale
 70
     0
300
1/32" = 1'-0"
140
0.03125
141
12.0
290
     0
  0
SCALE
  5
5C
102
{ACAD_REACTORS
330
47
102
}
330
47
100
AcDbScale
 70
     0
300
1/16" = 1'-0"
140
0.0625
141
12.0
290
     0
  0
SCALE
  5
5D
102
{ACAD_REACTORS
330
47
102
}
330
47
100
AcDbScale
 70
     0
300
3/32" = 1'-0"
140
0.09375
141
12.0
290
     0
  0
SCALE
  5
5E
102
{ACAD_REACTORS
330
47
102
}
330
47
100
AcDbScale
 70
     0
300
1/8" = 1'-0"
140
0.125
141
12.0
290
     0
  0
SCALE
  5
5F
102
{ACAD_REACTORS
330
47
102
}
330
47
100
AcDbScale
 70
     0
300
3/16" = 1'-0"
140
0.1875
141
12.0
290
     0
  0
SCALE
  5
60
102
{ACAD_REACTORS
330
47
102
}
330
47
100
AcDbScale
 70
     0
300
1/4" = 1'-0"
140
0.25
141
12.0
290
     0
  0
SCALE
  5
61
102
{ACAD_REACTORS
330
47
102
}
330
47
100
AcDbScale
 70
     0
300
3/8" = 1'-0"
140
0.375
141
12.0
290
     0
  0
SCALE
  5
62
102
{ACAD_REACTORS
330
47
102
}
330
47
100
AcDbScale
 70
     0
300
1/2" = 1'-0"
140
0.5
141
12.0
290
     0
  0
SCALE
  5
63
102
{ACAD_REACTORS
330
47
102
}
330
47
100
AcDbScale
 70
     0
300
3/4" = 1'-0"
140
0.75
141
12.0
290
     0
  0
SCALE
  5
64
102
{ACAD_REACTORS
330
47
102
}
330
47
100
AcDbScale
 70
     0
300
1" = 1'-0"
140
1.0
141
12.0
290
     0
  0
SCALE
  5
65
102
{ACAD_REACTORS
330
47
102
}
330
47
100
AcDbScale
 70
     0
300
1-1/2" = 1'-0"
140
1.5
141
12.0
290
     0
  0
SCALE
  5
66
102
{ACAD_REACTORS
330
47
102
}
330
47
100
AcDbScale
 70
     0
300
3" = 1'-0"
140
3.0
141
12.0
290
     0
  0
SCALE
  5
67
102
{ACAD_REACTORS
330
47
102
}
330
47
100
AcDbScale
 70
     0
300
6" = 1'-0"
140
6.0
141
12.0
290
     0
  0
SCALE
  5
68
102
{ACAD_REACTORS
330
47
102
}
330
47
100
AcDbScale
 70
     0
300
1'-0" = 1'-0"
140
12.0
141
12.0
290
     0
  0
ENDSEC
  0
EOF
