  0
SECTION
  2
HEADER
  9
$ACADVER
  1
AC1015
  9
$ACADMAINTVER
 70
     6
  9
$DWGCODEPAGE
  3
ANSI_1252
  9
$INSBASE
 10
525.217132
 20
449.926398
 30
0.0
  9
$EXTMIN
 10
-104.782868
 20
4.426398
 30
0.0
  9
$EXTMAX
 10
735.217132
 20
598.426398
 30
0.0
  9
$LIMMIN
 10
-104.782868
 20
4.426398
  9
$LIMMAX
 10
735.217132
 20
598.426398
  9
$ORTHOMODE
 70
     0
  9
$REGENMODE
 70
     1
  9
$FILLMODE
 70
     1
  9
$QTEXTMODE
 70
     0
  9
$MIRRTEXT
 70
     1
  9
$LTSCALE
 40
2.0
  9
$ATTMODE
 70
     1
  9
$TEXTSIZE
 40
2.5
  9
$TRACEWID
 40
1.0
  9
$TEXTSTYLE
  7
Standard
  9
$CLAYER
  8
0
  9
$CELTYPE
  6
ByLayer
  9
$CECOLOR
 62
     7
  9
$CELTSCALE
 40
1.0
  9
$DISPSILH
 70
     0
  9
$DIMSCALE
 40
2.0
  9
$DIMASZ
 40
3.5
  9
$DIMEXO
 40
0.625
  9
$DIMDLI
 40
3.75
  9
$DIMRND
 40
0.0
  9
$DIMDLE
 40
0.0
  9
$DIMEXE
 40
1.25
  9
$DIMTP
 40
0.0
  9
$DIMTM
 40
0.0
  9
$DIMTXT
 40
3.5
  9
$DIMCEN
 40
2.5
  9
$DIMTSZ
 40
0.0
  9
$DIMTOL
 70
     0
  9
$DIMLIM
 70
     0
  9
$DIMTIH
 70
     0
  9
$DIMTOH
 70
     0
  9
$DIMSE1
 70
     0
  9
$DIMSE2
 70
     0
  9
$DIMTAD
 70
     1
  9
$DIMZIN
 70
     8
  9
$DIMBLK
  1

  9
$DIMASO
 70
     1
  9
$DIMSHO
 70
     1
  9
$DIMPOST
  1

  9
$DIMAPOST
  1

  9
$DIMALT
 70
     0
  9
$DIMALTD
 70
     3
  9
$DIMALTF
 40
0.03937
  9
$DIMLFAC
 40
1.0
  9
$DIMTOFL
 70
     1
  9
$DIMTVP
 40
0.0
  9
$DIMTIX
 70
     0
  9
$DIMSOXD
 70
     0
  9
$DIMSAH
 70
     0
  9
$DIMBLK1
  1

  9
$DIMBLK2
  1

  9
$DIMSTYLE
  2
ISO-25
  9
$DIMCLRD
 70
     0
  9
$DIMCLRE
 70
     0
  9
$DIMCLRT
 70
     0
  9
$DIMTFAC
 40
1.0
  9
$DIMGAP
 40
0.625
  9
$DIMJUST
 70
     0
  9
$DIMSD1
 70
     0
  9
$DIMSD2
 70
     0
  9
$DIMTOLJ
 70
     0
  9
$DIMTZIN
 70
     8
  9
$DIMALTZ
 70
     0
  9
$DIMALTTZ
 70
     0
  9
$DIMUPT
 70
     0
  9
$DIMDEC
 70
     2
  9
$DIMTDEC
 70
     2
  9
$DIMALTU
 70
     2
  9
$DIMALTTD
 70
     3
  9
$DIMTXSTY
  7
Standard
  9
$DIMAUNIT
 70
     0
  9
$DIMADEC
 70
     0
  9
$DIMALTRND
 40
0.0
  9
$DIMAZIN
 70
     0
  9
$DIMDSEP
 70
    44
  9
$DIMATFIT
 70
     3
  9
$DIMFRAC
 70
     0
  9
$DIMLDRBLK
  1

  9
$DIMLUNIT
 70
     2
  9
$DIMLWD
 70
    -2
  9
$DIMLWE
 70
    -2
  9
$DIMTMOVE
 70
     0
  9
$LUNITS
 70
     2
  9
$LUPREC
 70
     4
  9
$SKETCHINC
 40
1.0
  9
$FILLETRAD
 40
10.0
  9
$AUNITS
 70
     0
  9
$AUPREC
 70
     0
  9
$MENU
  1
.
  9
$ELEVATION
 40
0.0
  9
$PELEVATION
 40
0.0
  9
$THICKNESS
 40
0.0
  9
$LIMCHECK
 70
     0
  9
$CHAMFERA
 40
10.0
  9
$CHAMFERB
 40
10.0
  9
$CHAMFERC
 40
20.0
  9
$CHAMFERD
 40
0.0
  9
$SKPOLY
 70
     0
  9
$TDCREATE
 40
2455537.37917485
  9
$TDUCREATE
 40
2455537.337508183
  9
$TDUPDATE
 40
2455537.379174861
  9
$TDUUPDATE
 40
2455537.337508195
  9
$TDINDWG
 40
0.0000000116
  9
$TDUSRTIMER
 40
0.0000000116
  9
$USRTIMER
 70
     1
  9
$ANGBASE
 50
0.0
  9
$ANGDIR
 70
     0
  9
$PDMODE
 70
     0
  9
$PDSIZE
 40
0.0
  9
$PLINEWID
 40
0.0
  9
$SPLFRAME
 70
     0
  9
$SPLINETYPE
 70
     6
  9
$SPLINESEGS
 70
     8
  9
$HANDSEED
  5
118
  9
$SURFTAB1
 70
     6
  9
$SURFTAB2
 70
     6
  9
$SURFTYPE
 70
     6
  9
$SURFU
 70
     6
  9
$SURFV
 70
     6
  9
$UCSBASE
  2

  9
$UCSNAME
  2

  9
$UCSORG
 10
0.0
 20
0.0
 30
0.0
  9
$UCSXDIR
 10
1.0
 20
0.0
 30
0.0
  9
$UCSYDIR
 10
0.0
 20
1.0
 30
0.0
  9
$UCSORTHOREF
  2

  9
$UCSORTHOVIEW
 70
     0
  9
$UCSORGTOP
 10
0.0
 20
0.0
 30
0.0
  9
$UCSORGBOTTOM
 10
0.0
 20
0.0
 30
0.0
  9
$UCSORGLEFT
 10
0.0
 20
0.0
 30
0.0
  9
$UCSORGRIGHT
 10
0.0
 20
0.0
 30
0.0
  9
$UCSORGFRONT
 10
0.0
 20
0.0
 30
0.0
  9
$UCSORGBACK
 10
0.0
 20
0.0
 30
0.0
  9
$PUCSBASE
  2

  9
$PUCSNAME
  2

  9
$PUCSORG
 10
0.0
 20
0.0
 30
0.0
  9
$PUCSXDIR
 10
1.0
 20
0.0
 30
0.0
  9
$PUCSYDIR
 10
0.0
 20
1.0
 30
0.0
  9
$PUCSORTHOREF
  2

  9
$PUCSORTHOVIEW
 70
     0
  9
$PUCSORGTOP
 10
0.0
 20
0.0
 30
0.0
  9
$PUCSORGBOTTOM
 10
0.0
 20
0.0
 30
0.0
  9
$PUCSORGLEFT
 10
0.0
 20
0.0
 30
0.0
  9
$PUCSORGRIGHT
 10
0.0
 20
0.0
 30
0.0
  9
$PUCSORGFRONT
 10
0.0
 20
0.0
 30
0.0
  9
$PUCSORGBACK
 10
0.0
 20
0.0
 30
0.0
  9
$USERI1
 70
     0
  9
$USERI2
 70
     0
  9
$USERI3
 70
     0
  9
$USERI4
 70
     0
  9
$USERI5
 70
     0
  9
$USERR1
 40
0.0
  9
$USERR2
 40
0.0
  9
$USERR3
 40
0.0
  9
$USERR4
 40
0.0
  9
$USERR5
 40
0.0
  9
$WORLDVIEW
 70
     1
  9
$SHADEDGE
 70
     3
  9
$SHADEDIF
 70
    70
  9
$TILEMODE
 70
     1
  9
$MAXACTVP
 70
    64
  9
$PINSBASE
 10
0.0
 20
0.0
 30
0.0
  9
$PLIMCHECK
 70
     0
  9
$PEXTMIN
 10
-104.782868
 20
4.426398
 30
0.0
  9
$PEXTMAX
 10
735.217132
 20
598.426398
 30
0.0
  9
$PLIMMIN
 10
-104.782868
 20
4.426398
  9
$PLIMMAX
 10
735.217132
 20
598.426398
  9
$UNITMODE
 70
     0
  9
$VISRETAIN
 70
     1
  9
$PLINEGEN
 70
     0
  9
$PSLTSCALE
 70
     1
  9
$TREEDEPTH
 70
  3020
  9
$CMLSTYLE
  2
Standard
  9
$CMLJUST
 70
     0
  9
$CMLSCALE
 40
20.0
  9
$PROXYGRAPHICS
 70
     1
  9
$MEASUREMENT
 70
     1
  9
$CELWEIGHT
370
    -1
  9
$ENDCAPS
280
     0
  9
$JOINSTYLE
280
     0
  9
$LWDISPLAY
290
     0
  9
$INSUNITS
 70
     4
  9
$HYPERLINKBASE
  1

  9
$STYLESHEET
  1

  9
$XEDIT
290
     1
  9
$CEPSNTYPE
380
     0
  9
$PSTYLEMODE
290
     1
  9
$FINGERPRINTGUID
  2
{FAEB1C30-E019-11D5-929B-00C0DF256EC4}
  9
$VERSIONGUID
  2
{FAEB1C32-E019-11D5-929B-00C0DF256EC4}
  9
$EXTNAMES
290
     1
  9
$PSVPSCALE
 40
0.0
  9
$OLESTARTUP
290
     0
  0
ENDSEC
  0
SECTION
  2
CLASSES
  0
CLASS
  1
ACDBDICTIONARYWDFLT
  2
AcDbDictionaryWithDefault
  3
ObjectDBX Classes
 90
        0
280
     0
281
     0
  0
CLASS
  1
ACDBPLACEHOLDER
  2
AcDbPlaceHolder
  3
ObjectDBX Classes
 90
        0
280
     0
281
     0
  0
CLASS
  1
LAYOUT
  2
AcDbLayout
  3
ObjectDBX Classes
 90
        0
280
     0
281
     0
  0
ENDSEC
  0
SECTION
  2
TABLES
  0
TABLE
  2
VPORT
  5
8
330
0
100
AcDbSymbolTable
 70
     2
  0
VPORT
  5
29
330
8
100
AcDbSymbolTableRecord
100
AcDbViewportTableRecord
  2
*ACTIVE
 70
     0
 10
0.0
 20
0.0
 11
1.0
 21
1.0
 12
315.217132
 22
301.426398
 13
0.0
 23
0.0
 14
1.0
 24
1.0
 15
0.0
 25
0.0
 16
0.0
 26
0.0
 36
1.0
 17
0.0
 27
0.0
 37
0.0
 40
594.0
 41
1.414141
 42
50.0
 43
0.0
 44
0.0
 50
0.0
 51
0.0
 71
    16
 72
   100
 73
     1
 74
     0
 75
     0
 76
     0
 77
     0
 78
     0
281
     0
 65
     0
110
0.0
120
0.0
130
0.0
111
1.0
121
0.0
131
0.0
112
0.0
122
1.0
132
0.0
 79
     0
146
0.0
  0
ENDTAB
  0
TABLE
  2
LTYPE
  5
5
330
0
100
AcDbSymbolTable
 70
     3
  0
LTYPE
  5
14
330
5
100
AcDbSymbolTableRecord
100
AcDbLinetypeTableRecord
  2
ByBlock
 70
     0
  3

 72
    65
 73
     0
 40
0.0
  0
LTYPE
  5
15
330
5
100
AcDbSymbolTableRecord
100
AcDbLinetypeTableRecord
  2
ByLayer
 70
     0
  3

 72
    65
 73
     0
 40
0.0
  0
LTYPE
  5
16
330
5
100
AcDbSymbolTableRecord
100
AcDbLinetypeTableRecord
  2
Continuous
 70
     0
  3
Solid line
 72
    65
 73
     0
 40
0.0
  0
LTYPE
  5
2A
330
5
100
AcDbSymbolTableRecord
100
AcDbLinetypeTableRecord
  2
DASHED
 70
     0
  3
__ __ __ __ __
 72
    65
 73
     2
 40
6.25
 49
5.0
 74
     4
 75
     0
340
0
 46
1.0
 50
0.0
 44
0.0
 45
0.0
 49
-1.25
 74
     4
 75
     0
340
0
 46
1.0
 50
0.0
 44
0.0
 45
0.0
  0
LTYPE
  5
35
330
5
100
AcDbSymbolTableRecord
100
AcDbLinetypeTableRecord
  2
CENTER
 70
     0
  3
__ . __ . __ . __ . __
 72
    65
 73
     4
 40
7.5
 49
5.0
 74
     4
 75
     0
340
0
 46
1.0
 50
0.0
 44
0.0
 45
0.0
 49
-1.25
 74
     4
 75
     0
340
0
 46
1.0
 50
0.0
 44
0.0
 45
0.0
 49
0.0
 74
     4
 75
     0
340
0
 46
1.0
 50
0.0
 44
0.0
 45
0.0
 49
-1.25
 74
     4
 75
     0
340
0
 46
1.0
 50
0.0
 44
0.0
 45
0.0
  0
ENDTAB
  0
TABLE
  2
LAYER
  5
2
330
0
100
AcDbSymbolTable
 70
    10
  0
LAYER
  5
10
330
2
100
AcDbSymbolTableRecord
100
AcDbLayerTableRecord
  2
0
 70
     0
 62
     7
  6
Continuous
370
    -3
390
F
  0
LAYER
  5
2B
330
2
100
AcDbSymbolTableRecord
100
AcDbLayerTableRecord
  2
LC-INFO-1-2-mm-A3-0
 70
     1
 62
     7
  6
ByBlock
370
    -3
390
F
  0
LAYER
  5
2C
330
2
100
AcDbSymbolTableRecord
100
AcDbLayerTableRecord
  2
LC-CUT-HIDDEN
 70
     0
 62
     7
  6
DASHED
370
    -3
390
F
  0
LAYER
  5
2D
330
2
100
AcDbSymbolTableRecord
100
AcDbLayerTableRecord
  2
LC-VIEWPORT
 70
     0
 62
     7
  6
ByBlock
370
    -3
390
F
  0
LAYER
  5
2E
330
2
100
AcDbSymbolTableRecord
100
AcDbLayerTableRecord
  2
LC-3D-HIDDEN
 70
     0
 62
     9
  6
DASHED
370
    -3
390
F
  0
LAYER
  5
30
330
2
100
AcDbSymbolTableRecord
100
AcDbLayerTableRecord
  2
LC-001-002-----0
 70
     0
 62
     1
  6
ByBlock
370
    -3
390
F
  0
LAYER
  5
36
330
2
100
AcDbSymbolTableRecord
100
AcDbLayerTableRecord
  2
LC-002-006-MLN-0
 70
     0
 62
     2
  6
CENTER
370
    -3
390
F
  0
LAYER
  5
50
330
2
100
AcDbSymbolTableRecord
100
AcDbLayerTableRecord
  2
LC-003-005-----0
 70
     0
 62
     2
  6
ByBlock
370
    -3
390
F
  0
LAYER
  5
A9
330
2
100
AcDbSymbolTableRecord
100
AcDbLayerTableRecord
  2
LC-004-003-----0
 70
     0
 62
     2
  6
ByBlock
370
    -3
390
F
  0
LAYER
  5
AB
330
2
100
AcDbSymbolTableRecord
100
AcDbLayerTableRecord
  2
Defpoints
 70
     0
 62
     7
  6
Continuous
290
     0
370
    -3
390
F
  0
ENDTAB
  0
TABLE
  2
STYLE
  5
3
330
0
100
AcDbSymbolTable
 70
     3
  0
STYLE
  5
11
330
3
100
AcDbSymbolTableRecord
100
AcDbTextStyleTableRecord
  2
Standard
 70
     0
 40
0.0
 41
1.0
 50
0.0
 71
     0
 42
2.5
  3
txt
  4

  0
STYLE
  5
2F
330
3
100
AcDbSymbolTableRecord
100
AcDbTextStyleTableRecord
  2
LCTX15-400-0-0-Arial
 70
     0
 40
0.0
 41
0.9
 50
0.0
 71
     0
 42
3.5
  3

  4

1001
ACAD
1000
Arial
1071
 16777218
  0
STYLE
  5
A7
330
3
100
AcDbSymbolTableRecord
100
AcDbTextStyleTableRecord
  2
LCTX15-400-0-0pDIN-Schrift
 70
     0
 40
2.5
 41
0.8
 50
15.0
 71
     0
 42
3.5
  3
STANDARD
  4

  0
ENDTAB
  0
TABLE
  2
VIEW
  5
6
330
0
100
AcDbSymbolTable
 70
     0
  0
ENDTAB
  0
TABLE
  2
UCS
  5
7
330
0
100
AcDbSymbolTable
 70
     0
  0
ENDTAB
  0
TABLE
  2
APPID
  5
9
330
0
100
AcDbSymbolTable
 70
     1
  0
APPID
  5
12
330
9
100
AcDbSymbolTableRecord
100
AcDbRegAppTableRecord
  2
ACAD
 70
     0
  0
ENDTAB
  0
TABLE
  2
DIMSTYLE
  5
A
330
0
100
AcDbSymbolTable
 70
     3
100
AcDbDimStyleTable
  0
DIMSTYLE
105
27
330
A
100
AcDbSymbolTableRecord
100
AcDbDimStyleTableRecord
  2
ISO-25
 70
     0
 41
2.5
 42
0.625
 43
3.75
 44
1.25
 73
     0
 74
     0
 77
     1
 78
     8
140
2.5
141
2.5
143
0.03937
147
0.625
171
     3
172
     1
271
     2
272
     2
274
     3
278
    44
283
     0
284
     8
340
11
  0
DIMSTYLE
105
A8
102
{ACAD_REACTORS
330
AA
330
B9
330
CA
102
}
330
A
100
AcDbSymbolTableRecord
100
AcDbDimStyleTableRecord
  2
LC-DIM-L-0140-01-02
 70
     0
 40
2.0
 41
14.0
 42
0.0
 43
7.5
 44
1.8
 73
     0
 74
     0
 77
     1
 78
     8
 79
     2
140
14.0
141
0.0
146
0.71
147
1.5
176
     2
177
     2
178
     2
179
     1
271
     1
278
    44
289
     1
340
A7
  0
DIMSTYLE
105
FA
102
{ACAD_REACTORS
330
FB
330
108
102
}
330
A
100
AcDbSymbolTableRecord
100
AcDbDimStyleTableRecord
  2
LC-DIM-L-0140-02-02
 70
     0
 40
2.0
 41
14.0
 42
0.0
 43
7.5
 44
1.8
 73
     0
 74
     0
 77
     1
 78
     8
 79
     2
140
14.0
141
0.0
146
0.71
147
1.5
176
     2
177
     2
178
     2
179
     2
271
     2
278
    44
289
     1
340
A7
  0
ENDTAB
  0
TABLE
  2
BLOCK_RECORD
  5
1
330
0
100
AcDbSymbolTable
 70
     9
  0
BLOCK_RECORD
  5
1F
330
1
100
AcDbSymbolTableRecord
100
AcDbBlockTableRecord
  2
*Model_Space
340
22
  0
BLOCK_RECORD
  5
1B
330
1
100
AcDbSymbolTableRecord
100
AcDbBlockTableRecord
  2
*Paper_Space
340
1E
  0
BLOCK_RECORD
  5
23
330
1
100
AcDbSymbolTableRecord
100
AcDbBlockTableRecord
  2
*Paper_Space0
340
26
  0
BLOCK_RECORD
  5
4D
330
1
100
AcDbSymbolTableRecord
100
AcDbBlockTableRecord
  2
*X11
340
0
102
{BLKREFS
331
80
102
}
  0
BLOCK_RECORD
  5
81
330
1
100
AcDbSymbolTableRecord
100
AcDbBlockTableRecord
  2
*X22
340
0
102
{BLKREFS
331
92
102
}
  0
BLOCK_RECORD
  5
93
330
1
100
AcDbSymbolTableRecord
100
AcDbBlockTableRecord
  2
*X33
340
0
102
{BLKREFS
331
A4
102
}
  0
BLOCK_RECORD
  5
AC
330
1
100
AcDbSymbolTableRecord
100
AcDbBlockTableRecord
  2
*D4
340
0
  0
BLOCK_RECORD
  5
BA
330
1
100
AcDbSymbolTableRecord
100
AcDbBlockTableRecord
  2
*D5
340
0
  0
BLOCK_RECORD
  5
CB
330
1
100
AcDbSymbolTableRecord
100
AcDbBlockTableRecord
  2
*D6
340
0
  0
BLOCK_RECORD
  5
FC
330
1
100
AcDbSymbolTableRecord
100
AcDbBlockTableRecord
  2
*D7
340
0
  0
BLOCK_RECORD
  5
109
330
1
100
AcDbSymbolTableRecord
100
AcDbBlockTableRecord
  2
*D8
340
0
  0
ENDTAB
  0
ENDSEC
  0
SECTION
  2
BLOCKS
  0
BLOCK
  5
20
330
1F
100
AcDbEntity
  8
0
100
AcDbBlockBegin
  2
*Model_Space
 70
     0
 71
     0
 10
0.0
 20
0.0
 30
0.0
  3
*Model_Space
  1

  0
ENDBLK
  5
21
330
1F
100
AcDbEntity
  8
0
100
AcDbBlockEnd
  0
BLOCK
  5
1C
330
1B
100
AcDbEntity
 67
     1
  8
0
100
AcDbBlockBegin
  2
*Paper_Space
 70
     0
 71
     0
 10
0.0
 20
0.0
 30
0.0
  3
*Paper_Space
  1

  0
ENDBLK
  5
1D
330
1B
100
AcDbEntity
 67
     1
  8
0
100
AcDbBlockEnd
  0
BLOCK
  5
24
330
23
100
AcDbEntity
  8
0
100
AcDbBlockBegin
  2
*Paper_Space0
 70
     0
 71
     0
 10
0.0
 20
0.0
 30
0.0
  3
*Paper_Space0
  1

  0
ENDBLK
  5
25
330
23
100
AcDbEntity
  8
0
100
AcDbBlockEnd
  0
BLOCK
  5
4E
330
4D
100
AcDbEntity
  8
0
100
AcDbBlockBegin
  2
*X11
 70
     1
 71
     0
 10
0.0
 20
0.0
 30
0.0
  3
*X11
  1

  4
*X1
  0
LINE
  5
51
330
4D
100
AcDbEntity
  8
LC-003-005-----0
 62
     7
370
    25
100
AcDbLine
 10
198.00323
 20
231.944355
 30
0.0
 11
198.047789
 21
231.988915
 31
0.0
  0
LINE
  5
52
330
4D
100
AcDbEntity
  8
LC-003-005-----0
 62
     7
370
    25
100
AcDbLine
 10
197.847789
 20
233.203128
 30
0.0
 11
198.047789
 21
233.403128
 31
0.0
  0
LINE
  5
53
330
4D
100
AcDbEntity
  8
LC-003-005-----0
 62
     7
370
    25
100
AcDbLine
 10
197.847789
 20
234.617342
 30
0.0
 11
198.047789
 21
234.817342
 31
0.0
  0
LINE
  5
54
330
4D
100
AcDbEntity
  8
LC-003-005-----0
 62
     7
370
    25
100
AcDbLine
 10
197.847789
 20
236.031555
 30
0.0
 11
198.047789
 21
236.231555
 31
0.0
  0
LINE
  5
55
330
4D
100
AcDbEntity
  8
LC-003-005-----0
 62
     7
370
    25
100
AcDbLine
 10
197.847789
 20
237.445769
 30
0.0
 11
198.047789
 21
237.645769
 31
0.0
  0
LINE
  5
56
330
4D
100
AcDbEntity
  8
LC-003-005-----0
 62
     7
370
    25
100
AcDbLine
 10
197.847789
 20
238.859983
 30
0.0
 11
198.047789
 21
239.059983
 31
0.0
  0
LINE
  5
57
330
4D
100
AcDbEntity
  8
LC-003-005-----0
 62
     7
370
    25
100
AcDbLine
 10
197.847789
 20
240.274196
 30
0.0
 11
198.047789
 21
240.474196
 31
0.0
  0
LINE
  5
58
330
4D
100
AcDbEntity
  8
LC-003-005-----0
 62
     7
370
    25
100
AcDbLine
 10
197.847789
 20
241.68841
 30
0.0
 11
198.047789
 21
241.88841
 31
0.0
  0
LINE
  5
59
330
4D
100
AcDbEntity
  8
LC-003-005-----0
 62
     7
370
    25
100
AcDbLine
 10
197.847789
 20
243.102623
 30
0.0
 11
198.047789
 21
243.302623
 31
0.0
  0
LINE
  5
5A
330
4D
100
AcDbEntity
  8
LC-003-005-----0
 62
     7
370
    25
100
AcDbLine
 10
197.847789
 20
244.516837
 30
0.0
 11
198.047789
 21
244.716837
 31
0.0
  0
LINE
  5
5B
330
4D
100
AcDbEntity
  8
LC-003-005-----0
 62
     7
370
    25
100
AcDbLine
 10
197.847789
 20
245.93105
 30
0.0
 11
198.047789
 21
246.13105
 31
0.0
  0
LINE
  5
5C
330
4D
100
AcDbEntity
  8
LC-003-005-----0
 62
     7
370
    25
100
AcDbLine
 10
197.847789
 20
247.345264
 30
0.0
 11
198.047789
 21
247.545264
 31
0.0
  0
LINE
  5
5D
330
4D
100
AcDbEntity
  8
LC-003-005-----0
 62
     7
370
    25
100
AcDbLine
 10
197.847789
 20
248.759477
 30
0.0
 11
198.047789
 21
248.959477
 31
0.0
  0
LINE
  5
5E
330
4D
100
AcDbEntity
  8
LC-003-005-----0
 62
     7
370
    25
100
AcDbLine
 10
197.847789
 20
250.173691
 30
0.0
 11
198.047789
 21
250.373691
 31
0.0
  0
LINE
  5
5F
330
4D
100
AcDbEntity
  8
LC-003-005-----0
 62
     7
370
    25
100
AcDbLine
 10
197.847789
 20
251.587905
 30
0.0
 11
198.047789
 21
251.787905
 31
0.0
  0
LINE
  5
60
330
4D
100
AcDbEntity
  8
LC-003-005-----0
 62
     7
370
    25
100
AcDbLine
 10
197.847789
 20
253.002118
 30
0.0
 11
198.047789
 21
253.202118
 31
0.0
  0
LINE
  5
61
330
4D
100
AcDbEntity
  8
LC-003-005-----0
 62
     7
370
    25
100
AcDbLine
 10
197.847789
 20
254.416332
 30
0.0
 11
198.047789
 21
254.616332
 31
0.0
  0
LINE
  5
62
330
4D
100
AcDbEntity
  8
LC-003-005-----0
 62
     7
370
    25
100
AcDbLine
 10
197.847789
 20
255.830545
 30
0.0
 11
198.047789
 21
256.030545
 31
0.0
  0
LINE
  5
63
330
4D
100
AcDbEntity
  8
LC-003-005-----0
 62
     7
370
    25
100
AcDbLine
 10
197.847789
 20
257.244759
 30
0.0
 11
198.047789
 21
257.444759
 31
0.0
  0
LINE
  5
64
330
4D
100
AcDbEntity
  8
LC-003-005-----0
 62
     7
370
    25
100
AcDbLine
 10
197.847789
 20
258.658972
 30
0.0
 11
198.047789
 21
258.858972
 31
0.0
  0
LINE
  5
65
330
4D
100
AcDbEntity
  8
LC-003-005-----0
 62
     7
370
    25
100
AcDbLine
 10
197.847789
 20
260.073186
 30
0.0
 11
198.047789
 21
260.273186
 31
0.0
  0
LINE
  5
66
330
4D
100
AcDbEntity
  8
LC-003-005-----0
 62
     7
370
    25
100
AcDbLine
 10
197.847789
 20
261.4874
 30
0.0
 11
198.047789
 21
261.6874
 31
0.0
  0
LINE
  5
67
330
4D
100
AcDbEntity
  8
LC-003-005-----0
 62
     7
370
    25
100
AcDbLine
 10
197.847789
 20
262.901613
 30
0.0
 11
198.047789
 21
263.101613
 31
0.0
  0
LINE
  5
68
330
4D
100
AcDbEntity
  8
LC-003-005-----0
 62
     7
370
    25
100
AcDbLine
 10
197.847789
 20
264.315827
 30
0.0
 11
197.976318
 21
264.444355
 31
0.0
  0
LINE
  5
69
330
4D
100
AcDbEntity
  8
LC-003-005-----0
 62
     7
370
    25
100
AcDbLine
 10
197.847789
 20
398.666115
 30
0.0
 11
198.047789
 21
398.866115
 31
0.0
  0
LINE
  5
6A
330
4D
100
AcDbEntity
  8
LC-003-005-----0
 62
     7
370
    25
100
AcDbLine
 10
197.847789
 20
400.080329
 30
0.0
 11
198.047789
 21
400.280329
 31
0.0
  0
LINE
  5
6B
330
4D
100
AcDbEntity
  8
LC-003-005-----0
 62
     7
370
    25
100
AcDbLine
 10
197.847789
 20
401.494542
 30
0.0
 11
198.047789
 21
401.694542
 31
0.0
  0
LINE
  5
6C
330
4D
100
AcDbEntity
  8
LC-003-005-----0
 62
     7
370
    25
100
AcDbLine
 10
197.847789
 20
402.908756
 30
0.0
 11
198.047789
 21
403.108756
 31
0.0
  0
LINE
  5
6D
330
4D
100
AcDbEntity
  8
LC-003-005-----0
 62
     7
370
    25
100
AcDbLine
 10
197.847789
 20
404.322969
 30
0.0
 11
198.047789
 21
404.522969
 31
0.0
  0
LINE
  5
6E
330
4D
100
AcDbEntity
  8
LC-003-005-----0
 62
     7
370
    25
100
AcDbLine
 10
197.847789
 20
405.737183
 30
0.0
 11
198.047789
 21
405.937183
 31
0.0
  0
LINE
  5
6F
330
4D
100
AcDbEntity
  8
LC-003-005-----0
 62
     7
370
    25
100
AcDbLine
 10
197.847789
 20
407.151396
 30
0.0
 11
198.047789
 21
407.351396
 31
0.0
  0
LINE
  5
70
330
4D
100
AcDbEntity
  8
LC-003-005-----0
 62
     7
370
    25
100
AcDbLine
 10
197.847789
 20
408.56561
 30
0.0
 11
198.047789
 21
408.76561
 31
0.0
  0
LINE
  5
71
330
4D
100
AcDbEntity
  8
LC-003-005-----0
 62
     7
370
    25
100
AcDbLine
 10
197.847789
 20
409.979824
 30
0.0
 11
198.047789
 21
410.179824
 31
0.0
  0
LINE
  5
72
330
4D
100
AcDbEntity
  8
LC-003-005-----0
 62
     7
370
    25
100
AcDbLine
 10
197.847789
 20
411.394037
 30
0.0
 11
198.047789
 21
411.594037
 31
0.0
  0
LINE
  5
73
330
4D
100
AcDbEntity
  8
LC-003-005-----0
 62
     7
370
    25
100
AcDbLine
 10
197.847789
 20
412.808251
 30
0.0
 11
198.047789
 21
413.008251
 31
0.0
  0
LINE
  5
74
330
4D
100
AcDbEntity
  8
LC-003-005-----0
 62
     7
370
    25
100
AcDbLine
 10
197.847789
 20
414.222464
 30
0.0
 11
198.047789
 21
414.422464
 31
0.0
  0
LINE
  5
75
330
4D
100
AcDbEntity
  8
LC-003-005-----0
 62
     7
370
    25
100
AcDbLine
 10
197.847789
 20
415.636678
 30
0.0
 11
198.047789
 21
415.836678
 31
0.0
  0
LINE
  5
76
330
4D
100
AcDbEntity
  8
LC-003-005-----0
 62
     7
370
    25
100
AcDbLine
 10
197.847789
 20
417.050891
 30
0.0
 11
198.047789
 21
417.250891
 31
0.0
  0
LINE
  5
77
330
4D
100
AcDbEntity
  8
LC-003-005-----0
 62
     7
370
    25
100
AcDbLine
 10
197.847789
 20
418.465105
 30
0.0
 11
198.047789
 21
418.665105
 31
0.0
  0
LINE
  5
78
330
4D
100
AcDbEntity
  8
LC-003-005-----0
 62
     7
370
    25
100
AcDbLine
 10
197.847789
 20
419.879319
 30
0.0
 11
198.047789
 21
420.079319
 31
0.0
  0
LINE
  5
79
330
4D
100
AcDbEntity
  8
LC-003-005-----0
 62
     7
370
    25
100
AcDbLine
 10
197.847789
 20
421.293532
 30
0.0
 11
198.047789
 21
421.493532
 31
0.0
  0
LINE
  5
7A
330
4D
100
AcDbEntity
  8
LC-003-005-----0
 62
     7
370
    25
100
AcDbLine
 10
197.847789
 20
422.707746
 30
0.0
 11
198.047789
 21
422.907746
 31
0.0
  0
LINE
  5
7B
330
4D
100
AcDbEntity
  8
LC-003-005-----0
 62
     7
370
    25
100
AcDbLine
 10
197.847789
 20
424.121959
 30
0.0
 11
198.047789
 21
424.321959
 31
0.0
  0
LINE
  5
7C
330
4D
100
AcDbEntity
  8
LC-003-005-----0
 62
     7
370
    25
100
AcDbLine
 10
197.847789
 20
425.536173
 30
0.0
 11
198.047789
 21
425.736173
 31
0.0
  0
LINE
  5
7D
330
4D
100
AcDbEntity
  8
LC-003-005-----0
 62
     7
370
    25
100
AcDbLine
 10
197.847789
 20
426.950386
 30
0.0
 11
198.047789
 21
427.150386
 31
0.0
  0
LINE
  5
7E
330
4D
100
AcDbEntity
  8
LC-003-005-----0
 62
     7
370
    25
100
AcDbLine
 10
197.847789
 20
428.3646
 30
0.0
 11
198.047789
 21
428.5646
 31
0.0
  0
LINE
  5
7F
330
4D
100
AcDbEntity
  8
LC-003-005-----0
 62
     7
370
    25
100
AcDbLine
 10
197.847789
 20
429.778813
 30
0.0
 11
198.047789
 21
429.978813
 31
0.0
  0
ENDBLK
  5
4F
330
4D
100
AcDbEntity
  8
0
100
AcDbBlockEnd
  0
BLOCK
  5
82
330
81
100
AcDbEntity
  8
0
100
AcDbBlockBegin
  2
*X22
 70
     1
 71
     0
 10
0.0
 20
0.0
 30
0.0
  3
*X22
  1

  4
*X2
  0
LINE
  5
84
330
81
100
AcDbEntity
  8
LC-003-005-----0
 62
     7
370
    25
100
AcDbLine
 10
202.24612
 20
264.444355
 30
0.0
 11
200.49612
 21
266.194355
 31
0.0
  0
LINE
  5
85
330
81
100
AcDbEntity
  8
LC-003-005-----0
 62
     7
370
    25
100
AcDbLine
 10
200.047789
 20
263.814259
 30
0.0
 11
197.667693
 21
266.194355
 31
0.0
  0
LINE
  5
86
330
81
100
AcDbEntity
  8
LC-003-005-----0
 62
     7
370
    25
100
AcDbLine
 10
200.047789
 20
260.985832
 30
0.0
 11
198.047789
 21
262.985832
 31
0.0
  0
LINE
  5
87
330
81
100
AcDbEntity
  8
LC-003-005-----0
 62
     7
370
    25
100
AcDbLine
 10
196.589266
 20
264.444355
 30
0.0
 11
195.547789
 21
265.485832
 31
0.0
  0
LINE
  5
88
330
81
100
AcDbEntity
  8
LC-003-005-----0
 62
     7
370
    25
100
AcDbLine
 10
200.047789
 20
258.157405
 30
0.0
 11
198.047789
 21
260.157405
 31
0.0
  0
LINE
  5
89
330
81
100
AcDbEntity
  8
LC-003-005-----0
 62
     7
370
    25
100
AcDbLine
 10
200.047789
 20
255.328978
 30
0.0
 11
198.047789
 21
257.328978
 31
0.0
  0
LINE
  5
8A
330
81
100
AcDbEntity
  8
LC-003-005-----0
 62
     7
370
    25
100
AcDbLine
 10
200.047789
 20
252.500551
 30
0.0
 11
198.047789
 21
254.500551
 31
0.0
  0
LINE
  5
8B
330
81
100
AcDbEntity
  8
LC-003-005-----0
 62
     7
370
    25
100
AcDbLine
 10
200.047789
 20
249.672124
 30
0.0
 11
198.047789
 21
251.672124
 31
0.0
  0
LINE
  5
8C
330
81
100
AcDbEntity
  8
LC-003-005-----0
 62
     7
370
    25
100
AcDbLine
 10
200.047789
 20
246.843696
 30
0.0
 11
198.047789
 21
248.843696
 31
0.0
  0
LINE
  5
8D
330
81
100
AcDbEntity
  8
LC-003-005-----0
 62
     7
370
    25
100
AcDbLine
 10
200.047789
 20
244.015269
 30
0.0
 11
198.047789
 21
246.015269
 31
0.0
  0
LINE
  5
8E
330
81
100
AcDbEntity
  8
LC-003-005-----0
 62
     7
370
    25
100
AcDbLine
 10
200.047789
 20
241.186842
 30
0.0
 11
198.047789
 21
243.186842
 31
0.0
  0
LINE
  5
8F
330
81
100
AcDbEntity
  8
LC-003-005-----0
 62
     7
370
    25
100
AcDbLine
 10
200.047789
 20
238.358415
 30
0.0
 11
198.047789
 21
240.358415
 31
0.0
  0
LINE
  5
90
330
81
100
AcDbEntity
  8
LC-003-005-----0
 62
     7
370
    25
100
AcDbLine
 10
200.047789
 20
235.529988
 30
0.0
 11
198.047789
 21
237.529988
 31
0.0
  0
LINE
  5
91
330
81
100
AcDbEntity
  8
LC-003-005-----0
 62
     7
370
    25
100
AcDbLine
 10
200.047789
 20
232.701561
 30
0.0
 11
198.047789
 21
234.701561
 31
0.0
  0
ENDBLK
  5
83
330
81
100
AcDbEntity
  8
0
100
AcDbBlockEnd
  0
BLOCK
  5
94
330
93
100
AcDbEntity
  8
0
100
AcDbBlockBegin
  2
*X33
 70
     1
 71
     0
 10
0.0
 20
0.0
 30
0.0
  3
*X33
  1

  4
*X3
  0
LINE
  5
96
330
93
100
AcDbEntity
  8
LC-003-005-----0
 62
     7
370
    25
100
AcDbLine
 10
200.047789
 20
427.863032
 30
0.0
 11
198.047789
 21
429.863032
 31
0.0
  0
LINE
  5
97
330
93
100
AcDbEntity
  8
LC-003-005-----0
 62
     7
370
    25
100
AcDbLine
 10
200.047789
 20
425.034605
 30
0.0
 11
198.047789
 21
427.034605
 31
0.0
  0
LINE
  5
98
330
93
100
AcDbEntity
  8
LC-003-005-----0
 62
     7
370
    25
100
AcDbLine
 10
200.047789
 20
422.206178
 30
0.0
 11
198.047789
 21
424.206178
 31
0.0
  0
LINE
  5
99
330
93
100
AcDbEntity
  8
LC-003-005-----0
 62
     7
370
    25
100
AcDbLine
 10
200.047789
 20
419.377751
 30
0.0
 11
198.047789
 21
421.377751
 31
0.0
  0
LINE
  5
9A
330
93
100
AcDbEntity
  8
LC-003-005-----0
 62
     7
370
    25
100
AcDbLine
 10
200.047789
 20
416.549324
 30
0.0
 11
198.047789
 21
418.549324
 31
0.0
  0
LINE
  5
9B
330
93
100
AcDbEntity
  8
LC-003-005-----0
 62
     7
370
    25
100
AcDbLine
 10
200.047789
 20
413.720897
 30
0.0
 11
198.047789
 21
415.720897
 31
0.0
  0
LINE
  5
9C
330
93
100
AcDbEntity
  8
LC-003-005-----0
 62
     7
370
    25
100
AcDbLine
 10
200.047789
 20
410.89247
 30
0.0
 11
198.047789
 21
412.89247
 31
0.0
  0
LINE
  5
9D
330
93
100
AcDbEntity
  8
LC-003-005-----0
 62
     7
370
    25
100
AcDbLine
 10
200.047789
 20
408.064043
 30
0.0
 11
198.047789
 21
410.064043
 31
0.0
  0
LINE
  5
9E
330
93
100
AcDbEntity
  8
LC-003-005-----0
 62
     7
370
    25
100
AcDbLine
 10
200.047789
 20
405.235615
 30
0.0
 11
198.047789
 21
407.235615
 31
0.0
  0
LINE
  5
9F
330
93
100
AcDbEntity
  8
LC-003-005-----0
 62
     7
370
    25
100
AcDbLine
 10
200.047789
 20
402.407188
 30
0.0
 11
198.047789
 21
404.407188
 31
0.0
  0
LINE
  5
A0
330
93
100
AcDbEntity
  8
LC-003-005-----0
 62
     7
370
    25
100
AcDbLine
 10
202.547789
 20
397.078761
 30
0.0
 11
201.682195
 21
397.944355
 31
0.0
  0
LINE
  5
A1
330
93
100
AcDbEntity
  8
LC-003-005-----0
 62
     7
370
    25
100
AcDbLine
 10
200.047789
 20
399.578761
 30
0.0
 11
198.047789
 21
401.578761
 31
0.0
  0
LINE
  5
A2
330
93
100
AcDbEntity
  8
LC-003-005-----0
 62
     7
370
    25
100
AcDbLine
 10
200.603768
 20
396.194355
 30
0.0
 11
198.047789
 21
398.750334
 31
0.0
  0
LINE
  5
A3
330
93
100
AcDbEntity
  8
LC-003-005-----0
 62
     7
370
    25
100
AcDbLine
 10
197.775341
 20
396.194355
 30
0.0
 11
196.025341
 21
397.944355
 31
0.0
  0
ENDBLK
  5
95
330
93
100
AcDbEntity
  8
0
100
AcDbBlockEnd
  0
BLOCK
  5
B7
330
AC
100
AcDbEntity
  8
0
100
AcDbBlockBegin
  2
*D4
 70
     1
 71
     0
 10
0.0
 20
0.0
 30
0.0
  3
*D4
  1

  0
LINE
  5
AD
330
AC
100
AcDbEntity
  8
LC-004-003-----0
 62
     2
370
    -2
100
AcDbLine
 10
195.547789
 20
264.444355
 30
0.0
 11
195.547789
 21
170.116398
 31
0.0
  0
LINE
  5
AE
330
AC
100
AcDbEntity
  8
LC-004-003-----0
 62
     2
370
    -2
100
AcDbLine
 10
202.547789
 20
264.444355
 30
0.0
 11
202.547789
 21
170.116398
 31
0.0
  0
LINE
  5
AF
330
AC
100
AcDbEntity
  8
LC-004-003-----0
 62
     2
370
    -2
100
AcDbLine
 10
167.547789
 20
173.716398
 30
0.0
 11
139.547789
 21
173.716398
 31
0.0
  0
LINE
  5
B0
330
AC
100
AcDbEntity
  8
LC-004-003-----0
 62
     2
370
    -2
100
AcDbLine
 10
230.547789
 20
173.716398
 30
0.0
 11
256.750892
 21
173.716398
 31
0.0
  0
SOLID
  5
B1
330
AC
100
AcDbEntity
  8
LC-004-003-----0
 62
     2
100
AcDbTrace
 10
167.547789
 20
169.049731
 30
0.0
 11
167.547789
 21
178.383064
 31
0.0
 12
195.547789
 22
173.716398
 32
0.0
 13
195.547789
 23
173.716398
 33
0.0
  0
SOLID
  5
B2
330
AC
100
AcDbEntity
  8
LC-004-003-----0
 62
     2
100
AcDbTrace
 10
230.547789
 20
178.383064
 30
0.0
 11
230.547789
 21
169.049731
 31
0.0
 12
202.547789
 22
173.716398
 32
0.0
 13
202.547789
 23
173.716398
 33
0.0
  0
MTEXT
  5
B3
330
AC
100
AcDbEntity
  8
LC-004-003-----0
 62
     2
100
AcDbMText
 10
244.66627
 20
204.516398
 30
0.0
 40
28.0
 41
0.0
 71
     5
 72
     1
  1
\A1;7
  7
LCTX15-400-0-0pDIN-Schrift
 73
     1
 44
1.0
  0
POINT
  5
B4
330
AC
100
AcDbEntity
  8
Defpoints
 62
     0
100
AcDbPoint
 10
195.547789
 20
264.444355
 30
0.0
  0
POINT
  5
B5
330
AC
100
AcDbEntity
  8
Defpoints
 62
     0
100
AcDbPoint
 10
202.547789
 20
264.444355
 30
0.0
  0
POINT
  5
B6
330
AC
100
AcDbEntity
  8
Defpoints
 62
     0
100
AcDbPoint
 10
202.547789
 20
173.716398
 30
0.0
  0
ENDBLK
  5
B8
330
AC
100
AcDbEntity
  8
0
100
AcDbBlockEnd
  0
BLOCK
  5
C5
330
BA
100
AcDbEntity
  8
0
100
AcDbBlockBegin
  2
*D5
 70
     1
 71
     0
 10
0.0
 20
0.0
 30
0.0
  3
*D5
  1

  0
LINE
  5
BB
330
BA
100
AcDbEntity
  8
LC-004-003-----0
 62
     2
370
    -2
100
AcDbLine
 10
200.047789
 20
231.944355
 30
0.0
 11
200.047789
 21
221.200398
 31
0.0
  0
LINE
  5
BC
330
BA
100
AcDbEntity
  8
LC-004-003-----0
 62
     2
370
    -2
100
AcDbLine
 10
197.847789
 20
231.944355
 30
0.0
 11
197.847789
 21
221.200398
 31
0.0
  0
LINE
  5
BD
330
BA
100
AcDbEntity
  8
LC-004-003-----0
 62
     2
370
    -2
100
AcDbLine
 10
169.847789
 20
224.800398
 30
0.0
 11
141.847789
 21
224.800398
 31
0.0
  0
LINE
  5
BE
330
BA
100
AcDbEntity
  8
LC-004-003-----0
 62
     2
370
    -2
100
AcDbLine
 10
228.047789
 20
224.800398
 30
0.0
 11
271.498456
 21
224.800398
 31
0.0
  0
SOLID
  5
BF
330
BA
100
AcDbEntity
  8
LC-004-003-----0
 62
     2
100
AcDbTrace
 10
228.047789
 20
229.467064
 30
0.0
 11
228.047789
 21
220.133731
 31
0.0
 12
200.047789
 22
224.800398
 32
0.0
 13
200.047789
 23
224.800398
 33
0.0
  0
SOLID
  5
C0
330
BA
100
AcDbEntity
  8
LC-004-003-----0
 62
     2
100
AcDbTrace
 10
169.847789
 20
220.133731
 30
0.0
 11
169.847789
 21
229.467064
 31
0.0
 12
197.847789
 22
224.800398
 32
0.0
 13
197.847789
 23
224.800398
 33
0.0
  0
MTEXT
  5
C1
330
BA
100
AcDbEntity
  8
LC-004-003-----0
 62
     2
100
AcDbMText
 10
242.528365
 20
255.600398
 30
0.0
 40
28.0
 41
0.0
 71
     5
 72
     1
  1
\A1;2,2
  7
LCTX15-400-0-0pDIN-Schrift
 73
     1
 44
1.0
  0
POINT
  5
C2
330
BA
100
AcDbEntity
  8
Defpoints
 62
     0
100
AcDbPoint
 10
200.047789
 20
231.944355
 30
0.0
  0
POINT
  5
C3
330
BA
100
AcDbEntity
  8
Defpoints
 62
     0
100
AcDbPoint
 10
197.847789
 20
231.944355
 30
0.0
  0
POINT
  5
C4
330
BA
100
AcDbEntity
  8
Defpoints
 62
     0
100
AcDbPoint
 10
197.847789
 20
224.800398
 30
0.0
  0
ENDBLK
  5
C6
330
BA
100
AcDbEntity
  8
0
100
AcDbBlockEnd
  0
BLOCK
  5
D5
330
CB
100
AcDbEntity
  8
0
100
AcDbBlockBegin
  2
*D6
 70
     1
 71
     0
 10
0.0
 20
0.0
 30
0.0
  3
*D6
  1

  0
LINE
  5
CC
330
CB
100
AcDbEntity
  8
LC-004-003-----0
 62
     2
370
    -2
100
AcDbLine
 10
195.547789
 20
264.444355
 30
0.0
 11
142.095099
 21
264.444355
 31
0.0
  0
LINE
  5
CD
330
CB
100
AcDbEntity
  8
LC-004-003-----0
 62
     2
370
    -2
100
AcDbLine
 10
195.547789
 20
397.944355
 30
0.0
 11
142.095099
 21
397.944355
 31
0.0
  0
LINE
  5
CE
330
CB
100
AcDbEntity
  8
LC-004-003-----0
 62
     2
370
    -2
100
AcDbLine
 10
145.695099
 20
292.444355
 30
0.0
 11
145.695099
 21
369.944355
 31
0.0
  0
SOLID
  5
CF
330
CB
100
AcDbEntity
  8
LC-004-003-----0
 62
     2
100
AcDbTrace
 10
141.028432
 20
292.444355
 30
0.0
 11
150.361765
 21
292.444355
 31
0.0
 12
145.695099
 22
264.444355
 32
0.0
 13
145.695099
 23
264.444355
 33
0.0
  0
SOLID
  5
D0
330
CB
100
AcDbEntity
  8
LC-004-003-----0
 62
     2
100
AcDbTrace
 10
150.361765
 20
369.944355
 30
0.0
 11
141.028432
 21
369.944355
 31
0.0
 12
145.695099
 22
397.944355
 32
0.0
 13
145.695099
 23
397.944355
 33
0.0
  0
MTEXT
  5
D1
330
CB
100
AcDbEntity
  8
LC-004-003-----0
 62
     2
100
AcDbMText
 10
114.895099
 20
331.194355
 30
0.0
 40
28.0
 41
0.0
 71
     5
 72
     1
  1
%%c\A1;133,5
  7
LCTX15-400-0-0pDIN-Schrift
 11
6.123031769111886E-17
 21
1.0
 31
0.0
 73
     1
 44
1.0
  0
POINT
  5
D2
330
CB
100
AcDbEntity
  8
Defpoints
 62
     0
100
AcDbPoint
 10
195.547789
 20
264.444355
 30
0.0
  0
POINT
  5
D3
330
CB
100
AcDbEntity
  8
Defpoints
 62
     0
100
AcDbPoint
 10
195.547789
 20
397.944355
 30
0.0
  0
POINT
  5
D4
330
CB
100
AcDbEntity
  8
Defpoints
 62
     0
100
AcDbPoint
 10
145.695099
 20
397.944355
 30
0.0
  0
ENDBLK
  5
D6
330
CB
100
AcDbEntity
  8
0
100
AcDbBlockEnd
  0
BLOCK
  5
106
330
FC
100
AcDbEntity
  8
0
100
AcDbBlockBegin
  2
*D7
 70
     1
 71
     0
 10
0.0
 20
0.0
 30
0.0
  3
*D7
  1

  0
LINE
  5
FD
330
FC
100
AcDbEntity
  8
LC-004-003-----0
 62
     2
370
    -2
100
AcDbLine
 10
349.736687
 20
331.194355
 30
0.0
 11
349.736687
 21
459.466398
 31
0.0
  0
LINE
  5
FE
330
FC
100
AcDbEntity
  8
LC-004-003-----0
 62
     2
370
    -2
100
AcDbLine
 10
548.236687
 20
331.194355
 30
0.0
 11
548.236687
 21
459.466398
 31
0.0
  0
LINE
  5
FF
330
FC
100
AcDbEntity
  8
LC-004-003-----0
 62
     2
370
    -2
100
AcDbLine
 10
377.736687
 20
455.866398
 30
0.0
 11
520.236687
 21
455.866398
 31
0.0
  0
SOLID
  5
100
330
FC
100
AcDbEntity
  8
LC-004-003-----0
 62
     2
100
AcDbTrace
 10
377.736687
 20
460.533064
 30
0.0
 11
377.736687
 21
451.199731
 31
0.0
 12
349.736687
 22
455.866398
 32
0.0
 13
349.736687
 23
455.866398
 33
0.0
  0
SOLID
  5
101
330
FC
100
AcDbEntity
  8
LC-004-003-----0
 62
     2
100
AcDbTrace
 10
520.236687
 20
451.199731
 30
0.0
 11
520.236687
 21
460.533064
 31
0.0
 12
548.236687
 22
455.866398
 32
0.0
 13
548.236687
 23
455.866398
 33
0.0
  0
MTEXT
  5
102
330
FC
100
AcDbEntity
  8
LC-004-003-----0
 62
     2
100
AcDbMText
 10
448.986687
 20
486.666398
 30
0.0
 40
28.0
 41
0.0
 71
     5
 72
     1
  1
\A1;198,5
  7
LCTX15-400-0-0pDIN-Schrift
 73
     1
 44
1.0
  0
POINT
  5
103
330
FC
100
AcDbEntity
  8
Defpoints
 62
     0
100
AcDbPoint
 10
349.736687
 20
331.194355
 30
0.0
  0
POINT
  5
104
330
FC
100
AcDbEntity
  8
Defpoints
 62
     0
100
AcDbPoint
 10
548.236687
 20
331.194355
 30
0.0
  0
POINT
  5
105
330
FC
100
AcDbEntity
  8
Defpoints
 62
     0
100
AcDbPoint
 10
548.236687
 20
455.866398
 30
0.0
  0
ENDBLK
  5
107
330
FC
100
AcDbEntity
  8
0
100
AcDbBlockEnd
  0
BLOCK
  5
113
330
109
100
AcDbEntity
  8
0
100
AcDbBlockBegin
  2
*D8
 70
     1
 71
     0
 10
0.0
 20
0.0
 30
0.0
  3
*D8
  1

  0
LINE
  5
10A
330
109
100
AcDbEntity
  8
LC-004-003-----0
 62
     2
370
    -2
100
AcDbLine
 10
202.547789
 20
395.694355
 30
0.0
 11
260.607413
 21
395.694355
 31
0.0
  0
LINE
  5
10B
330
109
100
AcDbEntity
  8
LC-004-003-----0
 62
     2
370
    -2
100
AcDbLine
 10
202.547789
 20
266.694355
 30
0.0
 11
260.607413
 21
266.694355
 31
0.0
  0
LINE
  5
10C
330
109
100
AcDbEntity
  8
LC-004-003-----0
 62
     2
370
    -2
100
AcDbLine
 10
257.007413
 20
367.694355
 30
0.0
 11
257.007413
 21
294.694355
 31
0.0
  0
SOLID
  5
10D
330
109
100
AcDbEntity
  8
LC-004-003-----0
 62
     2
100
AcDbTrace
 10
261.67408
 20
367.694355
 30
0.0
 11
252.340746
 21
367.694355
 31
0.0
 12
257.007413
 22
395.694355
 32
0.0
 13
257.007413
 23
395.694355
 33
0.0
  0
SOLID
  5
10E
330
109
100
AcDbEntity
  8
LC-004-003-----0
 62
     2
100
AcDbTrace
 10
252.340746
 20
294.694355
 30
0.0
 11
261.67408
 21
294.694355
 31
0.0
 12
257.007413
 22
266.694355
 32
0.0
 13
257.007413
 23
266.694355
 33
0.0
  0
MTEXT
  5
10F
330
109
100
AcDbEntity
  8
LC-004-003-----0
 62
     2
100
AcDbMText
 10
226.207413
 20
331.194355
 30
0.0
 40
28.0
 41
0.0
 71
     5
 72
     1
  1
%%c\A1;129
  7
LCTX15-400-0-0pDIN-Schrift
 11
6.123031769111886E-17
 21
1.0
 31
0.0
 73
     1
 44
1.0
  0
POINT
  5
110
330
109
100
AcDbEntity
  8
Defpoints
 62
     0
100
AcDbPoint
 10
202.547789
 20
395.694355
 30
0.0
  0
POINT
  5
111
330
109
100
AcDbEntity
  8
Defpoints
 62
     0
100
AcDbPoint
 10
202.547789
 20
266.694355
 30
0.0
  0
POINT
  5
112
330
109
100
AcDbEntity
  8
Defpoints
 62
     0
100
AcDbPoint
 10
257.007413
 20
266.694355
 30
0.0
  0
ENDBLK
  5
114
330
109
100
AcDbEntity
  8
0
100
AcDbBlockEnd
  0
ENDSEC
  0
SECTION
  2
ENTITIES
  0
LINE
  5
31
102
{ACAD_REACTORS
330
116
102
}
330
1F
100
AcDbEntity
  8
LC-001-002-----0
 62
     7
370
    50
100
AcDbLine
 10
198.047789
 20
231.944355
 30
0.0
 11
198.047789
 21
264.444355
 31
0.0
  0
LINE
  5
32
102
{ACAD_REACTORS
330
116
102
}
330
1F
100
AcDbEntity
  8
LC-001-002-----0
 62
     7
370
    50
100
AcDbLine
 10
200.047789
 20
231.944355
 30
0.0
 11
200.047789
 21
264.444355
 31
0.0
  0
LINE
  5
33
102
{ACAD_REACTORS
330
116
102
}
330
1F
100
AcDbEntity
  8
LC-001-002-----0
 62
     7
370
    50
100
AcDbLine
 10
198.047789
 20
231.944355
 30
0.0
 11
200.047789
 21
231.944355
 31
0.0
  0
LINE
  5
34
102
{ACAD_REACTORS
330
116
102
}
330
1F
100
AcDbEntity
  8
LC-001-002-----0
 62
     7
370
    50
100
AcDbLine
 10
198.047789
 20
430.444355
 30
0.0
 11
200.047789
 21
430.444355
 31
0.0
  0
LINE
  5
37
102
{ACAD_REACTORS
330
116
102
}
330
1F
100
AcDbEntity
  8
LC-002-006-MLN-0
 62
     7
370
    25
100
AcDbLine
 10
185.547789
 20
331.194355
 30
0.0
 11
212.547789
 21
331.194355
 31
0.0
  0
LINE
  5
38
102
{ACAD_REACTORS
330
116
102
}
330
1F
100
AcDbEntity
  8
LC-001-002-----0
 62
     7
370
    50
100
AcDbLine
 10
195.547789
 20
396.194355
 30
0.0
 11
202.547789
 21
396.194355
 31
0.0
  0
LINE
  5
39
102
{ACAD_REACTORS
330
116
102
}
330
1F
100
AcDbEntity
  8
LC-001-002-----0
 62
     7
370
    50
100
AcDbLine
 10
195.547789
 20
266.194355
 30
0.0
 11
202.547789
 21
266.194355
 31
0.0
  0
LINE
  5
3A
102
{ACAD_REACTORS
330
116
102
}
330
1F
100
AcDbEntity
  8
LC-001-002-----0
 62
     7
370
    50
100
AcDbLine
 10
195.547789
 20
264.444355
 30
0.0
 11
195.547789
 21
397.944355
 31
0.0
  0
LINE
  5
3B
102
{ACAD_REACTORS
330
116
102
}
330
1F
100
AcDbEntity
  8
LC-001-002-----0
 62
     7
370
    50
100
AcDbLine
 10
202.547789
 20
264.444355
 30
0.0
 11
202.547789
 21
397.944355
 31
0.0
  0
LINE
  5
3C
102
{ACAD_REACTORS
330
116
102
}
330
1F
100
AcDbEntity
  8
LC-001-002-----0
 62
     7
370
    50
100
AcDbLine
 10
200.047789
 20
397.944355
 30
0.0
 11
202.547789
 21
397.944355
 31
0.0
  0
LINE
  5
3D
102
{ACAD_REACTORS
330
116
102
}
330
1F
100
AcDbEntity
  8
LC-001-002-----0
 62
     7
370
    50
100
AcDbLine
 10
200.047789
 20
264.444355
 30
0.0
 11
202.547789
 21
264.444355
 31
0.0
  0
LINE
  5
3E
102
{ACAD_REACTORS
330
116
102
}
330
1F
100
AcDbEntity
  8
LC-001-002-----0
 62
     7
370
    50
100
AcDbLine
 10
195.547789
 20
264.444355
 30
0.0
 11
198.047789
 21
264.444355
 31
0.0
  0
LINE
  5
3F
102
{ACAD_REACTORS
330
116
102
}
330
1F
100
AcDbEntity
  8
LC-001-002-----0
 62
     7
370
    50
100
AcDbLine
 10
198.047789
 20
397.944355
 30
0.0
 11
198.047789
 21
430.444355
 31
0.0
  0
LINE
  5
40
102
{ACAD_REACTORS
330
116
102
}
330
1F
100
AcDbEntity
  8
LC-001-002-----0
 62
     7
370
    50
100
AcDbLine
 10
200.047789
 20
397.944355
 30
0.0
 11
200.047789
 21
430.444355
 31
0.0
  0
LINE
  5
41
102
{ACAD_REACTORS
330
115
102
}
330
1F
100
AcDbEntity
  8
LC-001-002-----0
 62
     7
370
    50
100
AcDbLine
 10
197.847789
 20
264.244355
 30
0.0
 11
197.847789
 21
264.244355
 31
0.0
  0
LINE
  5
42
102
{ACAD_REACTORS
330
115
102
}
330
1F
100
AcDbEntity
  8
LC-001-002-----0
 62
     7
370
    50
100
AcDbLine
 10
197.847789
 20
398.144355
 30
0.0
 11
197.847789
 21
398.144355
 31
0.0
  0
LINE
  5
43
102
{ACAD_REACTORS
330
116
102
}
330
1F
100
AcDbEntity
  8
LC-001-002-----0
 62
     7
370
    50
100
AcDbLine
 10
195.547789
 20
397.944355
 30
0.0
 11
198.047789
 21
397.944355
 31
0.0
  0
LINE
  5
44
102
{ACAD_REACTORS
330
115
102
}
330
1F
100
AcDbEntity
  8
LC-001-002-----0
 62
     7
370
    50
100
AcDbLine
 10
197.847789
 20
430.444355
 30
0.0
 11
197.847789
 21
398.144355
 31
0.0
  0
LINE
  5
45
102
{ACAD_REACTORS
330
115
102
}
330
1F
100
AcDbEntity
  8
LC-001-002-----0
 62
     7
370
    50
100
AcDbLine
 10
198.047789
 20
231.944355
 30
0.0
 11
198.047789
 21
264.444355
 31
0.0
  0
LINE
  5
46
102
{ACAD_REACTORS
330
115
102
}
330
1F
100
AcDbEntity
  8
LC-001-002-----0
 62
     7
370
    50
100
AcDbLine
 10
197.847789
 20
231.944355
 30
0.0
 11
198.047789
 21
231.944355
 31
0.0
  0
LINE
  5
47
102
{ACAD_REACTORS
330
115
102
}
330
1F
100
AcDbEntity
  8
LC-001-002-----0
 62
     7
370
    50
100
AcDbLine
 10
197.847789
 20
264.444355
 30
0.0
 11
198.047789
 21
264.444355
 31
0.0
  0
LINE
  5
48
102
{ACAD_REACTORS
330
115
102
}
330
1F
100
AcDbEntity
  8
LC-001-002-----0
 62
     7
370
    50
100
AcDbLine
 10
197.847789
 20
264.244355
 30
0.0
 11
197.847789
 21
264.444355
 31
0.0
  0
LINE
  5
49
102
{ACAD_REACTORS
330
115
102
}
330
1F
100
AcDbEntity
  8
LC-001-002-----0
 62
     7
370
    50
100
AcDbLine
 10
198.047789
 20
430.444355
 30
0.0
 11
198.047789
 21
397.944355
 31
0.0
  0
LINE
  5
4A
102
{ACAD_REACTORS
330
115
102
}
330
1F
100
AcDbEntity
  8
LC-001-002-----0
 62
     7
370
    50
100
AcDbLine
 10
197.847789
 20
430.444355
 30
0.0
 11
198.047789
 21
430.444355
 31
0.0
  0
LINE
  5
4B
102
{ACAD_REACTORS
330
115
102
}
330
1F
100
AcDbEntity
  8
LC-001-002-----0
 62
     7
370
    50
100
AcDbLine
 10
197.847789
 20
397.944355
 30
0.0
 11
198.047789
 21
397.944355
 31
0.0
  0
LINE
  5
4C
102
{ACAD_REACTORS
330
115
102
}
330
1F
100
AcDbEntity
  8
LC-001-002-----0
 62
     7
370
    50
100
AcDbLine
 10
197.847789
 20
398.144355
 30
0.0
 11
197.847789
 21
397.944355
 31
0.0
  0
INSERT
  5
80
102
{ACAD_REACTORS
330
115
102
}
330
1F
100
AcDbEntity
  8
LC-003-005-----0
 62
     7
370
    25
100
AcDbBlockReference
  2
*X11
 10
0.0
 20
0.0
 30
0.0
  0
INSERT
  5
92
102
{ACAD_REACTORS
330
116
102
}
330
1F
100
AcDbEntity
  8
LC-003-005-----0
 62
     7
370
    25
100
AcDbBlockReference
  2
*X22
 10
0.0
 20
0.0
 30
0.0
  0
INSERT
  5
A4
102
{ACAD_REACTORS
330
116
102
}
330
1F
100
AcDbEntity
  8
LC-003-005-----0
 62
     7
370
    25
100
AcDbBlockReference
  2
*X33
 10
0.0
 20
0.0
 30
0.0
  0
LINE
  5
A5
102
{ACAD_REACTORS
330
117
102
}
330
1F
100
AcDbEntity
  8
LC-002-006-MLN-0
 62
     7
370
    25
100
AcDbLine
 10
339.736687
 20
331.194355
 30
0.0
 11
558.236687
 21
331.194355
 31
0.0
  0
LINE
  5
A6
102
{ACAD_REACTORS
330
117
102
}
330
1F
100
AcDbEntity
  8
LC-002-006-MLN-0
 62
     7
370
    25
100
AcDbLine
 10
448.986687
 20
440.444355
 30
0.0
 11
448.986687
 21
221.944355
 31
0.0
  0
DIMENSION
  5
AA
330
1F
100
AcDbEntity
  8
LC-004-003-----0
 62
     7
370
    25
100
AcDbDimension
  2
*D4
 10
202.547789
 20
173.716398
 30
0.0
 11
244.66627
 21
204.516398
 31
0.0
 70
   160
 71
     5
 42
7.0
  3
LC-DIM-L-0140-01-02
100
AcDbAlignedDimension
 13
195.547789
 23
264.444355
 33
0.0
 14
202.547789
 24
264.444355
 34
0.0
100
AcDbRotatedDimension
  0
DIMENSION
  5
B9
330
1F
100
AcDbEntity
  8
LC-004-003-----0
 62
     7
370
    25
100
AcDbDimension
  2
*D5
 10
197.847789
 20
224.800398
 30
0.0
 11
242.528365
 21
255.600398
 31
0.0
 70
   160
 71
     5
 42
2.2
  3
LC-DIM-L-0140-01-02
100
AcDbAlignedDimension
 13
200.047789
 23
231.944355
 33
0.0
 14
197.847789
 24
231.944355
 34
0.0
100
AcDbRotatedDimension
  0
CIRCLE
  5
C7
102
{ACAD_REACTORS
330
117
102
}
330
1F
100
AcDbEntity
  8
LC-001-002-----0
 62
     7
370
    50
100
AcDbCircle
 10
448.986687
 20
331.194355
 30
0.0
 40
99.24999999999994
  0
CIRCLE
  5
C8
102
{ACAD_REACTORS
330
117
102
}
330
1F
100
AcDbEntity
  8
LC-001-002-----0
 62
     7
370
    50
100
AcDbCircle
 10
448.986687
 20
331.194355
 30
0.0
 40
64.99999999999994
  0
CIRCLE
  5
C9
102
{ACAD_REACTORS
330
117
102
}
330
1F
100
AcDbEntity
  8
LC-001-002-----0
 62
     7
370
    50
100
AcDbCircle
 10
448.986687
 20
331.194355
 30
0.0
 40
66.74999999999994
  0
DIMENSION
  5
CA
330
1F
100
AcDbEntity
  8
LC-004-003-----0
 62
     7
370
    25
100
AcDbDimension
  2
*D6
 10
145.695099
 20
397.944355
 30
0.0
 11
114.895099
 21
331.194355
 31
0.0
 70
   160
  1
%%c<>
 71
     5
 42
133.5
 53
90.0
  3
LC-DIM-L-0140-01-02
100
AcDbAlignedDimension
 13
195.547789
 23
264.444355
 33
0.0
 14
195.547789
 24
397.944355
 34
0.0
 50
90.0
100
AcDbRotatedDimension
  0
LINE
  5
D7
102
{ACAD_REACTORS
330
116
102
}
330
1F
100
AcDbEntity
  8
LC-001-002-----0
 62
     7
370
    50
100
AcDbLine
 10
200.547789
 20
333.194355
 30
0.0
 11
202.547789
 21
333.194355
 31
0.0
  0
LINE
  5
D8
102
{ACAD_REACTORS
330
116
102
}
330
1F
100
AcDbEntity
  8
LC-001-002-----0
 62
     7
370
    50
100
AcDbLine
 10
200.547789
 20
329.194355
 30
0.0
 11
202.547789
 21
329.194355
 31
0.0
  0
ARC
  5
D9
102
{ACAD_REACTORS
330
116
102
}
330
1F
100
AcDbEntity
  8
LC-001-002-----0
 62
     7
370
    50
100
AcDbCircle
 10
200.547789
 20
331.194355
 30
0.0
 40
2.0
100
AcDbArc
 50
90.0
 51
270.0
  0
ARC
  5
DA
102
{ACAD_REACTORS
330
117
102
}
330
1F
100
AcDbEntity
  8
LC-001-002-----0
 62
     7
370
    50
100
AcDbCircle
 10
379.989714
 20
331.194355
 30
0.0
 40
4.496973008496297
100
AcDbArc
 50
333.593064
 51
26.406936
  0
ARC
  5
DB
102
{ACAD_REACTORS
330
117
102
}
330
1F
100
AcDbEntity
  8
LC-001-002-----0
 62
     7
370
    50
100
AcDbCircle
 10
389.233556
 20
296.695869
 30
0.0
 40
4.496973008496315
100
AcDbArc
 50
3.593064
 51
56.406936
  0
ARC
  5
DC
102
{ACAD_REACTORS
330
117
102
}
330
1F
100
AcDbEntity
  8
LC-001-002-----0
 62
     7
370
    50
100
AcDbCircle
 10
414.488201
 20
271.441224
 30
0.0
 40
4.496973008496306
100
AcDbArc
 50
33.593064
 51
86.406936
  0
ARC
  5
DD
102
{ACAD_REACTORS
330
117
102
}
330
1F
100
AcDbEntity
  8
LC-001-002-----0
 62
     7
370
    50
100
AcDbCircle
 10
448.986687
 20
262.197382
 30
0.0
 40
4.496973008496322
100
AcDbArc
 50
63.593064
 51
116.406936
  0
ARC
  5
DE
102
{ACAD_REACTORS
330
117
102
}
330
1F
100
AcDbEntity
  8
LC-001-002-----0
 62
     7
370
    50
100
AcDbCircle
 10
483.485174
 20
271.441224
 30
0.0
 40
4.496973008496376
100
AcDbArc
 50
93.593064
 51
146.406936
  0
ARC
  5
DF
102
{ACAD_REACTORS
330
117
102
}
330
1F
100
AcDbEntity
  8
LC-001-002-----0
 62
     7
370
    50
100
AcDbCircle
 10
508.739819
 20
296.695869
 30
0.0
 40
4.496973008496385
100
AcDbArc
 50
123.593064
 51
176.406936
  0
ARC
  5
E0
102
{ACAD_REACTORS
330
117
102
}
330
1F
100
AcDbEntity
  8
LC-001-002-----0
 62
     7
370
    50
100
AcDbCircle
 10
517.98366
 20
331.194355
 30
0.0
 40
4.496973008496399
100
AcDbArc
 50
153.593064
 51
206.406936
  0
ARC
  5
E1
102
{ACAD_REACTORS
330
117
102
}
330
1F
100
AcDbEntity
  8
LC-001-002-----0
 62
     7
370
    50
100
AcDbCircle
 10
508.739819
 20
365.692842
 30
0.0
 40
4.496973008496429
100
AcDbArc
 50
183.593064
 51
236.406936
  0
ARC
  5
E2
102
{ACAD_REACTORS
330
117
102
}
330
1F
100
AcDbEntity
  8
LC-001-002-----0
 62
     7
370
    50
100
AcDbCircle
 10
483.485174
 20
390.947487
 30
0.0
 40
4.496973008496401
100
AcDbArc
 50
213.593064
 51
266.406936
  0
ARC
  5
E3
102
{ACAD_REACTORS
330
117
102
}
330
1F
100
AcDbEntity
  8
LC-001-002-----0
 62
     7
370
    50
100
AcDbCircle
 10
448.986687
 20
400.191328
 30
0.0
 40
4.496973008496373
100
AcDbArc
 50
243.593064
 51
296.406936
  0
ARC
  5
E4
102
{ACAD_REACTORS
330
117
102
}
330
1F
100
AcDbEntity
  8
LC-001-002-----0
 62
     7
370
    50
100
AcDbCircle
 10
414.488201
 20
390.947487
 30
0.0
 40
4.496973008496369
100
AcDbArc
 50
273.593064
 51
326.406936
  0
ARC
  5
E5
102
{ACAD_REACTORS
330
117
102
}
330
1F
100
AcDbEntity
  8
LC-001-002-----0
 62
     7
370
    50
100
AcDbCircle
 10
389.233556
 20
365.692842
 30
0.0
 40
4.496973008496369
100
AcDbArc
 50
303.593064
 51
356.406936
  0
LINE
  5
E6
102
{ACAD_REACTORS
330
116
102
}
330
1F
100
AcDbEntity
  8
LC-001-002-----0
 62
     7
370
    50
100
AcDbLine
 10
202.547789
 20
365.411018
 30
0.0
 11
200.27984
 21
365.411018
 31
0.0
  0
LINE
  5
E7
102
{ACAD_REACTORS
330
116
102
}
330
1F
100
AcDbEntity
  8
LC-001-002-----0
 62
     7
370
    50
100
AcDbLine
 10
202.547789
 20
361.946916
 30
0.0
 11
200.27984
 21
361.946916
 31
0.0
  0
LINE
  5
E8
102
{ACAD_REACTORS
330
116
102
}
330
1F
100
AcDbEntity
  8
LC-001-002-----0
 62
     7
370
    50
100
AcDbLine
 10
202.547789
 20
386.459353
 30
0.0
 11
199.547789
 21
386.459353
 31
0.0
  0
LINE
  5
E9
102
{ACAD_REACTORS
330
116
102
}
330
1F
100
AcDbEntity
  8
LC-001-002-----0
 62
     7
370
    50
100
AcDbLine
 10
202.547789
 20
388.459353
 30
0.0
 11
199.547789
 21
388.459353
 31
0.0
  0
LINE
  5
EA
102
{ACAD_REACTORS
330
116
102
}
330
1F
100
AcDbEntity
  8
LC-001-002-----0
 62
     7
370
    50
100
AcDbLine
 10
202.547789
 20
395.694355
 30
0.0
 11
199.047789
 21
395.694355
 31
0.0
  0
ARC
  5
EB
102
{ACAD_REACTORS
330
116
102
}
330
1F
100
AcDbEntity
  8
LC-001-002-----0
 62
     7
370
    50
100
AcDbCircle
 10
200.27984
 20
363.678967
 30
0.0
 40
1.732050807568839
100
AcDbArc
 50
90.0
 51
270.0
  0
ARC
  5
EC
102
{ACAD_REACTORS
330
116
102
}
330
1F
100
AcDbEntity
  8
LC-001-002-----0
 62
     7
370
    50
100
AcDbCircle
 10
199.547789
 20
387.459353
 30
0.0
 40
0.9999999999999432
100
AcDbArc
 50
90.0
 51
270.0
  0
ARC
  5
ED
102
{ACAD_REACTORS
330
116
102
}
330
1F
100
AcDbEntity
  8
LC-001-002-----0
 62
     7
370
    50
100
AcDbCircle
 10
199.047789
 20
396.194355
 30
0.0
 40
0.4999999999999432
100
AcDbArc
 50
180.0
 51
270.0
  0
LINE
  5
EE
102
{ACAD_REACTORS
330
116
102
}
330
1F
100
AcDbEntity
  8
LC-001-002-----0
 62
     7
370
    50
100
AcDbLine
 10
202.547789
 20
296.977693
 30
0.0
 11
200.27984
 21
296.977693
 31
0.0
  0
LINE
  5
EF
102
{ACAD_REACTORS
330
116
102
}
330
1F
100
AcDbEntity
  8
LC-001-002-----0
 62
     7
370
    50
100
AcDbLine
 10
202.547789
 20
300.441794
 30
0.0
 11
200.27984
 21
300.441794
 31
0.0
  0
LINE
  5
F0
102
{ACAD_REACTORS
330
116
102
}
330
1F
100
AcDbEntity
  8
LC-001-002-----0
 62
     7
370
    50
100
AcDbLine
 10
202.547789
 20
275.929357
 30
0.0
 11
199.547789
 21
275.929357
 31
0.0
  0
LINE
  5
F1
102
{ACAD_REACTORS
330
116
102
}
330
1F
100
AcDbEntity
  8
LC-001-002-----0
 62
     7
370
    50
100
AcDbLine
 10
202.547789
 20
273.929357
 30
0.0
 11
199.547789
 21
273.929357
 31
0.0
  0
ARC
  5
F2
102
{ACAD_REACTORS
330
116
102
}
330
1F
100
AcDbEntity
  8
LC-001-002-----0
 62
     7
370
    50
100
AcDbCircle
 10
200.27984
 20
298.709744
 30
0.0
 40
1.732050807568839
100
AcDbArc
 50
90.0
 51
270.0
  0
ARC
  5
F3
102
{ACAD_REACTORS
330
116
102
}
330
1F
100
AcDbEntity
  8
LC-001-002-----0
 62
     7
370
    50
100
AcDbCircle
 10
199.547789
 20
274.929357
 30
0.0
 40
0.9999999999999432
100
AcDbArc
 50
90.0
 51
270.0
  0
LINE
  5
F4
102
{ACAD_REACTORS
330
116
102
}
330
1F
100
AcDbEntity
  8
LC-001-002-----0
 62
     7
370
    50
100
AcDbLine
 10
202.547789
 20
266.694355
 30
0.0
 11
199.047789
 21
266.694355
 31
0.0
  0
ARC
  5
F5
102
{ACAD_REACTORS
330
116
102
}
330
1F
100
AcDbEntity
  8
LC-001-002-----0
 62
     7
370
    50
100
AcDbCircle
 10
199.047789
 20
266.194355
 30
0.0
 40
0.4999999999999432
100
AcDbArc
 50
90.0
 51
180.0
  0
LINE
  5
F6
102
{ACAD_REACTORS
330
116
102
}
330
1F
100
AcDbEntity
  8
LC-002-006-MLN-0
 62
     7
370
    25
100
AcDbLine
 10
212.547789
 20
363.694355
 30
0.0
 11
188.547858
 21
363.694355
 31
0.0
  0
LINE
  5
F7
102
{ACAD_REACTORS
330
116
102
}
330
1F
100
AcDbEntity
  8
LC-002-006-MLN-0
 62
     7
370
    25
100
AcDbLine
 10
212.547789
 20
387.459353
 30
0.0
 11
188.547789
 21
387.459353
 31
0.0
  0
LINE
  5
F8
102
{ACAD_REACTORS
330
116
102
}
330
1F
100
AcDbEntity
  8
LC-002-006-MLN-0
 62
     7
370
    25
100
AcDbLine
 10
212.547789
 20
298.694355
 30
0.0
 11
188.547858
 21
298.694355
 31
0.0
  0
LINE
  5
F9
102
{ACAD_REACTORS
330
116
102
}
330
1F
100
AcDbEntity
  8
LC-002-006-MLN-0
 62
     7
370
    25
100
AcDbLine
 10
212.547789
 20
274.929357
 30
0.0
 11
188.547789
 21
274.929357
 31
0.0
  0
DIMENSION
  5
FB
330
1F
100
AcDbEntity
  8
LC-004-003-----0
 62
     7
370
    25
100
AcDbDimension
  2
*D7
 10
548.236687
 20
455.866398
 30
0.0
 11
448.986687
 21
486.666398
 31
0.0
 70
   160
 71
     5
 42
198.5
  3
LC-DIM-L-0140-02-02
100
AcDbAlignedDimension
 13
349.736687
 23
331.194355
 33
0.0
 14
548.236687
 24
331.194355
 34
0.0
100
AcDbRotatedDimension
  0
DIMENSION
  5
108
330
1F
100
AcDbEntity
  8
LC-004-003-----0
 62
     7
370
    25
100
AcDbDimension
  2
*D8
 10
257.007413
 20
266.694355
 30
0.0
 11
226.207413
 21
331.194355
 31
0.0
 70
   160
  1
%%c<>
 71
     5
 42
129.0
 53
90.0
  3
LC-DIM-L-0140-02-02
100
AcDbAlignedDimension
 13
202.547789
 23
395.694355
 33
0.0
 14
202.547789
 24
266.694355
 34
0.0
 50
90.0
100
AcDbRotatedDimension
  0
ENDSEC
  0
SECTION
  2
OBJECTS
  0
DICTIONARY
  5
C
330
0
100
AcDbDictionary
281
     1
  3
ACAD_GROUP
350
D
  3
ACAD_LAYOUT
350
1A
  3
ACAD_MLINESTYLE
350
17
  3
ACAD_PLOTSETTINGS
350
19
  3
ACAD_PLOTSTYLENAME
350
E
  0
DICTIONARY
  5
D
102
{ACAD_REACTORS
330
C
102
}
330
C
100
AcDbDictionary
281
     1
  3
LCGROUP110
350
117
  3
LCGROUP42
350
115
  3
LCGROUP45
350
116
  0
DICTIONARY
  5
1A
102
{ACAD_REACTORS
330
C
102
}
330
C
100
AcDbDictionary
281
     1
  3
Layout1
350
1E
  3
Layout2
350
26
  3
Model
350
22
  0
DICTIONARY
  5
17
102
{ACAD_REACTORS
330
C
102
}
330
C
100
AcDbDictionary
281
     1
  3
Standard
350
18
  0
DICTIONARY
  5
19
102
{ACAD_REACTORS
330
C
102
}
330
C
100
AcDbDictionary
281
     1
  0
ACDBDICTIONARYWDFLT
  5
E
102
{ACAD_REACTORS
330
C
102
}
330
C
100
AcDbDictionary
281
     1
  3
Normal
350
F
100
AcDbDictionaryWithDefault
340
F
  0
GROUP
  5
117
102
{ACAD_REACTORS
330
D
102
}
330
D
100
AcDbGroup
300
GRP110
 70
     1
 71
     1
340
A5
340
A6
340
C7
340
C8
340
C9
340
DA
340
DB
340
DC
340
DD
340
DE
340
DF
340
E0
340
E1
340
E2
340
E3
340
E4
340
E5
  0
GROUP
  5
115
102
{ACAD_REACTORS
330
D
102
}
330
D
100
AcDbGroup
300
GRP42
 70
     1
 71
     1
340
41
340
42
340
44
340
45
340
46
340
47
340
48
340
49
340
4A
340
4B
340
4C
340
80
  0
GROUP
  5
116
102
{ACAD_REACTORS
330
D
102
}
330
D
100
AcDbGroup
300
GRP45
 70
     1
 71
     1
340
31
340
32
340
33
340
34
340
37
340
38
340
39
340
3A
340
3B
340
3C
340
3D
340
3E
340
3F
340
40
340
43
340
92
340
A4
340
D7
340
D8
340
D9
340
E6
340
E7
340
E8
340
E9
340
EA
340
EB
340
EC
340
ED
340
EE
340
EF
340
F0
340
F1
340
F2
340
F3
340
F4
340
F5
340
F6
340
F7
340
F8
340
F9
  0
LAYOUT
  5
1E
102
{ACAD_REACTORS
330
1A
102
}
330
1A
100
AcDbPlotSettings
  1

  2

  4

  6

 40
0.0
 41
0.0
 42
0.0
 43
0.0
 44
0.0
 45
0.0
 46
0.0
 47
0.0
 48
0.0
 49
0.0
140
0.0
141
0.0
142
1.0
143
1.0
 70
   688
 72
     0
 73
     0
 74
     5
  7

 75
    16
147
1.0
148
0.0
149
0.0
100
AcDbLayout
  1
Layout1
 70
     1
 71
     1
 10
-104.782868
 20
4.426398
 11
735.217132
 21
598.426398
 12
0.0
 22
0.0
 32
0.0
 14
-104.782868
 24
4.426398
 34
0.0
 15
735.217132
 25
598.426398
 35
0.0
146
0.0
 13
0.0
 23
0.0
 33
0.0
 16
1.0
 26
0.0
 36
0.0
 17
0.0
 27
1.0
 37
0.0
 76
     0
330
1B
  0
LAYOUT
  5
26
102
{ACAD_REACTORS
330
1A
102
}
330
1A
100
AcDbPlotSettings
  1

  2

  4

  6

 40
0.0
 41
0.0
 42
0.0
 43
0.0
 44
0.0
 45
0.0
 46
0.0
 47
0.0
 48
0.0
 49
0.0
140
0.0
141
0.0
142
1.0
143
1.0
 70
   688
 72
     0
 73
     0
 74
     5
  7

 75
    16
147
1.0
148
0.0
149
0.0
100
AcDbLayout
  1
Layout2
 70
     1
 71
     2
 10
0.0
 20
0.0
 11
0.0
 21
0.0
 12
0.0
 22
0.0
 32
0.0
 14
0.0
 24
0.0
 34
0.0
 15
0.0
 25
0.0
 35
0.0
146
0.0
 13
0.0
 23
0.0
 33
0.0
 16
1.0
 26
0.0
 36
0.0
 17
0.0
 27
1.0
 37
0.0
 76
     0
330
23
  0
LAYOUT
  5
22
102
{ACAD_REACTORS
330
1A
102
}
330
1A
100
AcDbPlotSettings
  1

  2

  4

  6

 40
0.0
 41
0.0
 42
0.0
 43
0.0
 44
0.0
 45
0.0
 46
0.0
 47
0.0
 48
0.0
 49
0.0
140
0.0
141
0.0
142
1.0
143
1.0
 70
  1776
 72
     0
 73
     0
 74
     0
  7

 75
     0
147
1.0
148
0.0
149
0.0
100
AcDbLayout
  1
Model
 70
     1
 71
     0
 10
-104.782868
 20
4.426398
 11
735.217132
 21
598.426398
 12
525.217132
 22
449.926398
 32
0.0
 14
-104.782868
 24
4.426398
 34
0.0
 15
735.217132
 25
598.426398
 35
0.0
146
0.0
 13
0.0
 23
0.0
 33
0.0
 16
1.0
 26
0.0
 36
0.0
 17
0.0
 27
1.0
 37
0.0
 76
     0
330
1F
  0
MLINESTYLE
  5
18
102
{ACAD_REACTORS
330
17
102
}
330
17
100
AcDbMlineStyle
  2
Standard
 70
     0
  3

 62
   256
 51
90.0
 52
90.0
 71
     2
 49
0.5
 62
   256
  6
BYLAYER
 49
-0.5
 62
   256
  6
BYLAYER
  0
ACDBPLACEHOLDER
  5
F
102
{ACAD_REACTORS
330
E
102
}
330
E
  0
ENDSEC
  0
EOF
