  0
SECTION
  2
HEADER
  9
$ACADVER
  1
AC1009
  9
$INSBASE
 10
0.0
 20
0.0
 30
0.0
  9
$EXTMIN
 10
0.0
 20
0.0
 30
0.0
  9
$EXTMAX
 10
840.0
 20
594.0
 30
0.0
  9
$LIMMIN
 10
0.0
 20
0.0
  9
$LIMMAX
 10
840.0
 20
594.0
  9
$ORTHOMODE
 70
     0
  9
$REGENMODE
 70
     1
  9
$FILLMODE
 70
     1
  9
$QTEXTMODE
 70
     0
  9
$MIRRTEXT
 70
     1
  9
$DRAGMODE
 70
     2
  9
$LTSCALE
 40
2.0
  9
$OSMODE
 70
     0
  9
$ATTMODE
 70
     1
  9
$TEXTSIZE
 40
0.2
  9
$TRACEWID
 40
0.05
  9
$TEXTSTYLE
  7
STANDARD
  9
$CLAYER
  8
0
  9
$CELTYPE
  6
BYLAYER
  9
$CECOLOR
 62
     7
  9
$DIMSCALE
 40
2.0
  9
$DIMASZ
 40
3.5
  9
$DIMEXO
 40
0.0625
  9
$DIMDLI
 40
0.38
  9
$DIMRND
 40
0.0
  9
$DIMDLE
 40
0.0
  9
$DIMEXE
 40
0.18
  9
$DIMTP
 40
0.0
  9
$DIMTM
 40
0.0
  9
$DIMTXT
 40
3.5
  9
$DIMCEN
 40
0.09
  9
$DIMTSZ
 40
0.0
  9
$DIMTOL
 70
     0
  9
$DIMLIM
 70
     0
  9
$DIMTIH
 70
     1
  9
$DIMTOH
 70
     1
  9
$DIMSE1
 70
     0
  9
$DIMSE2
 70
     0
  9
$DIMTAD
 70
     1
  9
$DIMZIN
 70
     0
  9
$DIMBLK
  1

  9
$DIMASO
 70
     1
  9
$DIMSHO
 70
     1
  9
$DIMPOST
  1

  9
$DIMAPOST
  1

  9
$DIMALT
 70
     0
  9
$DIMALTD
 70
     2
  9
$DIMALTF
 40
25.4
  9
$DIMLFAC
 40
1.0
  9
$DIMTOFL
 70
     0
  9
$DIMTVP
 40
0.0
  9
$DIMTIX
 70
     0
  9
$DIMSOXD
 70
     0
  9
$DIMSAH
 70
     0
  9
$DIMBLK1
  1

  9
$DIMBLK2
  1

  9
$DIMSTYLE
  2
STANDARD
  9
$DIMCLRD
 70
     0
  9
$DIMCLRE
 70
     0
  9
$DIMCLRT
 70
     0
  9
$DIMTFAC
 40
1.0
  9
$DIMGAP
 40
0.09
  9
$LUNITS
 70
     2
  9
$LUPREC
 70
     2
  9
$AXISMODE
 70
     0
  9
$AXISUNIT
 10
0.0
 20
0.0
  9
$SKETCHINC
 40
0.1
  9
$FILLETRAD
 40
0.0
  9
$AUNITS
 70
     0
  9
$AUPREC
 70
     0
  9
$MENU
  1
acad
  9
$ELEVATION
 40
0.0
  9
$PELEVATION
 40
0.0
  9
$THICKNESS
 40
0.0
  9
$LIMCHECK
 70
     0
  9
$BLIPMODE
 70
     1
  9
$CHAMFERA
 40
0.0
  9
$CHAMFERB
 40
0.0
  9
$SKPOLY
 70
     0
  9
$TDCREATE
 40
0.000000000
  9
$TDUPDATE
 40
0.000000000
  9
$TDINDWG
 40
0.0000000000
  9
$TDUSRTIMER
 40
0.0000000000
  9
$USRTIMER
 70
     1
  9
$ANGBASE
 50
0.0
  9
$ANGDIR
 70
     0
  9
$PDMODE
 70
     0
  9
$PDSIZE
 40
0.0
  9
$PLINEWID
 40
0.0
  9
$COORDS
 70
     0
  9
$SPLFRAME
 70
     0
  9
$SPLINETYPE
 70
     6
  9
$SPLINESEGS
 70
     8
  9
$ATTDIA
 70
     0
  9
$ATTREQ
 70
     1
  9
$HANDLING
 70
     1
  9
$HANDSEED
  5
EE
  9
$SURFTAB1
 70
     6
  9
$SURFTAB2
 70
     6
  9
$SURFTYPE
 70
     6
  9
$SURFU
 70
     6
  9
$SURFV
 70
     6
  9
$UCSNAME
  2

  9
$UCSORG
 10
0.0
 20
0.0
 30
0.0
  9
$UCSXDIR
 10
1.0
 20
0.0
 30
0.0
  9
$UCSYDIR
 10
0.0
 20
1.0
 30
0.0
  9
$PUCSNAME
  2

  9
$PUCSORG
 10
0.0
 20
0.0
 30
0.0
  9
$PUCSXDIR
 10
1.0
 20
0.0
 30
0.0
  9
$PUCSYDIR
 10
0.0
 20
1.0
 30
0.0
  9
$USERI1
 70
     0
  9
$USERI2
 70
     0
  9
$USERI3
 70
     0
  9
$USERI4
 70
     0
  9
$USERI5
 70
     0
  9
$USERR1
 40
0.0
  9
$USERR2
 40
0.0
  9
$USERR3
 40
0.0
  9
$USERR4
 40
0.0
  9
$USERR5
 40
0.0
  9
$WORLDVIEW
 70
     1
  9
$SHADEDGE
 70
     3
  9
$SHADEDIF
 70
    70
  9
$TILEMODE
 70
     1
  9
$MAXACTVP
 70
    16
  9
$PINSBASE
 10
0.0
 20
0.0
 30
0.0
  9
$PLIMCHECK
 70
     0
  9
$PEXTMIN
 10
1.000000E+20
 20
1.000000E+20
 30
1.000000E+20
  9
$PEXTMAX
 10
-1.000000E+20
 20
-1.000000E+20
 30
-1.000000E+20
  9
$PLIMMIN
 10
0.0
 20
0.0
  9
$PLIMMAX
 10
840.0
 20
594.0
  9
$UNITMODE
 70
     0
  9
$VISRETAIN
 70
     0
  9
$PLINEGEN
 70
     1
  9
$PSLTSCALE
 70
     0
  9
$TREEDEPTH
 70
  3020
  9
$DWGCODEPAGE
  3
dos850
  0
ENDSEC
  0
SECTION
  2
TABLES
  0
TABLE
  2
VPORT
 70
     1
  0
VPORT
  2
*ACTIVE
 70
     0
 10
0.0
 20
0.0
 11
1.0
 21
1.0
 12
420.0
 22
297.0
 13
0.0
 23
0.0
 14
1.0
 24
1.0
 15
0.0
 25
0.0
 16
0.0
 26
0.0
 36
1.0
 17
0.0
 27
0.0
 37
0.0
 40
594.0
 41
1.604229
 42
50.0
 43
0.0
 44
0.0
 50
0.0
 51
0.0
 71
     0
 72
   100
 73
     1
 74
     1
 75
     0
 76
     0
 77
     0
 78
     0
  0
ENDTAB
  0
TABLE
  2
LTYPE
 70
     2
  0
LTYPE
  2
CONTINUOUS
 70
    64
  3
Solid line
 72
    65
 73
     0
 40
0.0
  0
LTYPE
  2
DASHDOT
 70
    64
  3
__ . __ . __ . __ . __
 72
    65
 73
     4
 40
7.5
 49
5.0
 49
-1.25
 49
0.0
 49
-1.25
  0
ENDTAB
  0
TABLE
  2
LAYER
 70
     8
  0
LAYER
  2
0
 70
     0
 62
     7
  6
CONTINUOUS
  0
LAYER
  2
LC-INFO-1-2-MM-A3-0
 70
     1
 62
    -1
  6
CONTINUOUS
  0
LAYER
  2
LC-002-005-----0
 70
     0
 62
     2
  6
CONTINUOUS
  0
LAYER
  2
LC-004-003-MTH-0
 70
     0
 62
     2
  6
CONTINUOUS
  0
LAYER
  2
LC-005-003-MTG-0
 70
     0
 62
     2
  6
CONTINUOUS
  0
LAYER
  2
LC-003-003-----0
 70
     0
 62
     2
  6
CONTINUOUS
  0
LAYER
  2
LC-001-002-----0
 70
     0
 62
     1
  6
CONTINUOUS
  0
LAYER
  2
LC-000
 70
     0
 62
     7
  6
CONTINUOUS
  0
ENDTAB
  0
TABLE
  2
STYLE
 70
     4
  0
STYLE
  2
STANDARD
 70
     0
 40
0.0
 41
1.0
 50
0.0
 71
     0
 42
0.0
  3
txt
  4

  0
STYLE
  2
LC-STANDARD
 70
    64
 40
0.0
 41
1.0
 50
0.0
 71
     0
 42
3.5
  3
MONOTXT
  4

  0
STYLE
  2
LC-TXTSTYLE-150-400-0-0-D2
 70
    64
 40
0.0
 41
1.0
 50
15.0
 71
     0
 42
3.5
  3
MONOTXT
  4

  0
STYLE
  2
LC-TXTSTYLE-150-400-0-0-D3
 70
    64
 40
0.0
 41
1.0
 50
15.0
 71
     0
 42
3.5
  3
LC-STANDARD
  4

  0
ENDTAB
  0
TABLE
  2
VIEW
 70
     0
  0
ENDTAB
  0
TABLE
  2
UCS
 70
     0
  0
ENDTAB
  0
TABLE
  2
APPID
 70
     1
  0
APPID
  2
ACAD
 70
     0
  0
ENDTAB
  0
TABLE
  2
DIMSTYLE
 70
     3
  0
DIMSTYLE
  2
STANDARD
 70
     0
  3

  4

  5

  6

  7

 40
1.0
 41
0.18
 42
0.0625
 43
0.38
 44
0.18
 45
0.0
 46
0.0
 47
0.0
 48
0.0
 71
     0
 72
     0
 73
     1
 74
     1
 75
     0
 76
     0
 77
     0
 78
     0
140
0.18
141
0.09
142
0.0
143
25.4
144
1.0
145
0.0
146
1.0
147
0.09
170
     0
171
     2
172
     0
173
     0
174
     0
175
     0
176
     0
177
     0
178
     0
  0
DIMSTYLE
  2
LC-STANDARD
 70
     0
  3

  4

  5

  6

  7

 40
1.0
 41
3.5
 42
0.0
 43
7.5
 44
1.8
 45
0.0
 46
0.0
 47
0.0
 48
0.0
 71
     0
 72
     0
 73
     0
 74
     0
 75
     0
 76
     0
 77
     1
 78
     8
140
3.5
141
0.0
142
0.0
143
25.4
144
1.0
145
0.0
146
0.71
147
1.5
170
     0
171
     2
172
     1
173
     0
174
     0
175
     0
176
     0
177
     0
178
     3
  0
DIMSTYLE
  2
LC-DIM-L-0090-02-02
 70
     0
  3

  4

  5

  6

  7

 40
2.0
 41
3.5
 42
0.0
 43
7.5
 44
1.8
 45
0.0
 46
0.0
 47
0.0
 48
0.0
 71
     0
 72
     0
 73
     0
 74
     0
 75
     0
 76
     0
 77
     1
 78
     8
140
9.0
141
0.0
142
0.0
143
25.4
144
1.0
145
0.0
146
0.71
147
1.5
170
     0
171
     2
172
     0
173
     0
174
     0
175
     0
176
     2
177
     2
178
     6
  0
ENDTAB
  0
ENDSEC
  0
SECTION
  2
BLOCKS
  0
BLOCK
  8
0
  5
23
  2
*X0
 70
    65
 10
504.583603
 20
328.195524
 30
0.0
  3
*X0
  0
LINE
  8
LC-002-005-----0
  6
CONTINUOUS
  5
25
 10
509.21486
 20
328.195524
 30
0.0
 11
510.583603
 21
329.564267
 31
0.0
  0
LINE
  8
LC-002-005-----0
  6
CONTINUOUS
  5
26
 10
506.386433
 20
328.195524
 30
0.0
 11
510.583603
 21
332.392694
 31
0.0
  0
LINE
  8
LC-002-005-----0
  6
CONTINUOUS
  5
27
 10
504.583603
 20
329.221122
 30
0.0
 11
510.583603
 21
335.221122
 31
0.0
  0
LINE
  8
LC-002-005-----0
  6
CONTINUOUS
  5
28
 10
504.583603
 20
332.049549
 30
0.0
 11
510.583603
 21
338.049549
 31
0.0
  0
LINE
  8
LC-002-005-----0
  6
CONTINUOUS
  5
29
 10
504.583603
 20
334.877976
 30
0.0
 11
510.583603
 21
340.877976
 31
0.0
  0
LINE
  8
LC-002-005-----0
  6
CONTINUOUS
  5
2A
 10
504.583603
 20
337.706403
 30
0.0
 11
510.583603
 21
343.706403
 31
0.0
  0
LINE
  8
LC-002-005-----0
  6
CONTINUOUS
  5
2B
 10
504.583603
 20
340.53483
 30
0.0
 11
510.583603
 21
346.53483
 31
0.0
  0
LINE
  8
LC-002-005-----0
  6
CONTINUOUS
  5
2C
 10
504.583603
 20
343.363257
 30
0.0
 11
510.583603
 21
349.363257
 31
0.0
  0
LINE
  8
LC-002-005-----0
  6
CONTINUOUS
  5
2D
 10
515.41587
 20
354.195524
 30
0.0
 11
515.583603
 21
354.363257
 31
0.0
  0
LINE
  8
LC-002-005-----0
  6
CONTINUOUS
  5
2E
 10
504.583603
 20
346.191684
 30
0.0
 11
510.583603
 21
352.191684
 31
0.0
  0
LINE
  8
LC-002-005-----0
  6
CONTINUOUS
  5
2F
 10
512.587443
 20
354.195524
 30
0.0
 11
515.583603
 21
357.191684
 31
0.0
  0
LINE
  8
LC-002-005-----0
  6
CONTINUOUS
  5
30
 10
504.583603
 20
349.020111
 30
0.0
 11
513.762744
 21
358.199252
 31
0.0
  0
LINE
  8
LC-002-005-----0
  6
CONTINUOUS
  5
31
 10
504.583603
 20
351.848539
 30
0.0
 11
511.381026
 21
358.645961
 31
0.0
  0
LINE
  8
LC-002-005-----0
  6
CONTINUOUS
  5
32
 10
504.583603
 20
354.676966
 30
0.0
 11
510.583603
 21
360.676966
 31
0.0
  0
LINE
  8
LC-002-005-----0
  6
CONTINUOUS
  5
33
 10
504.583603
 20
357.505393
 30
0.0
 11
510.583603
 21
363.505393
 31
0.0
  0
LINE
  8
LC-002-005-----0
  6
CONTINUOUS
  5
34
 10
504.583603
 20
360.33382
 30
0.0
 11
510.583603
 21
366.33382
 31
0.0
  0
LINE
  8
LC-002-005-----0
  6
CONTINUOUS
  5
35
 10
504.583603
 20
363.162247
 30
0.0
 11
510.583603
 21
369.162247
 31
0.0
  0
LINE
  8
LC-002-005-----0
  6
CONTINUOUS
  5
36
 10
504.583603
 20
365.990674
 30
0.0
 11
510.583603
 21
371.990674
 31
0.0
  0
LINE
  8
LC-002-005-----0
  6
CONTINUOUS
  5
37
 10
504.583603
 20
368.819101
 30
0.0
 11
510.583603
 21
374.819101
 31
0.0
  0
LINE
  8
LC-002-005-----0
  6
CONTINUOUS
  5
38
 10
504.583603
 20
371.647528
 30
0.0
 11
510.583603
 21
377.647528
 31
0.0
  0
LINE
  8
LC-002-005-----0
  6
CONTINUOUS
  5
39
 10
504.583603
 20
374.475955
 30
0.0
 11
510.583603
 21
380.475955
 31
0.0
  0
LINE
  8
LC-002-005-----0
  6
CONTINUOUS
  5
3A
 10
504.583603
 20
377.304383
 30
0.0
 11
510.583603
 21
383.304383
 31
0.0
  0
LINE
  8
LC-002-005-----0
  6
CONTINUOUS
  5
3B
 10
504.583603
 20
380.13281
 30
0.0
 11
510.583603
 21
386.13281
 31
0.0
  0
LINE
  8
LC-002-005-----0
  6
CONTINUOUS
  5
3C
 10
504.583603
 20
382.961237
 30
0.0
 11
510.583603
 21
388.961237
 31
0.0
  0
LINE
  8
LC-002-005-----0
  6
CONTINUOUS
  5
3D
 10
504.583603
 20
385.789664
 30
0.0
 11
510.583603
 21
391.789664
 31
0.0
  0
LINE
  8
LC-002-005-----0
  6
CONTINUOUS
  5
3E
 10
504.583603
 20
388.618091
 30
0.0
 11
510.583603
 21
394.618091
 31
0.0
  0
LINE
  8
LC-002-005-----0
  6
CONTINUOUS
  5
3F
 10
504.583603
 20
391.446518
 30
0.0
 11
510.583603
 21
397.446518
 31
0.0
  0
LINE
  8
LC-002-005-----0
  6
CONTINUOUS
  5
40
 10
504.583603
 20
394.274945
 30
0.0
 11
510.583603
 21
400.274945
 31
0.0
  0
LINE
  8
LC-002-005-----0
  6
CONTINUOUS
  5
41
 10
504.583603
 20
397.103372
 30
0.0
 11
510.583603
 21
403.103372
 31
0.0
  0
LINE
  8
LC-002-005-----0
  6
CONTINUOUS
  5
42
 10
504.583603
 20
399.9318
 30
0.0
 11
510.583603
 21
405.9318
 31
0.0
  0
LINE
  8
LC-002-005-----0
  6
CONTINUOUS
  5
43
 10
504.583603
 20
402.760227
 30
0.0
 11
510.583603
 21
408.760227
 31
0.0
  0
LINE
  8
LC-002-005-----0
  6
CONTINUOUS
  5
44
 10
504.583603
 20
405.588654
 30
0.0
 11
510.583603
 21
411.588654
 31
0.0
  0
LINE
  8
LC-002-005-----0
  6
CONTINUOUS
  5
45
 10
523.712235
 20
424.717286
 30
0.0
 11
525.583603
 21
426.588654
 31
0.0
  0
LINE
  8
LC-002-005-----0
  6
CONTINUOUS
  5
46
 10
504.583603
 20
408.417081
 30
0.0
 11
510.583603
 21
414.417081
 31
0.0
  0
LINE
  8
LC-002-005-----0
  6
CONTINUOUS
  5
47
 10
519.912855
 20
423.746333
 30
0.0
 11
525.583603
 21
429.417081
 31
0.0
  0
LINE
  8
LC-002-005-----0
  6
CONTINUOUS
  5
48
 10
504.583603
 20
411.245508
 30
0.0
 11
524.533619
 21
431.195524
 31
0.0
  0
LINE
  8
LC-002-005-----0
  6
CONTINUOUS
  5
49
 10
504.583603
 20
414.073935
 30
0.0
 11
521.705192
 21
431.195524
 31
0.0
  0
LINE
  8
LC-002-005-----0
  6
CONTINUOUS
  5
4A
 10
504.583603
 20
416.902362
 30
0.0
 11
518.876765
 21
431.195524
 31
0.0
  0
LINE
  8
LC-002-005-----0
  6
CONTINUOUS
  5
4B
 10
504.583603
 20
419.730789
 30
0.0
 11
518.583603
 21
433.730789
 31
0.0
  0
LINE
  8
LC-002-005-----0
  6
CONTINUOUS
  5
4C
 10
504.583603
 20
422.559217
 30
0.0
 11
511.219911
 21
429.195524
 31
0.0
  0
LINE
  8
LC-002-005-----0
  6
CONTINUOUS
  5
4D
 10
511.583603
 20
429.559217
 30
0.0
 11
518.583603
 21
436.559217
 31
0.0
  0
LINE
  8
LC-002-005-----0
  6
CONTINUOUS
  5
4E
 10
504.583603
 20
425.387644
 30
0.0
 11
508.391484
 21
429.195524
 31
0.0
  0
LINE
  8
LC-002-005-----0
  6
CONTINUOUS
  5
4F
 10
511.583603
 20
432.387644
 30
0.0
 11
518.583603
 21
439.387644
 31
0.0
  0
LINE
  8
LC-002-005-----0
  6
CONTINUOUS
  5
50
 10
504.583603
 20
428.216071
 30
0.0
 11
505.563057
 21
429.195524
 31
0.0
  0
LINE
  8
LC-002-005-----0
  6
CONTINUOUS
  5
51
 10
511.583603
 20
435.216071
 30
0.0
 11
518.583603
 21
442.216071
 31
0.0
  0
LINE
  8
LC-002-005-----0
  6
CONTINUOUS
  5
52
 10
511.583603
 20
438.044498
 30
0.0
 11
518.583603
 21
445.044498
 31
0.0
  0
LINE
  8
LC-002-005-----0
  6
CONTINUOUS
  5
53
 10
511.583603
 20
440.872925
 30
0.0
 11
518.583603
 21
447.872925
 31
0.0
  0
LINE
  8
LC-002-005-----0
  6
CONTINUOUS
  5
54
 10
511.583603
 20
443.701352
 30
0.0
 11
518.583603
 21
450.701352
 31
0.0
  0
LINE
  8
LC-002-005-----0
  6
CONTINUOUS
  5
55
 10
511.583603
 20
446.529779
 30
0.0
 11
518.583603
 21
453.529779
 31
0.0
  0
LINE
  8
LC-002-005-----0
  6
CONTINUOUS
  5
56
 10
511.583603
 20
449.358206
 30
0.0
 11
516.420921
 21
454.195524
 31
0.0
  0
LINE
  8
LC-002-005-----0
  6
CONTINUOUS
  5
57
 10
511.583603
 20
452.186634
 30
0.0
 11
513.592494
 21
454.195524
 31
0.0
  0
ENDBLK
  8
0
  5
58
  0
BLOCK
  8
0
  5
5A
  2
*X1
 70
    65
 10
243.583603
 20
328.195524
 30
0.0
  3
*X1
  0
LINE
  8
LC-002-005-----0
  6
CONTINUOUS
  5
5B
 10
263.1417
 20
328.195524
 30
0.0
 11
264.583603
 21
329.637427
 31
0.0
  0
LINE
  8
LC-002-005-----0
  6
CONTINUOUS
  5
5C
 10
260.313273
 20
328.195524
 30
0.0
 11
264.583603
 21
332.465854
 31
0.0
  0
LINE
  8
LC-002-005-----0
  6
CONTINUOUS
  5
5D
 10
258.583603
 20
329.294281
 30
0.0
 11
264.583603
 21
335.294281
 31
0.0
  0
LINE
  8
LC-002-005-----0
  6
CONTINUOUS
  5
5E
 10
258.583603
 20
332.122708
 30
0.0
 11
264.583603
 21
338.122708
 31
0.0
  0
LINE
  8
LC-002-005-----0
  6
CONTINUOUS
  5
5F
 10
258.583603
 20
334.951136
 30
0.0
 11
264.583603
 21
340.951136
 31
0.0
  0
LINE
  8
LC-002-005-----0
  6
CONTINUOUS
  5
60
 10
258.583603
 20
337.779563
 30
0.0
 11
264.583603
 21
343.779563
 31
0.0
  0
LINE
  8
LC-002-005-----0
  6
CONTINUOUS
  5
61
 10
258.583603
 20
340.60799
 30
0.0
 11
264.583603
 21
346.60799
 31
0.0
  0
LINE
  8
LC-002-005-----0
  6
CONTINUOUS
  5
62
 10
258.583603
 20
343.436417
 30
0.0
 11
264.583603
 21
349.436417
 31
0.0
  0
LINE
  8
LC-002-005-----0
  6
CONTINUOUS
  5
63
 10
258.583603
 20
346.264844
 30
0.0
 11
264.583603
 21
352.264844
 31
0.0
  0
LINE
  8
LC-002-005-----0
  6
CONTINUOUS
  5
64
 10
258.583603
 20
349.093271
 30
0.0
 11
264.583603
 21
355.093271
 31
0.0
  0
LINE
  8
LC-002-005-----0
  6
CONTINUOUS
  5
65
 10
258.583603
 20
351.921698
 30
0.0
 11
264.583603
 21
357.921698
 31
0.0
  0
LINE
  8
LC-002-005-----0
  6
CONTINUOUS
  5
66
 10
258.029002
 20
354.195524
 30
0.0
 11
264.583603
 21
360.750125
 31
0.0
  0
LINE
  8
LC-002-005-----0
  6
CONTINUOUS
  5
67
 10
255.200575
 20
354.195524
 30
0.0
 11
264.583603
 21
363.578553
 31
0.0
  0
LINE
  8
LC-002-005-----0
  6
CONTINUOUS
  5
68
 10
253.583603
 20
355.40698
 30
0.0
 11
256.600132
 21
358.423509
 31
0.0
  0
LINE
  8
LC-002-005-----0
  6
CONTINUOUS
  5
69
 10
258.583603
 20
360.40698
 30
0.0
 11
264.583603
 21
366.40698
 31
0.0
  0
LINE
  8
LC-002-005-----0
  6
CONTINUOUS
  5
6A
 10
258.583603
 20
363.235407
 30
0.0
 11
264.583603
 21
369.235407
 31
0.0
  0
LINE
  8
LC-002-005-----0
  6
CONTINUOUS
  5
6B
 10
258.583603
 20
366.063834
 30
0.0
 11
264.583603
 21
372.063834
 31
0.0
  0
LINE
  8
LC-002-005-----0
  6
CONTINUOUS
  5
6C
 10
258.583603
 20
368.892261
 30
0.0
 11
264.583603
 21
374.892261
 31
0.0
  0
LINE
  8
LC-002-005-----0
  6
CONTINUOUS
  5
6D
 10
258.583603
 20
371.720688
 30
0.0
 11
264.583603
 21
377.720688
 31
0.0
  0
LINE
  8
LC-002-005-----0
  6
CONTINUOUS
  5
6E
 10
258.583603
 20
374.549115
 30
0.0
 11
264.583603
 21
380.549115
 31
0.0
  0
LINE
  8
LC-002-005-----0
  6
CONTINUOUS
  5
6F
 10
258.583603
 20
377.377542
 30
0.0
 11
264.583603
 21
383.377542
 31
0.0
  0
LINE
  8
LC-002-005-----0
  6
CONTINUOUS
  5
70
 10
258.583603
 20
380.20597
 30
0.0
 11
264.583603
 21
386.20597
 31
0.0
  0
LINE
  8
LC-002-005-----0
  6
CONTINUOUS
  5
71
 10
258.583603
 20
383.034397
 30
0.0
 11
264.583603
 21
389.034397
 31
0.0
  0
LINE
  8
LC-002-005-----0
  6
CONTINUOUS
  5
72
 10
258.583603
 20
385.862824
 30
0.0
 11
264.583603
 21
391.862824
 31
0.0
  0
LINE
  8
LC-002-005-----0
  6
CONTINUOUS
  5
73
 10
258.583603
 20
388.691251
 30
0.0
 11
264.583603
 21
394.691251
 31
0.0
  0
LINE
  8
LC-002-005-----0
  6
CONTINUOUS
  5
74
 10
258.583603
 20
391.519678
 30
0.0
 11
264.583603
 21
397.519678
 31
0.0
  0
LINE
  8
LC-002-005-----0
  6
CONTINUOUS
  5
75
 10
258.583603
 20
394.348105
 30
0.0
 11
264.583603
 21
400.348105
 31
0.0
  0
LINE
  8
LC-002-005-----0
  6
CONTINUOUS
  5
76
 10
258.583603
 20
397.176532
 30
0.0
 11
264.583603
 21
403.176532
 31
0.0
  0
LINE
  8
LC-002-005-----0
  6
CONTINUOUS
  5
77
 10
258.583603
 20
400.004959
 30
0.0
 11
264.583603
 21
406.004959
 31
0.0
  0
LINE
  8
LC-002-005-----0
  6
CONTINUOUS
  5
78
 10
258.583603
 20
402.833387
 30
0.0
 11
264.583603
 21
408.833387
 31
0.0
  0
LINE
  8
LC-002-005-----0
  6
CONTINUOUS
  5
79
 10
258.583603
 20
405.661814
 30
0.0
 11
264.583603
 21
411.661814
 31
0.0
  0
LINE
  8
LC-002-005-----0
  6
CONTINUOUS
  5
7A
 10
258.583603
 20
408.490241
 30
0.0
 11
264.583603
 21
414.490241
 31
0.0
  0
LINE
  8
LC-002-005-----0
  6
CONTINUOUS
  5
7B
 10
258.583603
 20
411.318668
 30
0.0
 11
264.583603
 21
417.318668
 31
0.0
  0
LINE
  8
LC-002-005-----0
  6
CONTINUOUS
  5
7C
 10
258.583603
 20
414.147095
 30
0.0
 11
264.583603
 21
420.147095
 31
0.0
  0
LINE
  8
LC-002-005-----0
  6
CONTINUOUS
  5
7D
 10
258.583603
 20
416.975522
 30
0.0
 11
264.583603
 21
422.975522
 31
0.0
  0
LINE
  8
LC-002-005-----0
  6
CONTINUOUS
  5
7E
 10
257.245949
 20
418.466295
 30
0.0
 11
264.583603
 21
425.803949
 31
0.0
  0
LINE
  8
LC-002-005-----0
  6
CONTINUOUS
  5
7F
 10
255.795474
 20
419.844247
 30
0.0
 11
264.583603
 21
428.632376
 31
0.0
  0
LINE
  8
LC-002-005-----0
  6
CONTINUOUS
  5
80
 10
254.344998
 20
421.222199
 30
0.0
 11
262.318324
 21
429.195524
 31
0.0
  0
LINE
  8
LC-002-005-----0
  6
CONTINUOUS
  5
81
 10
252.894523
 20
422.60015
 30
0.0
 11
259.489897
 21
429.195524
 31
0.0
  0
LINE
  8
LC-002-005-----0
  6
CONTINUOUS
  5
82
 10
250.813762
 20
423.347817
 30
0.0
 11
257.583603
 21
430.117658
 31
0.0
  0
LINE
  8
LC-002-005-----0
  6
CONTINUOUS
  5
83
 10
248.561033
 20
423.923514
 30
0.0
 11
257.583603
 21
432.946085
 31
0.0
  0
LINE
  8
LC-002-005-----0
  6
CONTINUOUS
  5
84
 10
246.308303
 20
424.499212
 30
0.0
 11
257.583603
 21
435.774512
 31
0.0
  0
LINE
  8
LC-002-005-----0
  6
CONTINUOUS
  5
85
 10
244.055574
 20
425.07491
 30
0.0
 11
250.176188
 21
431.195524
 31
0.0
  0
LINE
  8
LC-002-005-----0
  6
CONTINUOUS
  5
86
 10
250.583603
 20
431.602939
 30
0.0
 11
257.583603
 21
438.602939
 31
0.0
  0
LINE
  8
LC-002-005-----0
  6
CONTINUOUS
  5
87
 10
243.583603
 20
427.431366
 30
0.0
 11
247.347761
 21
431.195524
 31
0.0
  0
LINE
  8
LC-002-005-----0
  6
CONTINUOUS
  5
88
 10
250.583603
 20
434.431366
 30
0.0
 11
257.583603
 21
441.431366
 31
0.0
  0
LINE
  8
LC-002-005-----0
  6
CONTINUOUS
  5
89
 10
243.583603
 20
430.259793
 30
0.0
 11
244.519334
 21
431.195524
 31
0.0
  0
LINE
  8
LC-002-005-----0
  6
CONTINUOUS
  5
8A
 10
250.583603
 20
437.259793
 30
0.0
 11
257.583603
 21
444.259793
 31
0.0
  0
LINE
  8
LC-002-005-----0
  6
CONTINUOUS
  5
8B
 10
250.583603
 20
440.088221
 30
0.0
 11
257.583603
 21
447.088221
 31
0.0
  0
LINE
  8
LC-002-005-----0
  6
CONTINUOUS
  5
8C
 10
250.583603
 20
442.916648
 30
0.0
 11
257.583603
 21
449.916648
 31
0.0
  0
LINE
  8
LC-002-005-----0
  6
CONTINUOUS
  5
8D
 10
250.583603
 20
445.745075
 30
0.0
 11
257.583603
 21
452.745075
 31
0.0
  0
LINE
  8
LC-002-005-----0
  6
CONTINUOUS
  5
8E
 10
250.583603
 20
448.573502
 30
0.0
 11
256.205625
 21
454.195524
 31
0.0
  0
LINE
  8
LC-002-005-----0
  6
CONTINUOUS
  5
8F
 10
250.583603
 20
451.401929
 30
0.0
 11
253.377198
 21
454.195524
 31
0.0
  0
ENDBLK
  8
0
  5
90
  0
BLOCK
  8
0
  5
92
  2
*D2
 70
    65
 10
0.0
 20
0.0
 30
0.0
  3
*D2
  0
LINE
  8
LC-004-003-MTH-0
  6
CONTINUOUS
  5
94
 10
515.583603
 20
354.195524
 30
0.0
 11
570.8
 21
354.195524
 31
0.0
  0
LINE
  8
LC-004-003-MTH-0
  6
CONTINUOUS
  5
95
 10
518.583603
 20
454.195524
 30
0.0
 11
570.8
 21
454.195524
 31
0.0
  0
LINE
  8
LC-005-003-MTG-0
  6
CONTINUOUS
  5
97
 10
560.0
 20
354.195524
 30
0.0
 11
560.0
 21
454.195524
 31
0.0
  0
LINE
  8
LC-003-003-----0
  6
CONTINUOUS
  5
99
 10
557.650529
 20
372.041532
 30
0.0
 11
560.0
 21
354.195524
 31
0.0
  0
LINE
  8
LC-003-003-----0
  6
CONTINUOUS
  5
9A
 10
560.0
 20
354.195524
 30
0.0
 11
562.349471
 21
372.041532
 31
0.0
  0
LINE
  8
LC-003-003-----0
  6
CONTINUOUS
  5
9B
 10
562.349471
 20
372.041532
 30
0.0
 11
557.650529
 21
372.041532
 31
0.0
  0
LINE
  8
LC-003-003-----0
  6
CONTINUOUS
  5
9C
 10
558.261391
 20
372.08157
 30
0.0
 11
560.0
 21
358.875524
 31
0.0
  0
LINE
  8
LC-003-003-----0
  6
CONTINUOUS
  5
9D
 10
560.0
 20
358.875524
 30
0.0
 11
561.738609
 21
372.08157
 31
0.0
  0
LINE
  8
LC-003-003-----0
  6
CONTINUOUS
  5
9E
 10
558.872254
 20
372.121608
 30
0.0
 11
560.0
 21
363.555524
 31
0.0
  0
LINE
  8
LC-003-003-----0
  6
CONTINUOUS
  5
9F
 10
560.0
 20
363.555524
 30
0.0
 11
561.127746
 21
372.121608
 31
0.0
  0
LINE
  8
LC-003-003-----0
  6
CONTINUOUS
  5
A0
 10
559.483116
 20
372.161646
 30
0.0
 11
560.0
 21
368.235524
 31
0.0
  0
LINE
  8
LC-003-003-----0
  6
CONTINUOUS
  5
A1
 10
560.0
 20
368.235524
 30
0.0
 11
560.516884
 21
372.161646
 31
0.0
  0
LINE
  8
LC-003-003-----0
  6
CONTINUOUS
  5
A2
 10
562.349471
 20
436.349517
 30
0.0
 11
560.0
 21
454.195524
 31
0.0
  0
LINE
  8
LC-003-003-----0
  6
CONTINUOUS
  5
A3
 10
560.0
 20
454.195524
 30
0.0
 11
557.650529
 21
436.349517
 31
0.0
  0
LINE
  8
LC-003-003-----0
  6
CONTINUOUS
  5
A4
 10
557.650529
 20
436.349517
 30
0.0
 11
562.349471
 21
436.349517
 31
0.0
  0
LINE
  8
LC-003-003-----0
  6
CONTINUOUS
  5
A5
 10
561.738609
 20
436.309479
 30
0.0
 11
560.0
 21
449.515524
 31
0.0
  0
LINE
  8
LC-003-003-----0
  6
CONTINUOUS
  5
A6
 10
560.0
 20
449.515524
 30
0.0
 11
558.261391
 21
436.309479
 31
0.0
  0
LINE
  8
LC-003-003-----0
  6
CONTINUOUS
  5
A7
 10
561.127746
 20
436.269441
 30
0.0
 11
560.0
 21
444.835524
 31
0.0
  0
LINE
  8
LC-003-003-----0
  6
CONTINUOUS
  5
A8
 10
560.0
 20
444.835524
 30
0.0
 11
558.872254
 21
436.269441
 31
0.0
  0
LINE
  8
LC-003-003-----0
  6
CONTINUOUS
  5
A9
 10
560.516884
 20
436.229403
 30
0.0
 11
560.0
 21
440.155524
 31
0.0
  0
LINE
  8
LC-003-003-----0
  6
CONTINUOUS
  5
AA
 10
560.0
 20
440.155524
 30
0.0
 11
559.483116
 21
436.229403
 31
0.0
  0
TEXT
  8
LC-003-003-----0
  6
CONTINUOUS
 62
     6
  5
AC
 10
549.568001
 20
387.856912
 30
0.0
 40
18.0
  1
100
 50
90.0
 41
0.9
 51
15.0
  7
LC-TXTSTYLE-150-400-0-0-D0
 72
     1
 11
549.568001
 21
406.99077
 31
0.0
  0
ENDBLK
  8
0
  5
AD
  0
BLOCK
  8
0
  5
AF
  2
*D3
 70
    65
 10
0.0
 20
0.0
 30
0.0
  3
*D3
  0
LINE
  8
LC-004-003-MTH-0
  6
CONTINUOUS
  5
B0
 10
257.583603
 20
454.195524
 30
0.0
 11
257.583603
 21
490.8
 31
0.0
  0
LINE
  8
LC-004-003-MTH-0
  6
CONTINUOUS
  5
B1
 10
511.583603
 20
454.195524
 30
0.0
 11
511.583603
 21
490.8
 31
0.0
  0
LINE
  8
LC-005-003-MTG-0
  6
CONTINUOUS
  5
B2
 10
257.583603
 20
480.0
 30
0.0
 11
511.583603
 21
480.0
 31
0.0
  0
LINE
  8
LC-003-003-----0
  6
CONTINUOUS
  5
B3
 10
275.429611
 20
482.349471
 30
0.0
 11
257.583603
 21
480.0
 31
0.0
  0
LINE
  8
LC-003-003-----0
  6
CONTINUOUS
  5
B4
 10
257.583603
 20
480.0
 30
0.0
 11
275.429611
 21
477.650529
 31
0.0
  0
LINE
  8
LC-003-003-----0
  6
CONTINUOUS
  5
B5
 10
275.429611
 20
477.650529
 30
0.0
 11
275.429611
 21
482.349471
 31
0.0
  0
LINE
  8
LC-003-003-----0
  6
CONTINUOUS
  5
B6
 10
275.469649
 20
481.738609
 30
0.0
 11
262.263603
 21
480.0
 31
0.0
  0
LINE
  8
LC-003-003-----0
  6
CONTINUOUS
  5
B7
 10
262.263603
 20
480.0
 30
0.0
 11
275.469649
 21
478.261391
 31
0.0
  0
LINE
  8
LC-003-003-----0
  6
CONTINUOUS
  5
B8
 10
275.509687
 20
481.127746
 30
0.0
 11
266.943603
 21
480.0
 31
0.0
  0
LINE
  8
LC-003-003-----0
  6
CONTINUOUS
  5
B9
 10
266.943603
 20
480.0
 30
0.0
 11
275.509687
 21
478.872254
 31
0.0
  0
LINE
  8
LC-003-003-----0
  6
CONTINUOUS
  5
BA
 10
275.549725
 20
480.516884
 30
0.0
 11
271.623603
 21
480.0
 31
0.0
  0
LINE
  8
LC-003-003-----0
  6
CONTINUOUS
  5
BB
 10
271.623603
 20
480.0
 30
0.0
 11
275.549725
 21
479.483116
 31
0.0
  0
LINE
  8
LC-003-003-----0
  6
CONTINUOUS
  5
BC
 10
493.737596
 20
477.650529
 30
0.0
 11
511.583603
 21
480.0
 31
0.0
  0
LINE
  8
LC-003-003-----0
  6
CONTINUOUS
  5
BD
 10
511.583603
 20
480.0
 30
0.0
 11
493.737596
 21
482.349471
 31
0.0
  0
LINE
  8
LC-003-003-----0
  6
CONTINUOUS
  5
BE
 10
493.737596
 20
482.349471
 30
0.0
 11
493.737596
 21
477.650529
 31
0.0
  0
LINE
  8
LC-003-003-----0
  6
CONTINUOUS
  5
BF
 10
493.697558
 20
478.261391
 30
0.0
 11
506.903603
 21
480.0
 31
0.0
  0
LINE
  8
LC-003-003-----0
  6
CONTINUOUS
  5
C0
 10
506.903603
 20
480.0
 30
0.0
 11
493.697558
 21
481.738609
 31
0.0
  0
LINE
  8
LC-003-003-----0
  6
CONTINUOUS
  5
C1
 10
493.65752
 20
478.872254
 30
0.0
 11
502.223603
 21
480.0
 31
0.0
  0
LINE
  8
LC-003-003-----0
  6
CONTINUOUS
  5
C2
 10
502.223603
 20
480.0
 30
0.0
 11
493.65752
 21
481.127746
 31
0.0
  0
LINE
  8
LC-003-003-----0
  6
CONTINUOUS
  5
C3
 10
493.617482
 20
479.483116
 30
0.0
 11
497.543603
 21
480.0
 31
0.0
  0
LINE
  8
LC-003-003-----0
  6
CONTINUOUS
  5
C4
 10
497.543603
 20
480.0
 30
0.0
 11
493.617482
 21
480.516884
 31
0.0
  0
TEXT
  8
LC-003-003-----0
  6
CONTINUOUS
 62
     6
  5
C5
 10
340.500896
 20
490.431999
 30
0.0
 40
18.0
  1
250*180
 51
15.0
  7
LC-TXTSTYLE-150-400-0-0-D0
 72
     1
 11
387.378849
 21
490.431999
 31
0.0
  0
ENDBLK
  8
0
  5
C6
  0
ENDSEC
  0
SECTION
  2
ENTITIES
  0
VIEWPORT
  8
LC-000
  5
EA
 67
     1
 68
     1
 10
420.0
 20
297.0
 30
0.0
 40
840.0
 41
594.0
 69
     1
1001
ACAD
1000
MVIEW
1002
{
1070
    16
1010
0.0
1020
0.0
1030
0.0
1010
0.0
1020
0.0
1030
1.0
1040
0.0
1040
594.0
1040
420.0
1040
297.0
1040
50.0
1040
0.0
1040
0.0
1070
     0
1070
   100
1070
     1
1070
     1
1070
     0
1070
     0
1070
     0
1070
     0
1040
0.0
1040
0.0
1040
0.0
1040
1.0
1040
1.0
1040
0.0
1040
0.0
1070
     0
1002
{
1002
}
1002
}
  0
VIEWPORT
  8
0
  5
EB
 67
     1
 68
     1
 10
0.0
 20
0.0
 30
0.0
 40
0.0
 41
0.0
 69
     1
1001
ACAD
1000
MVIEW
1002
{
1070
    16
1010
0.0
1020
0.0
1030
0.0
1010
0.0
1020
0.0
1030
1.0
1040
0.0
1040
594.0
1040
0.0
1040
0.0
1040
50.0
1040
0.0
1040
0.0
1070
     0
1070
   100
1070
     0
1070
     1
1070
     0
1070
     0
1070
     0
1070
     0
1040
0.0
1040
0.0
1040
0.0
1040
0.5
1040
0.5
1040
0.5
1040
0.5
1070
     0
1002
{
1002
}
1002
}
  0
INSERT
  8
0
  5
C7
  2
*X0
 10
504.583603
 20
328.195524
 30
0.0
  0
INSERT
  8
0
  5
C8
  2
*X1
 10
243.583603
 20
328.195524
 30
0.0
  0
DIMENSION
  8
0
  5
C9
  2
*D2
 10
560.0
 20
404.195524
 30
0.0
 11
560.0
 21
404.195524
 31
0.0
 13
518.583603
 23
454.195524
 33
0.0
 14
515.583603
 24
354.195524
 34
0.0
 50
90.0
  3
LC-DIM-L-0090-02-02
  0
DIMENSION
  8
0
  5
CA
  2
*D3
 10
384.583603
 20
480.0
 30
0.0
 11
384.583603
 21
480.0
 31
0.0
  1
250*180
 13
257.583603
 23
454.195524
 33
0.0
 14
511.583603
 24
454.195524
 34
0.0
  3
LC-DIM-L-0090-02-02
  0
LINE
  8
LC-001-002-----0
  6
CONTINUOUS
  5
CC
 10
250.583603
 20
454.195524
 30
0.0
 11
518.583603
 21
454.195524
 31
0.0
  0
LINE
  8
LC-001-002-----0
  6
CONTINUOUS
  5
CD
 10
518.583603
 20
431.195524
 30
0.0
 11
525.583603
 21
431.195524
 31
0.0
  0
LINE
  8
LC-001-002-----0
  6
CONTINUOUS
  5
CE
 10
243.583603
 20
431.195524
 30
0.0
 11
250.583603
 21
431.195524
 31
0.0
  0
LINE
  8
LC-001-002-----0
  6
CONTINUOUS
  5
CF
 10
243.583603
 20
431.195524
 30
0.0
 11
243.583603
 21
425.195524
 31
0.0
  0
LINE
  8
LC-001-002-----0
  6
CONTINUOUS
  5
D0
 10
525.583603
 20
431.195524
 30
0.0
 11
525.583603
 21
425.195524
 31
0.0
  0
LINE
  8
LC-001-002-----0
  6
CONTINUOUS
  5
D1
 10
250.583603
 20
454.195524
 30
0.0
 11
250.583603
 21
431.195524
 31
0.0
  0
LINE
  8
LC-001-002-----0
  6
CONTINUOUS
  5
D2
 10
257.583603
 20
454.195524
 30
0.0
 11
257.583603
 21
429.195524
 31
0.0
  0
LINE
  8
LC-001-002-----0
  6
CONTINUOUS
  5
D3
 10
243.583603
 20
425.195524
 30
0.0
 11
252.583603
 21
422.895524
 31
0.0
  0
LINE
  8
LC-001-002-----0
  6
CONTINUOUS
  5
D4
 10
252.583603
 20
422.895524
 30
0.0
 11
258.583603
 21
417.195524
 31
0.0
  0
LINE
  8
LC-001-002-----0
  6
CONTINUOUS
  5
D5
 10
253.583603
 20
354.195524
 30
0.0
 11
258.583603
 21
354.195524
 31
0.0
  0
LINE
  8
LC-001-002-----0
  6
CONTINUOUS
  5
D6
 10
258.583603
 20
417.195524
 30
0.0
 11
258.583603
 21
358.795524
 31
0.0
  0
LINE
  8
LC-001-002-----0
  6
CONTINUOUS
  5
D7
 10
258.583603
 20
354.195524
 30
0.0
 11
258.583603
 21
328.195524
 31
0.0
  0
LINE
  8
LC-001-002-----0
  6
CONTINUOUS
  5
D8
 10
264.583603
 20
429.195524
 30
0.0
 11
264.583603
 21
328.195524
 31
0.0
  0
LINE
  8
LC-001-002-----0
  6
CONTINUOUS
  5
D9
 10
258.583603
 20
358.795524
 30
0.0
 11
253.583603
 21
357.857735
 31
0.0
  0
LINE
  8
LC-001-002-----0
  6
CONTINUOUS
  5
DA
 10
253.583603
 20
357.857735
 30
0.0
 11
253.583603
 21
354.195524
 31
0.0
  0
LINE
  8
LC-001-002-----0
  6
CONTINUOUS
  5
DB
 10
525.583603
 20
425.195524
 30
0.0
 11
516.583603
 21
422.895524
 31
0.0
  0
LINE
  8
LC-001-002-----0
  6
CONTINUOUS
  5
DC
 10
516.583603
 20
422.895524
 30
0.0
 11
510.583603
 21
417.195524
 31
0.0
  0
LINE
  8
LC-001-002-----0
  6
CONTINUOUS
  5
DD
 10
510.583603
 20
417.195524
 30
0.0
 11
510.583603
 21
358.795524
 31
0.0
  0
LINE
  8
LC-001-002-----0
  6
CONTINUOUS
  5
DE
 10
510.583603
 20
358.795524
 30
0.0
 11
515.583603
 21
357.857735
 31
0.0
  0
LINE
  8
LC-001-002-----0
  6
CONTINUOUS
  5
DF
 10
515.583603
 20
357.857735
 30
0.0
 11
515.583603
 21
354.195524
 31
0.0
  0
LINE
  8
LC-001-002-----0
  6
CONTINUOUS
  5
E0
 10
515.583603
 20
354.195524
 30
0.0
 11
510.583603
 21
354.195524
 31
0.0
  0
LINE
  8
LC-001-002-----0
  6
CONTINUOUS
  5
E1
 10
510.583603
 20
354.195524
 30
0.0
 11
510.583603
 21
328.195524
 31
0.0
  0
LINE
  8
LC-001-002-----0
  6
CONTINUOUS
  5
E2
 10
504.583603
 20
429.195524
 30
0.0
 11
504.583603
 21
328.195524
 31
0.0
  0
LINE
  8
LC-001-002-----0
  6
DASHDOT
 62
     2
  5
E4
 10
384.583603
 20
454.195524
 30
0.0
 11
384.583603
 21
328.195524
 31
0.0
  0
LINE
  8
LC-001-002-----0
  6
CONTINUOUS
  5
E5
 10
518.583603
 20
454.195524
 30
0.0
 11
518.583603
 21
431.195524
 31
0.0
  0
LINE
  8
LC-001-002-----0
  6
CONTINUOUS
  5
E6
 10
257.583603
 20
429.195524
 30
0.0
 11
511.583603
 21
429.195524
 31
0.0
  0
LINE
  8
LC-001-002-----0
  6
CONTINUOUS
  5
E7
 10
258.583603
 20
328.195524
 30
0.0
 11
510.583603
 21
328.195524
 31
0.0
  0
LINE
  8
LC-001-002-----0
  6
CONTINUOUS
  5
E8
 10
511.583603
 20
454.195524
 30
0.0
 11
511.583603
 21
429.195524
 31
0.0
  0
ENDSEC
  0
EOF
