  0
SECTION
  2
HEADER
  9
$ACADVER
  1
AC1009
  9
$INSBASE
 10
0.0
 20
0.0
 30
0.0
  9
$EXTMIN
 10
0.0
 20
0.0
 30
0.0
  9
$EXTMAX
 10
840.0
 20
594.0
 30
0.0
  9
$LIMMIN
 10
0.0
 20
0.0
  9
$LIMMAX
 10
840.0
 20
594.0
  9
$ORTHOMODE
 70
     0
  9
$REGENMODE
 70
     1
  9
$FILLMODE
 70
     1
  9
$QTEXTMODE
 70
     0
  9
$MIRRTEXT
 70
     1
  9
$DRAGMODE
 70
     2
  9
$LTSCALE
 40
2.0
  9
$OSMODE
 70
     0
  9
$ATTMODE
 70
     1
  9
$TEXTSIZE
 40
0.2
  9
$TRACEWID
 40
0.05
  9
$TEXTSTYLE
  7
STANDARD
  9
$CLAYER
  8
0
  9
$CELTYPE
  6
BYLAYER
  9
$CECOLOR
 62
     7
  9
$DIMSCALE
 40
2.0
  9
$DIMASZ
 40
3.5
  9
$DIMEXO
 40
0.0625
  9
$DIMDLI
 40
0.38
  9
$DIMRND
 40
0.0
  9
$DIMDLE
 40
0.0
  9
$DIMEXE
 40
0.18
  9
$DIMTP
 40
0.0
  9
$DIMTM
 40
0.0
  9
$DIMTXT
 40
3.5
  9
$DIMCEN
 40
0.09
  9
$DIMTSZ
 40
0.0
  9
$DIMTOL
 70
     0
  9
$DIMLIM
 70
     0
  9
$DIMTIH
 70
     1
  9
$DIMTOH
 70
     1
  9
$DIMSE1
 70
     0
  9
$DIMSE2
 70
     0
  9
$DIMTAD
 70
     1
  9
$DIMZIN
 70
     0
  9
$DIMBLK
  1

  9
$DIMASO
 70
     1
  9
$DIMSHO
 70
     1
  9
$DIMPOST
  1

  9
$DIMAPOST
  1

  9
$DIMALT
 70
     0
  9
$DIMALTD
 70
     2
  9
$DIMALTF
 40
25.4
  9
$DIMLFAC
 40
1.0
  9
$DIMTOFL
 70
     0
  9
$DIMTVP
 40
0.0
  9
$DIMTIX
 70
     0
  9
$DIMSOXD
 70
     0
  9
$DIMSAH
 70
     0
  9
$DIMBLK1
  1

  9
$DIMBLK2
  1

  9
$DIMSTYLE
  2
STANDARD
  9
$DIMCLRD
 70
     0
  9
$DIMCLRE
 70
     0
  9
$DIMCLRT
 70
     0
  9
$DIMTFAC
 40
1.0
  9
$DIMGAP
 40
0.09
  9
$LUNITS
 70
     2
  9
$LUPREC
 70
     2
  9
$AXISMODE
 70
     0
  9
$AXISUNIT
 10
0.0
 20
0.0
  9
$SKETCHINC
 40
0.1
  9
$FILLETRAD
 40
0.0
  9
$AUNITS
 70
     0
  9
$AUPREC
 70
     0
  9
$MENU
  1
acad
  9
$ELEVATION
 40
0.0
  9
$PELEVATION
 40
0.0
  9
$THICKNESS
 40
0.0
  9
$LIMCHECK
 70
     0
  9
$BLIPMODE
 70
     1
  9
$CHAMFERA
 40
0.0
  9
$CHAMFERB
 40
0.0
  9
$SKPOLY
 70
     0
  9
$TDCREATE
 40
0.000000000
  9
$TDUPDATE
 40
0.000000000
  9
$TDINDWG
 40
0.0000000000
  9
$TDUSRTIMER
 40
0.0000000000
  9
$USRTIMER
 70
     1
  9
$ANGBASE
 50
0.0
  9
$ANGDIR
 70
     0
  9
$PDMODE
 70
     0
  9
$PDSIZE
 40
0.0
  9
$PLINEWID
 40
0.0
  9
$COORDS
 70
     0
  9
$SPLFRAME
 70
     0
  9
$SPLINETYPE
 70
     6
  9
$SPLINESEGS
 70
     8
  9
$ATTDIA
 70
     0
  9
$ATTREQ
 70
     1
  9
$HANDLING
 70
     1
  9
$HANDSEED
  5
5B2
  9
$SURFTAB1
 70
     6
  9
$SURFTAB2
 70
     6
  9
$SURFTYPE
 70
     6
  9
$SURFU
 70
     6
  9
$SURFV
 70
     6
  9
$UCSNAME
  2

  9
$UCSORG
 10
0.0
 20
0.0
 30
0.0
  9
$UCSXDIR
 10
1.0
 20
0.0
 30
0.0
  9
$UCSYDIR
 10
0.0
 20
1.0
 30
0.0
  9
$PUCSNAME
  2

  9
$PUCSORG
 10
0.0
 20
0.0
 30
0.0
  9
$PUCSXDIR
 10
1.0
 20
0.0
 30
0.0
  9
$PUCSYDIR
 10
0.0
 20
1.0
 30
0.0
  9
$USERI1
 70
     0
  9
$USERI2
 70
     0
  9
$USERI3
 70
     0
  9
$USERI4
 70
     0
  9
$USERI5
 70
     0
  9
$USERR1
 40
0.0
  9
$USERR2
 40
0.0
  9
$USERR3
 40
0.0
  9
$USERR4
 40
0.0
  9
$USERR5
 40
0.0
  9
$WORLDVIEW
 70
     1
  9
$SHADEDGE
 70
     3
  9
$SHADEDIF
 70
    70
  9
$TILEMODE
 70
     1
  9
$MAXACTVP
 70
    16
  9
$PINSBASE
 10
0.0
 20
0.0
 30
0.0
  9
$PLIMCHECK
 70
     0
  9
$PEXTMIN
 10
1.000000E+20
 20
1.000000E+20
 30
1.000000E+20
  9
$PEXTMAX
 10
-1.000000E+20
 20
-1.000000E+20
 30
-1.000000E+20
  9
$PLIMMIN
 10
0.0
 20
0.0
  9
$PLIMMAX
 10
840.0
 20
594.0
  9
$UNITMODE
 70
     0
  9
$VISRETAIN
 70
     0
  9
$PLINEGEN
 70
     1
  9
$PSLTSCALE
 70
     0
  9
$TREEDEPTH
 70
  3020
  9
$DWGCODEPAGE
  3
dos850
  0
ENDSEC
  0
SECTION
  2
TABLES
  0
TABLE
  2
VPORT
 70
     1
  0
VPORT
  2
*ACTIVE
 70
     0
 10
0.0
 20
0.0
 11
1.0
 21
1.0
 12
420.0
 22
297.0
 13
0.0
 23
0.0
 14
1.0
 24
1.0
 15
0.0
 25
0.0
 16
0.0
 26
0.0
 36
1.0
 17
0.0
 27
0.0
 37
0.0
 40
594.0
 41
1.604229
 42
50.0
 43
0.0
 44
0.0
 50
0.0
 51
0.0
 71
     0
 72
   100
 73
     1
 74
     1
 75
     0
 76
     0
 77
     0
 78
     0
  0
ENDTAB
  0
TABLE
  2
LTYPE
 70
     3
  0
LTYPE
  2
CONTINUOUS
 70
    64
  3
Solid line
 72
    65
 73
     0
 40
0.0
  0
LTYPE
  2
DASHED
 70
    64
  3
__ __ __ __ __
 72
    65
 73
     2
 40
6.25
 49
5.0
 49
-1.25
  0
LTYPE
  2
DASHDOT
 70
    64
  3
__ . __ . __ . __ . __
 72
    65
 73
     4
 40
7.5
 49
5.0
 49
-1.25
 49
0.0
 49
-1.25
  0
ENDTAB
  0
TABLE
  2
LAYER
 70
    12
  0
LAYER
  2
0
 70
     0
 62
     7
  6
CONTINUOUS
  0
LAYER
  2
LC-INFO-1-2-MM-A3-0
 70
     1
 62
    -1
  6
CONTINUOUS
  0
LAYER
  2
LC-005-003-MTH-0
 70
     0
 62
     2
  6
CONTINUOUS
  0
LAYER
  2
LC-006-003-MTG-0
 70
     0
 62
     2
  6
CONTINUOUS
  0
LAYER
  2
LC-004-003-----0
 70
     0
 62
     2
  6
CONTINUOUS
  0
LAYER
  2
LC-008-005-----0
 70
     0
 62
     2
  6
CONTINUOUS
  0
LAYER
  2
LC-007-000-----0
 70
     0
 62
     7
  6
CONTINUOUS
  0
LAYER
  2
LC-009-000-----0
 70
     0
 62
     7
  6
CONTINUOUS
  0
LAYER
  2
LC-001-002-----0
 70
     0
 62
     1
  6
CONTINUOUS
  0
LAYER
  2
LC-002-002-RND-0
 70
     0
 62
     1
  6
CONTINUOUS
  0
LAYER
  2
LC-003-004-----0
 70
     0
 62
     1
  6
CONTINUOUS
  0
LAYER
  2
LC-000
 70
     0
 62
     7
  6
CONTINUOUS
  0
ENDTAB
  0
TABLE
  2
STYLE
 70
     4
  0
STYLE
  2
STANDARD
 70
     0
 40
0.0
 41
1.0
 50
0.0
 71
     0
 42
0.0
  3
txt
  4

  0
STYLE
  2
LC-STANDARD
 70
    64
 40
0.0
 41
1.0
 50
0.0
 71
     0
 42
3.5
  3
MONOTXT
  4

  0
STYLE
  2
LC-TXTSTYLE-150-400-0-0-A2
 70
    64
 40
0.0
 41
1.0
 50
15.0
 71
     0
 42
3.5
  3
MONOTXT
  4

  0
STYLE
  2
LC-TXTSTYLE-150-400-0-0-D3
 70
    64
 40
0.0
 41
1.0
 50
15.0
 71
     0
 42
3.5
  3
LC-STANDARD
  4

  0
ENDTAB
  0
TABLE
  2
VIEW
 70
     0
  0
ENDTAB
  0
TABLE
  2
UCS
 70
     0
  0
ENDTAB
  0
TABLE
  2
APPID
 70
     1
  0
APPID
  2
ACAD
 70
     0
  0
ENDTAB
  0
TABLE
  2
DIMSTYLE
 70
     3
  0
DIMSTYLE
  2
STANDARD
 70
     0
  3

  4

  5

  6

  7

 40
1.0
 41
0.18
 42
0.0625
 43
0.38
 44
0.18
 45
0.0
 46
0.0
 47
0.0
 48
0.0
 71
     0
 72
     0
 73
     1
 74
     1
 75
     0
 76
     0
 77
     0
 78
     0
140
0.18
141
0.09
142
0.0
143
25.4
144
1.0
145
0.0
146
1.0
147
0.09
170
     0
171
     2
172
     0
173
     0
174
     0
175
     0
176
     0
177
     0
178
     0
  0
DIMSTYLE
  2
LC-STANDARD
 70
     0
  3

  4

  5

  6

  7

 40
1.0
 41
3.5
 42
0.0
 43
7.5
 44
1.8
 45
0.0
 46
0.0
 47
0.0
 48
0.0
 71
     0
 72
     0
 73
     0
 74
     0
 75
     0
 76
     0
 77
     1
 78
     8
140
3.5
141
0.0
142
0.0
143
25.4
144
1.0
145
0.0
146
0.71
147
1.5
170
     0
171
     2
172
     1
173
     0
174
     0
175
     0
176
     0
177
     0
178
     3
  0
DIMSTYLE
  2
LC-DIM-L-0140-02-02
 70
     0
  3

  4

  5

  6

  7

 40
2.0
 41
3.5
 42
0.0
 43
7.5
 44
1.8
 45
0.0
 46
0.0
 47
0.0
 48
0.0
 71
     0
 72
     0
 73
     0
 74
     0
 75
     0
 76
     0
 77
     1
 78
     8
140
14.0
141
0.0
142
0.0
143
25.4
144
1.0
145
0.0
146
0.71
147
1.5
170
     0
171
     2
172
     0
173
     0
174
     0
175
     0
176
     2
177
     2
178
     8
  0
ENDTAB
  0
ENDSEC
  0
SECTION
  2
BLOCKS
  0
BLOCK
  8
0
  5
23
  2
*D0
 70
    65
 10
0.0
 20
0.0
 30
0.0
  3
*D0
  0
LINE
  8
LC-005-003-MTH-0
  6
CONTINUOUS
  5
25
 10
215.839514
 20
236.665606
 30
0.0
 11
215.839514
 21
340.8
 31
0.0
  0
LINE
  8
LC-005-003-MTH-0
  6
CONTINUOUS
  5
26
 10
325.839514
 20
236.665606
 30
0.0
 11
325.839514
 21
340.8
 31
0.0
  0
LINE
  8
LC-006-003-MTG-0
  6
CONTINUOUS
  5
28
 10
215.839514
 20
324.0
 30
0.0
 11
325.839514
 21
324.0
 31
0.0
  0
LINE
  8
LC-004-003-----0
  6
CONTINUOUS
  5
2A
 10
243.59997
 20
327.654733
 30
0.0
 11
215.839514
 21
324.0
 31
0.0
  0
LINE
  8
LC-004-003-----0
  6
CONTINUOUS
  5
2B
 10
215.839514
 20
324.0
 30
0.0
 11
243.59997
 21
320.345267
 31
0.0
  0
LINE
  8
LC-004-003-----0
  6
CONTINUOUS
  5
2C
 10
243.59997
 20
320.345267
 30
0.0
 11
243.59997
 21
327.654733
 31
0.0
  0
LINE
  8
LC-004-003-----0
  6
CONTINUOUS
  5
2D
 10
243.662251
 20
326.704503
 30
0.0
 11
223.119514
 21
324.0
 31
0.0
  0
LINE
  8
LC-004-003-----0
  6
CONTINUOUS
  5
2E
 10
223.119514
 20
324.0
 30
0.0
 11
243.662251
 21
321.295497
 31
0.0
  0
LINE
  8
LC-004-003-----0
  6
CONTINUOUS
  5
2F
 10
243.724533
 20
325.754272
 30
0.0
 11
230.399514
 21
324.0
 31
0.0
  0
LINE
  8
LC-004-003-----0
  6
CONTINUOUS
  5
30
 10
230.399514
 20
324.0
 30
0.0
 11
243.724533
 21
322.245728
 31
0.0
  0
LINE
  8
LC-004-003-----0
  6
CONTINUOUS
  5
31
 10
243.786814
 20
324.804041
 30
0.0
 11
237.679514
 21
324.0
 31
0.0
  0
LINE
  8
LC-004-003-----0
  6
CONTINUOUS
  5
32
 10
237.679514
 20
324.0
 30
0.0
 11
243.786814
 21
323.195959
 31
0.0
  0
LINE
  8
LC-004-003-----0
  6
CONTINUOUS
  5
33
 10
298.079058
 20
320.345267
 30
0.0
 11
325.839514
 21
324.0
 31
0.0
  0
LINE
  8
LC-004-003-----0
  6
CONTINUOUS
  5
34
 10
325.839514
 20
324.0
 30
0.0
 11
298.079058
 21
327.654733
 31
0.0
  0
LINE
  8
LC-004-003-----0
  6
CONTINUOUS
  5
35
 10
298.079058
 20
327.654733
 30
0.0
 11
298.079058
 21
320.345267
 31
0.0
  0
LINE
  8
LC-004-003-----0
  6
CONTINUOUS
  5
36
 10
298.016776
 20
321.295497
 30
0.0
 11
318.559514
 21
324.0
 31
0.0
  0
LINE
  8
LC-004-003-----0
  6
CONTINUOUS
  5
37
 10
318.559514
 20
324.0
 30
0.0
 11
298.016776
 21
326.704503
 31
0.0
  0
LINE
  8
LC-004-003-----0
  6
CONTINUOUS
  5
38
 10
297.954495
 20
322.245728
 30
0.0
 11
311.279514
 21
324.0
 31
0.0
  0
LINE
  8
LC-004-003-----0
  6
CONTINUOUS
  5
39
 10
311.279514
 20
324.0
 30
0.0
 11
297.954495
 21
325.754272
 31
0.0
  0
LINE
  8
LC-004-003-----0
  6
CONTINUOUS
  5
3A
 10
297.892213
 20
323.195959
 30
0.0
 11
303.999514
 21
324.0
 31
0.0
  0
LINE
  8
LC-004-003-----0
  6
CONTINUOUS
  5
3B
 10
303.999514
 20
324.0
 30
0.0
 11
297.892213
 21
324.804041
 31
0.0
  0
TEXT
  8
LC-004-003-----0
  6
CONTINUOUS
 62
     8
  5
3D
 10
237.090036
 20
331.827554
 30
0.0
 40
28.0
  1
Ø110
 41
0.9
 51
15.0
  7
LC-TXTSTYLE-150-400-0-0-D0
 72
     1
 11
275.187674
 21
331.827554
 31
0.0
  0
ENDBLK
  8
0
  5
3E
  0
BLOCK
  8
0
  5
40
  2
BLK1
 70
    64
 10
0.0
 20
0.0
 30
0.0
  3
BLK1
  0
ENDBLK
  8
0
  5
41
  0
BLOCK
  8
0
  5
43
  2
*D2
 70
    65
 10
0.0
 20
0.0
 30
0.0
  3
*D2
  0
LINE
  8
LC-005-003-MTH-0
  6
CONTINUOUS
  5
44
 10
204.839514
 20
229.665606
 30
0.0
 11
204.839514
 21
137.2
 31
0.0
  0
LINE
  8
LC-005-003-MTH-0
  6
CONTINUOUS
  5
45
 10
336.839514
 20
229.665606
 30
0.0
 11
336.839514
 21
137.2
 31
0.0
  0
LINE
  8
LC-006-003-MTG-0
  6
CONTINUOUS
  5
46
 10
204.839514
 20
154.0
 30
0.0
 11
336.839514
 21
154.0
 31
0.0
  0
LINE
  8
LC-004-003-----0
  6
CONTINUOUS
  5
47
 10
232.59997
 20
157.654733
 30
0.0
 11
204.839514
 21
154.0
 31
0.0
  0
LINE
  8
LC-004-003-----0
  6
CONTINUOUS
  5
48
 10
204.839514
 20
154.0
 30
0.0
 11
232.59997
 21
150.345267
 31
0.0
  0
LINE
  8
LC-004-003-----0
  6
CONTINUOUS
  5
49
 10
232.59997
 20
150.345267
 30
0.0
 11
232.59997
 21
157.654733
 31
0.0
  0
LINE
  8
LC-004-003-----0
  6
CONTINUOUS
  5
4A
 10
232.662251
 20
156.704503
 30
0.0
 11
212.119514
 21
154.0
 31
0.0
  0
LINE
  8
LC-004-003-----0
  6
CONTINUOUS
  5
4B
 10
212.119514
 20
154.0
 30
0.0
 11
232.662251
 21
151.295497
 31
0.0
  0
LINE
  8
LC-004-003-----0
  6
CONTINUOUS
  5
4C
 10
232.724533
 20
155.754272
 30
0.0
 11
219.399514
 21
154.0
 31
0.0
  0
LINE
  8
LC-004-003-----0
  6
CONTINUOUS
  5
4D
 10
219.399514
 20
154.0
 30
0.0
 11
232.724533
 21
152.245728
 31
0.0
  0
LINE
  8
LC-004-003-----0
  6
CONTINUOUS
  5
4E
 10
232.786814
 20
154.804041
 30
0.0
 11
226.679514
 21
154.0
 31
0.0
  0
LINE
  8
LC-004-003-----0
  6
CONTINUOUS
  5
4F
 10
226.679514
 20
154.0
 30
0.0
 11
232.786814
 21
153.195959
 31
0.0
  0
LINE
  8
LC-004-003-----0
  6
CONTINUOUS
  5
50
 10
309.079058
 20
150.345267
 30
0.0
 11
336.839514
 21
154.0
 31
0.0
  0
LINE
  8
LC-004-003-----0
  6
CONTINUOUS
  5
51
 10
336.839514
 20
154.0
 30
0.0
 11
309.079058
 21
157.654733
 31
0.0
  0
LINE
  8
LC-004-003-----0
  6
CONTINUOUS
  5
52
 10
309.079058
 20
157.654733
 30
0.0
 11
309.079058
 21
150.345267
 31
0.0
  0
LINE
  8
LC-004-003-----0
  6
CONTINUOUS
  5
53
 10
309.016776
 20
151.295497
 30
0.0
 11
329.559514
 21
154.0
 31
0.0
  0
LINE
  8
LC-004-003-----0
  6
CONTINUOUS
  5
54
 10
329.559514
 20
154.0
 30
0.0
 11
309.016776
 21
156.704503
 31
0.0
  0
LINE
  8
LC-004-003-----0
  6
CONTINUOUS
  5
55
 10
308.954495
 20
152.245728
 30
0.0
 11
322.279514
 21
154.0
 31
0.0
  0
LINE
  8
LC-004-003-----0
  6
CONTINUOUS
  5
56
 10
322.279514
 20
154.0
 30
0.0
 11
308.954495
 21
155.754272
 31
0.0
  0
LINE
  8
LC-004-003-----0
  6
CONTINUOUS
  5
57
 10
308.892213
 20
153.195959
 30
0.0
 11
314.999514
 21
154.0
 31
0.0
  0
LINE
  8
LC-004-003-----0
  6
CONTINUOUS
  5
58
 10
314.999514
 20
154.0
 30
0.0
 11
308.892213
 21
154.804041
 31
0.0
  0
TEXT
  8
LC-004-003-----0
  6
CONTINUOUS
 62
     8
  5
59
 10
237.090036
 20
161.827554
 30
0.0
 40
28.0
  1
Ø132
 51
15.0
  7
LC-TXTSTYLE-150-400-0-0-D0
 72
     1
 11
275.187674
 21
161.827554
 31
0.0
  0
ENDBLK
  8
0
  5
5A
  0
BLOCK
  8
0
  5
5C
  2
BLK2
 70
    64
 10
0.0
 20
0.0
 30
0.0
  3
BLK2
  0
ENDBLK
  8
0
  5
5D
  0
BLOCK
  8
0
  5
5F
  2
*X4
 70
    65
 10
203.839514
 20
232.165606
 30
0.0
  3
*X4
  0
LINE
  8
LC-008-005-----0
  6
CONTINUOUS
  5
61
 10
212.339514
 20
282.635233
 30
0.0
 11
208.809141
 21
286.165606
 31
0.0
  0
LINE
  8
LC-008-005-----0
  6
DASHED
  5
63
 10
215.075884
 20
274.242009
 30
0.0
 11
204.124066
 21
285.193827
 31
0.0
  0
LINE
  8
LC-008-005-----0
  6
DASHED
  5
64
 10
211.99677
 20
274.492696
 30
0.0
 11
206.839514
 21
279.649952
 31
0.0
  0
LINE
  8
LC-008-005-----0
  6
DASHED
  5
65
 10
204.323859
 20
282.165606
 30
0.0
 11
203.839514
 21
282.649952
 31
0.0
  0
LINE
  8
LC-008-005-----0
  6
CONTINUOUS
  5
66
 10
216.441216
 20
264.391395
 30
0.0
 11
212.478517
 21
268.354094
 31
0.0
  0
LINE
  8
LC-008-005-----0
  6
CONTINUOUS
  5
67
 10
211.615838
 20
269.216773
 30
0.0
 11
206.839514
 21
273.993098
 31
0.0
  0
LINE
  8
LC-008-005-----0
  6
CONTINUOUS
  5
68
 10
213.341609
 20
264.662575
 30
0.0
 11
206.839514
 21
271.16467
 31
0.0
  0
LINE
  8
LC-008-005-----0
  6
DASHED
  5
69
 10
211.339514
 20
261.007816
 30
0.0
 11
206.839514
 21
265.507816
 31
0.0
  0
LINE
  8
LC-008-005-----0
  6
DASHED
  5
6A
 10
211.339514
 20
258.179389
 30
0.0
 11
206.839514
 21
262.679389
 31
0.0
  0
LINE
  8
LC-008-005-----0
  6
CONTINUOUS
  5
6B
 10
211.339514
 20
252.522535
 30
0.0
 11
206.839514
 21
257.022535
 31
0.0
  0
LINE
  8
LC-008-005-----0
  6
CONTINUOUS
  5
6C
 10
211.339514
 20
249.694108
 30
0.0
 11
206.839514
 21
254.194108
 31
0.0
  0
LINE
  8
LC-008-005-----0
  6
DASHED
  5
6D
 10
211.339514
 20
244.037253
 30
0.0
 11
206.839514
 21
248.537253
 31
0.0
  0
LINE
  8
LC-008-005-----0
  6
DASHED
  5
6E
 10
211.339514
 20
241.208826
 30
0.0
 11
206.839514
 21
245.708826
 31
0.0
  0
LINE
  8
LC-008-005-----0
  6
CONTINUOUS
  5
6F
 10
211.339514
 20
235.551972
 30
0.0
 11
206.839514
 21
240.051972
 31
0.0
  0
LINE
  8
LC-008-005-----0
  6
CONTINUOUS
  5
70
 10
211.339514
 20
232.723545
 30
0.0
 11
206.839514
 21
237.223545
 31
0.0
  0
ENDBLK
  8
0
  5
71
  0
BLOCK
  8
0
  5
73
  2
*D5
 70
    65
 10
0.0
 20
0.0
 30
0.0
  3
*D5
  0
LINE
  8
LC-005-003-MTH-0
  6
CONTINUOUS
  5
74
 10
336.839514
 20
229.665606
 30
0.0
 11
487.2
 21
229.665606
 31
0.0
  0
LINE
  8
LC-005-003-MTH-0
  6
CONTINUOUS
  5
75
 10
387.339501
 20
448.642185
 30
0.0
 11
487.2
 21
448.642185
 31
0.0
  0
LINE
  8
LC-006-003-MTG-0
  6
CONTINUOUS
  5
76
 10
470.4
 20
229.665606
 30
0.0
 11
470.4
 21
448.642185
 31
0.0
  0
LINE
  8
LC-004-003-----0
  6
CONTINUOUS
  5
77
 10
466.745267
 20
257.426062
 30
0.0
 11
470.4
 21
229.665606
 31
0.0
  0
LINE
  8
LC-004-003-----0
  6
CONTINUOUS
  5
78
 10
470.4
 20
229.665606
 30
0.0
 11
474.054733
 21
257.426062
 31
0.0
  0
LINE
  8
LC-004-003-----0
  6
CONTINUOUS
  5
79
 10
474.054733
 20
257.426062
 30
0.0
 11
466.745267
 21
257.426062
 31
0.0
  0
LINE
  8
LC-004-003-----0
  6
CONTINUOUS
  5
7A
 10
467.695497
 20
257.488344
 30
0.0
 11
470.4
 21
236.945606
 31
0.0
  0
LINE
  8
LC-004-003-----0
  6
CONTINUOUS
  5
7B
 10
470.4
 20
236.945606
 30
0.0
 11
473.104503
 21
257.488344
 31
0.0
  0
LINE
  8
LC-004-003-----0
  6
CONTINUOUS
  5
7C
 10
468.645728
 20
257.550625
 30
0.0
 11
470.4
 21
244.225606
 31
0.0
  0
LINE
  8
LC-004-003-----0
  6
CONTINUOUS
  5
7D
 10
470.4
 20
244.225606
 30
0.0
 11
472.154272
 21
257.550625
 31
0.0
  0
LINE
  8
LC-004-003-----0
  6
CONTINUOUS
  5
7E
 10
469.595959
 20
257.612906
 30
0.0
 11
470.4
 21
251.505606
 31
0.0
  0
LINE
  8
LC-004-003-----0
  6
CONTINUOUS
  5
7F
 10
470.4
 20
251.505606
 30
0.0
 11
471.204041
 21
257.612906
 31
0.0
  0
LINE
  8
LC-004-003-----0
  6
CONTINUOUS
  5
80
 10
474.054733
 20
420.881729
 30
0.0
 11
470.4
 21
448.642185
 31
0.0
  0
LINE
  8
LC-004-003-----0
  6
CONTINUOUS
  5
81
 10
470.4
 20
448.642185
 30
0.0
 11
466.745267
 21
420.881729
 31
0.0
  0
LINE
  8
LC-004-003-----0
  6
CONTINUOUS
  5
82
 10
466.745267
 20
420.881729
 30
0.0
 11
474.054733
 21
420.881729
 31
0.0
  0
LINE
  8
LC-004-003-----0
  6
CONTINUOUS
  5
83
 10
473.104503
 20
420.819448
 30
0.0
 11
470.4
 21
441.362185
 31
0.0
  0
LINE
  8
LC-004-003-----0
  6
CONTINUOUS
  5
84
 10
470.4
 20
441.362185
 30
0.0
 11
467.695497
 21
420.819448
 31
0.0
  0
LINE
  8
LC-004-003-----0
  6
CONTINUOUS
  5
85
 10
472.154272
 20
420.757166
 30
0.0
 11
470.4
 21
434.082185
 31
0.0
  0
LINE
  8
LC-004-003-----0
  6
CONTINUOUS
  5
86
 10
470.4
 20
434.082185
 30
0.0
 11
468.645728
 21
420.757166
 31
0.0
  0
LINE
  8
LC-004-003-----0
  6
CONTINUOUS
  5
87
 10
471.204041
 20
420.694885
 30
0.0
 11
470.4
 21
426.802185
 31
0.0
  0
LINE
  8
LC-004-003-----0
  6
CONTINUOUS
  5
88
 10
470.4
 20
426.802185
 30
0.0
 11
469.595959
 21
420.694885
 31
0.0
  0
TEXT
  8
LC-004-003-----0
  6
CONTINUOUS
 62
     8
  5
89
 10
462.572446
 20
313.738276
 30
0.0
 40
28.0
  1
219
 50
90.0
 51
15.0
  7
LC-TXTSTYLE-150-400-0-0-D0
 72
     1
 11
462.572446
 21
343.502056
 31
0.0
  0
ENDBLK
  8
0
  5
8A
  0
BLOCK
  8
0
  5
8C
  2
*D6
 70
    65
 10
0.0
 20
0.0
 30
0.0
  3
*D6
  0
LINE
  8
LC-005-003-MTH-0
  6
CONTINUOUS
  5
8D
 10
336.839514
 20
229.665606
 30
0.0
 11
448.0
 21
229.665606
 31
0.0
  0
LINE
  8
LC-005-003-MTH-0
  6
CONTINUOUS
  5
8E
 10
345.198882
 20
432.166297
 30
0.0
 11
448.0
 21
432.166297
 31
0.0
  0
LINE
  8
LC-006-003-MTG-0
  6
CONTINUOUS
  5
8F
 10
431.2
 20
229.665606
 30
0.0
 11
431.2
 21
432.166297
 31
0.0
  0
LINE
  8
LC-004-003-----0
  6
CONTINUOUS
  5
90
 10
427.545267
 20
257.426062
 30
0.0
 11
431.2
 21
229.665606
 31
0.0
  0
LINE
  8
LC-004-003-----0
  6
CONTINUOUS
  5
91
 10
431.2
 20
229.665606
 30
0.0
 11
434.854733
 21
257.426062
 31
0.0
  0
LINE
  8
LC-004-003-----0
  6
CONTINUOUS
  5
92
 10
434.854733
 20
257.426062
 30
0.0
 11
427.545267
 21
257.426062
 31
0.0
  0
LINE
  8
LC-004-003-----0
  6
CONTINUOUS
  5
93
 10
428.495497
 20
257.488344
 30
0.0
 11
431.2
 21
236.945606
 31
0.0
  0
LINE
  8
LC-004-003-----0
  6
CONTINUOUS
  5
94
 10
431.2
 20
236.945606
 30
0.0
 11
433.904503
 21
257.488344
 31
0.0
  0
LINE
  8
LC-004-003-----0
  6
CONTINUOUS
  5
95
 10
429.445728
 20
257.550625
 30
0.0
 11
431.2
 21
244.225606
 31
0.0
  0
LINE
  8
LC-004-003-----0
  6
CONTINUOUS
  5
96
 10
431.2
 20
244.225606
 30
0.0
 11
432.954272
 21
257.550625
 31
0.0
  0
LINE
  8
LC-004-003-----0
  6
CONTINUOUS
  5
97
 10
430.395959
 20
257.612906
 30
0.0
 11
431.2
 21
251.505606
 31
0.0
  0
LINE
  8
LC-004-003-----0
  6
CONTINUOUS
  5
98
 10
431.2
 20
251.505606
 30
0.0
 11
432.004041
 21
257.612906
 31
0.0
  0
LINE
  8
LC-004-003-----0
  6
CONTINUOUS
  5
99
 10
434.854733
 20
404.405841
 30
0.0
 11
431.2
 21
432.166297
 31
0.0
  0
LINE
  8
LC-004-003-----0
  6
CONTINUOUS
  5
9A
 10
431.2
 20
432.166297
 30
0.0
 11
427.545267
 21
404.405841
 31
0.0
  0
LINE
  8
LC-004-003-----0
  6
CONTINUOUS
  5
9B
 10
427.545267
 20
404.405841
 30
0.0
 11
434.854733
 21
404.405841
 31
0.0
  0
LINE
  8
LC-004-003-----0
  6
CONTINUOUS
  5
9C
 10
433.904503
 20
404.34356
 30
0.0
 11
431.2
 21
424.886297
 31
0.0
  0
LINE
  8
LC-004-003-----0
  6
CONTINUOUS
  5
9D
 10
431.2
 20
424.886297
 30
0.0
 11
428.495497
 21
404.34356
 31
0.0
  0
LINE
  8
LC-004-003-----0
  6
CONTINUOUS
  5
9E
 10
432.954272
 20
404.281278
 30
0.0
 11
431.2
 21
417.606297
 31
0.0
  0
LINE
  8
LC-004-003-----0
  6
CONTINUOUS
  5
9F
 10
431.2
 20
417.606297
 30
0.0
 11
429.445728
 21
404.281278
 31
0.0
  0
LINE
  8
LC-004-003-----0
  6
CONTINUOUS
  5
A0
 10
432.004041
 20
404.218997
 30
0.0
 11
431.2
 21
410.326297
 31
0.0
  0
LINE
  8
LC-004-003-----0
  6
CONTINUOUS
  5
A1
 10
431.2
 20
410.326297
 30
0.0
 11
430.395959
 21
404.218997
 31
0.0
  0
TEXT
  8
LC-004-003-----0
  6
CONTINUOUS
 62
     8
  5
A2
 10
423.372446
 20
305.500332
 30
0.0
 40
28.0
  1
203
 50
90.0
 51
15.0
  7
LC-TXTSTYLE-150-400-0-0-D0
 72
     1
 11
423.372446
 21
335.264112
 31
0.0
  0
ENDBLK
  8
0
  5
A3
  0
BLOCK
  8
0
  5
A5
  2
BLK3
 70
    64
 10
0.0
 20
0.0
 30
0.0
  3
BLK3
  0
ENDBLK
  8
0
  5
A6
  0
BLOCK
  8
0
  5
A8
  2
OBJ1
 70
    64
 10
0.0
 20
0.0
 30
0.0
  3
OBJ1
  0
LINE
  8
LC-008-005-----0
  6
CONTINUOUS
  5
A9
 10
193.824795
 20
229.665606
 30
0.0
 11
196.324795
 21
227.165606
 31
0.0
  0
LINE
  8
LC-008-005-----0
  6
CONTINUOUS
  5
AA
 10
193.339514
 20
225.908247
 30
0.0
 11
195.339514
 21
223.908247
 31
0.0
  0
ENDBLK
  8
0
  5
AB
  0
BLOCK
  8
0
  5
AD
  2
*D9
 70
    65
 10
0.0
 20
0.0
 30
0.0
  3
*D9
  0
LINE
  8
LC-005-003-MTH-0
  6
CONTINUOUS
  5
AE
 10
336.839514
 20
229.665606
 30
0.0
 11
408.8
 21
229.665606
 31
0.0
  0
LINE
  8
LC-005-003-MTH-0
  6
CONTINUOUS
  5
AF
 10
335.839514
 20
286.165606
 30
0.0
 11
408.8
 21
286.165606
 31
0.0
  0
LINE
  8
LC-004-003-----0
  6
CONTINUOUS
  5
B0
 10
395.654733
 20
201.90515
 30
0.0
 11
392.0
 21
229.665606
 31
0.0
  0
LINE
  8
LC-004-003-----0
  6
CONTINUOUS
  5
B1
 10
392.0
 20
229.665606
 30
0.0
 11
388.345267
 21
201.90515
 31
0.0
  0
LINE
  8
LC-004-003-----0
  6
CONTINUOUS
  5
B2
 10
388.345267
 20
201.90515
 30
0.0
 11
395.654733
 21
201.90515
 31
0.0
  0
LINE
  8
LC-004-003-----0
  6
CONTINUOUS
  5
B3
 10
394.704503
 20
201.842869
 30
0.0
 11
392.0
 21
222.385606
 31
0.0
  0
LINE
  8
LC-004-003-----0
  6
CONTINUOUS
  5
B4
 10
392.0
 20
222.385606
 30
0.0
 11
389.295497
 21
201.842869
 31
0.0
  0
LINE
  8
LC-004-003-----0
  6
CONTINUOUS
  5
B5
 10
393.754272
 20
201.780587
 30
0.0
 11
392.0
 21
215.105606
 31
0.0
  0
LINE
  8
LC-004-003-----0
  6
CONTINUOUS
  5
B6
 10
392.0
 20
215.105606
 30
0.0
 11
390.245728
 21
201.780587
 31
0.0
  0
LINE
  8
LC-004-003-----0
  6
CONTINUOUS
  5
B7
 10
392.804041
 20
201.718306
 30
0.0
 11
392.0
 21
207.825606
 31
0.0
  0
LINE
  8
LC-004-003-----0
  6
CONTINUOUS
  5
B8
 10
392.0
 20
207.825606
 30
0.0
 11
391.195959
 21
201.718306
 31
0.0
  0
LINE
  8
LC-004-003-----0
  6
CONTINUOUS
  5
B9
 10
388.345267
 20
313.926062
 30
0.0
 11
392.0
 21
286.165606
 31
0.0
  0
LINE
  8
LC-004-003-----0
  6
CONTINUOUS
  5
BA
 10
392.0
 20
286.165606
 30
0.0
 11
395.654733
 21
313.926062
 31
0.0
  0
LINE
  8
LC-004-003-----0
  6
CONTINUOUS
  5
BB
 10
395.654733
 20
313.926062
 30
0.0
 11
388.345267
 21
313.926062
 31
0.0
  0
LINE
  8
LC-004-003-----0
  6
CONTINUOUS
  5
BC
 10
389.295497
 20
313.988344
 30
0.0
 11
392.0
 21
293.445606
 31
0.0
  0
LINE
  8
LC-004-003-----0
  6
CONTINUOUS
  5
BD
 10
392.0
 20
293.445606
 30
0.0
 11
394.704503
 21
313.988344
 31
0.0
  0
LINE
  8
LC-004-003-----0
  6
CONTINUOUS
  5
BE
 10
390.245728
 20
314.050625
 30
0.0
 11
392.0
 21
300.725606
 31
0.0
  0
LINE
  8
LC-004-003-----0
  6
CONTINUOUS
  5
BF
 10
392.0
 20
300.725606
 30
0.0
 11
393.754272
 21
314.050625
 31
0.0
  0
LINE
  8
LC-004-003-----0
  6
CONTINUOUS
  5
C0
 10
391.195959
 20
314.112906
 30
0.0
 11
392.0
 21
308.005606
 31
0.0
  0
LINE
  8
LC-004-003-----0
  6
CONTINUOUS
  5
C1
 10
392.0
 20
308.005606
 30
0.0
 11
392.804041
 21
314.112906
 31
0.0
  0
LINE
  8
LC-006-003-MTG-0
  6
CONTINUOUS
  5
C2
 10
392.0
 20
190.465606
 30
0.0
 11
392.0
 21
325.365606
 31
0.0
  0
TEXT
  8
LC-004-003-----0
  6
CONTINUOUS
 62
     8
  5
C3
 10
384.172446
 20
243.810223
 30
0.0
 40
28.0
  1
57
 50
90.0
 51
15.0
  7
LC-TXTSTYLE-150-400-0-0-D0
 72
     1
 11
384.172446
 21
262.263766
 31
0.0
  0
ENDBLK
  8
0
  5
C4
  0
BLOCK
  8
0
  5
C6
  2
*X10
 70
    65
 10
325.23954
 20
208.215147
 30
0.0
  3
*X10
  0
LINE
  8
LC-008-005-----0
  6
CONTINUOUS
  5
C7
 10
330.08954
 20
218.625322
 30
0.0
 11
329.549256
 21
219.165606
 31
0.0
  0
LINE
  8
LC-008-005-----0
  6
DASHED
  5
C8
 10
330.08954
 20
215.796895
 30
0.0
 11
327.655184
 21
218.231251
 31
0.0
  0
LINE
  8
LC-008-005-----0
  6
DASHED
  5
C9
 10
330.08954
 20
214.382682
 30
0.0
 11
326.948078
 21
217.524144
 31
0.0
  0
LINE
  8
LC-008-005-----0
  6
CONTINUOUS
  5
CA
 10
330.08954
 20
211.554255
 30
0.0
 11
325.733117
 21
215.910677
 31
0.0
  0
LINE
  8
LC-008-005-----0
  6
CONTINUOUS
  5
CB
 10
330.08954
 20
210.140041
 30
0.0
 11
327.589514
 21
212.640067
 31
0.0
  0
LINE
  8
LC-008-005-----0
  6
CONTINUOUS
  5
CC
 10
326.876987
 20
213.352594
 30
0.0
 11
325.366304
 21
214.863277
 31
0.0
  0
LINE
  8
LC-008-005-----0
  6
DASHED
  5
CD
 10
329.186006
 20
208.215147
 30
0.0
 11
327.589514
 21
209.81164
 31
0.0
  0
LINE
  8
LC-008-005-----0
  6
DASHED
  5
CE
 10
325.462773
 20
211.938381
 30
0.0
 11
325.23954
 21
212.161614
 31
0.0
  0
LINE
  8
LC-008-005-----0
  6
DASHED
  5
CF
 10
327.771793
 20
208.215147
 30
0.0
 11
327.589514
 21
208.397426
 31
0.0
  0
ENDBLK
  8
0
  5
D0
  0
BLOCK
  8
0
  5
D2
  2
*X11
 70
    65
 10
206.439488
 20
208.215147
 30
0.0
  3
*X11
  0
LINE
  8
LC-008-005-----0
  6
CONTINUOUS
  5
D3
 10
216.258878
 20
215.076259
 30
0.0
 11
212.16953
 21
219.165606
 31
0.0
  0
LINE
  8
LC-008-005-----0
  6
DASHED
  5
D4
 10
216.439488
 20
212.067222
 30
0.0
 11
211.589488
 21
216.917222
 31
0.0
  0
LINE
  8
LC-008-005-----0
  6
DASHED
  5
D5
 10
214.089514
 20
213.002982
 30
0.0
 11
211.589488
 21
215.503008
 31
0.0
  0
LINE
  8
LC-008-005-----0
  6
CONTINUOUS
  5
D6
 10
214.089514
 20
210.174555
 30
0.0
 11
211.589488
 21
212.674581
 31
0.0
  0
LINE
  8
LC-008-005-----0
  6
CONTINUOUS
  5
D7
 10
214.089514
 20
208.760341
 30
0.0
 11
211.589488
 21
211.260368
 31
0.0
  0
LINE
  8
LC-008-005-----0
  6
DASHED
  5
D8
 10
211.806281
 20
208.215147
 30
0.0
 11
211.589488
 21
208.43194
 31
0.0
  0
ENDBLK
  8
0
  5
D9
  0
BLOCK
  8
0
  5
DB
  2
*X12
 70
    65
 10
324.339684
 20
208.665606
 30
0.0
  3
*X12
  0
LINE
  8
LC-008-005-----0
  6
CONTINUOUS
  5
DC
 10
324.631118
 20
208.665606
 30
0.0
 11
325.000962
 21
209.035449
 31
0.0
  0
LINE
  8
LC-008-005-----0
  6
CONTINUOUS
  5
DD
 10
324.339684
 20
211.202599
 30
0.0
 11
325.839684
 21
212.702599
 31
0.0
  0
LINE
  8
LC-008-005-----0
  6
CONTINUOUS
  5
DE
 10
324.339684
 20
214.031027
 30
0.0
 11
325.839684
 21
215.531027
 31
0.0
  0
LINE
  8
LC-008-005-----0
  6
CONTINUOUS
  5
DF
 10
324.339684
 20
216.859454
 30
0.0
 11
327.645837
 21
220.165606
 31
0.0
  0
LINE
  8
LC-008-005-----0
  6
CONTINUOUS
  5
E0
 10
324.339684
 20
219.687881
 30
0.0
 11
328.839684
 21
224.187881
 31
0.0
  0
LINE
  8
LC-008-005-----0
  6
CONTINUOUS
  5
E1
 10
334.31741
 20
229.665606
 30
0.0
 11
336.839514
 21
232.18771
 31
0.0
  0
LINE
  8
LC-008-005-----0
  6
CONTINUOUS
  5
E2
 10
325.645807
 20
223.822431
 30
0.0
 11
328.839684
 21
227.016308
 31
0.0
  0
LINE
  8
LC-008-005-----0
  6
CONTINUOUS
  5
E3
 10
331.488983
 20
229.665606
 30
0.0
 11
333.988983
 21
232.165606
 31
0.0
  0
LINE
  8
LC-008-005-----0
  6
CONTINUOUS
  5
E4
 10
334.339514
 20
232.516137
 30
0.0
 11
336.839514
 21
235.016137
 31
0.0
  0
LINE
  8
LC-008-005-----0
  6
CONTINUOUS
  5
E5
 10
326.139684
 20
227.144735
 30
0.0
 11
331.160555
 21
232.165606
 31
0.0
  0
LINE
  8
LC-008-005-----0
  6
CONTINUOUS
  5
E6
 10
334.339514
 20
235.344564
 30
0.0
 11
336.839514
 21
237.844564
 31
0.0
  0
LINE
  8
LC-008-005-----0
  6
CONTINUOUS
  5
E7
 10
326.139684
 20
229.973162
 30
0.0
 11
328.332128
 21
232.165606
 31
0.0
  0
LINE
  8
LC-008-005-----0
  6
CONTINUOUS
  5
E8
 10
334.339514
 20
238.172991
 30
0.0
 11
336.839514
 21
240.672991
 31
0.0
  0
LINE
  8
LC-008-005-----0
  6
CONTINUOUS
  5
E9
 10
334.339514
 20
241.001419
 30
0.0
 11
336.839514
 21
243.501419
 31
0.0
  0
LINE
  8
LC-008-005-----0
  6
CONTINUOUS
  5
EA
 10
334.339514
 20
243.829846
 30
0.0
 11
336.839514
 21
246.329846
 31
0.0
  0
LINE
  8
LC-008-005-----0
  6
CONTINUOUS
  5
EB
 10
334.339514
 20
246.658273
 30
0.0
 11
336.839514
 21
249.158273
 31
0.0
  0
LINE
  8
LC-008-005-----0
  6
CONTINUOUS
  5
EC
 10
334.339514
 20
249.4867
 30
0.0
 11
336.839514
 21
251.9867
 31
0.0
  0
LINE
  8
LC-008-005-----0
  6
CONTINUOUS
  5
ED
 10
334.339514
 20
252.315127
 30
0.0
 11
336.839514
 21
254.815127
 31
0.0
  0
LINE
  8
LC-008-005-----0
  6
CONTINUOUS
  5
EE
 10
334.339514
 20
255.143554
 30
0.0
 11
336.839514
 21
257.643554
 31
0.0
  0
LINE
  8
LC-008-005-----0
  6
CONTINUOUS
  5
EF
 10
334.339514
 20
257.971981
 30
0.0
 11
336.839514
 21
260.471981
 31
0.0
  0
LINE
  8
LC-008-005-----0
  6
CONTINUOUS
  5
F0
 10
334.339514
 20
260.800408
 30
0.0
 11
336.839514
 21
263.300408
 31
0.0
  0
LINE
  8
LC-008-005-----0
  6
CONTINUOUS
  5
F1
 10
334.339514
 20
263.628836
 30
0.0
 11
336.839514
 21
266.128836
 31
0.0
  0
LINE
  8
LC-008-005-----0
  6
CONTINUOUS
  5
F2
 10
334.339514
 20
266.457263
 30
0.0
 11
336.839514
 21
268.957263
 31
0.0
  0
LINE
  8
LC-008-005-----0
  6
CONTINUOUS
  5
F3
 10
334.339514
 20
269.28569
 30
0.0
 11
336.839514
 21
271.78569
 31
0.0
  0
LINE
  8
LC-008-005-----0
  6
CONTINUOUS
  5
F4
 10
334.339514
 20
272.114117
 30
0.0
 11
336.839514
 21
274.614117
 31
0.0
  0
LINE
  8
LC-008-005-----0
  6
CONTINUOUS
  5
F5
 10
334.339514
 20
274.942544
 30
0.0
 11
336.839514
 21
277.442544
 31
0.0
  0
LINE
  8
LC-008-005-----0
  6
CONTINUOUS
  5
F6
 10
334.339514
 20
277.770971
 30
0.0
 11
336.839514
 21
280.270971
 31
0.0
  0
LINE
  8
LC-008-005-----0
  6
CONTINUOUS
  5
F7
 10
334.339514
 20
280.599398
 30
0.0
 11
335.405721
 21
281.665606
 31
0.0
  0
ENDBLK
  8
0
  5
F8
  0
BLOCK
  8
0
  5
FA
  2
BLK4
 70
    64
 10
0.0
 20
0.0
 30
0.0
  3
BLK4
  0
ENDBLK
  8
0
  5
FB
  0
BLOCK
  8
0
  5
FD
  2
BLK5
 70
    64
 10
0.0
 20
0.0
 30
0.0
  3
BLK5
  0
ENDBLK
  8
0
  5
FE
  0
BLOCK
  8
0
  5
100
  2
BLK6
 70
    64
 10
0.0
 20
0.0
 30
0.0
  3
BLK6
  0
ENDBLK
  8
0
  5
101
  0
BLOCK
  8
0
  5
103
  2
BLK7
 70
    64
 10
0.0
 20
0.0
 30
0.0
  3
BLK7
  0
ENDBLK
  8
0
  5
104
  0
BLOCK
  8
0
  5
106
  2
BLK8
 70
    64
 10
0.0
 20
0.0
 30
0.0
  3
BLK8
  0
ENDBLK
  8
0
  5
107
  0
BLOCK
  8
0
  5
109
  2
BLK9
 70
    64
 10
0.0
 20
0.0
 30
0.0
  3
BLK9
  0
ENDBLK
  8
0
  5
10A
  0
BLOCK
  8
0
  5
10C
  2
BLK10
 70
    64
 10
0.0
 20
0.0
 30
0.0
  3
BLK10
  0
ENDBLK
  8
0
  5
10D
  0
BLOCK
  8
0
  5
10F
  2
BLK11
 70
    64
 10
0.0
 20
0.0
 30
0.0
  3
BLK11
  0
ENDBLK
  8
0
  5
110
  0
BLOCK
  8
0
  5
112
  2
BLK12
 70
    64
 10
0.0
 20
0.0
 30
0.0
  3
BLK12
  0
ENDBLK
  8
0
  5
113
  0
BLOCK
  8
0
  5
115
  2
BLK13
 70
    64
 10
0.0
 20
0.0
 30
0.0
  3
BLK13
  0
ENDBLK
  8
0
  5
116
  0
BLOCK
  8
0
  5
118
  2
BLK14
 70
    64
 10
0.0
 20
0.0
 30
0.0
  3
BLK14
  0
ENDBLK
  8
0
  5
119
  0
BLOCK
  8
0
  5
11B
  2
BLK15
 70
    64
 10
0.0
 20
0.0
 30
0.0
  3
BLK15
  0
ENDBLK
  8
0
  5
11C
  0
BLOCK
  8
0
  5
11E
  2
*X25
 70
    65
 10
322.839514
 20
232.165606
 30
0.0
  3
*X25
  0
LINE
  8
LC-008-005-----0
  6
DASHED
  5
11F
 10
337.259934
 20
282.165606
 30
0.0
 11
333.259934
 21
286.165606
 31
0.0
  0
LINE
  8
LC-008-005-----0
  6
DASHED
  5
120
 10
334.839514
 20
281.7576
 30
0.0
 11
331.13551
 21
285.461603
 31
0.0
  0
LINE
  8
LC-008-005-----0
  6
CONTINUOUS
  5
121
 10
334.839514
 20
276.100745
 30
0.0
 11
329.339514
 21
281.600745
 31
0.0
  0
LINE
  8
LC-008-005-----0
  6
CONTINUOUS
  5
122
 10
334.839514
 20
273.272318
 30
0.0
 11
329.339514
 21
278.772318
 31
0.0
  0
LINE
  8
LC-008-005-----0
  6
DASHED
  5
123
 10
334.839514
 20
267.615464
 30
0.0
 11
330.089514
 21
272.365464
 31
0.0
  0
LINE
  8
LC-008-005-----0
  6
DASHED
  5
124
 10
328.083458
 20
274.37152
 30
0.0
 11
326.137912
 21
276.317065
 31
0.0
  0
LINE
  8
LC-008-005-----0
  6
DASHED
  5
125
 10
334.839514
 20
264.787037
 30
0.0
 11
330.089514
 21
269.537037
 31
0.0
  0
LINE
  8
LC-008-005-----0
  6
DASHED
  5
126
 10
325.482578
 20
274.143972
 30
0.0
 11
324.344761
 21
275.281789
 31
0.0
  0
LINE
  8
LC-008-005-----0
  6
CONTINUOUS
  5
127
 10
334.839514
 20
259.130183
 30
0.0
 11
330.339514
 21
263.630183
 31
0.0
  0
LINE
  8
LC-008-005-----0
  6
CONTINUOUS
  5
128
 10
329.229108
 20
264.740588
 30
0.0
 11
326.92777
 21
267.041927
 31
0.0
  0
LINE
  8
LC-008-005-----0
  6
CONTINUOUS
  5
129
 10
334.839514
 20
256.301755
 30
0.0
 11
330.339514
 21
260.801755
 31
0.0
  0
LINE
  8
LC-008-005-----0
  6
CONTINUOUS
  5
12A
 10
326.628229
 20
264.513041
 30
0.0
 11
325.134619
 21
266.00665
 31
0.0
  0
LINE
  8
LC-008-005-----0
  6
DASHED
  5
12B
 10
334.839514
 20
250.644901
 30
0.0
 11
330.339514
 21
255.144901
 31
0.0
  0
LINE
  8
LC-008-005-----0
  6
DASHED
  5
12C
 10
334.839514
 20
247.816474
 30
0.0
 11
330.339514
 21
252.316474
 31
0.0
  0
LINE
  8
LC-008-005-----0
  6
CONTINUOUS
  5
12D
 10
334.839514
 20
242.15962
 30
0.0
 11
330.339514
 21
246.65962
 31
0.0
  0
LINE
  8
LC-008-005-----0
  6
CONTINUOUS
  5
12E
 10
334.839514
 20
239.331193
 30
0.0
 11
330.339514
 21
243.831193
 31
0.0
  0
LINE
  8
LC-008-005-----0
  6
DASHED
  5
12F
 10
334.172502
 20
234.34135
 30
0.0
 11
330.339514
 21
238.174338
 31
0.0
  0
LINE
  8
LC-008-005-----0
  6
DASHED
  5
130
 10
333.519819
 20
232.165606
 30
0.0
 11
330.339514
 21
235.345911
 31
0.0
  0
ENDBLK
  8
0
  5
131
  0
BLOCK
  8
0
  5
133
  2
BLK16
 70
    64
 10
0.0
 20
0.0
 30
0.0
  3
BLK16
  0
ENDBLK
  8
0
  5
134
  0
BLOCK
  8
0
  5
136
  2
BLK17
 70
    64
 10
0.0
 20
0.0
 30
0.0
  3
BLK17
  0
ENDBLK
  8
0
  5
137
  0
BLOCK
  8
0
  5
139
  2
*X28
 70
    65
 10
333.090089
 20
450.366975
 30
0.0
  3
*X28
  0
LINE
  8
LC-008-005-----0
  6
CONTINUOUS
  5
13A
 10
355.623683
 20
451.892261
 30
0.0
 11
355.14897
 21
452.366975
 31
0.0
  0
LINE
  8
LC-008-005-----0
  6
CONTINUOUS
  5
13B
 10
354.989777
 20
451.111954
 30
0.0
 11
354.280408
 21
451.821323
 31
0.0
  0
LINE
  8
LC-008-005-----0
  6
CONTINUOUS
  5
13C
 10
354.111478
 20
450.576039
 30
0.0
 11
353.299631
 21
451.387886
 31
0.0
  0
LINE
  8
LC-008-005-----0
  6
CONTINUOUS
  5
13D
 10
352.906329
 20
450.366975
 30
0.0
 11
351.906329
 21
451.366975
 31
0.0
  0
LINE
  8
LC-008-005-----0
  6
CONTINUOUS
  5
13E
 10
351.492115
 20
450.366975
 30
0.0
 11
350.492115
 21
451.366975
 31
0.0
  0
LINE
  8
LC-008-005-----0
  6
CONTINUOUS
  5
13F
 10
350.077902
 20
450.366975
 30
0.0
 11
346.077977
 21
454.366899
 31
0.0
  0
LINE
  8
LC-008-005-----0
  6
CONTINUOUS
  5
140
 10
345.663761
 20
453.366902
 30
0.0
 11
344.663755
 21
454.366908
 31
0.0
  0
LINE
  8
LC-008-005-----0
  6
CONTINUOUS
  5
141
 10
337.090089
 20
453.455293
 30
0.0
 11
336.178419
 21
454.366962
 31
0.0
  0
LINE
  8
LC-008-005-----0
  6
CONTINUOUS
  5
142
 10
335.764599
 20
453.366569
 30
0.0
 11
334.877583
 21
454.253585
 31
0.0
  0
LINE
  8
LC-008-005-----0
  6
CONTINUOUS
  5
143
 10
334.915757
 20
452.801197
 30
0.0
 11
334.201472
 21
453.515483
 31
0.0
  0
ENDBLK
  8
0
  5
144
  0
BLOCK
  8
0
  5
146
  2
*X29
 70
    65
 10
185.668025
 20
450.366975
 30
0.0
  3
*X29
  0
LINE
  8
LC-008-005-----0
  6
CONTINUOUS
  5
147
 10
207.589402
 20
452.848331
 30
0.0
 11
206.070767
 21
454.366966
 31
0.0
  0
LINE
  8
LC-008-005-----0
  6
CONTINUOUS
  5
148
 10
205.656953
 20
453.366567
 30
0.0
 11
204.656564
 21
454.366956
 31
0.0
  0
LINE
  8
LC-008-005-----0
  6
CONTINUOUS
  5
149
 10
197.089112
 20
453.449126
 30
0.0
 11
196.171336
 21
454.366902
 31
0.0
  0
LINE
  8
LC-008-005-----0
  6
CONTINUOUS
  5
14A
 10
195.757125
 20
453.3669
 30
0.0
 11
194.927151
 21
454.196875
 31
0.0
  0
LINE
  8
LC-008-005-----0
  6
CONTINUOUS
  5
14B
 10
194.913931
 20
452.79588
 30
0.0
 11
194.207603
 21
453.502209
 31
0.0
  0
LINE
  8
LC-008-005-----0
  6
CONTINUOUS
  5
14C
 10
194.206824
 20
452.088774
 30
0.0
 11
193.50146
 21
452.794138
 31
0.0
  0
LINE
  8
LC-008-005-----0
  6
CONTINUOUS
  5
14D
 10
193.499718
 20
451.381667
 30
0.0
 11
192.795317
 21
452.086068
 31
0.0
  0
LINE
  8
LC-008-005-----0
  6
CONTINUOUS
  5
14E
 10
192.784396
 20
450.682775
 30
0.0
 11
192.076315
 21
451.390856
 31
0.0
  0
LINE
  8
LC-008-005-----0
  6
CONTINUOUS
  5
14F
 10
191.685983
 20
450.366975
 30
0.0
 11
190.685983
 21
451.366975
 31
0.0
  0
LINE
  8
LC-008-005-----0
  6
CONTINUOUS
  5
150
 10
190.271769
 20
450.366975
 30
0.0
 11
189.271769
 21
451.366975
 31
0.0
  0
LINE
  8
LC-008-005-----0
  6
CONTINUOUS
  5
151
 10
188.857556
 20
450.366975
 30
0.0
 11
187.421898
 21
451.802632
 31
0.0
  0
LINE
  8
LC-008-005-----0
  6
CONTINUOUS
  5
152
 10
187.103683
 20
452.120847
 30
0.0
 11
186.857556
 21
452.366975
 31
0.0
  0
LINE
  8
LC-008-005-----0
  6
CONTINUOUS
  5
153
 10
186.750653
 20
451.059664
 30
0.0
 11
186.360714
 21
451.449602
 31
0.0
  0
ENDBLK
  8
0
  5
154
  0
BLOCK
  8
0
  5
156
  2
*X30
 70
    65
 10
70.943908
 20
452.159685
 30
0.0
  3
*X30
  0
LINE
  8
LC-008-005-----0
  6
CONTINUOUS
  5
157
 10
80.504361
 20
452.159685
 30
0.0
 11
80.943908
 21
452.599232
 31
0.0
  0
LINE
  8
LC-008-005-----0
  6
CONTINUOUS
  5
158
 10
79.938675
 20
452.159685
 30
0.0
 11
80.943908
 21
453.164918
 31
0.0
  0
LINE
  8
LC-008-005-----0
  6
CONTINUOUS
  5
159
 10
79.37299
 20
452.159685
 30
0.0
 11
80.943908
 21
453.730603
 31
0.0
  0
LINE
  8
LC-008-005-----0
  6
CONTINUOUS
  5
15A
 10
78.807304
 20
452.159685
 30
0.0
 11
80.943908
 21
454.296289
 31
0.0
  0
LINE
  8
LC-008-005-----0
  6
CONTINUOUS
  5
15B
 10
78.241619
 20
452.159685
 30
0.0
 11
80.943908
 21
454.861974
 31
0.0
  0
LINE
  8
LC-008-005-----0
  6
CONTINUOUS
  5
15C
 10
77.675933
 20
452.159685
 30
0.0
 11
80.943908
 21
455.427659
 31
0.0
  0
LINE
  8
LC-008-005-----0
  6
CONTINUOUS
  5
15D
 10
77.110248
 20
452.159685
 30
0.0
 11
80.943908
 21
455.993345
 31
0.0
  0
LINE
  8
LC-008-005-----0
  6
CONTINUOUS
  5
15E
 10
76.544563
 20
452.159685
 30
0.0
 11
80.943908
 21
456.55903
 31
0.0
  0
LINE
  8
LC-008-005-----0
  6
CONTINUOUS
  5
15F
 10
75.978877
 20
452.159685
 30
0.0
 11
80.678877
 21
456.859685
 31
0.0
  0
LINE
  8
LC-008-005-----0
  6
CONTINUOUS
  5
160
 10
75.413192
 20
452.159685
 30
0.0
 11
80.113192
 21
456.859685
 31
0.0
  0
LINE
  8
LC-008-005-----0
  6
CONTINUOUS
  5
161
 10
74.847506
 20
452.159685
 30
0.0
 11
79.547506
 21
456.859685
 31
0.0
  0
LINE
  8
LC-008-005-----0
  6
CONTINUOUS
  5
162
 10
74.281821
 20
452.159685
 30
0.0
 11
78.981821
 21
456.859685
 31
0.0
  0
LINE
  8
LC-008-005-----0
  6
CONTINUOUS
  5
163
 10
73.716135
 20
452.159685
 30
0.0
 11
78.416135
 21
456.859685
 31
0.0
  0
LINE
  8
LC-008-005-----0
  6
CONTINUOUS
  5
164
 10
73.15045
 20
452.159685
 30
0.0
 11
77.85045
 21
456.859685
 31
0.0
  0
LINE
  8
LC-008-005-----0
  6
CONTINUOUS
  5
165
 10
72.584765
 20
452.159685
 30
0.0
 11
77.284765
 21
456.859685
 31
0.0
  0
LINE
  8
LC-008-005-----0
  6
CONTINUOUS
  5
166
 10
72.019079
 20
452.159685
 30
0.0
 11
76.719079
 21
456.859685
 31
0.0
  0
LINE
  8
LC-008-005-----0
  6
CONTINUOUS
  5
167
 10
71.453394
 20
452.159685
 30
0.0
 11
76.153394
 21
456.859685
 31
0.0
  0
LINE
  8
LC-008-005-----0
  6
CONTINUOUS
  5
168
 10
70.943908
 20
452.215885
 30
0.0
 11
75.587708
 21
456.859685
 31
0.0
  0
LINE
  8
LC-008-005-----0
  6
CONTINUOUS
  5
169
 10
70.943908
 20
452.78157
 30
0.0
 11
75.022023
 21
456.859685
 31
0.0
  0
LINE
  8
LC-008-005-----0
  6
CONTINUOUS
  5
16A
 10
70.943908
 20
453.347255
 30
0.0
 11
74.456337
 21
456.859685
 31
0.0
  0
LINE
  8
LC-008-005-----0
  6
CONTINUOUS
  5
16B
 10
70.943908
 20
453.912941
 30
0.0
 11
73.890652
 21
456.859685
 31
0.0
  0
LINE
  8
LC-008-005-----0
  6
CONTINUOUS
  5
16C
 10
70.943908
 20
454.478626
 30
0.0
 11
73.324967
 21
456.859685
 31
0.0
  0
LINE
  8
LC-008-005-----0
  6
CONTINUOUS
  5
16D
 10
70.943908
 20
455.044312
 30
0.0
 11
72.759281
 21
456.859685
 31
0.0
  0
LINE
  8
LC-008-005-----0
  6
CONTINUOUS
  5
16E
 10
70.943908
 20
455.609997
 30
0.0
 11
72.193596
 21
456.859685
 31
0.0
  0
LINE
  8
LC-008-005-----0
  6
CONTINUOUS
  5
16F
 10
70.943908
 20
456.175682
 30
0.0
 11
71.62791
 21
456.859685
 31
0.0
  0
LINE
  8
LC-008-005-----0
  6
CONTINUOUS
  5
170
 10
70.943908
 20
456.741368
 30
0.0
 11
71.062225
 21
456.859685
 31
0.0
  0
ENDBLK
  8
0
  5
171
  0
BLOCK
  8
0
  5
173
  2
*X31
 70
    65
 10
90.943908
 20
452.159685
 30
0.0
  3
*X31
  0
LINE
  8
LC-008-005-----0
  6
CONTINUOUS
  5
174
 10
100.869036
 20
452.159685
 30
0.0
 11
100.943908
 21
452.234557
 31
0.0
  0
LINE
  8
LC-008-005-----0
  6
CONTINUOUS
  5
175
 10
100.30335
 20
452.159685
 30
0.0
 11
100.943908
 21
452.800242
 31
0.0
  0
LINE
  8
LC-008-005-----0
  6
CONTINUOUS
  5
176
 10
99.737665
 20
452.159685
 30
0.0
 11
100.943908
 21
453.365928
 31
0.0
  0
LINE
  8
LC-008-005-----0
  6
CONTINUOUS
  5
177
 10
99.17198
 20
452.159685
 30
0.0
 11
100.943908
 21
453.931613
 31
0.0
  0
LINE
  8
LC-008-005-----0
  6
CONTINUOUS
  5
178
 10
98.606294
 20
452.159685
 30
0.0
 11
100.943908
 21
454.497299
 31
0.0
  0
LINE
  8
LC-008-005-----0
  6
CONTINUOUS
  5
179
 10
98.040609
 20
452.159685
 30
0.0
 11
100.943908
 21
455.062984
 31
0.0
  0
LINE
  8
LC-008-005-----0
  6
CONTINUOUS
  5
17A
 10
97.474923
 20
452.159685
 30
0.0
 11
100.943908
 21
455.62867
 31
0.0
  0
LINE
  8
LC-008-005-----0
  6
CONTINUOUS
  5
17B
 10
96.909238
 20
452.159685
 30
0.0
 11
100.943908
 21
456.194355
 31
0.0
  0
LINE
  8
LC-008-005-----0
  6
CONTINUOUS
  5
17C
 10
96.343552
 20
452.159685
 30
0.0
 11
100.943908
 21
456.76004
 31
0.0
  0
LINE
  8
LC-008-005-----0
  6
CONTINUOUS
  5
17D
 10
95.777867
 20
452.159685
 30
0.0
 11
100.477867
 21
456.859685
 31
0.0
  0
LINE
  8
LC-008-005-----0
  6
CONTINUOUS
  5
17E
 10
95.212182
 20
452.159685
 30
0.0
 11
99.912182
 21
456.859685
 31
0.0
  0
LINE
  8
LC-008-005-----0
  6
CONTINUOUS
  5
17F
 10
94.646496
 20
452.159685
 30
0.0
 11
99.346496
 21
456.859685
 31
0.0
  0
LINE
  8
LC-008-005-----0
  6
CONTINUOUS
  5
180
 10
94.080811
 20
452.159685
 30
0.0
 11
98.780811
 21
456.859685
 31
0.0
  0
LINE
  8
LC-008-005-----0
  6
CONTINUOUS
  5
181
 10
93.515125
 20
452.159685
 30
0.0
 11
98.215125
 21
456.859685
 31
0.0
  0
LINE
  8
LC-008-005-----0
  6
CONTINUOUS
  5
182
 10
92.94944
 20
452.159685
 30
0.0
 11
97.64944
 21
456.859685
 31
0.0
  0
LINE
  8
LC-008-005-----0
  6
CONTINUOUS
  5
183
 10
92.383754
 20
452.159685
 30
0.0
 11
97.083754
 21
456.859685
 31
0.0
  0
LINE
  8
LC-008-005-----0
  6
CONTINUOUS
  5
184
 10
91.818069
 20
452.159685
 30
0.0
 11
96.518069
 21
456.859685
 31
0.0
  0
LINE
  8
LC-008-005-----0
  6
CONTINUOUS
  5
185
 10
91.252384
 20
452.159685
 30
0.0
 11
95.952384
 21
456.859685
 31
0.0
  0
LINE
  8
LC-008-005-----0
  6
CONTINUOUS
  5
186
 10
90.943908
 20
452.416895
 30
0.0
 11
95.386698
 21
456.859685
 31
0.0
  0
LINE
  8
LC-008-005-----0
  6
CONTINUOUS
  5
187
 10
90.943908
 20
452.98258
 30
0.0
 11
94.821013
 21
456.859685
 31
0.0
  0
LINE
  8
LC-008-005-----0
  6
CONTINUOUS
  5
188
 10
90.943908
 20
453.548265
 30
0.0
 11
94.255327
 21
456.859685
 31
0.0
  0
LINE
  8
LC-008-005-----0
  6
CONTINUOUS
  5
189
 10
90.943908
 20
454.113951
 30
0.0
 11
93.689642
 21
456.859685
 31
0.0
  0
LINE
  8
LC-008-005-----0
  6
CONTINUOUS
  5
18A
 10
90.943908
 20
454.679636
 30
0.0
 11
93.123957
 21
456.859685
 31
0.0
  0
LINE
  8
LC-008-005-----0
  6
CONTINUOUS
  5
18B
 10
90.943908
 20
455.245322
 30
0.0
 11
92.558271
 21
456.859685
 31
0.0
  0
LINE
  8
LC-008-005-----0
  6
CONTINUOUS
  5
18C
 10
90.943908
 20
455.811007
 30
0.0
 11
91.992586
 21
456.859685
 31
0.0
  0
LINE
  8
LC-008-005-----0
  6
CONTINUOUS
  5
18D
 10
90.943908
 20
456.376693
 30
0.0
 11
91.4269
 21
456.859685
 31
0.0
  0
ENDBLK
  8
0
  5
18E
  0
BLOCK
  8
0
  5
190
  2
*X32
 70
    65
 10
110.943908
 20
452.159685
 30
0.0
  3
*X32
  0
LINE
  8
LC-008-005-----0
  6
CONTINUOUS
  5
191
 10
120.668026
 20
452.159685
 30
0.0
 11
120.943908
 21
452.435567
 31
0.0
  0
LINE
  8
LC-008-005-----0
  6
CONTINUOUS
  5
192
 10
120.10234
 20
452.159685
 30
0.0
 11
120.943908
 21
453.001253
 31
0.0
  0
LINE
  8
LC-008-005-----0
  6
CONTINUOUS
  5
193
 10
119.536655
 20
452.159685
 30
0.0
 11
120.943908
 21
453.566938
 31
0.0
  0
LINE
  8
LC-008-005-----0
  6
CONTINUOUS
  5
194
 10
118.970969
 20
452.159685
 30
0.0
 11
120.943908
 21
454.132623
 31
0.0
  0
LINE
  8
LC-008-005-----0
  6
CONTINUOUS
  5
195
 10
118.405284
 20
452.159685
 30
0.0
 11
120.943908
 21
454.698309
 31
0.0
  0
LINE
  8
LC-008-005-----0
  6
CONTINUOUS
  5
196
 10
117.839599
 20
452.159685
 30
0.0
 11
120.943908
 21
455.263994
 31
0.0
  0
LINE
  8
LC-008-005-----0
  6
CONTINUOUS
  5
197
 10
117.273913
 20
452.159685
 30
0.0
 11
120.943908
 21
455.82968
 31
0.0
  0
LINE
  8
LC-008-005-----0
  6
CONTINUOUS
  5
198
 10
116.708228
 20
452.159685
 30
0.0
 11
120.943908
 21
456.395365
 31
0.0
  0
LINE
  8
LC-008-005-----0
  6
CONTINUOUS
  5
199
 10
116.142542
 20
452.159685
 30
0.0
 11
120.842542
 21
456.859685
 31
0.0
  0
LINE
  8
LC-008-005-----0
  6
CONTINUOUS
  5
19A
 10
115.576857
 20
452.159685
 30
0.0
 11
120.276857
 21
456.859685
 31
0.0
  0
LINE
  8
LC-008-005-----0
  6
CONTINUOUS
  5
19B
 10
115.011171
 20
452.159685
 30
0.0
 11
119.711171
 21
456.859685
 31
0.0
  0
LINE
  8
LC-008-005-----0
  6
CONTINUOUS
  5
19C
 10
114.445486
 20
452.159685
 30
0.0
 11
119.145486
 21
456.859685
 31
0.0
  0
LINE
  8
LC-008-005-----0
  6
CONTINUOUS
  5
19D
 10
113.879801
 20
452.159685
 30
0.0
 11
118.579801
 21
456.859685
 31
0.0
  0
LINE
  8
LC-008-005-----0
  6
CONTINUOUS
  5
19E
 10
113.314115
 20
452.159685
 30
0.0
 11
118.014115
 21
456.859685
 31
0.0
  0
LINE
  8
LC-008-005-----0
  6
CONTINUOUS
  5
19F
 10
112.74843
 20
452.159685
 30
0.0
 11
117.44843
 21
456.859685
 31
0.0
  0
LINE
  8
LC-008-005-----0
  6
CONTINUOUS
  5
1A0
 10
112.182744
 20
452.159685
 30
0.0
 11
116.882744
 21
456.859685
 31
0.0
  0
LINE
  8
LC-008-005-----0
  6
CONTINUOUS
  5
1A1
 10
111.617059
 20
452.159685
 30
0.0
 11
116.317059
 21
456.859685
 31
0.0
  0
LINE
  8
LC-008-005-----0
  6
CONTINUOUS
  5
1A2
 10
111.051374
 20
452.159685
 30
0.0
 11
115.751374
 21
456.859685
 31
0.0
  0
LINE
  8
LC-008-005-----0
  6
CONTINUOUS
  5
1A3
 10
110.943908
 20
452.617905
 30
0.0
 11
115.185688
 21
456.859685
 31
0.0
  0
LINE
  8
LC-008-005-----0
  6
CONTINUOUS
  5
1A4
 10
110.943908
 20
453.18359
 30
0.0
 11
114.620003
 21
456.859685
 31
0.0
  0
LINE
  8
LC-008-005-----0
  6
CONTINUOUS
  5
1A5
 10
110.943908
 20
453.749276
 30
0.0
 11
114.054317
 21
456.859685
 31
0.0
  0
LINE
  8
LC-008-005-----0
  6
CONTINUOUS
  5
1A6
 10
110.943908
 20
454.314961
 30
0.0
 11
113.488632
 21
456.859685
 31
0.0
  0
LINE
  8
LC-008-005-----0
  6
CONTINUOUS
  5
1A7
 10
110.943908
 20
454.880646
 30
0.0
 11
112.922946
 21
456.859685
 31
0.0
  0
LINE
  8
LC-008-005-----0
  6
CONTINUOUS
  5
1A8
 10
110.943908
 20
455.446332
 30
0.0
 11
112.357261
 21
456.859685
 31
0.0
  0
LINE
  8
LC-008-005-----0
  6
CONTINUOUS
  5
1A9
 10
110.943908
 20
456.012017
 30
0.0
 11
111.791576
 21
456.859685
 31
0.0
  0
LINE
  8
LC-008-005-----0
  6
CONTINUOUS
  5
1AA
 10
110.943908
 20
456.577703
 30
0.0
 11
111.22589
 21
456.859685
 31
0.0
  0
ENDBLK
  8
0
  5
1AB
  0
BLOCK
  8
0
  5
1AD
  2
*X33
 70
    65
 10
130.943908
 20
452.159685
 30
0.0
  3
*X33
  0
LINE
  8
LC-008-005-----0
  6
CONTINUOUS
  5
1AE
 10
140.467016
 20
452.159685
 30
0.0
 11
140.943908
 21
452.636577
 31
0.0
  0
LINE
  8
LC-008-005-----0
  6
CONTINUOUS
  5
1AF
 10
139.90133
 20
452.159685
 30
0.0
 11
140.943908
 21
453.202263
 31
0.0
  0
LINE
  8
LC-008-005-----0
  6
CONTINUOUS
  5
1B0
 10
139.335645
 20
452.159685
 30
0.0
 11
140.943908
 21
453.767948
 31
0.0
  0
LINE
  8
LC-008-005-----0
  6
CONTINUOUS
  5
1B1
 10
138.769959
 20
452.159685
 30
0.0
 11
140.943908
 21
454.333634
 31
0.0
  0
LINE
  8
LC-008-005-----0
  6
CONTINUOUS
  5
1B2
 10
138.204274
 20
452.159685
 30
0.0
 11
140.943908
 21
454.899319
 31
0.0
  0
LINE
  8
LC-008-005-----0
  6
CONTINUOUS
  5
1B3
 10
137.638588
 20
452.159685
 30
0.0
 11
140.943908
 21
455.465004
 31
0.0
  0
LINE
  8
LC-008-005-----0
  6
CONTINUOUS
  5
1B4
 10
137.072903
 20
452.159685
 30
0.0
 11
140.943908
 21
456.03069
 31
0.0
  0
LINE
  8
LC-008-005-----0
  6
CONTINUOUS
  5
1B5
 10
136.507218
 20
452.159685
 30
0.0
 11
140.943908
 21
456.596375
 31
0.0
  0
LINE
  8
LC-008-005-----0
  6
CONTINUOUS
  5
1B6
 10
135.941532
 20
452.159685
 30
0.0
 11
140.641532
 21
456.859685
 31
0.0
  0
LINE
  8
LC-008-005-----0
  6
CONTINUOUS
  5
1B7
 10
135.375847
 20
452.159685
 30
0.0
 11
140.075847
 21
456.859685
 31
0.0
  0
LINE
  8
LC-008-005-----0
  6
CONTINUOUS
  5
1B8
 10
134.810161
 20
452.159685
 30
0.0
 11
139.510161
 21
456.859685
 31
0.0
  0
LINE
  8
LC-008-005-----0
  6
CONTINUOUS
  5
1B9
 10
134.244476
 20
452.159685
 30
0.0
 11
138.944476
 21
456.859685
 31
0.0
  0
LINE
  8
LC-008-005-----0
  6
CONTINUOUS
  5
1BA
 10
133.678791
 20
452.159685
 30
0.0
 11
138.378791
 21
456.859685
 31
0.0
  0
LINE
  8
LC-008-005-----0
  6
CONTINUOUS
  5
1BB
 10
133.113105
 20
452.159685
 30
0.0
 11
137.813105
 21
456.859685
 31
0.0
  0
LINE
  8
LC-008-005-----0
  6
CONTINUOUS
  5
1BC
 10
132.54742
 20
452.159685
 30
0.0
 11
137.24742
 21
456.859685
 31
0.0
  0
LINE
  8
LC-008-005-----0
  6
CONTINUOUS
  5
1BD
 10
131.981734
 20
452.159685
 30
0.0
 11
136.681734
 21
456.859685
 31
0.0
  0
LINE
  8
LC-008-005-----0
  6
CONTINUOUS
  5
1BE
 10
131.416049
 20
452.159685
 30
0.0
 11
136.116049
 21
456.859685
 31
0.0
  0
LINE
  8
LC-008-005-----0
  6
CONTINUOUS
  5
1BF
 10
130.943908
 20
452.253229
 30
0.0
 11
135.550363
 21
456.859685
 31
0.0
  0
LINE
  8
LC-008-005-----0
  6
CONTINUOUS
  5
1C0
 10
130.943908
 20
452.818915
 30
0.0
 11
134.984678
 21
456.859685
 31
0.0
  0
LINE
  8
LC-008-005-----0
  6
CONTINUOUS
  5
1C1
 10
130.943908
 20
453.3846
 30
0.0
 11
134.418993
 21
456.859685
 31
0.0
  0
LINE
  8
LC-008-005-----0
  6
CONTINUOUS
  5
1C2
 10
130.943908
 20
453.950286
 30
0.0
 11
133.853307
 21
456.859685
 31
0.0
  0
LINE
  8
LC-008-005-----0
  6
CONTINUOUS
  5
1C3
 10
130.943908
 20
454.515971
 30
0.0
 11
133.287622
 21
456.859685
 31
0.0
  0
LINE
  8
LC-008-005-----0
  6
CONTINUOUS
  5
1C4
 10
130.943908
 20
455.081657
 30
0.0
 11
132.721936
 21
456.859685
 31
0.0
  0
LINE
  8
LC-008-005-----0
  6
CONTINUOUS
  5
1C5
 10
130.943908
 20
455.647342
 30
0.0
 11
132.156251
 21
456.859685
 31
0.0
  0
LINE
  8
LC-008-005-----0
  6
CONTINUOUS
  5
1C6
 10
130.943908
 20
456.213027
 30
0.0
 11
131.590565
 21
456.859685
 31
0.0
  0
LINE
  8
LC-008-005-----0
  6
CONTINUOUS
  5
1C7
 10
130.943908
 20
456.778713
 30
0.0
 11
131.02488
 21
456.859685
 31
0.0
  0
ENDBLK
  8
0
  5
1C8
  0
BLOCK
  8
0
  5
1CA
  2
*X34
 70
    65
 10
150.943908
 20
452.159685
 30
0.0
  3
*X34
  0
LINE
  8
LC-008-005-----0
  6
CONTINUOUS
  5
1CB
 10
160.831691
 20
452.159685
 30
0.0
 11
160.943908
 21
452.271902
 31
0.0
  0
LINE
  8
LC-008-005-----0
  6
CONTINUOUS
  5
1CC
 10
160.266005
 20
452.159685
 30
0.0
 11
160.943908
 21
452.837587
 31
0.0
  0
LINE
  8
LC-008-005-----0
  6
CONTINUOUS
  5
1CD
 10
159.70032
 20
452.159685
 30
0.0
 11
160.943908
 21
453.403273
 31
0.0
  0
LINE
  8
LC-008-005-----0
  6
CONTINUOUS
  5
1CE
 10
159.134635
 20
452.159685
 30
0.0
 11
160.943908
 21
453.968958
 31
0.0
  0
LINE
  8
LC-008-005-----0
  6
CONTINUOUS
  5
1CF
 10
158.568949
 20
452.159685
 30
0.0
 11
160.943908
 21
454.534644
 31
0.0
  0
LINE
  8
LC-008-005-----0
  6
CONTINUOUS
  5
1D0
 10
158.003264
 20
452.159685
 30
0.0
 11
160.943908
 21
455.100329
 31
0.0
  0
LINE
  8
LC-008-005-----0
  6
CONTINUOUS
  5
1D1
 10
157.437578
 20
452.159685
 30
0.0
 11
160.943908
 21
455.666014
 31
0.0
  0
LINE
  8
LC-008-005-----0
  6
CONTINUOUS
  5
1D2
 10
156.871893
 20
452.159685
 30
0.0
 11
160.943908
 21
456.2317
 31
0.0
  0
LINE
  8
LC-008-005-----0
  6
CONTINUOUS
  5
1D3
 10
156.306208
 20
452.159685
 30
0.0
 11
160.872987
 21
456.726464
 31
0.0
  0
LINE
  8
LC-008-005-----0
  6
CONTINUOUS
  5
1D4
 10
155.740522
 20
452.159685
 30
0.0
 11
160.325449
 21
456.744612
 31
0.0
  0
LINE
  8
LC-008-005-----0
  6
CONTINUOUS
  5
1D5
 10
155.174837
 20
452.159685
 30
0.0
 11
159.777912
 21
456.76276
 31
0.0
  0
LINE
  8
LC-008-005-----0
  6
CONTINUOUS
  5
1D6
 10
154.609151
 20
452.159685
 30
0.0
 11
159.230375
 21
456.780908
 31
0.0
  0
LINE
  8
LC-008-005-----0
  6
CONTINUOUS
  5
1D7
 10
154.043466
 20
452.159685
 30
0.0
 11
158.682837
 21
456.799056
 31
0.0
  0
LINE
  8
LC-008-005-----0
  6
CONTINUOUS
  5
1D8
 10
153.47778
 20
452.159685
 30
0.0
 11
158.1353
 21
456.817204
 31
0.0
  0
LINE
  8
LC-008-005-----0
  6
CONTINUOUS
  5
1D9
 10
152.912095
 20
452.159685
 30
0.0
 11
157.587762
 21
456.835352
 31
0.0
  0
LINE
  8
LC-008-005-----0
  6
CONTINUOUS
  5
1DA
 10
152.34641
 20
452.159685
 30
0.0
 11
157.040225
 21
456.8535
 31
0.0
  0
LINE
  8
LC-008-005-----0
  6
CONTINUOUS
  5
1DB
 10
151.780724
 20
452.159685
 30
0.0
 11
156.480724
 21
456.859685
 31
0.0
  0
LINE
  8
LC-008-005-----0
  6
CONTINUOUS
  5
1DC
 10
151.215039
 20
452.159685
 30
0.0
 11
155.915039
 21
456.859685
 31
0.0
  0
LINE
  8
LC-008-005-----0
  6
CONTINUOUS
  5
1DD
 10
150.943908
 20
452.45424
 30
0.0
 11
155.349353
 21
456.859685
 31
0.0
  0
LINE
  8
LC-008-005-----0
  6
CONTINUOUS
  5
1DE
 10
150.943908
 20
453.019925
 30
0.0
 11
154.783668
 21
456.859685
 31
0.0
  0
LINE
  8
LC-008-005-----0
  6
CONTINUOUS
  5
1DF
 10
150.943908
 20
453.58561
 30
0.0
 11
154.217982
 21
456.859685
 31
0.0
  0
LINE
  8
LC-008-005-----0
  6
CONTINUOUS
  5
1E0
 10
150.943908
 20
454.151296
 30
0.0
 11
153.652297
 21
456.859685
 31
0.0
  0
LINE
  8
LC-008-005-----0
  6
CONTINUOUS
  5
1E1
 10
150.943908
 20
454.716981
 30
0.0
 11
153.086612
 21
456.859685
 31
0.0
  0
LINE
  8
LC-008-005-----0
  6
CONTINUOUS
  5
1E2
 10
150.943908
 20
455.282667
 30
0.0
 11
152.520926
 21
456.859685
 31
0.0
  0
LINE
  8
LC-008-005-----0
  6
CONTINUOUS
  5
1E3
 10
150.943908
 20
455.848352
 30
0.0
 11
151.955241
 21
456.859685
 31
0.0
  0
LINE
  8
LC-008-005-----0
  6
CONTINUOUS
  5
1E4
 10
150.943908
 20
456.414038
 30
0.0
 11
151.389555
 21
456.859685
 31
0.0
  0
ENDBLK
  8
0
  5
1E5
  0
BLOCK
  8
0
  5
1E7
  2
*X35
 70
    65
 10
170.943908
 20
447.163724
 30
0.0
  3
*X35
  0
LINE
  8
LC-008-005-----0
  6
CONTINUOUS
  5
1E8
 10
180.776937
 20
447.214772
 30
0.0
 11
180.943908
 21
447.381743
 31
0.0
  0
LINE
  8
LC-008-005-----0
  6
CONTINUOUS
  5
1E9
 10
180.343704
 20
447.347224
 30
0.0
 11
180.943908
 21
447.947429
 31
0.0
  0
LINE
  8
LC-008-005-----0
  6
CONTINUOUS
  5
1EA
 10
179.910471
 20
447.479677
 30
0.0
 11
180.943908
 21
448.513114
 31
0.0
  0
LINE
  8
LC-008-005-----0
  6
CONTINUOUS
  5
1EB
 10
179.477238
 20
447.61213
 30
0.0
 11
180.943908
 21
449.0788
 31
0.0
  0
LINE
  8
LC-008-005-----0
  6
CONTINUOUS
  5
1EC
 10
179.044005
 20
447.744582
 30
0.0
 11
180.943908
 21
449.644485
 31
0.0
  0
LINE
  8
LC-008-005-----0
  6
CONTINUOUS
  5
1ED
 10
178.610773
 20
447.877035
 30
0.0
 11
180.943908
 21
450.21017
 31
0.0
  0
LINE
  8
LC-008-005-----0
  6
CONTINUOUS
  5
1EE
 10
178.17754
 20
448.009487
 30
0.0
 11
180.943908
 21
450.775856
 31
0.0
  0
LINE
  8
LC-008-005-----0
  6
CONTINUOUS
  5
1EF
 10
177.744307
 20
448.14194
 30
0.0
 11
180.943908
 21
451.341541
 31
0.0
  0
LINE
  8
LC-008-005-----0
  6
CONTINUOUS
  5
1F0
 10
177.311074
 20
448.274393
 30
0.0
 11
180.943908
 21
451.907227
 31
0.0
  0
LINE
  8
LC-008-005-----0
  6
CONTINUOUS
  5
1F1
 10
176.877841
 20
448.406845
 30
0.0
 11
180.641827
 21
452.170831
 31
0.0
  0
LINE
  8
LC-008-005-----0
  6
CONTINUOUS
  5
1F2
 10
176.444608
 20
448.539298
 30
0.0
 11
180.208594
 21
452.303283
 31
0.0
  0
LINE
  8
LC-008-005-----0
  6
CONTINUOUS
  5
1F3
 10
176.011375
 20
448.67175
 30
0.0
 11
179.775361
 21
452.435736
 31
0.0
  0
LINE
  8
LC-008-005-----0
  6
CONTINUOUS
  5
1F4
 10
175.578143
 20
448.804203
 30
0.0
 11
179.342128
 21
452.568188
 31
0.0
  0
LINE
  8
LC-008-005-----0
  6
CONTINUOUS
  5
1F5
 10
175.14491
 20
448.936655
 30
0.0
 11
178.908895
 21
452.700641
 31
0.0
  0
LINE
  8
LC-008-005-----0
  6
CONTINUOUS
  5
1F6
 10
174.711677
 20
449.069108
 30
0.0
 11
178.475662
 21
452.833093
 31
0.0
  0
LINE
  8
LC-008-005-----0
  6
CONTINUOUS
  5
1F7
 10
174.278444
 20
449.201561
 30
0.0
 11
178.042429
 21
452.965546
 31
0.0
  0
LINE
  8
LC-008-005-----0
  6
CONTINUOUS
  5
1F8
 10
173.845211
 20
449.334013
 30
0.0
 11
177.609197
 21
453.097999
 31
0.0
  0
LINE
  8
LC-008-005-----0
  6
CONTINUOUS
  5
1F9
 10
173.411978
 20
449.466466
 30
0.0
 11
177.175964
 21
453.230451
 31
0.0
  0
LINE
  8
LC-008-005-----0
  6
CONTINUOUS
  5
1FA
 10
172.978745
 20
449.598918
 30
0.0
 11
176.742731
 21
453.362904
 31
0.0
  0
LINE
  8
LC-008-005-----0
  6
CONTINUOUS
  5
1FB
 10
172.545513
 20
449.731371
 30
0.0
 11
176.309498
 21
453.495356
 31
0.0
  0
LINE
  8
LC-008-005-----0
  6
CONTINUOUS
  5
1FC
 10
172.11228
 20
449.863823
 30
0.0
 11
175.876265
 21
453.627809
 31
0.0
  0
LINE
  8
LC-008-005-----0
  6
CONTINUOUS
  5
1FD
 10
171.679047
 20
449.996276
 30
0.0
 11
175.443032
 21
453.760261
 31
0.0
  0
LINE
  8
LC-008-005-----0
  6
CONTINUOUS
  5
1FE
 10
171.245814
 20
450.128729
 30
0.0
 11
175.009799
 21
453.892714
 31
0.0
  0
LINE
  8
LC-008-005-----0
  6
CONTINUOUS
  5
1FF
 10
170.943908
 20
450.392508
 30
0.0
 11
174.576567
 21
454.025167
 31
0.0
  0
LINE
  8
LC-008-005-----0
  6
CONTINUOUS
  5
200
 10
170.943908
 20
450.958193
 30
0.0
 11
174.143334
 21
454.157619
 31
0.0
  0
LINE
  8
LC-008-005-----0
  6
CONTINUOUS
  5
201
 10
170.943908
 20
451.523879
 30
0.0
 11
173.710101
 21
454.290072
 31
0.0
  0
LINE
  8
LC-008-005-----0
  6
CONTINUOUS
  5
202
 10
170.943908
 20
452.089564
 30
0.0
 11
173.276868
 21
454.422524
 31
0.0
  0
LINE
  8
LC-008-005-----0
  6
CONTINUOUS
  5
203
 10
170.943908
 20
452.65525
 30
0.0
 11
172.843635
 21
454.554977
 31
0.0
  0
LINE
  8
LC-008-005-----0
  6
CONTINUOUS
  5
204
 10
170.943908
 20
453.220935
 30
0.0
 11
172.410402
 21
454.687429
 31
0.0
  0
LINE
  8
LC-008-005-----0
  6
CONTINUOUS
  5
205
 10
170.943908
 20
453.786621
 30
0.0
 11
171.977169
 21
454.819882
 31
0.0
  0
LINE
  8
LC-008-005-----0
  6
CONTINUOUS
  5
206
 10
170.943908
 20
454.352306
 30
0.0
 11
171.543937
 21
454.952335
 31
0.0
  0
LINE
  8
LC-008-005-----0
  6
CONTINUOUS
  5
207
 10
170.943908
 20
454.917991
 30
0.0
 11
171.110704
 21
455.084787
 31
0.0
  0
ENDBLK
  8
0
  5
208
  0
BLOCK
  8
0
  5
20A
  2
*X36
 70
    65
 10
190.943908
 20
445.666987
 30
0.0
  3
*X36
  0
LINE
  8
LC-008-005-----0
  6
CONTINUOUS
  5
20B
 10
197.831085
 20
446.166987
 30
0.0
 11
197.845475
 21
446.181376
 31
0.0
  0
LINE
  8
LC-008-005-----0
  6
CONTINUOUS
  5
20C
 10
197.2654
 20
446.166987
 30
0.0
 11
197.845476
 21
446.747063
 31
0.0
  0
LINE
  8
LC-008-005-----0
  6
CONTINUOUS
  5
20D
 10
196.699714
 20
446.166987
 30
0.0
 11
197.845478
 21
447.31275
 31
0.0
  0
LINE
  8
LC-008-005-----0
  6
CONTINUOUS
  5
20E
 10
196.134029
 20
446.166987
 30
0.0
 11
197.845479
 21
447.878437
 31
0.0
  0
LINE
  8
LC-008-005-----0
  6
CONTINUOUS
  5
20F
 10
195.068344
 20
445.666987
 30
0.0
 11
197.845481
 21
448.444124
 31
0.0
  0
LINE
  8
LC-008-005-----0
  6
CONTINUOUS
  5
210
 10
194.502658
 20
445.666987
 30
0.0
 11
197.845482
 21
449.009811
 31
0.0
  0
LINE
  8
LC-008-005-----0
  6
CONTINUOUS
  5
211
 10
193.936973
 20
445.666987
 30
0.0
 11
197.845484
 21
449.575498
 31
0.0
  0
LINE
  8
LC-008-005-----0
  6
CONTINUOUS
  5
212
 10
193.371287
 20
445.666987
 30
0.0
 11
197.845485
 21
450.141185
 31
0.0
  0
LINE
  8
LC-008-005-----0
  6
CONTINUOUS
  5
213
 10
192.805602
 20
445.666987
 30
0.0
 11
197.505602
 21
450.366987
 31
0.0
  0
LINE
  8
LC-008-005-----0
  6
CONTINUOUS
  5
214
 10
192.239917
 20
445.666987
 30
0.0
 11
196.939917
 21
450.366987
 31
0.0
  0
LINE
  8
LC-008-005-----0
  6
CONTINUOUS
  5
215
 10
191.674231
 20
445.666987
 30
0.0
 11
196.374231
 21
450.366987
 31
0.0
  0
LINE
  8
LC-008-005-----0
  6
CONTINUOUS
  5
216
 10
191.108546
 20
445.666987
 30
0.0
 11
195.808546
 21
450.366987
 31
0.0
  0
LINE
  8
LC-008-005-----0
  6
CONTINUOUS
  5
217
 10
190.943908
 20
446.068035
 30
0.0
 11
195.24286
 21
450.366987
 31
0.0
  0
LINE
  8
LC-008-005-----0
  6
CONTINUOUS
  5
218
 10
190.943908
 20
446.63372
 30
0.0
 11
194.677175
 21
450.366987
 31
0.0
  0
LINE
  8
LC-008-005-----0
  6
CONTINUOUS
  5
219
 10
190.943908
 20
447.199406
 30
0.0
 11
194.111489
 21
450.366987
 31
0.0
  0
LINE
  8
LC-008-005-----0
  6
CONTINUOUS
  5
21A
 10
190.943908
 20
447.765091
 30
0.0
 11
193.545804
 21
450.366987
 31
0.0
  0
LINE
  8
LC-008-005-----0
  6
CONTINUOUS
  5
21B
 10
190.943908
 20
448.330776
 30
0.0
 11
192.980119
 21
450.366987
 31
0.0
  0
LINE
  8
LC-008-005-----0
  6
CONTINUOUS
  5
21C
 10
190.943908
 20
448.896462
 30
0.0
 11
192.414433
 21
450.366987
 31
0.0
  0
LINE
  8
LC-008-005-----0
  6
CONTINUOUS
  5
21D
 10
190.943908
 20
449.462147
 30
0.0
 11
191.848748
 21
450.366987
 31
0.0
  0
LINE
  8
LC-008-005-----0
  6
CONTINUOUS
  5
21E
 10
190.943908
 20
450.027833
 30
0.0
 11
191.283062
 21
450.366987
 31
0.0
  0
ENDBLK
  8
0
  5
21F
  0
BLOCK
  8
0
  5
221
  2
*X37
 70
    65
 10
460.735119
 20
452.159685
 30
0.0
  3
*X37
  0
LINE
  8
LC-008-005-----0
  6
CONTINUOUS
  5
222
 10
470.261618
 20
452.159685
 30
0.0
 11
470.735119
 21
452.633186
 31
0.0
  0
LINE
  8
LC-008-005-----0
  6
CONTINUOUS
  5
223
 10
469.695933
 20
452.159685
 30
0.0
 11
470.735119
 21
453.198871
 31
0.0
  0
LINE
  8
LC-008-005-----0
  6
CONTINUOUS
  5
224
 10
469.130248
 20
452.159685
 30
0.0
 11
470.735119
 21
453.764556
 31
0.0
  0
LINE
  8
LC-008-005-----0
  6
CONTINUOUS
  5
225
 10
468.564562
 20
452.159685
 30
0.0
 11
470.735119
 21
454.330242
 31
0.0
  0
LINE
  8
LC-008-005-----0
  6
CONTINUOUS
  5
226
 10
467.998877
 20
452.159685
 30
0.0
 11
470.735119
 21
454.895927
 31
0.0
  0
LINE
  8
LC-008-005-----0
  6
CONTINUOUS
  5
227
 10
467.433191
 20
452.159685
 30
0.0
 11
470.735119
 21
455.461613
 31
0.0
  0
LINE
  8
LC-008-005-----0
  6
CONTINUOUS
  5
228
 10
466.867506
 20
452.159685
 30
0.0
 11
470.735119
 21
456.027298
 31
0.0
  0
LINE
  8
LC-008-005-----0
  6
CONTINUOUS
  5
229
 10
466.30182
 20
452.159685
 30
0.0
 11
470.735119
 21
456.592984
 31
0.0
  0
LINE
  8
LC-008-005-----0
  6
CONTINUOUS
  5
22A
 10
465.736135
 20
452.159685
 30
0.0
 11
470.436135
 21
456.859685
 31
0.0
  0
LINE
  8
LC-008-005-----0
  6
CONTINUOUS
  5
22B
 10
465.17045
 20
452.159685
 30
0.0
 11
469.87045
 21
456.859685
 31
0.0
  0
LINE
  8
LC-008-005-----0
  6
CONTINUOUS
  5
22C
 10
464.604764
 20
452.159685
 30
0.0
 11
469.304764
 21
456.859685
 31
0.0
  0
LINE
  8
LC-008-005-----0
  6
CONTINUOUS
  5
22D
 10
464.039079
 20
452.159685
 30
0.0
 11
468.739079
 21
456.859685
 31
0.0
  0
LINE
  8
LC-008-005-----0
  6
CONTINUOUS
  5
22E
 10
463.473393
 20
452.159685
 30
0.0
 11
468.173393
 21
456.859685
 31
0.0
  0
LINE
  8
LC-008-005-----0
  6
CONTINUOUS
  5
22F
 10
462.907708
 20
452.159685
 30
0.0
 11
467.607708
 21
456.859685
 31
0.0
  0
LINE
  8
LC-008-005-----0
  6
CONTINUOUS
  5
230
 10
462.342022
 20
452.159685
 30
0.0
 11
467.042022
 21
456.859685
 31
0.0
  0
LINE
  8
LC-008-005-----0
  6
CONTINUOUS
  5
231
 10
461.776337
 20
452.159685
 30
0.0
 11
466.476337
 21
456.859685
 31
0.0
  0
LINE
  8
LC-008-005-----0
  6
CONTINUOUS
  5
232
 10
461.210652
 20
452.159685
 30
0.0
 11
465.910652
 21
456.859685
 31
0.0
  0
LINE
  8
LC-008-005-----0
  6
CONTINUOUS
  5
233
 10
460.735119
 20
452.249838
 30
0.0
 11
465.344966
 21
456.859685
 31
0.0
  0
LINE
  8
LC-008-005-----0
  6
CONTINUOUS
  5
234
 10
460.735119
 20
452.815523
 30
0.0
 11
464.779281
 21
456.859685
 31
0.0
  0
LINE
  8
LC-008-005-----0
  6
CONTINUOUS
  5
235
 10
460.735119
 20
453.381209
 30
0.0
 11
464.213595
 21
456.859685
 31
0.0
  0
LINE
  8
LC-008-005-----0
  6
CONTINUOUS
  5
236
 10
460.735119
 20
453.946894
 30
0.0
 11
463.64791
 21
456.859685
 31
0.0
  0
LINE
  8
LC-008-005-----0
  6
CONTINUOUS
  5
237
 10
460.735119
 20
454.51258
 30
0.0
 11
463.082224
 21
456.859685
 31
0.0
  0
LINE
  8
LC-008-005-----0
  6
CONTINUOUS
  5
238
 10
460.735119
 20
455.078265
 30
0.0
 11
462.516539
 21
456.859685
 31
0.0
  0
LINE
  8
LC-008-005-----0
  6
CONTINUOUS
  5
239
 10
460.735119
 20
455.64395
 30
0.0
 11
461.950854
 21
456.859685
 31
0.0
  0
LINE
  8
LC-008-005-----0
  6
CONTINUOUS
  5
23A
 10
460.735119
 20
456.209636
 30
0.0
 11
461.385168
 21
456.859685
 31
0.0
  0
LINE
  8
LC-008-005-----0
  6
CONTINUOUS
  5
23B
 10
460.735119
 20
456.775321
 30
0.0
 11
460.819483
 21
456.859685
 31
0.0
  0
ENDBLK
  8
0
  5
23C
  0
BLOCK
  8
0
  5
23E
  2
*X38
 70
    65
 10
440.735119
 20
452.159685
 30
0.0
  3
*X38
  0
LINE
  8
LC-008-005-----0
  6
CONTINUOUS
  5
23F
 10
450.462628
 20
452.159685
 30
0.0
 11
450.735119
 21
452.432176
 31
0.0
  0
LINE
  8
LC-008-005-----0
  6
CONTINUOUS
  5
240
 10
449.896943
 20
452.159685
 30
0.0
 11
450.735119
 21
452.997861
 31
0.0
  0
LINE
  8
LC-008-005-----0
  6
CONTINUOUS
  5
241
 10
449.331258
 20
452.159685
 30
0.0
 11
450.735119
 21
453.563546
 31
0.0
  0
LINE
  8
LC-008-005-----0
  6
CONTINUOUS
  5
242
 10
448.765572
 20
452.159685
 30
0.0
 11
450.735119
 21
454.129232
 31
0.0
  0
LINE
  8
LC-008-005-----0
  6
CONTINUOUS
  5
243
 10
448.199887
 20
452.159685
 30
0.0
 11
450.735119
 21
454.694917
 31
0.0
  0
LINE
  8
LC-008-005-----0
  6
CONTINUOUS
  5
244
 10
447.634201
 20
452.159685
 30
0.0
 11
450.735119
 21
455.260603
 31
0.0
  0
LINE
  8
LC-008-005-----0
  6
CONTINUOUS
  5
245
 10
447.068516
 20
452.159685
 30
0.0
 11
450.735119
 21
455.826288
 31
0.0
  0
LINE
  8
LC-008-005-----0
  6
CONTINUOUS
  5
246
 10
446.502831
 20
452.159685
 30
0.0
 11
450.735119
 21
456.391973
 31
0.0
  0
LINE
  8
LC-008-005-----0
  6
CONTINUOUS
  5
247
 10
445.937145
 20
452.159685
 30
0.0
 11
450.637145
 21
456.859685
 31
0.0
  0
LINE
  8
LC-008-005-----0
  6
CONTINUOUS
  5
248
 10
445.37146
 20
452.159685
 30
0.0
 11
450.07146
 21
456.859685
 31
0.0
  0
LINE
  8
LC-008-005-----0
  6
CONTINUOUS
  5
249
 10
444.805774
 20
452.159685
 30
0.0
 11
449.505774
 21
456.859685
 31
0.0
  0
LINE
  8
LC-008-005-----0
  6
CONTINUOUS
  5
24A
 10
444.240089
 20
452.159685
 30
0.0
 11
448.940089
 21
456.859685
 31
0.0
  0
LINE
  8
LC-008-005-----0
  6
CONTINUOUS
  5
24B
 10
443.674403
 20
452.159685
 30
0.0
 11
448.374403
 21
456.859685
 31
0.0
  0
LINE
  8
LC-008-005-----0
  6
CONTINUOUS
  5
24C
 10
443.108718
 20
452.159685
 30
0.0
 11
447.808718
 21
456.859685
 31
0.0
  0
LINE
  8
LC-008-005-----0
  6
CONTINUOUS
  5
24D
 10
442.543033
 20
452.159685
 30
0.0
 11
447.243033
 21
456.859685
 31
0.0
  0
LINE
  8
LC-008-005-----0
  6
CONTINUOUS
  5
24E
 10
441.977347
 20
452.159685
 30
0.0
 11
446.677347
 21
456.859685
 31
0.0
  0
LINE
  8
LC-008-005-----0
  6
CONTINUOUS
  5
24F
 10
441.411662
 20
452.159685
 30
0.0
 11
446.111662
 21
456.859685
 31
0.0
  0
LINE
  8
LC-008-005-----0
  6
CONTINUOUS
  5
250
 10
440.845976
 20
452.159685
 30
0.0
 11
445.545976
 21
456.859685
 31
0.0
  0
LINE
  8
LC-008-005-----0
  6
CONTINUOUS
  5
251
 10
440.735119
 20
452.614513
 30
0.0
 11
444.980291
 21
456.859685
 31
0.0
  0
LINE
  8
LC-008-005-----0
  6
CONTINUOUS
  5
252
 10
440.735119
 20
453.180199
 30
0.0
 11
444.414605
 21
456.859685
 31
0.0
  0
LINE
  8
LC-008-005-----0
  6
CONTINUOUS
  5
253
 10
440.735119
 20
453.745884
 30
0.0
 11
443.84892
 21
456.859685
 31
0.0
  0
LINE
  8
LC-008-005-----0
  6
CONTINUOUS
  5
254
 10
440.735119
 20
454.311569
 30
0.0
 11
443.283235
 21
456.859685
 31
0.0
  0
LINE
  8
LC-008-005-----0
  6
CONTINUOUS
  5
255
 10
440.735119
 20
454.877255
 30
0.0
 11
442.717549
 21
456.859685
 31
0.0
  0
LINE
  8
LC-008-005-----0
  6
CONTINUOUS
  5
256
 10
440.735119
 20
455.44294
 30
0.0
 11
442.151864
 21
456.859685
 31
0.0
  0
LINE
  8
LC-008-005-----0
  6
CONTINUOUS
  5
257
 10
440.735119
 20
456.008626
 30
0.0
 11
441.586178
 21
456.859685
 31
0.0
  0
LINE
  8
LC-008-005-----0
  6
CONTINUOUS
  5
258
 10
440.735119
 20
456.574311
 30
0.0
 11
441.020493
 21
456.859685
 31
0.0
  0
ENDBLK
  8
0
  5
259
  0
BLOCK
  8
0
  5
25B
  2
*X39
 70
    65
 10
420.735119
 20
452.159685
 30
0.0
  3
*X39
  0
LINE
  8
LC-008-005-----0
  6
CONTINUOUS
  5
25C
 10
430.663639
 20
452.159685
 30
0.0
 11
430.735119
 21
452.231165
 31
0.0
  0
LINE
  8
LC-008-005-----0
  6
CONTINUOUS
  5
25D
 10
430.097953
 20
452.159685
 30
0.0
 11
430.735119
 21
452.796851
 31
0.0
  0
LINE
  8
LC-008-005-----0
  6
CONTINUOUS
  5
25E
 10
429.532268
 20
452.159685
 30
0.0
 11
430.735119
 21
453.362536
 31
0.0
  0
LINE
  8
LC-008-005-----0
  6
CONTINUOUS
  5
25F
 10
428.966582
 20
452.159685
 30
0.0
 11
430.735119
 21
453.928222
 31
0.0
  0
LINE
  8
LC-008-005-----0
  6
CONTINUOUS
  5
260
 10
428.400897
 20
452.159685
 30
0.0
 11
430.735119
 21
454.493907
 31
0.0
  0
LINE
  8
LC-008-005-----0
  6
CONTINUOUS
  5
261
 10
427.835211
 20
452.159685
 30
0.0
 11
430.735119
 21
455.059593
 31
0.0
  0
LINE
  8
LC-008-005-----0
  6
CONTINUOUS
  5
262
 10
427.269526
 20
452.159685
 30
0.0
 11
430.735119
 21
455.625278
 31
0.0
  0
LINE
  8
LC-008-005-----0
  6
CONTINUOUS
  5
263
 10
426.703841
 20
452.159685
 30
0.0
 11
430.735119
 21
456.190963
 31
0.0
  0
LINE
  8
LC-008-005-----0
  6
CONTINUOUS
  5
264
 10
426.138155
 20
452.159685
 30
0.0
 11
430.735119
 21
456.756649
 31
0.0
  0
LINE
  8
LC-008-005-----0
  6
CONTINUOUS
  5
265
 10
425.57247
 20
452.159685
 30
0.0
 11
430.27247
 21
456.859685
 31
0.0
  0
LINE
  8
LC-008-005-----0
  6
CONTINUOUS
  5
266
 10
425.006784
 20
452.159685
 30
0.0
 11
429.706784
 21
456.859685
 31
0.0
  0
LINE
  8
LC-008-005-----0
  6
CONTINUOUS
  5
267
 10
424.441099
 20
452.159685
 30
0.0
 11
429.141099
 21
456.859685
 31
0.0
  0
LINE
  8
LC-008-005-----0
  6
CONTINUOUS
  5
268
 10
423.875414
 20
452.159685
 30
0.0
 11
428.575414
 21
456.859685
 31
0.0
  0
LINE
  8
LC-008-005-----0
  6
CONTINUOUS
  5
269
 10
423.309728
 20
452.159685
 30
0.0
 11
428.009728
 21
456.859685
 31
0.0
  0
LINE
  8
LC-008-005-----0
  6
CONTINUOUS
  5
26A
 10
422.744043
 20
452.159685
 30
0.0
 11
427.444043
 21
456.859685
 31
0.0
  0
LINE
  8
LC-008-005-----0
  6
CONTINUOUS
  5
26B
 10
422.178357
 20
452.159685
 30
0.0
 11
426.878357
 21
456.859685
 31
0.0
  0
LINE
  8
LC-008-005-----0
  6
CONTINUOUS
  5
26C
 10
421.612672
 20
452.159685
 30
0.0
 11
426.312672
 21
456.859685
 31
0.0
  0
LINE
  8
LC-008-005-----0
  6
CONTINUOUS
  5
26D
 10
421.046986
 20
452.159685
 30
0.0
 11
425.746986
 21
456.859685
 31
0.0
  0
LINE
  8
LC-008-005-----0
  6
CONTINUOUS
  5
26E
 10
420.735119
 20
452.413503
 30
0.0
 11
425.181301
 21
456.859685
 31
0.0
  0
LINE
  8
LC-008-005-----0
  6
CONTINUOUS
  5
26F
 10
420.735119
 20
452.979188
 30
0.0
 11
424.615616
 21
456.859685
 31
0.0
  0
LINE
  8
LC-008-005-----0
  6
CONTINUOUS
  5
270
 10
420.735119
 20
453.544874
 30
0.0
 11
424.04993
 21
456.859685
 31
0.0
  0
LINE
  8
LC-008-005-----0
  6
CONTINUOUS
  5
271
 10
420.735119
 20
454.110559
 30
0.0
 11
423.484245
 21
456.859685
 31
0.0
  0
LINE
  8
LC-008-005-----0
  6
CONTINUOUS
  5
272
 10
420.735119
 20
454.676245
 30
0.0
 11
422.918559
 21
456.859685
 31
0.0
  0
LINE
  8
LC-008-005-----0
  6
CONTINUOUS
  5
273
 10
420.735119
 20
455.24193
 30
0.0
 11
422.352874
 21
456.859685
 31
0.0
  0
LINE
  8
LC-008-005-----0
  6
CONTINUOUS
  5
274
 10
420.735119
 20
455.807616
 30
0.0
 11
421.787188
 21
456.859685
 31
0.0
  0
LINE
  8
LC-008-005-----0
  6
CONTINUOUS
  5
275
 10
420.735119
 20
456.373301
 30
0.0
 11
421.221503
 21
456.859685
 31
0.0
  0
ENDBLK
  8
0
  5
276
  0
BLOCK
  8
0
  5
278
  2
*X40
 70
    65
 10
400.735119
 20
452.159685
 30
0.0
  3
*X40
  0
LINE
  8
LC-008-005-----0
  6
CONTINUOUS
  5
279
 10
410.298963
 20
452.159685
 30
0.0
 11
410.735119
 21
452.595841
 31
0.0
  0
LINE
  8
LC-008-005-----0
  6
CONTINUOUS
  5
27A
 10
409.733278
 20
452.159685
 30
0.0
 11
410.735119
 21
453.161526
 31
0.0
  0
LINE
  8
LC-008-005-----0
  6
CONTINUOUS
  5
27B
 10
409.167592
 20
452.159685
 30
0.0
 11
410.735119
 21
453.727212
 31
0.0
  0
LINE
  8
LC-008-005-----0
  6
CONTINUOUS
  5
27C
 10
408.601907
 20
452.159685
 30
0.0
 11
410.735119
 21
454.292897
 31
0.0
  0
LINE
  8
LC-008-005-----0
  6
CONTINUOUS
  5
27D
 10
408.036222
 20
452.159685
 30
0.0
 11
410.735119
 21
454.858582
 31
0.0
  0
LINE
  8
LC-008-005-----0
  6
CONTINUOUS
  5
27E
 10
407.470536
 20
452.159685
 30
0.0
 11
410.735119
 21
455.424268
 31
0.0
  0
LINE
  8
LC-008-005-----0
  6
CONTINUOUS
  5
27F
 10
406.904851
 20
452.159685
 30
0.0
 11
410.735119
 21
455.989953
 31
0.0
  0
LINE
  8
LC-008-005-----0
  6
CONTINUOUS
  5
280
 10
406.339165
 20
452.159685
 30
0.0
 11
410.735119
 21
456.555639
 31
0.0
  0
LINE
  8
LC-008-005-----0
  6
CONTINUOUS
  5
281
 10
405.77348
 20
452.159685
 30
0.0
 11
410.47348
 21
456.859685
 31
0.0
  0
LINE
  8
LC-008-005-----0
  6
CONTINUOUS
  5
282
 10
405.207794
 20
452.159685
 30
0.0
 11
409.907794
 21
456.859685
 31
0.0
  0
LINE
  8
LC-008-005-----0
  6
CONTINUOUS
  5
283
 10
404.642109
 20
452.159685
 30
0.0
 11
409.342109
 21
456.859685
 31
0.0
  0
LINE
  8
LC-008-005-----0
  6
CONTINUOUS
  5
284
 10
404.076424
 20
452.159685
 30
0.0
 11
408.776424
 21
456.859685
 31
0.0
  0
LINE
  8
LC-008-005-----0
  6
CONTINUOUS
  5
285
 10
403.510738
 20
452.159685
 30
0.0
 11
408.210738
 21
456.859685
 31
0.0
  0
LINE
  8
LC-008-005-----0
  6
CONTINUOUS
  5
286
 10
402.945053
 20
452.159685
 30
0.0
 11
407.645053
 21
456.859685
 31
0.0
  0
LINE
  8
LC-008-005-----0
  6
CONTINUOUS
  5
287
 10
402.379367
 20
452.159685
 30
0.0
 11
407.079367
 21
456.859685
 31
0.0
  0
LINE
  8
LC-008-005-----0
  6
CONTINUOUS
  5
288
 10
401.813682
 20
452.159685
 30
0.0
 11
406.513682
 21
456.859685
 31
0.0
  0
LINE
  8
LC-008-005-----0
  6
CONTINUOUS
  5
289
 10
401.247997
 20
452.159685
 30
0.0
 11
405.947997
 21
456.859685
 31
0.0
  0
LINE
  8
LC-008-005-----0
  6
CONTINUOUS
  5
28A
 10
400.735119
 20
452.212493
 30
0.0
 11
405.382311
 21
456.859685
 31
0.0
  0
LINE
  8
LC-008-005-----0
  6
CONTINUOUS
  5
28B
 10
400.735119
 20
452.778178
 30
0.0
 11
404.816626
 21
456.859685
 31
0.0
  0
LINE
  8
LC-008-005-----0
  6
CONTINUOUS
  5
28C
 10
400.735119
 20
453.343864
 30
0.0
 11
404.25094
 21
456.859685
 31
0.0
  0
LINE
  8
LC-008-005-----0
  6
CONTINUOUS
  5
28D
 10
400.735119
 20
453.909549
 30
0.0
 11
403.685255
 21
456.859685
 31
0.0
  0
LINE
  8
LC-008-005-----0
  6
CONTINUOUS
  5
28E
 10
400.735119
 20
454.475235
 30
0.0
 11
403.119569
 21
456.859685
 31
0.0
  0
LINE
  8
LC-008-005-----0
  6
CONTINUOUS
  5
28F
 10
400.735119
 20
455.04092
 30
0.0
 11
402.553884
 21
456.859685
 31
0.0
  0
LINE
  8
LC-008-005-----0
  6
CONTINUOUS
  5
290
 10
400.735119
 20
455.606605
 30
0.0
 11
401.988199
 21
456.859685
 31
0.0
  0
LINE
  8
LC-008-005-----0
  6
CONTINUOUS
  5
291
 10
400.735119
 20
456.172291
 30
0.0
 11
401.422513
 21
456.859685
 31
0.0
  0
LINE
  8
LC-008-005-----0
  6
CONTINUOUS
  5
292
 10
400.735119
 20
456.737976
 30
0.0
 11
400.856828
 21
456.859685
 31
0.0
  0
ENDBLK
  8
0
  5
293
  0
BLOCK
  8
0
  5
295
  2
*X41
 70
    65
 10
380.735119
 20
452.159685
 30
0.0
  3
*X41
  0
LINE
  8
LC-008-005-----0
  6
CONTINUOUS
  5
296
 10
390.499973
 20
452.159685
 30
0.0
 11
390.735119
 21
452.394831
 31
0.0
  0
LINE
  8
LC-008-005-----0
  6
CONTINUOUS
  5
297
 10
389.934288
 20
452.159685
 30
0.0
 11
390.735119
 21
452.960516
 31
0.0
  0
LINE
  8
LC-008-005-----0
  6
CONTINUOUS
  5
298
 10
389.368603
 20
452.159685
 30
0.0
 11
390.735119
 21
453.526201
 31
0.0
  0
LINE
  8
LC-008-005-----0
  6
CONTINUOUS
  5
299
 10
388.802917
 20
452.159685
 30
0.0
 11
390.735119
 21
454.091887
 31
0.0
  0
LINE
  8
LC-008-005-----0
  6
CONTINUOUS
  5
29A
 10
388.237232
 20
452.159685
 30
0.0
 11
390.735119
 21
454.657572
 31
0.0
  0
LINE
  8
LC-008-005-----0
  6
CONTINUOUS
  5
29B
 10
387.671546
 20
452.159685
 30
0.0
 11
390.735119
 21
455.223258
 31
0.0
  0
LINE
  8
LC-008-005-----0
  6
CONTINUOUS
  5
29C
 10
387.105861
 20
452.159685
 30
0.0
 11
390.735119
 21
455.788943
 31
0.0
  0
LINE
  8
LC-008-005-----0
  6
CONTINUOUS
  5
29D
 10
386.540175
 20
452.159685
 30
0.0
 11
390.735119
 21
456.354629
 31
0.0
  0
LINE
  8
LC-008-005-----0
  6
CONTINUOUS
  5
29E
 10
385.97449
 20
452.159685
 30
0.0
 11
390.67449
 21
456.859685
 31
0.0
  0
LINE
  8
LC-008-005-----0
  6
CONTINUOUS
  5
29F
 10
385.408805
 20
452.159685
 30
0.0
 11
390.108805
 21
456.859685
 31
0.0
  0
LINE
  8
LC-008-005-----0
  6
CONTINUOUS
  5
2A0
 10
384.843119
 20
452.159685
 30
0.0
 11
389.543119
 21
456.859685
 31
0.0
  0
LINE
  8
LC-008-005-----0
  6
CONTINUOUS
  5
2A1
 10
384.277434
 20
452.159685
 30
0.0
 11
388.977434
 21
456.859685
 31
0.0
  0
LINE
  8
LC-008-005-----0
  6
CONTINUOUS
  5
2A2
 10
383.711748
 20
452.159685
 30
0.0
 11
388.411748
 21
456.859685
 31
0.0
  0
LINE
  8
LC-008-005-----0
  6
CONTINUOUS
  5
2A3
 10
383.146063
 20
452.159685
 30
0.0
 11
387.846063
 21
456.859685
 31
0.0
  0
LINE
  8
LC-008-005-----0
  6
CONTINUOUS
  5
2A4
 10
382.580377
 20
452.159685
 30
0.0
 11
387.280377
 21
456.859685
 31
0.0
  0
LINE
  8
LC-008-005-----0
  6
CONTINUOUS
  5
2A5
 10
382.014692
 20
452.159685
 30
0.0
 11
386.714692
 21
456.859685
 31
0.0
  0
LINE
  8
LC-008-005-----0
  6
CONTINUOUS
  5
2A6
 10
381.449007
 20
452.159685
 30
0.0
 11
386.149007
 21
456.859685
 31
0.0
  0
LINE
  8
LC-008-005-----0
  6
CONTINUOUS
  5
2A7
 10
380.883321
 20
452.159685
 30
0.0
 11
385.583321
 21
456.859685
 31
0.0
  0
LINE
  8
LC-008-005-----0
  6
CONTINUOUS
  5
2A8
 10
380.735119
 20
452.577168
 30
0.0
 11
385.017636
 21
456.859685
 31
0.0
  0
LINE
  8
LC-008-005-----0
  6
CONTINUOUS
  5
2A9
 10
380.735119
 20
453.142854
 30
0.0
 11
384.439148
 21
456.846883
 31
0.0
  0
LINE
  8
LC-008-005-----0
  6
CONTINUOUS
  5
2AA
 10
380.735119
 20
453.708539
 30
0.0
 11
383.854071
 21
456.82749
 31
0.0
  0
LINE
  8
LC-008-005-----0
  6
CONTINUOUS
  5
2AB
 10
380.735119
 20
454.274224
 30
0.0
 11
383.268993
 21
456.808098
 31
0.0
  0
LINE
  8
LC-008-005-----0
  6
CONTINUOUS
  5
2AC
 10
380.735119
 20
454.83991
 30
0.0
 11
382.683915
 21
456.788706
 31
0.0
  0
LINE
  8
LC-008-005-----0
  6
CONTINUOUS
  5
2AD
 10
380.735119
 20
455.405595
 30
0.0
 11
382.098837
 21
456.769313
 31
0.0
  0
LINE
  8
LC-008-005-----0
  6
CONTINUOUS
  5
2AE
 10
380.735119
 20
455.971281
 30
0.0
 11
381.51376
 21
456.749921
 31
0.0
  0
LINE
  8
LC-008-005-----0
  6
CONTINUOUS
  5
2AF
 10
380.735119
 20
456.536966
 30
0.0
 11
380.928682
 21
456.730529
 31
0.0
  0
ENDBLK
  8
0
  5
2B0
  0
BLOCK
  8
0
  5
2B2
  2
*X42
 70
    65
 10
360.735119
 20
447.163724
 30
0.0
  3
*X42
  0
LINE
  8
LC-008-005-----0
  6
CONTINUOUS
  5
2B3
 10
370.337962
 20
450.099607
 30
0.0
 11
370.735119
 21
450.496764
 31
0.0
  0
LINE
  8
LC-008-005-----0
  6
CONTINUOUS
  5
2B4
 10
369.52317
 20
449.8505
 30
0.0
 11
370.735119
 21
451.06245
 31
0.0
  0
LINE
  8
LC-008-005-----0
  6
CONTINUOUS
  5
2B5
 10
368.708378
 20
449.601393
 30
0.0
 11
370.735119
 21
451.628135
 31
0.0
  0
LINE
  8
LC-008-005-----0
  6
CONTINUOUS
  5
2B6
 10
367.893585
 20
449.352286
 30
0.0
 11
370.735119
 21
452.19382
 31
0.0
  0
LINE
  8
LC-008-005-----0
  6
CONTINUOUS
  5
2B7
 10
367.078793
 20
449.103179
 30
0.0
 11
370.735119
 21
452.759506
 31
0.0
  0
LINE
  8
LC-008-005-----0
  6
CONTINUOUS
  5
2B8
 10
366.264
 20
448.854072
 30
0.0
 11
370.735119
 21
453.325191
 31
0.0
  0
LINE
  8
LC-008-005-----0
  6
CONTINUOUS
  5
2B9
 10
365.449208
 20
448.604965
 30
0.0
 11
370.735119
 21
453.890877
 31
0.0
  0
LINE
  8
LC-008-005-----0
  6
CONTINUOUS
  5
2BA
 10
364.634415
 20
448.355858
 30
0.0
 11
370.735119
 21
454.456562
 31
0.0
  0
LINE
  8
LC-008-005-----0
  6
CONTINUOUS
  5
2BB
 10
363.819623
 20
448.106751
 30
0.0
 11
370.735119
 21
455.022248
 31
0.0
  0
LINE
  8
LC-008-005-----0
  6
CONTINUOUS
  5
2BC
 10
363.00483
 20
447.857644
 30
0.0
 11
370.083857
 21
454.936671
 31
0.0
  0
LINE
  8
LC-008-005-----0
  6
CONTINUOUS
  5
2BD
 10
362.190038
 20
447.608537
 30
0.0
 11
369.269065
 21
454.687564
 31
0.0
  0
LINE
  8
LC-008-005-----0
  6
CONTINUOUS
  5
2BE
 10
361.375245
 20
447.35943
 30
0.0
 11
368.454272
 21
454.438457
 31
0.0
  0
LINE
  8
LC-008-005-----0
  6
CONTINUOUS
  5
2BF
 10
360.735119
 20
447.284989
 30
0.0
 11
367.63948
 21
454.18935
 31
0.0
  0
LINE
  8
LC-008-005-----0
  6
CONTINUOUS
  5
2C0
 10
360.735119
 20
447.850675
 30
0.0
 11
366.824687
 21
453.940243
 31
0.0
  0
LINE
  8
LC-008-005-----0
  6
CONTINUOUS
  5
2C1
 10
360.735119
 20
448.41636
 30
0.0
 11
366.009895
 21
453.691136
 31
0.0
  0
LINE
  8
LC-008-005-----0
  6
CONTINUOUS
  5
2C2
 10
360.735119
 20
448.982046
 30
0.0
 11
365.195102
 21
453.442029
 31
0.0
  0
LINE
  8
LC-008-005-----0
  6
CONTINUOUS
  5
2C3
 10
360.735119
 20
449.547731
 30
0.0
 11
364.38031
 21
453.192921
 31
0.0
  0
LINE
  8
LC-008-005-----0
  6
CONTINUOUS
  5
2C4
 10
360.735119
 20
450.113416
 30
0.0
 11
363.565517
 21
452.943814
 31
0.0
  0
LINE
  8
LC-008-005-----0
  6
CONTINUOUS
  5
2C5
 10
360.735119
 20
450.679102
 30
0.0
 11
362.750725
 21
452.694707
 31
0.0
  0
LINE
  8
LC-008-005-----0
  6
CONTINUOUS
  5
2C6
 10
360.735119
 20
451.244787
 30
0.0
 11
361.935932
 21
452.4456
 31
0.0
  0
LINE
  8
LC-008-005-----0
  6
CONTINUOUS
  5
2C7
 10
360.735119
 20
451.810473
 30
0.0
 11
361.12114
 21
452.196493
 31
0.0
  0
ENDBLK
  8
0
  5
2C8
  0
BLOCK
  8
0
  5
2CA
  2
*X43
 70
    65
 10
343.833541
 20
445.666987
 30
0.0
  3
*X43
  0
LINE
  8
LC-008-005-----0
  6
CONTINUOUS
  5
2CB
 10
350.631835
 20
445.666987
 30
0.0
 11
350.735119
 21
445.770271
 31
0.0
  0
LINE
  8
LC-008-005-----0
  6
CONTINUOUS
  5
2CC
 10
350.06615
 20
445.666987
 30
0.0
 11
350.735119
 21
446.335956
 31
0.0
  0
LINE
  8
LC-008-005-----0
  6
CONTINUOUS
  5
2CD
 10
349.500465
 20
445.666987
 30
0.0
 11
350.735119
 21
446.901641
 31
0.0
  0
LINE
  8
LC-008-005-----0
  6
CONTINUOUS
  5
2CE
 10
348.934779
 20
445.666987
 30
0.0
 11
350.735119
 21
447.467327
 31
0.0
  0
LINE
  8
LC-008-005-----0
  6
CONTINUOUS
  5
2CF
 10
348.369094
 20
445.666987
 30
0.0
 11
350.735119
 21
448.033012
 31
0.0
  0
LINE
  8
LC-008-005-----0
  6
CONTINUOUS
  5
2D0
 10
347.803408
 20
445.666987
 30
0.0
 11
350.735119
 21
448.598698
 31
0.0
  0
LINE
  8
LC-008-005-----0
  6
CONTINUOUS
  5
2D1
 10
347.237723
 20
445.666987
 30
0.0
 11
350.735119
 21
449.164383
 31
0.0
  0
LINE
  8
LC-008-005-----0
  6
CONTINUOUS
  5
2D2
 10
346.672038
 20
445.666987
 30
0.0
 11
350.735119
 21
449.730069
 31
0.0
  0
LINE
  8
LC-008-005-----0
  6
CONTINUOUS
  5
2D3
 10
346.120196
 20
445.680831
 30
0.0
 11
350.735119
 21
450.295754
 31
0.0
  0
LINE
  8
LC-008-005-----0
  6
CONTINUOUS
  5
2D4
 10
345.913141
 20
446.039461
 30
0.0
 11
350.240667
 21
450.366987
 31
0.0
  0
LINE
  8
LC-008-005-----0
  6
CONTINUOUS
  5
2D5
 10
345.474981
 20
446.166987
 30
0.0
 11
349.674981
 21
450.366987
 31
0.0
  0
LINE
  8
LC-008-005-----0
  6
CONTINUOUS
  5
2D6
 10
344.909296
 20
446.166987
 30
0.0
 11
349.109296
 21
450.366987
 31
0.0
  0
LINE
  8
LC-008-005-----0
  6
CONTINUOUS
  5
2D7
 10
344.34361
 20
446.166987
 30
0.0
 11
348.54361
 21
450.366987
 31
0.0
  0
LINE
  8
LC-008-005-----0
  6
CONTINUOUS
  5
2D8
 10
343.833552
 20
446.222614
 30
0.0
 11
347.977925
 21
450.366987
 31
0.0
  0
LINE
  8
LC-008-005-----0
  6
CONTINUOUS
  5
2D9
 10
343.833551
 20
446.788298
 30
0.0
 11
347.41224
 21
450.366987
 31
0.0
  0
LINE
  8
LC-008-005-----0
  6
CONTINUOUS
  5
2DA
 10
343.833549
 20
447.353982
 30
0.0
 11
346.846554
 21
450.366987
 31
0.0
  0
LINE
  8
LC-008-005-----0
  6
CONTINUOUS
  5
2DB
 10
343.833548
 20
447.919666
 30
0.0
 11
346.280869
 21
450.366987
 31
0.0
  0
LINE
  8
LC-008-005-----0
  6
CONTINUOUS
  5
2DC
 10
343.833546
 20
448.48535
 30
0.0
 11
345.715183
 21
450.366987
 31
0.0
  0
LINE
  8
LC-008-005-----0
  6
CONTINUOUS
  5
2DD
 10
343.833545
 20
449.051034
 30
0.0
 11
345.149498
 21
450.366987
 31
0.0
  0
LINE
  8
LC-008-005-----0
  6
CONTINUOUS
  5
2DE
 10
343.833543
 20
449.616718
 30
0.0
 11
344.583812
 21
450.366987
 31
0.0
  0
LINE
  8
LC-008-005-----0
  6
CONTINUOUS
  5
2DF
 10
343.833542
 20
450.182402
 30
0.0
 11
344.018127
 21
450.366987
 31
0.0
  0
ENDBLK
  8
0
  5
2E0
  0
BLOCK
  8
0
  5
2E2
  2
BLK18
 70
    64
 10
0.0
 20
0.0
 30
0.0
  3
BLK18
  0
ENDBLK
  8
0
  5
2E3
  0
BLOCK
  8
0
  5
2E5
  2
*D45
 70
    65
 10
0.0
 20
0.0
 30
0.0
  3
*D45
  0
LINE
  8
LC-005-003-MTH-0
  6
CONTINUOUS
  5
2E6
 10
154.339526
 20
448.642185
 30
0.0
 11
154.339526
 21
487.2
 31
0.0
  0
LINE
  8
LC-005-003-MTH-0
  6
CONTINUOUS
  5
2E7
 10
387.339501
 20
448.642185
 30
0.0
 11
387.339501
 21
487.2
 31
0.0
  0
LINE
  8
LC-006-003-MTG-0
  6
CONTINUOUS
  5
2E8
 10
154.339526
 20
470.4
 30
0.0
 11
387.339501
 21
470.4
 31
0.0
  0
LINE
  8
LC-004-003-----0
  6
CONTINUOUS
  5
2E9
 10
182.099982
 20
474.054733
 30
0.0
 11
154.339526
 21
470.4
 31
0.0
  0
LINE
  8
LC-004-003-----0
  6
CONTINUOUS
  5
2EA
 10
154.339526
 20
470.4
 30
0.0
 11
182.099982
 21
466.745267
 31
0.0
  0
LINE
  8
LC-004-003-----0
  6
CONTINUOUS
  5
2EB
 10
182.099982
 20
466.745267
 30
0.0
 11
182.099982
 21
474.054733
 31
0.0
  0
LINE
  8
LC-004-003-----0
  6
CONTINUOUS
  5
2EC
 10
182.162264
 20
473.104503
 30
0.0
 11
161.619526
 21
470.4
 31
0.0
  0
LINE
  8
LC-004-003-----0
  6
CONTINUOUS
  5
2ED
 10
161.619526
 20
470.4
 30
0.0
 11
182.162264
 21
467.695497
 31
0.0
  0
LINE
  8
LC-004-003-----0
  6
CONTINUOUS
  5
2EE
 10
182.224545
 20
472.154272
 30
0.0
 11
168.899526
 21
470.4
 31
0.0
  0
LINE
  8
LC-004-003-----0
  6
CONTINUOUS
  5
2EF
 10
168.899526
 20
470.4
 30
0.0
 11
182.224545
 21
468.645728
 31
0.0
  0
LINE
  8
LC-004-003-----0
  6
CONTINUOUS
  5
2F0
 10
182.286827
 20
471.204041
 30
0.0
 11
176.179526
 21
470.4
 31
0.0
  0
LINE
  8
LC-004-003-----0
  6
CONTINUOUS
  5
2F1
 10
176.179526
 20
470.4
 30
0.0
 11
182.286827
 21
469.595959
 31
0.0
  0
LINE
  8
LC-004-003-----0
  6
CONTINUOUS
  5
2F2
 10
359.579045
 20
466.745267
 30
0.0
 11
387.339501
 21
470.4
 31
0.0
  0
LINE
  8
LC-004-003-----0
  6
CONTINUOUS
  5
2F3
 10
387.339501
 20
470.4
 30
0.0
 11
359.579045
 21
474.054733
 31
0.0
  0
LINE
  8
LC-004-003-----0
  6
CONTINUOUS
  5
2F4
 10
359.579045
 20
474.054733
 30
0.0
 11
359.579045
 21
466.745267
 31
0.0
  0
LINE
  8
LC-004-003-----0
  6
CONTINUOUS
  5
2F5
 10
359.516764
 20
467.695497
 30
0.0
 11
380.059501
 21
470.4
 31
0.0
  0
LINE
  8
LC-004-003-----0
  6
CONTINUOUS
  5
2F6
 10
380.059501
 20
470.4
 30
0.0
 11
359.516764
 21
473.104503
 31
0.0
  0
LINE
  8
LC-004-003-----0
  6
CONTINUOUS
  5
2F7
 10
359.454482
 20
468.645728
 30
0.0
 11
372.779501
 21
470.4
 31
0.0
  0
LINE
  8
LC-004-003-----0
  6
CONTINUOUS
  5
2F8
 10
372.779501
 20
470.4
 30
0.0
 11
359.454482
 21
472.154272
 31
0.0
  0
LINE
  8
LC-004-003-----0
  6
CONTINUOUS
  5
2F9
 10
359.392201
 20
469.595959
 30
0.0
 11
365.499501
 21
470.4
 31
0.0
  0
LINE
  8
LC-004-003-----0
  6
CONTINUOUS
  5
2FA
 10
365.499501
 20
470.4
 30
0.0
 11
359.392201
 21
471.204041
 31
0.0
  0
TEXT
  8
LC-004-003-----0
  6
CONTINUOUS
 62
     8
  5
2FB
 10
237.090036
 20
478.227554
 30
0.0
 40
28.0
  1
Ø230
 51
15.0
  7
LC-TXTSTYLE-150-400-0-0-D0
 72
     1
 11
275.187674
 21
478.227554
 31
0.0
  0
ENDBLK
  8
0
  5
2FC
  0
BLOCK
  8
0
  5
2FE
  2
*D46
 70
    65
 10
0.0
 20
0.0
 30
0.0
  3
*D46
  0
LINE
  8
LC-005-003-MTH-0
  6
CONTINUOUS
  5
2FF
 10
70.943908
 20
456.859685
 30
0.0
 11
70.943908
 21
526.4
 31
0.0
  0
LINE
  8
LC-005-003-MTH-0
  6
CONTINUOUS
  5
300
 10
470.735119
 20
456.859685
 30
0.0
 11
470.735119
 21
526.4
 31
0.0
  0
LINE
  8
LC-006-003-MTG-0
  6
CONTINUOUS
  5
301
 10
70.943908
 20
509.6
 30
0.0
 11
470.735119
 21
509.6
 31
0.0
  0
LINE
  8
LC-004-003-----0
  6
CONTINUOUS
  5
302
 10
98.704364
 20
513.254733
 30
0.0
 11
70.943908
 21
509.6
 31
0.0
  0
LINE
  8
LC-004-003-----0
  6
CONTINUOUS
  5
303
 10
70.943908
 20
509.6
 30
0.0
 11
98.704364
 21
505.945267
 31
0.0
  0
LINE
  8
LC-004-003-----0
  6
CONTINUOUS
  5
304
 10
98.704364
 20
505.945267
 30
0.0
 11
98.704364
 21
513.254733
 31
0.0
  0
LINE
  8
LC-004-003-----0
  6
CONTINUOUS
  5
305
 10
98.766646
 20
512.304503
 30
0.0
 11
78.223908
 21
509.6
 31
0.0
  0
LINE
  8
LC-004-003-----0
  6
CONTINUOUS
  5
306
 10
78.223908
 20
509.6
 30
0.0
 11
98.766646
 21
506.895497
 31
0.0
  0
LINE
  8
LC-004-003-----0
  6
CONTINUOUS
  5
307
 10
98.828927
 20
511.354272
 30
0.0
 11
85.503908
 21
509.6
 31
0.0
  0
LINE
  8
LC-004-003-----0
  6
CONTINUOUS
  5
308
 10
85.503908
 20
509.6
 30
0.0
 11
98.828927
 21
507.845728
 31
0.0
  0
LINE
  8
LC-004-003-----0
  6
CONTINUOUS
  5
309
 10
98.891208
 20
510.404041
 30
0.0
 11
92.783908
 21
509.6
 31
0.0
  0
LINE
  8
LC-004-003-----0
  6
CONTINUOUS
  5
30A
 10
92.783908
 20
509.6
 30
0.0
 11
98.891208
 21
508.795959
 31
0.0
  0
LINE
  8
LC-004-003-----0
  6
CONTINUOUS
  5
30B
 10
442.974663
 20
505.945267
 30
0.0
 11
470.735119
 21
509.6
 31
0.0
  0
LINE
  8
LC-004-003-----0
  6
CONTINUOUS
  5
30C
 10
470.735119
 20
509.6
 30
0.0
 11
442.974663
 21
513.254733
 31
0.0
  0
LINE
  8
LC-004-003-----0
  6
CONTINUOUS
  5
30D
 10
442.974663
 20
513.254733
 30
0.0
 11
442.974663
 21
505.945267
 31
0.0
  0
LINE
  8
LC-004-003-----0
  6
CONTINUOUS
  5
30E
 10
442.912382
 20
506.895497
 30
0.0
 11
463.455119
 21
509.6
 31
0.0
  0
LINE
  8
LC-004-003-----0
  6
CONTINUOUS
  5
30F
 10
463.455119
 20
509.6
 30
0.0
 11
442.912382
 21
512.304503
 31
0.0
  0
LINE
  8
LC-004-003-----0
  6
CONTINUOUS
  5
310
 10
442.8501
 20
507.845728
 30
0.0
 11
456.175119
 21
509.6
 31
0.0
  0
LINE
  8
LC-004-003-----0
  6
CONTINUOUS
  5
311
 10
456.175119
 20
509.6
 30
0.0
 11
442.8501
 21
511.354272
 31
0.0
  0
LINE
  8
LC-004-003-----0
  6
CONTINUOUS
  5
312
 10
442.787819
 20
508.795959
 30
0.0
 11
448.895119
 21
509.6
 31
0.0
  0
LINE
  8
LC-004-003-----0
  6
CONTINUOUS
  5
313
 10
448.895119
 20
509.6
 30
0.0
 11
442.787819
 21
510.404041
 31
0.0
  0
TEXT
  8
LC-004-003-----0
  6
CONTINUOUS
 62
     8
  5
314
 10
237.090036
 20
517.427554
 30
0.0
 40
28.0
  1
Ø420
 51
15.0
  7
LC-TXTSTYLE-150-400-0-0-D0
 72
     1
 11
275.187674
 21
517.427554
 31
0.0
  0
ENDBLK
  8
0
  5
315
  0
ENDSEC
  0
SECTION
  2
ENTITIES
  0
VIEWPORT
  8
LC-000
  5
59C
 67
     1
 68
     1
 10
420.0
 20
297.0
 30
0.0
 40
840.0
 41
594.0
 69
     1
1001
ACAD
1000
MVIEW
1002
{
1070
    16
1010
0.0
1020
0.0
1030
0.0
1010
0.0
1020
0.0
1030
1.0
1040
0.0
1040
594.0
1040
420.0
1040
297.0
1040
50.0
1040
0.0
1040
0.0
1070
     0
1070
   100
1070
     1
1070
     1
1070
     0
1070
     0
1070
     0
1070
     0
1040
0.0
1040
0.0
1040
0.0
1040
1.0
1040
1.0
1040
0.0
1040
0.0
1070
     0
1002
{
1002
}
1002
}
  0
VIEWPORT
  8
0
  5
59D
 67
     1
 68
     1
 10
0.0
 20
0.0
 30
0.0
 40
0.0
 41
0.0
 69
     1
1001
ACAD
1000
MVIEW
1002
{
1070
    16
1010
0.0
1020
0.0
1030
0.0
1010
0.0
1020
0.0
1030
1.0
1040
0.0
1040
594.0
1040
0.0
1040
0.0
1040
50.0
1040
0.0
1040
0.0
1070
     0
1070
   100
1070
     0
1070
     1
1070
     0
1070
     0
1070
     0
1070
     0
1040
0.0
1040
0.0
1040
0.0
1040
0.5
1040
0.5
1040
0.5
1040
0.5
1070
     0
1002
{
1002
}
1002
}
  0
DIMENSION
  8
0
  5
316
  2
*D0
 10
270.839514
 20
324.0
 30
0.0
 11
270.839514
 21
324.0
 31
0.0
  1
%%c110
 13
215.839514
 23
236.665606
 33
0.0
 14
325.839514
 24
236.665606
 34
0.0
  3
LC-DIM-L-0140-02-02
  0
INSERT
  8
0
  5
318
  2
BLK1
 10
0.0
 20
0.0
 30
0.0
  0
DIMENSION
  8
0
  5
319
  2
*D2
 10
270.839514
 20
154.0
 30
0.0
 11
270.839514
 21
154.0
 31
0.0
  1
%%c<>
 13
204.839514
 23
229.665606
 33
0.0
 14
336.839514
 24
229.665606
 34
0.0
  3
LC-DIM-L-0140-02-02
  0
INSERT
  8
0
  5
31A
  2
BLK2
 10
0.0
 20
0.0
 30
0.0
  0
INSERT
  8
0
  5
31B
  2
*X4
 10
203.839514
 20
232.165606
 30
0.0
  0
DIMENSION
  8
0
  5
31C
  2
*D5
 10
470.4
 20
339.153896
 30
0.0
 11
470.4
 21
339.153896
 31
0.0
  1
219
 13
336.839514
 23
229.665606
 33
0.0
 14
387.339501
 24
448.642185
 34
0.0
 50
90.0
  3
LC-DIM-L-0140-02-02
  0
DIMENSION
  8
0
  5
31D
  2
*D6
 10
431.2
 20
330.915952
 30
0.0
 11
431.2
 21
330.915952
 31
0.0
  1
203
 13
336.839514
 23
229.665606
 33
0.0
 14
345.198882
 24
432.166297
 34
0.0
 50
90.0
  3
LC-DIM-L-0140-02-02
  0
INSERT
  8
0
  5
31E
  2
BLK3
 10
0.0
 20
0.0
 30
0.0
  0
INSERT
  8
0
  5
31F
  2
OBJ1
 10
0.0
 20
0.0
 30
0.0
  0
DIMENSION
  8
0
  5
320
  2
*D9
 10
392.0
 20
257.915606
 30
0.0
 11
392.0
 21
257.915606
 31
0.0
  1
57
 13
336.839514
 23
229.665606
 33
0.0
 14
335.839514
 24
286.165606
 34
0.0
 50
90.0
  3
LC-DIM-L-0140-02-02
  0
INSERT
  8
0
  5
321
  2
*X10
 10
325.23954
 20
208.215147
 30
0.0
  0
INSERT
  8
0
  5
322
  2
*X11
 10
206.439488
 20
208.215147
 30
0.0
  0
INSERT
  8
0
  5
323
  2
*X12
 10
324.339684
 20
208.665606
 30
0.0
  0
INSERT
  8
0
  5
324
  2
BLK4
 10
0.0
 20
0.0
 30
0.0
  0
INSERT
  8
0
  5
326
  2
BLK5
 10
0.0
 20
0.0
 30
0.0
  0
INSERT
  8
0
  5
327
  2
BLK6
 10
0.0
 20
0.0
 30
0.0
  0
INSERT
  8
0
  5
328
  2
BLK7
 10
0.0
 20
0.0
 30
0.0
  0
INSERT
  8
0
  5
329
  2
BLK8
 10
0.0
 20
0.0
 30
0.0
  0
INSERT
  8
0
  5
32A
  2
BLK9
 10
0.0
 20
0.0
 30
0.0
  0
INSERT
  8
0
  5
32B
  2
BLK10
 10
0.0
 20
0.0
 30
0.0
  0
INSERT
  8
0
  5
32C
  2
BLK11
 10
0.0
 20
0.0
 30
0.0
  0
INSERT
  8
0
  5
32D
  2
BLK12
 10
0.0
 20
0.0
 30
0.0
  0
INSERT
  8
0
  5
32E
  2
BLK13
 10
0.0
 20
0.0
 30
0.0
  0
INSERT
  8
0
  5
32F
  2
BLK14
 10
0.0
 20
0.0
 30
0.0
  0
INSERT
  8
0
  5
330
  2
BLK15
 10
0.0
 20
0.0
 30
0.0
  0
INSERT
  8
0
  5
331
  2
*X25
 10
322.839514
 20
232.165606
 30
0.0
  0
INSERT
  8
0
  5
332
  2
BLK16
 10
0.0
 20
0.0
 30
0.0
  0
INSERT
  8
0
  5
333
  2
BLK17
 10
0.0
 20
0.0
 30
0.0
  0
INSERT
  8
0
  5
334
  2
*X28
 10
333.090089
 20
450.366975
 30
0.0
  0
INSERT
  8
0
  5
335
  2
*X29
 10
185.668025
 20
450.366975
 30
0.0
  0
INSERT
  8
0
  5
336
  2
*X30
 10
70.943908
 20
452.159685
 30
0.0
  0
INSERT
  8
0
  5
337
  2
*X31
 10
90.943908
 20
452.159685
 30
0.0
  0
INSERT
  8
0
  5
338
  2
*X32
 10
110.943908
 20
452.159685
 30
0.0
  0
INSERT
  8
0
  5
339
  2
*X33
 10
130.943908
 20
452.159685
 30
0.0
  0
INSERT
  8
0
  5
33A
  2
*X34
 10
150.943908
 20
452.159685
 30
0.0
  0
INSERT
  8
0
  5
33B
  2
*X35
 10
170.943908
 20
447.163724
 30
0.0
  0
INSERT
  8
0
  5
33C
  2
*X36
 10
190.943908
 20
445.666987
 30
0.0
  0
INSERT
  8
0
  5
33D
  2
*X37
 10
460.735119
 20
452.159685
 30
0.0
  0
INSERT
  8
0
  5
33E
  2
*X38
 10
440.735119
 20
452.159685
 30
0.0
  0
INSERT
  8
0
  5
33F
  2
*X39
 10
420.735119
 20
452.159685
 30
0.0
  0
INSERT
  8
0
  5
340
  2
*X40
 10
400.735119
 20
452.159685
 30
0.0
  0
INSERT
  8
0
  5
341
  2
*X41
 10
380.735119
 20
452.159685
 30
0.0
  0
INSERT
  8
0
  5
342
  2
*X42
 10
360.735119
 20
447.163724
 30
0.0
  0
INSERT
  8
0
  5
343
  2
*X43
 10
343.833541
 20
445.666987
 30
0.0
  0
INSERT
  8
0
  5
344
  2
BLK18
 10
0.0
 20
0.0
 30
0.0
  0
DIMENSION
  8
0
  5
345
  2
*D45
 10
270.839514
 20
470.4
 30
0.0
 11
270.839514
 21
470.4
 31
0.0
  1
%%c230
 13
154.339526
 23
448.642185
 33
0.0
 14
387.339501
 24
448.642185
 34
0.0
  3
LC-DIM-L-0140-02-02
  0
DIMENSION
  8
0
  5
346
  2
*D46
 10
270.839514
 20
509.6
 30
0.0
 11
270.839514
 21
509.6
 31
0.0
  1
%%c420
 13
70.943908
 23
456.859685
 33
0.0
 14
470.735119
 24
456.859685
 34
0.0
  3
LC-DIM-L-0140-02-02
  0
LINE
  8
LC-001-002-----0
  6
CONTINUOUS
  5
348
 10
346.840035
 20
439.667677
 30
0.0
 11
346.840035
 21
432.166293
 31
0.0
  0
LINE
  8
LC-001-002-----0
  6
CONTINUOUS
  5
349
 10
154.339526
 20
450.123329
 30
0.0
 11
154.339526
 21
448.645189
 31
0.0
  0
ARC
  8
LC-002-002-RND-0
  6
CONTINUOUS
  5
34B
 10
156.339526
 20
450.123329
 30
0.0
 40
2.0
 50
88.101636
 51
180.0
  0
LINE
  8
LC-001-002-----0
  6
CONTINUOUS
  5
34C
 10
165.426971
 20
448.220404
 30
0.0
 11
154.339526
 21
448.642185
 31
0.0
  0
LINE
  8
LC-001-002-----0
  6
DASHDOT
 62
     2
  5
34E
 10
270.839514
 20
453.36658
 30
0.0
 11
270.839514
 21
361.746
 31
0.0
  0
LINE
  8
LC-001-002-----0
  6
CONTINUOUS
  5
34F
 10
346.840035
 20
432.166293
 30
0.0
 11
345.198882
 21
432.166297
 31
0.0
  0
ARC
  8
LC-001-002-----0
  6
CONTINUOUS
  5
350
 10
340.840003
 20
441.166307
 30
0.0
 40
10.0
 50
244.157941
 51
295.841807
  0
LINE
  8
LC-001-002-----0
  6
CONTINUOUS
  5
351
 10
332.589738
 20
447.166296
 30
0.0
 11
335.596067
 21
447.166296
 31
0.0
  0
LINE
  8
LC-001-002-----0
  6
CONTINUOUS
  5
352
 10
338.340003
 20
439.033515
 30
0.0
 11
338.340003
 21
432.166296
 31
0.0
  0
LINE
  8
LC-001-002-----0
  6
CONTINUOUS
  5
353
 10
343.340003
 20
439.03477
 30
0.0
 11
343.340003
 21
432.166296
 31
0.0
  0
LINE
  8
LC-003-004-----0
  6
CONTINUOUS
  5
355
 10
200.838667
 20
434.867443
 30
0.0
 11
200.839007
 21
434.866876
 31
0.0
  0
LINE
  8
LC-001-002-----0
  6
DASHDOT
 62
     2
  5
356
 10
200.839024
 20
455.366875
 30
0.0
 11
200.839024
 21
432.166296
 31
0.0
  0
LINE
  8
LC-001-002-----0
  6
CONTINUOUS
  5
357
 10
324.633742
 20
232.165606
 30
0.0
 11
325.839514
 21
236.665606
 31
0.0
  0
LINE
  8
LC-001-002-----0
  6
CONTINUOUS
  5
358
 10
338.340003
 20
432.166296
 30
0.0
 11
343.340003
 21
432.166296
 31
0.0
  0
LINE
  8
LC-003-004-----0
  6
CONTINUOUS
  5
359
 10
200.839024
 20
434.868038
 30
0.0
 11
200.837782
 21
434.865967
 31
0.0
  0
LINE
  8
LC-001-002-----0
  6
DASHDOT
 62
     2
  5
35A
 10
340.840003
 20
455.366901
 30
0.0
 11
340.840003
 21
432.166296
 31
0.0
  0
LINE
  8
LC-001-002-----0
  6
CONTINUOUS
  5
35B
 10
188.089024
 20
445.666987
 30
0.0
 11
185.839514
 21
445.666987
 31
0.0
  0
LINE
  8
LC-001-002-----0
  6
CONTINUOUS
  5
35C
 10
336.481084
 20
432.165606
 30
0.0
 11
325.839514
 21
432.165606
 31
0.0
  0
LINE
  8
LC-008-005-----0
  6
CONTINUOUS
  5
35D
 10
218.02347
 20
232.165606
 30
0.0
 11
218.839514
 21
232.981649
 31
0.0
  0
LINE
  8
LC-001-002-----0
  6
CONTINUOUS
  5
35E
 10
345.22155
 20
447.166987
 30
0.0
 11
346.72155
 21
445.666987
 31
0.0
  0
LINE
  8
LC-001-002-----0
  6
CONTINUOUS
  5
35F
 10
355.839514
 20
445.666987
 30
0.0
 11
346.72155
 21
445.666987
 31
0.0
  0
LINE
  8
LC-001-002-----0
  6
CONTINUOUS
  5
360
 10
218.839514
 20
435.166987
 30
0.0
 11
322.839514
 21
435.166987
 31
0.0
  0
LINE
  8
LC-001-002-----0
  6
CONTINUOUS
  5
361
 10
376.124443
 20
451.868712
 30
0.0
 11
385.064688
 21
452.165035
 31
0.0
  0
LINE
  8
LC-001-002-----0
  6
CONTINUOUS
  5
362
 10
330.83954
 20
435.166987
 30
0.0
 11
322.839514
 21
435.166987
 31
0.0
  0
LINE
  8
LC-001-002-----0
  6
CONTINUOUS
 62
     2
  5
363
 10
383.44002
 20
448.493844
 30
0.0
 11
386.612258
 21
451.666082
 31
0.0
  0
LINE
  8
LC-001-002-----0
  6
CONTINUOUS
  5
364
 10
270.839514
 20
232.165606
 30
0.0
 11
218.839514
 21
232.165606
 31
0.0
  0
LINE
  8
LC-001-002-----0
  6
CONTINUOUS
  5
365
 10
355.839514
 20
445.666987
 30
0.0
 11
376.124443
 21
451.868712
 31
0.0
  0
LINE
  8
LC-008-005-----0
  6
CONTINUOUS
  5
366
 10
216.654283
 20
233.624846
 30
0.0
 11
218.839513
 21
235.810076
 31
0.0
  0
LINE
  8
LC-001-002-----0
  6
CONTINUOUS
  5
367
 10
356.287668
 20
442.11531
 30
0.0
 11
376.252056
 21
448.220404
 31
0.0
  0
LINE
  8
LC-001-002-----0
  6
CONTINUOUS
  5
368
 10
210.839402
 20
435.166987
 30
0.0
 11
218.739514
 21
435.166987
 31
0.0
  0
LINE
  8
LC-001-002-----0
  6
CONTINUOUS
  5
369
 10
270.839514
 20
232.165606
 30
0.0
 11
322.839514
 21
232.165606
 31
0.0
  0
LINE
  8
LC-001-002-----0
  6
CONTINUOUS
  5
36A
 10
165.554584
 20
451.868712
 30
0.0
 11
156.598697
 21
452.161287
 31
0.0
  0
LINE
  8
LC-001-002-----0
  6
CONTINUOUS
  5
36B
 10
185.391359
 20
442.11531
 30
0.0
 11
165.426971
 21
448.220404
 31
0.0
  0
LINE
  8
LC-001-002-----0
  6
CONTINUOUS
  5
36C
 10
185.839514
 20
445.666987
 30
0.0
 11
165.554584
 21
451.868712
 31
0.0
  0
LINE
  8
LC-001-002-----0
  6
CONTINUOUS
  5
36D
 10
218.839514
 20
435.166987
 30
0.0
 11
218.739514
 21
435.166987
 31
0.0
  0
LINE
  8
LC-001-002-----0
  6
CONTINUOUS
  5
36E
 10
215.839514
 20
432.166296
 30
0.0
 11
215.839514
 21
432.166271
 31
0.0
  0
LINE
  8
LC-001-002-----0
  6
CONTINUOUS
  5
36F
 10
325.839514
 20
432.166296
 30
0.0
 11
325.839514
 21
236.665606
 31
0.0
  0
LINE
  8
LC-001-002-----0
  6
CONTINUOUS
  5
370
 10
215.839504
 20
432.166297
 30
0.0
 11
215.839514
 21
236.665606
 31
0.0
  0
LINE
  8
LC-001-002-----0
  6
CONTINUOUS
  5
371
 10
322.839514
 20
435.166987
 30
0.0
 11
322.839514
 21
232.165606
 31
0.0
  0
LINE
  8
LC-001-002-----0
  6
CONTINUOUS
  5
372
 10
218.839504
 20
435.166987
 30
0.0
 11
218.839514
 21
232.165606
 31
0.0
  0
LINE
  8
LC-001-002-----0
  6
CONTINUOUS
  5
373
 10
217.045285
 20
232.165606
 30
0.0
 11
215.839514
 21
236.665606
 31
0.0
  0
LINE
  8
LC-001-002-----0
  6
CONTINUOUS
  5
374
 10
325.839514
 20
432.166296
 30
0.0
 11
325.839514
 21
432.166296
 31
0.0
  0
LINE
  8
LC-001-002-----0
  6
CONTINUOUS
  5
375
 10
322.839514
 20
435.166987
 30
0.0
 11
322.939514
 21
435.166987
 31
0.0
  0
LINE
  8
LC-008-005-----0
  6
CONTINUOUS
  5
376
 10
216.056566
 20
235.855556
 30
0.0
 11
218.839513
 21
238.638503
 31
0.0
  0
LINE
  8
LC-008-005-----0
  6
CONTINUOUS
  5
377
 10
215.839514
 20
238.466931
 30
0.0
 11
218.839513
 21
241.46693
 31
0.0
  0
LINE
  8
LC-008-005-----0
  6
CONTINUOUS
  5
378
 10
215.839513
 20
241.295358
 30
0.0
 11
218.839513
 21
244.295357
 31
0.0
  0
LINE
  8
LC-008-005-----0
  6
CONTINUOUS
  5
379
 10
215.839513
 20
244.123785
 30
0.0
 11
218.839513
 21
247.123784
 31
0.0
  0
LINE
  8
LC-008-005-----0
  6
CONTINUOUS
  5
37A
 10
215.839513
 20
246.952212
 30
0.0
 11
218.839513
 21
249.952211
 31
0.0
  0
LINE
  8
LC-008-005-----0
  6
CONTINUOUS
  5
37B
 10
215.839513
 20
249.780639
 30
0.0
 11
218.839513
 21
252.780638
 31
0.0
  0
LINE
  8
LC-008-005-----0
  6
CONTINUOUS
  5
37C
 10
215.839513
 20
252.609066
 30
0.0
 11
218.839513
 21
255.609065
 31
0.0
  0
LINE
  8
LC-008-005-----0
  6
CONTINUOUS
  5
37D
 10
215.839513
 20
255.437492
 30
0.0
 11
218.839512
 21
258.437492
 31
0.0
  0
LINE
  8
LC-001-002-----0
  6
CONTINUOUS
  5
37E
 10
330.83954
 20
447.166296
 30
0.0
 11
332.589738
 21
447.166296
 31
0.0
  0
LINE
  8
LC-001-002-----0
  6
CONTINUOUS
  5
37F
 10
322.839514
 20
232.165606
 30
0.0
 11
324.633742
 21
232.165606
 31
0.0
  0
LINE
  8
LC-001-002-----0
  6
CONTINUOUS
  5
380
 10
218.839514
 20
232.165606
 30
0.0
 11
217.045285
 21
232.165606
 31
0.0
  0
LINE
  8
LC-008-005-----0
  6
CONTINUOUS
  5
381
 10
215.839513
 20
258.265919
 30
0.0
 11
218.839512
 21
261.265919
 31
0.0
  0
LINE
  8
LC-008-005-----0
  6
CONTINUOUS
  5
382
 10
215.839512
 20
261.094346
 30
0.0
 11
218.839512
 21
264.094346
 31
0.0
  0
LINE
  8
LC-008-005-----0
  6
CONTINUOUS
  5
383
 10
215.839512
 20
263.922773
 30
0.0
 11
218.839512
 21
266.922773
 31
0.0
  0
LINE
  8
LC-008-005-----0
  6
CONTINUOUS
  5
384
 10
215.839512
 20
266.7512
 30
0.0
 11
218.839512
 21
269.7512
 31
0.0
  0
LINE
  8
LC-008-005-----0
  6
CONTINUOUS
  5
385
 10
215.839512
 20
269.579627
 30
0.0
 11
218.839512
 21
272.579627
 31
0.0
  0
LINE
  8
LC-008-005-----0
  6
CONTINUOUS
  5
386
 10
215.839512
 20
272.408054
 30
0.0
 11
218.839512
 21
275.408054
 31
0.0
  0
LINE
  8
LC-008-005-----0
  6
CONTINUOUS
  5
387
 10
215.839512
 20
275.236481
 30
0.0
 11
218.839512
 21
278.236481
 31
0.0
  0
LINE
  8
LC-008-005-----0
  6
CONTINUOUS
  5
388
 10
215.839512
 20
278.064908
 30
0.0
 11
218.839511
 21
281.064908
 31
0.0
  0
LINE
  8
LC-008-005-----0
  6
CONTINUOUS
  5
389
 10
215.839512
 20
280.893335
 30
0.0
 11
218.839511
 21
283.893335
 31
0.0
  0
LINE
  8
LC-008-005-----0
  6
CONTINUOUS
  5
38A
 10
215.839511
 20
283.721762
 30
0.0
 11
218.839511
 21
286.721762
 31
0.0
  0
LINE
  8
LC-008-005-----0
  6
CONTINUOUS
  5
38B
 10
215.839511
 20
286.550189
 30
0.0
 11
218.839511
 21
289.550189
 31
0.0
  0
LINE
  8
LC-008-005-----0
  6
CONTINUOUS
  5
38C
 10
215.839511
 20
289.378616
 30
0.0
 11
218.839511
 21
292.378616
 31
0.0
  0
LINE
  8
LC-008-005-----0
  6
CONTINUOUS
  5
38D
 10
215.839511
 20
292.207043
 30
0.0
 11
218.839511
 21
295.207043
 31
0.0
  0
LINE
  8
LC-008-005-----0
  6
CONTINUOUS
  5
38E
 10
215.839511
 20
295.03547
 30
0.0
 11
218.839511
 21
298.03547
 31
0.0
  0
LINE
  8
LC-008-005-----0
  6
CONTINUOUS
  5
38F
 10
215.839511
 20
297.863897
 30
0.0
 11
218.83951
 21
300.863897
 31
0.0
  0
LINE
  8
LC-008-005-----0
  6
CONTINUOUS
  5
390
 10
215.839511
 20
300.692324
 30
0.0
 11
218.83951
 21
303.692324
 31
0.0
  0
LINE
  8
LC-008-005-----0
  6
CONTINUOUS
  5
391
 10
215.83951
 20
303.520751
 30
0.0
 11
218.83951
 21
306.520751
 31
0.0
  0
LINE
  8
LC-008-005-----0
  6
CONTINUOUS
  5
392
 10
215.83951
 20
306.349178
 30
0.0
 11
218.83951
 21
309.349178
 31
0.0
  0
LINE
  8
LC-008-005-----0
  6
CONTINUOUS
  5
393
 10
215.83951
 20
309.177605
 30
0.0
 11
218.83951
 21
312.177605
 31
0.0
  0
LINE
  8
LC-008-005-----0
  6
CONTINUOUS
  5
394
 10
215.83951
 20
312.006032
 30
0.0
 11
218.83951
 21
315.006032
 31
0.0
  0
LINE
  8
LC-008-005-----0
  6
CONTINUOUS
  5
395
 10
215.83951
 20
314.834459
 30
0.0
 11
218.83951
 21
317.834459
 31
0.0
  0
LINE
  8
LC-008-005-----0
  6
CONTINUOUS
  5
396
 10
215.83951
 20
317.662886
 30
0.0
 11
218.83951
 21
320.662886
 31
0.0
  0
LINE
  8
LC-008-005-----0
  6
CONTINUOUS
  5
397
 10
215.83951
 20
320.491313
 30
0.0
 11
218.839509
 21
323.491313
 31
0.0
  0
LINE
  8
LC-008-005-----0
  6
CONTINUOUS
  5
398
 10
215.839509
 20
323.31974
 30
0.0
 11
218.839509
 21
326.31974
 31
0.0
  0
LINE
  8
LC-008-005-----0
  6
CONTINUOUS
  5
399
 10
215.839509
 20
326.148167
 30
0.0
 11
218.839509
 21
329.148167
 31
0.0
  0
LINE
  8
LC-008-005-----0
  6
CONTINUOUS
  5
39A
 10
215.839509
 20
328.976594
 30
0.0
 11
218.839509
 21
331.976594
 31
0.0
  0
LINE
  8
LC-008-005-----0
  6
CONTINUOUS
  5
39B
 10
215.839509
 20
331.805021
 30
0.0
 11
218.839509
 21
334.805021
 31
0.0
  0
LINE
  8
LC-008-005-----0
  6
CONTINUOUS
  5
39C
 10
215.839509
 20
334.633448
 30
0.0
 11
218.839509
 21
337.633448
 31
0.0
  0
LINE
  8
LC-008-005-----0
  6
CONTINUOUS
  5
39D
 10
215.839509
 20
337.461875
 30
0.0
 11
218.839509
 21
340.461875
 31
0.0
  0
LINE
  8
LC-008-005-----0
  6
CONTINUOUS
  5
39E
 10
215.839509
 20
340.290302
 30
0.0
 11
218.839508
 21
343.290302
 31
0.0
  0
LINE
  8
LC-008-005-----0
  6
CONTINUOUS
  5
39F
 10
215.839508
 20
343.118729
 30
0.0
 11
218.839508
 21
346.118729
 31
0.0
  0
LINE
  8
LC-008-005-----0
  6
CONTINUOUS
  5
3A0
 10
215.839508
 20
345.947156
 30
0.0
 11
218.839508
 21
348.947156
 31
0.0
  0
LINE
  8
LC-008-005-----0
  6
CONTINUOUS
  5
3A1
 10
215.839508
 20
348.775583
 30
0.0
 11
218.839508
 21
351.775583
 31
0.0
  0
LINE
  8
LC-008-005-----0
  6
CONTINUOUS
  5
3A2
 10
215.839508
 20
351.60401
 30
0.0
 11
218.839508
 21
354.60401
 31
0.0
  0
LINE
  8
LC-008-005-----0
  6
CONTINUOUS
  5
3A3
 10
215.839508
 20
354.432437
 30
0.0
 11
218.839508
 21
357.432437
 31
0.0
  0
LINE
  8
LC-008-005-----0
  6
CONTINUOUS
  5
3A4
 10
215.839508
 20
357.260864
 30
0.0
 11
218.839508
 21
360.260864
 31
0.0
  0
LINE
  8
LC-008-005-----0
  6
CONTINUOUS
  5
3A5
 10
215.839508
 20
360.089291
 30
0.0
 11
218.839508
 21
363.089291
 31
0.0
  0
LINE
  8
LC-008-005-----0
  6
CONTINUOUS
  5
3A6
 10
215.839508
 20
362.917718
 30
0.0
 11
218.839507
 21
365.917718
 31
0.0
  0
LINE
  8
LC-008-005-----0
  6
CONTINUOUS
  5
3A7
 10
215.839507
 20
365.746145
 30
0.0
 11
218.839507
 21
368.746145
 31
0.0
  0
LINE
  8
LC-008-005-----0
  6
CONTINUOUS
  5
3A8
 10
215.839507
 20
368.574572
 30
0.0
 11
218.839507
 21
371.574572
 31
0.0
  0
LINE
  8
LC-008-005-----0
  6
CONTINUOUS
  5
3A9
 10
215.839507
 20
371.402999
 30
0.0
 11
218.839507
 21
374.402999
 31
0.0
  0
LINE
  8
LC-008-005-----0
  6
CONTINUOUS
  5
3AA
 10
215.839507
 20
374.231426
 30
0.0
 11
218.839507
 21
377.231426
 31
0.0
  0
LINE
  8
LC-008-005-----0
  6
CONTINUOUS
  5
3AB
 10
215.839507
 20
377.059853
 30
0.0
 11
218.839507
 21
380.059853
 31
0.0
  0
LINE
  8
LC-008-005-----0
  6
CONTINUOUS
  5
3AC
 10
215.839507
 20
379.88828
 30
0.0
 11
218.839507
 21
382.88828
 31
0.0
  0
LINE
  8
LC-008-005-----0
  6
CONTINUOUS
  5
3AD
 10
215.839507
 20
382.716707
 30
0.0
 11
218.839506
 21
385.716707
 31
0.0
  0
LINE
  8
LC-008-005-----0
  6
CONTINUOUS
  5
3AE
 10
215.839506
 20
385.545134
 30
0.0
 11
218.839506
 21
388.545134
 31
0.0
  0
LINE
  8
LC-008-005-----0
  6
CONTINUOUS
  5
3AF
 10
215.839506
 20
388.373561
 30
0.0
 11
218.839506
 21
391.373561
 31
0.0
  0
LINE
  8
LC-008-005-----0
  6
CONTINUOUS
  5
3B0
 10
215.839506
 20
391.201988
 30
0.0
 11
218.839506
 21
394.201988
 31
0.0
  0
LINE
  8
LC-008-005-----0
  6
CONTINUOUS
  5
3B1
 10
215.839506
 20
394.030415
 30
0.0
 11
218.839506
 21
397.030415
 31
0.0
  0
LINE
  8
LC-008-005-----0
  6
CONTINUOUS
  5
3B2
 10
215.839506
 20
396.858842
 30
0.0
 11
218.839506
 21
399.858842
 31
0.0
  0
LINE
  8
LC-008-005-----0
  6
CONTINUOUS
  5
3B3
 10
215.839506
 20
399.687269
 30
0.0
 11
218.839506
 21
402.687269
 31
0.0
  0
LINE
  8
LC-008-005-----0
  6
CONTINUOUS
  5
3B4
 10
215.839506
 20
402.515696
 30
0.0
 11
218.839506
 21
405.515696
 31
0.0
  0
LINE
  8
LC-008-005-----0
  6
CONTINUOUS
  5
3B5
 10
215.839505
 20
405.344123
 30
0.0
 11
218.839505
 21
408.344123
 31
0.0
  0
LINE
  8
LC-008-005-----0
  6
CONTINUOUS
  5
3B6
 10
215.839505
 20
408.17255
 30
0.0
 11
218.839505
 21
411.17255
 31
0.0
  0
LINE
  8
LC-008-005-----0
  6
CONTINUOUS
  5
3B7
 10
215.839505
 20
411.000977
 30
0.0
 11
218.839505
 21
414.000977
 31
0.0
  0
LINE
  8
LC-008-005-----0
  6
CONTINUOUS
  5
3B8
 10
215.839505
 20
413.829404
 30
0.0
 11
218.839505
 21
416.829404
 31
0.0
  0
LINE
  8
LC-008-005-----0
  6
CONTINUOUS
  5
3B9
 10
215.839505
 20
416.657831
 30
0.0
 11
218.839505
 21
419.657831
 31
0.0
  0
LINE
  8
LC-008-005-----0
  6
CONTINUOUS
  5
3BA
 10
215.839505
 20
419.486258
 30
0.0
 11
218.839505
 21
422.486258
 31
0.0
  0
LINE
  8
LC-008-005-----0
  6
CONTINUOUS
  5
3BB
 10
215.839505
 20
422.314685
 30
0.0
 11
218.839505
 21
425.314685
 31
0.0
  0
LINE
  8
LC-008-005-----0
  6
CONTINUOUS
  5
3BC
 10
215.839505
 20
425.143112
 30
0.0
 11
218.839504
 21
428.143112
 31
0.0
  0
LINE
  8
LC-008-005-----0
  6
CONTINUOUS
  5
3BD
 10
215.839504
 20
427.971539
 30
0.0
 11
218.839504
 21
430.971539
 31
0.0
  0
LINE
  8
LC-008-005-----0
  6
CONTINUOUS
  5
3BE
 10
215.839504
 20
430.799966
 30
0.0
 11
218.839504
 21
433.799966
 31
0.0
  0
LINE
  8
LC-008-005-----0
  6
CONTINUOUS
  5
3BF
 10
214.377448
 20
432.166336
 30
0.0
 11
217.378098
 21
435.166987
 31
0.0
  0
LINE
  8
LC-008-005-----0
  6
CONTINUOUS
  5
3C0
 10
211.549014
 20
432.16633
 30
0.0
 11
214.549671
 21
435.166987
 31
0.0
  0
LINE
  8
LC-008-005-----0
  6
CONTINUOUS
  5
3C1
 10
208.720581
 20
432.166324
 30
0.0
 11
211.721244
 21
435.166987
 31
0.0
  0
LINE
  8
LC-008-005-----0
  6
CONTINUOUS
  5
3C2
 10
205.892148
 20
432.166318
 30
0.0
 11
210.839402
 21
437.113571
 31
0.0
  0
LINE
  8
LC-008-005-----0
  6
CONTINUOUS
  5
3C3
 10
202.150017
 20
431.252614
 30
0.0
 11
203.063699
 21
432.166296
 31
0.0
  0
LINE
  8
LC-008-005-----0
  6
CONTINUOUS
  5
3C4
 10
203.339024
 20
432.441621
 30
0.0
 11
210.839402
 21
439.941999
 31
0.0
  0
LINE
  8
LC-008-005-----0
  6
CONTINUOUS
  5
3C5
 10
199.347187
 20
431.278212
 30
0.0
 11
200.235272
 21
432.166296
 31
0.0
  0
LINE
  8
LC-008-005-----0
  6
CONTINUOUS
  5
3C6
 10
203.339024
 20
435.270048
 30
0.0
 11
210.839402
 21
442.770426
 31
0.0
  0
LINE
  8
LC-008-005-----0
  6
CONTINUOUS
  5
3C7
 10
197.122954
 20
431.882405
 30
0.0
 11
198.339024
 21
433.098476
 31
0.0
  0
LINE
  8
LC-008-005-----0
  6
CONTINUOUS
  5
3C8
 10
203.339024
 20
438.098476
 30
0.0
 11
210.839402
 21
445.598853
 31
0.0
  0
LINE
  8
LC-008-005-----0
  6
CONTINUOUS
  5
3C9
 10
194.838992
 20
432.42687
 30
0.0
 11
198.339024
 21
435.926903
 31
0.0
  0
LINE
  8
LC-008-005-----0
  6
CONTINUOUS
  5
3CA
 10
203.837786
 20
441.425664
 30
0.0
 11
209.579108
 21
447.166987
 31
0.0
  0
LINE
  8
LC-008-005-----0
  6
CONTINUOUS
  5
3CB
 10
194.838992
 20
435.255298
 30
0.0
 11
198.339024
 21
438.75533
 31
0.0
  0
LINE
  8
LC-008-005-----0
  6
CONTINUOUS
  5
3CC
 10
203.837788
 20
444.254093
 30
0.0
 11
206.749991
 21
447.166296
 31
0.0
  0
LINE
  8
LC-008-005-----0
  6
CONTINUOUS
  5
3CD
 10
194.838992
 20
438.083725
 30
0.0
 11
197.839024
 21
441.083757
 31
0.0
  0
LINE
  8
LC-008-005-----0
  6
CONTINUOUS
  5
3CE
 10
203.83779
 20
447.082522
 30
0.0
 11
203.921564
 21
447.166296
 31
0.0
  0
LINE
  8
LC-008-005-----0
  6
CONTINUOUS
  5
3CF
 10
193.594517
 20
439.667677
 30
0.0
 11
197.839032
 21
443.912192
 31
0.0
  0
LINE
  8
LC-008-005-----0
  6
CONTINUOUS
  5
3D0
 10
190.76609
 20
439.667677
 30
0.0
 11
193.26609
 21
442.167677
 31
0.0
  0
LINE
  8
LC-008-005-----0
  6
CONTINUOUS
  5
3D1
 10
194.839514
 20
443.741101
 30
0.0
 11
197.839039
 21
446.740626
 31
0.0
  0
LINE
  8
LC-008-005-----0
  6
CONTINUOUS
  5
3D2
 10
187.937663
 20
439.667677
 30
0.0
 11
190.437663
 21
442.167677
 31
0.0
  0
LINE
  8
LC-008-005-----0
  6
CONTINUOUS
  5
3D3
 10
186.474114
 20
441.032555
 30
0.0
 11
187.838992
 21
442.397433
 31
0.0
  0
LINE
  8
LC-008-005-----0
  6
CONTINUOUS
  5
3D4
 10
184.883687
 20
442.270556
 30
0.0
 11
187.838992
 21
445.22586
 31
0.0
  0
LINE
  8
LC-008-005-----0
  6
CONTINUOUS
  5
3D5
 10
182.717637
 20
442.932932
 30
0.0
 11
185.542498
 21
445.757794
 31
0.0
  0
LINE
  8
LC-008-005-----0
  6
CONTINUOUS
  5
3D6
 10
180.551586
 20
443.595309
 30
0.0
 11
183.376334
 21
446.420057
 31
0.0
  0
LINE
  8
LC-008-005-----0
  6
CONTINUOUS
  5
3D7
 10
178.385536
 20
444.257685
 30
0.0
 11
181.21017
 21
447.082319
 31
0.0
  0
LINE
  8
LC-008-005-----0
  6
CONTINUOUS
  5
3D8
 10
176.219485
 20
444.920062
 30
0.0
 11
179.044005
 21
447.744582
 31
0.0
  0
LINE
  8
LC-008-005-----0
  6
CONTINUOUS
  5
3D9
 10
174.053434
 20
445.582438
 30
0.0
 11
176.877841
 21
448.406845
 31
0.0
  0
LINE
  8
LC-008-005-----0
  6
CONTINUOUS
  5
3DA
 10
171.887384
 20
446.244815
 30
0.0
 11
174.711677
 21
449.069108
 31
0.0
  0
LINE
  8
LC-008-005-----0
  6
CONTINUOUS
  5
3DB
 10
169.721333
 20
446.907192
 30
0.0
 11
172.545513
 21
449.731371
 31
0.0
  0
LINE
  8
LC-008-005-----0
  6
CONTINUOUS
  5
3DC
 10
167.555283
 20
447.569568
 30
0.0
 11
170.379348
 21
450.393634
 31
0.0
  0
LINE
  8
LC-008-005-----0
  6
CONTINUOUS
  5
3DD
 10
165.389232
 20
448.231945
 30
0.0
 11
168.213184
 21
451.055897
 31
0.0
  0
LINE
  8
LC-008-005-----0
  6
CONTINUOUS
  5
3DE
 10
162.654724
 20
448.325864
 30
0.0
 11
166.04702
 21
451.718159
 31
0.0
  0
LINE
  8
LC-008-005-----0
  6
CONTINUOUS
  5
3DF
 10
159.929951
 20
448.429518
 30
0.0
 11
163.438282
 21
451.937849
 31
0.0
  0
LINE
  8
LC-008-005-----0
  6
CONTINUOUS
  5
3E0
 10
157.205178
 20
448.533172
 30
0.0
 11
160.699332
 21
452.027326
 31
0.0
  0
LINE
  8
LC-008-005-----0
  6
CONTINUOUS
  5
3E1
 10
154.480405
 20
448.636826
 30
0.0
 11
157.960382
 21
452.116803
 31
0.0
  0
ARC
  8
LC-002-002-RND-0
  6
CONTINUOUS
  5
3E2
 10
385.339501
 20
450.123329
 30
0.0
 40
2.0
 50
360.0
 51
91.898364
  0
LINE
  8
LC-001-002-----0
  6
CONTINUOUS
  5
3E3
 10
387.339501
 20
450.123329
 30
0.0
 11
387.339501
 21
448.645189
 31
0.0
  0
LINE
  8
LC-001-002-----0
  6
CONTINUOUS
  5
3E4
 10
376.252056
 20
448.220404
 30
0.0
 11
387.339501
 21
448.642185
 31
0.0
  0
LINE
  8
LC-008-005-----0
  6
CONTINUOUS
  5
3E5
 10
322.839514
 20
232.329846
 30
0.0
 11
325.350591
 21
234.840923
 31
0.0
  0
LINE
  8
LC-008-005-----0
  6
CONTINUOUS
  5
3E6
 10
322.839514
 20
235.158273
 30
0.0
 11
325.839514
 21
238.158273
 31
0.0
  0
LINE
  8
LC-008-005-----0
  6
CONTINUOUS
  5
3E7
 10
322.839514
 20
237.9867
 30
0.0
 11
325.839514
 21
240.9867
 31
0.0
  0
LINE
  8
LC-008-005-----0
  6
CONTINUOUS
  5
3E8
 10
322.839514
 20
240.815127
 30
0.0
 11
325.839514
 21
243.815127
 31
0.0
  0
LINE
  8
LC-008-005-----0
  6
CONTINUOUS
  5
3E9
 10
322.839514
 20
243.643555
 30
0.0
 11
325.839514
 21
246.643555
 31
0.0
  0
LINE
  8
LC-008-005-----0
  6
CONTINUOUS
  5
3EA
 10
322.839514
 20
246.471982
 30
0.0
 11
325.839514
 21
249.471982
 31
0.0
  0
LINE
  8
LC-008-005-----0
  6
CONTINUOUS
  5
3EB
 10
322.839514
 20
249.300409
 30
0.0
 11
325.839514
 21
252.300409
 31
0.0
  0
LINE
  8
LC-008-005-----0
  6
CONTINUOUS
  5
3EC
 10
322.839515
 20
252.128836
 30
0.0
 11
325.839515
 21
255.128836
 31
0.0
  0
LINE
  8
LC-008-005-----0
  6
CONTINUOUS
  5
3ED
 10
322.839515
 20
254.957264
 30
0.0
 11
325.839515
 21
257.957264
 31
0.0
  0
LINE
  8
LC-008-005-----0
  6
CONTINUOUS
  5
3EE
 10
322.839515
 20
257.785691
 30
0.0
 11
325.839515
 21
260.785691
 31
0.0
  0
LINE
  8
LC-008-005-----0
  6
CONTINUOUS
  5
3EF
 10
322.839515
 20
260.614118
 30
0.0
 11
325.839515
 21
263.614118
 31
0.0
  0
LINE
  8
LC-008-005-----0
  6
CONTINUOUS
  5
3F0
 10
322.839515
 20
263.442546
 30
0.0
 11
325.839515
 21
266.442545
 31
0.0
  0
LINE
  8
LC-008-005-----0
  6
CONTINUOUS
  5
3F1
 10
322.839515
 20
266.270973
 30
0.0
 11
325.839515
 21
269.270973
 31
0.0
  0
LINE
  8
LC-008-005-----0
  6
CONTINUOUS
  5
3F2
 10
322.839515
 20
269.0994
 30
0.0
 11
325.839515
 21
272.0994
 31
0.0
  0
LINE
  8
LC-008-005-----0
  6
CONTINUOUS
  5
3F3
 10
322.839516
 20
271.927827
 30
0.0
 11
325.839516
 21
274.927827
 31
0.0
  0
LINE
  8
LC-008-005-----0
  6
CONTINUOUS
  5
3F4
 10
322.839516
 20
274.756255
 30
0.0
 11
325.839516
 21
277.756255
 31
0.0
  0
LINE
  8
LC-008-005-----0
  6
CONTINUOUS
  5
3F5
 10
322.839516
 20
277.584682
 30
0.0
 11
325.839516
 21
280.584682
 31
0.0
  0
LINE
  8
LC-008-005-----0
  6
CONTINUOUS
  5
3F6
 10
322.839516
 20
280.413109
 30
0.0
 11
325.839516
 21
283.413109
 31
0.0
  0
LINE
  8
LC-008-005-----0
  6
CONTINUOUS
  5
3F7
 10
322.839516
 20
283.241536
 30
0.0
 11
325.839516
 21
286.241536
 31
0.0
  0
LINE
  8
LC-008-005-----0
  6
CONTINUOUS
  5
3F8
 10
322.839516
 20
286.069964
 30
0.0
 11
325.839516
 21
289.069964
 31
0.0
  0
LINE
  8
LC-008-005-----0
  6
CONTINUOUS
  5
3F9
 10
322.839516
 20
288.898391
 30
0.0
 11
325.839516
 21
291.898391
 31
0.0
  0
LINE
  8
LC-008-005-----0
  6
CONTINUOUS
  5
3FA
 10
322.839516
 20
291.726818
 30
0.0
 11
325.839516
 21
294.726818
 31
0.0
  0
LINE
  8
LC-008-005-----0
  6
CONTINUOUS
  5
3FB
 10
322.839517
 20
294.555245
 30
0.0
 11
325.839517
 21
297.555245
 31
0.0
  0
LINE
  8
LC-008-005-----0
  6
CONTINUOUS
  5
3FC
 10
322.839517
 20
297.383673
 30
0.0
 11
325.839517
 21
300.383673
 31
0.0
  0
LINE
  8
LC-008-005-----0
  6
CONTINUOUS
  5
3FD
 10
322.839517
 20
300.2121
 30
0.0
 11
325.839517
 21
303.2121
 31
0.0
  0
LINE
  8
LC-008-005-----0
  6
CONTINUOUS
  5
3FE
 10
322.839517
 20
303.040527
 30
0.0
 11
325.839517
 21
306.040527
 31
0.0
  0
LINE
  8
LC-008-005-----0
  6
CONTINUOUS
  5
3FF
 10
322.839517
 20
305.868954
 30
0.0
 11
325.839517
 21
308.868954
 31
0.0
  0
LINE
  8
LC-008-005-----0
  6
CONTINUOUS
  5
400
 10
322.839517
 20
308.697382
 30
0.0
 11
325.839517
 21
311.697382
 31
0.0
  0
LINE
  8
LC-008-005-----0
  6
CONTINUOUS
  5
401
 10
322.839517
 20
311.525809
 30
0.0
 11
325.839517
 21
314.525809
 31
0.0
  0
LINE
  8
LC-008-005-----0
  6
CONTINUOUS
  5
402
 10
322.839518
 20
314.354236
 30
0.0
 11
325.839518
 21
317.354236
 31
0.0
  0
LINE
  8
LC-008-005-----0
  6
CONTINUOUS
  5
403
 10
322.839518
 20
317.182663
 30
0.0
 11
325.839518
 21
320.182663
 31
0.0
  0
LINE
  8
LC-008-005-----0
  6
CONTINUOUS
  5
404
 10
322.839518
 20
320.011091
 30
0.0
 11
325.839518
 21
323.011091
 31
0.0
  0
LINE
  8
LC-008-005-----0
  6
CONTINUOUS
  5
405
 10
322.839518
 20
322.839518
 30
0.0
 11
325.839518
 21
325.839518
 31
0.0
  0
LINE
  8
LC-008-005-----0
  6
CONTINUOUS
  5
406
 10
322.839518
 20
325.667945
 30
0.0
 11
325.839518
 21
328.667945
 31
0.0
  0
LINE
  8
LC-008-005-----0
  6
CONTINUOUS
  5
407
 10
322.839518
 20
328.496372
 30
0.0
 11
325.839518
 21
331.496373
 31
0.0
  0
LINE
  8
LC-008-005-----0
  6
CONTINUOUS
  5
408
 10
322.839518
 20
331.3248
 30
0.0
 11
325.839518
 21
334.3248
 31
0.0
  0
LINE
  8
LC-008-005-----0
  6
CONTINUOUS
  5
409
 10
322.839518
 20
334.153227
 30
0.0
 11
325.839519
 21
337.153227
 31
0.0
  0
LINE
  8
LC-008-005-----0
  6
CONTINUOUS
  5
40A
 10
322.839519
 20
336.981654
 30
0.0
 11
325.839519
 21
339.981654
 31
0.0
  0
LINE
  8
LC-008-005-----0
  6
CONTINUOUS
  5
40B
 10
322.839519
 20
339.810081
 30
0.0
 11
325.839519
 21
342.810082
 31
0.0
  0
LINE
  8
LC-008-005-----0
  6
CONTINUOUS
  5
40C
 10
322.839519
 20
342.638509
 30
0.0
 11
325.839519
 21
345.638509
 31
0.0
  0
LINE
  8
LC-008-005-----0
  6
CONTINUOUS
  5
40D
 10
322.839519
 20
345.466936
 30
0.0
 11
325.839519
 21
348.466936
 31
0.0
  0
LINE
  8
LC-008-005-----0
  6
CONTINUOUS
  5
40E
 10
322.839519
 20
348.295363
 30
0.0
 11
325.839519
 21
351.295363
 31
0.0
  0
LINE
  8
LC-008-005-----0
  6
CONTINUOUS
  5
40F
 10
322.839519
 20
351.12379
 30
0.0
 11
325.839519
 21
354.123791
 31
0.0
  0
LINE
  8
LC-001-002-----0
  6
CONTINUOUS
  5
410
 10
330.83954
 20
447.166296
 30
0.0
 11
330.83954
 21
435.166987
 31
0.0
  0
LINE
  8
LC-001-002-----0
  6
CONTINUOUS
  5
411
 10
198.339024
 20
432.166296
 30
0.0
 11
203.339024
 21
432.166296
 31
0.0
  0
LINE
  8
LC-001-002-----0
  6
CONTINUOUS
  5
412
 10
203.339024
 20
439.034698
 30
0.0
 11
203.339024
 21
432.166296
 31
0.0
  0
LINE
  8
LC-001-002-----0
  6
CONTINUOUS
  5
413
 10
198.339024
 20
439.03354
 30
0.0
 11
198.339024
 21
432.166296
 31
0.0
  0
LINE
  8
LC-001-002-----0
  6
CONTINUOUS
  5
414
 10
194.838992
 20
439.667677
 30
0.0
 11
194.838992
 21
432.166293
 31
0.0
  0
LINE
  8
LC-001-002-----0
  6
CONTINUOUS
  5
415
 10
194.838992
 20
432.166293
 30
0.0
 11
196.480145
 21
432.166297
 31
0.0
  0
LINE
  8
LC-001-002-----0
  6
CONTINUOUS
  5
416
 10
194.839514
 20
445.666987
 30
0.0
 11
188.089024
 21
445.666987
 31
0.0
  0
LINE
  8
LC-001-002-----0
  6
CONTINUOUS
  5
417
 10
209.089686
 20
447.166296
 30
0.0
 11
206.095843
 21
447.166296
 31
0.0
  0
LINE
  8
LC-008-005-----0
  6
CONTINUOUS
  5
418
 10
322.839519
 20
353.952218
 30
0.0
 11
325.83952
 21
356.952218
 31
0.0
  0
LINE
  8
LC-008-005-----0
  6
CONTINUOUS
  5
419
 10
322.839519
 20
356.780645
 30
0.0
 11
325.83952
 21
359.780645
 31
0.0
  0
LINE
  8
LC-008-005-----0
  6
CONTINUOUS
  5
41A
 10
322.83952
 20
359.609072
 30
0.0
 11
325.83952
 21
362.609072
 31
0.0
  0
LINE
  8
LC-001-002-----0
  6
CONTINUOUS
  5
41B
 10
209.089514
 20
447.166987
 30
0.0
 11
330.83954
 21
447.166987
 31
0.0
  0
LINE
  8
LC-001-002-----0
  6
CONTINUOUS
  5
41C
 10
194.957477
 20
445.666987
 30
0.0
 11
194.839514
 21
445.666987
 31
0.0
  0
LINE
  8
LC-008-005-----0
  6
CONTINUOUS
  5
41D
 10
322.83952
 20
362.437499
 30
0.0
 11
325.83952
 21
365.4375
 31
0.0
  0
ARC
  8
LC-001-002-----0
  6
CONTINUOUS
  5
41E
 10
200.839024
 20
441.166307
 30
0.0
 40
10.0
 50
244.158193
 51
295.842059
  0
LINE
  8
LC-001-002-----0
  6
CONTINUOUS
  5
41F
 10
205.197943
 20
432.166316
 30
0.0
 11
215.839504
 21
432.16634
 31
0.0
  0
LINE
  8
LC-001-002-----0
  6
CONTINUOUS
  5
420
 10
330.839626
 20
447.166987
 30
0.0
 11
330.839626
 21
435.166987
 31
0.0
  0
LINE
  8
LC-008-005-----0
  6
CONTINUOUS
  5
421
 10
322.83952
 20
365.265927
 30
0.0
 11
325.83952
 21
368.265927
 31
0.0
  0
LINE
  8
LC-008-005-----0
  6
CONTINUOUS
  5
422
 10
322.83952
 20
368.094354
 30
0.0
 11
325.83952
 21
371.094354
 31
0.0
  0
LINE
  8
LC-008-005-----0
  6
CONTINUOUS
  5
423
 10
322.83952
 20
370.922781
 30
0.0
 11
325.83952
 21
373.922781
 31
0.0
  0
LINE
  8
LC-003-004-----0
  6
CONTINUOUS
  5
424
 10
197.839021
 20
439.866884
 30
0.0
 11
200.839024
 21
434.866848
 31
0.0
  0
LINE
  8
LC-003-004-----0
  6
CONTINUOUS
  5
425
 10
197.839021
 20
439.866884
 30
0.0
 11
200.839021
 21
439.866875
 31
0.0
  0
LINE
  8
LC-003-004-----0
  6
CONTINUOUS
  5
426
 10
203.837794
 20
454.36695
 30
0.0
 11
203.837785
 21
439.865965
 31
0.0
  0
LINE
  8
LC-003-004-----0
  6
CONTINUOUS
  5
427
 10
203.837785
 20
439.865965
 30
0.0
 11
200.839024
 21
434.868038
 31
0.0
  0
LINE
  8
LC-003-004-----0
  6
CONTINUOUS
  5
428
 10
203.837785
 20
439.865965
 30
0.0
 11
200.837785
 21
439.865967
 31
0.0
  0
LINE
  8
LC-003-004-----0
  6
CONTINUOUS
  5
429
 10
337.839971
 20
439.866907
 30
0.0
 11
340.839957
 21
434.866899
 31
0.0
  0
LINE
  8
LC-003-004-----0
  6
CONTINUOUS
  5
42A
 10
337.839971
 20
439.866907
 30
0.0
 11
340.839971
 21
439.866899
 31
0.0
  0
LINE
  8
LC-003-004-----0
  6
CONTINUOUS
  5
42B
 10
343.838735
 20
439.865988
 30
0.0
 11
340.838731
 21
434.86599
 31
0.0
  0
LINE
  8
LC-003-004-----0
  6
CONTINUOUS
  5
42C
 10
343.838735
 20
439.865988
 30
0.0
 11
340.838735
 21
439.86599
 31
0.0
  0
LINE
  8
LC-008-005-----0
  6
CONTINUOUS
  5
42D
 10
322.83952
 20
373.751209
 30
0.0
 11
325.83952
 21
376.751209
 31
0.0
  0
LINE
  8
LC-008-005-----0
  6
CONTINUOUS
  5
42E
 10
322.83952
 20
376.579636
 30
0.0
 11
325.839521
 21
379.579636
 31
0.0
  0
LINE
  8
LC-008-005-----0
  6
CONTINUOUS
  5
42F
 10
322.839521
 20
379.408063
 30
0.0
 11
325.839521
 21
382.408063
 31
0.0
  0
LINE
  8
LC-008-005-----0
  6
CONTINUOUS
  5
430
 10
322.839521
 20
382.23649
 30
0.0
 11
325.839521
 21
385.23649
 31
0.0
  0
LINE
  8
LC-008-005-----0
  6
CONTINUOUS
  5
431
 10
322.839521
 20
385.064918
 30
0.0
 11
325.839521
 21
388.064918
 31
0.0
  0
LINE
  8
LC-008-005-----0
  6
CONTINUOUS
  5
432
 10
322.839521
 20
387.893345
 30
0.0
 11
325.839521
 21
390.893345
 31
0.0
  0
LINE
  8
LC-008-005-----0
  6
CONTINUOUS
  5
433
 10
322.839521
 20
390.721772
 30
0.0
 11
325.839521
 21
393.721772
 31
0.0
  0
LINE
  8
LC-008-005-----0
  6
CONTINUOUS
  5
434
 10
380.499741
 20
448.381992
 30
0.0
 11
384.251975
 21
452.134226
 31
0.0
  0
LINE
  8
LC-008-005-----0
  6
CONTINUOUS
  5
435
 10
322.839521
 20
393.550199
 30
0.0
 11
325.839521
 21
396.5502
 31
0.0
  0
LINE
  8
LC-008-005-----0
  6
CONTINUOUS
  5
436
 10
377.559461
 20
448.27014
 30
0.0
 11
381.328027
 21
452.038705
 31
0.0
  0
LINE
  8
LC-008-005-----0
  6
CONTINUOUS
  5
437
 10
322.839521
 20
396.378627
 30
0.0
 11
325.839522
 21
399.378627
 31
0.0
  0
LINE
  8
LC-008-005-----0
  6
CONTINUOUS
  5
438
 10
373.989372
 20
447.528477
 30
0.0
 11
378.404079
 21
451.943184
 31
0.0
  0
LINE
  8
LC-008-005-----0
  6
CONTINUOUS
  5
439
 10
322.839521
 20
399.207054
 30
0.0
 11
325.839522
 21
402.207054
 31
0.0
  0
LINE
  8
LC-008-005-----0
  6
CONTINUOUS
  5
43A
 10
369.915007
 20
446.28254
 30
0.0
 11
375.226718
 21
451.59425
 31
0.0
  0
LINE
  8
LC-008-005-----0
  6
CONTINUOUS
  5
43B
 10
322.839522
 20
402.035481
 30
0.0
 11
325.839522
 21
405.035481
 31
0.0
  0
LINE
  8
LC-008-005-----0
  6
CONTINUOUS
  5
43C
 10
365.840643
 20
445.036602
 30
0.0
 11
371.152755
 21
450.348715
 31
0.0
  0
LINE
  8
LC-008-005-----0
  6
CONTINUOUS
  5
43D
 10
322.839522
 20
404.863908
 30
0.0
 11
325.839522
 21
407.863909
 31
0.0
  0
LINE
  8
LC-008-005-----0
  6
CONTINUOUS
  5
43E
 10
361.766278
 20
443.790664
 30
0.0
 11
367.078793
 21
449.103179
 31
0.0
  0
LINE
  8
LC-001-002-----0
  6
CONTINUOUS
  5
43F
 10
322.839076
 20
435.166987
 30
0.0
 11
330.839121
 21
435.166987
 31
0.0
  0
LINE
  8
LC-008-005-----0
  6
CONTINUOUS
  5
440
 10
322.839522
 20
407.692336
 30
0.0
 11
325.839522
 21
410.692336
 31
0.0
  0
LINE
  8
LC-001-002-----0
  6
CONTINUOUS
  5
441
 10
330.839121
 20
435.166987
 30
0.0
 11
330.839121
 21
445.166212
 31
0.0
  0
LINE
  8
LC-008-005-----0
  6
CONTINUOUS
  5
442
 10
357.691913
 20
442.544727
 30
0.0
 11
363.00483
 21
447.857644
 31
0.0
  0
LINE
  8
LC-008-005-----0
  6
CONTINUOUS
  5
443
 10
322.839522
 20
410.520763
 30
0.0
 11
325.839522
 21
413.520763
 31
0.0
  0
LINE
  8
LC-008-005-----0
  6
CONTINUOUS
  5
444
 10
343.996212
 20
431.677453
 30
0.0
 11
346.840035
 21
434.521276
 31
0.0
  0
LINE
  8
LC-008-005-----0
  6
CONTINUOUS
  5
445
 10
351.986436
 20
439.667677
 30
0.0
 11
358.930868
 21
446.612109
 31
0.0
  0
LINE
  8
LC-008-005-----0
  6
CONTINUOUS
  5
446
 10
322.839522
 20
413.34919
 30
0.0
 11
325.839522
 21
416.34919
 31
0.0
  0
LINE
  8
LC-008-005-----0
  6
CONTINUOUS
  5
447
 10
340.65829
 20
431.167958
 30
0.0
 11
341.656628
 21
432.166296
 31
0.0
  0
LINE
  8
LC-008-005-----0
  6
CONTINUOUS
  5
448
 10
343.340003
 20
433.849671
 30
0.0
 11
346.840035
 21
437.349703
 31
0.0
  0
LINE
  8
LC-008-005-----0
  6
CONTINUOUS
  5
449
 10
349.158009
 20
439.667677
 30
0.0
 11
351.658009
 21
442.167677
 31
0.0
  0
LINE
  8
LC-008-005-----0
  6
CONTINUOUS
  5
44A
 10
353.840035
 20
444.349703
 30
0.0
 11
355.157319
 21
445.666987
 31
0.0
  0
LINE
  8
LC-008-005-----0
  6
CONTINUOUS
  5
44B
 10
322.839522
 20
416.177617
 30
0.0
 11
325.839523
 21
419.177618
 31
0.0
  0
LINE
  8
LC-008-005-----0
  6
CONTINUOUS
  5
44C
 10
338.18665
 20
431.524745
 30
0.0
 11
338.828201
 21
432.166296
 31
0.0
  0
LINE
  8
LC-008-005-----0
  6
CONTINUOUS
  5
44D
 10
343.340003
 20
436.678098
 30
0.0
 11
348.829582
 21
442.167677
 31
0.0
  0
LINE
  8
LC-008-005-----0
  6
CONTINUOUS
  5
44E
 10
322.839522
 20
419.006045
 30
0.0
 11
325.839523
 21
422.006045
 31
0.0
  0
LINE
  8
LC-001-002-----0
  6
DASHDOT
 62
     2
  5
44F
 10
270.839514
 20
318.384
 30
0.0
 11
270.839514
 21
232.165606
 31
0.0
  0
LINE
  8
LC-008-005-----0
  6
CONTINUOUS
  5
450
 10
335.999795
 20
432.166317
 30
0.0
 11
338.340003
 21
434.506525
 31
0.0
  0
LINE
  8
LC-008-005-----0
  6
CONTINUOUS
  5
451
 10
343.840006
 20
440.006528
 30
0.0
 11
346.839514
 21
443.006036
 31
0.0
  0
LINE
  8
LC-008-005-----0
  6
CONTINUOUS
  5
452
 10
322.839523
 20
421.834472
 30
0.0
 11
325.839523
 21
424.834472
 31
0.0
  0
LINE
  8
LC-008-005-----0
  6
CONTINUOUS
  5
453
 10
333.171374
 20
432.166323
 30
0.0
 11
338.340003
 21
437.334952
 31
0.0
  0
LINE
  8
LC-008-005-----0
  6
CONTINUOUS
  5
454
 10
343.839998
 20
442.834948
 30
0.0
 11
346.696794
 21
445.691743
 31
0.0
  0
LINE
  8
LC-008-005-----0
  6
CONTINUOUS
  5
455
 10
322.839523
 20
424.662899
 30
0.0
 11
325.839523
 21
427.662899
 31
0.0
  0
LINE
  8
LC-001-002-----0
  6
CONTINUOUS
  5
456
 10
269.339526
 20
435.166987
 30
0.0
 11
272.339501
 21
435.166987
 31
0.0
  0
LINE
  8
LC-008-005-----0
  6
CONTINUOUS
  5
457
 10
330.342953
 20
432.16633
 30
0.0
 11
337.916747
 21
439.740124
 31
0.0
  0
LINE
  8
LC-008-005-----0
  6
CONTINUOUS
  5
458
 10
343.839991
 20
445.663367
 30
0.0
 11
345.28258
 21
447.105957
 31
0.0
  0
LINE
  8
LC-008-005-----0
  6
CONTINUOUS
  5
459
 10
322.839523
 20
427.491326
 30
0.0
 11
325.839523
 21
430.491327
 31
0.0
  0
LINE
  8
LC-001-002-----0
  6
CONTINUOUS
  5
45A
 10
322.839076
 20
435.166987
 30
0.0
 11
210.839907
 21
435.166987
 31
0.0
  0
LINE
  8
LC-001-002-----0
  6
CONTINUOUS
  5
45B
 10
210.839907
 20
435.166987
 30
0.0
 11
210.839907
 21
447.166987
 31
0.0
  0
LINE
  8
LC-008-005-----0
  6
CONTINUOUS
  5
45C
 10
327.514532
 20
432.166336
 30
0.0
 11
330.515183
 21
435.166987
 31
0.0
  0
LINE
  8
LC-008-005-----0
  6
CONTINUOUS
  5
45D
 10
330.839626
 20
435.491429
 30
0.0
 11
337.841241
 21
442.493044
 31
0.0
  0
LINE
  8
LC-008-005-----0
  6
CONTINUOUS
  5
45E
 10
217.150887
 20
208.665606
 30
0.0
 11
217.339343
 21
208.854061
 31
0.0
  0
LINE
  8
LC-008-005-----0
  6
CONTINUOUS
  5
45F
 10
216.258425
 20
210.601571
 30
0.0
 11
217.339343
 21
211.682489
 31
0.0
  0
LINE
  8
LC-008-005-----0
  6
CONTINUOUS
  5
460
 10
215.839343
 20
213.010916
 30
0.0
 11
217.339343
 21
214.510916
 31
0.0
  0
LINE
  8
LC-008-005-----0
  6
CONTINUOUS
  5
461
 10
215.839343
 20
215.839343
 30
0.0
 11
217.339343
 21
217.339343
 31
0.0
  0
LINE
  8
LC-008-005-----0
  6
CONTINUOUS
  5
462
 10
214.839343
 20
217.66777
 30
0.0
 11
217.339343
 21
220.16777
 31
0.0
  0
LINE
  8
LC-008-005-----0
  6
CONTINUOUS
  5
463
 10
214.839343
 20
220.496197
 30
0.0
 11
216.48384
 21
222.140694
 31
0.0
  0
LINE
  8
LC-008-005-----0
  6
CONTINUOUS
  5
464
 10
213.180325
 20
221.665606
 30
0.0
 11
215.886123
 21
224.371404
 31
0.0
  0
LINE
  8
LC-001-002-----0
  6
DASHDOT
 62
     2
  5
465
 10
201.05098
 20
229.665606
 30
0.0
 11
201.05098
 21
227.165606
 31
0.0
  0
LINE
  8
LC-008-005-----0
  6
CONTINUOUS
  5
466
 10
212.839343
 20
224.153051
 30
0.0
 11
215.539343
 21
226.853051
 31
0.0
  0
LINE
  8
LC-008-005-----0
  6
CONTINUOUS
  5
467
 10
212.839343
 20
226.981478
 30
0.0
 11
215.539343
 21
229.681478
 31
0.0
  0
LINE
  8
LC-001-002-----0
  6
CONTINUOUS
  5
468
 10
327.589514
 20
213.340857
 30
0.0
 11
327.589514
 21
208.215147
 31
0.0
  0
LINE
  8
LC-008-005-----0
  6
CONTINUOUS
  5
469
 10
210.195043
 20
227.165606
 30
0.0
 11
215.195043
 21
232.165606
 31
0.0
  0
LINE
  8
LC-008-005-----0
  6
CONTINUOUS
  5
46A
 10
207.366616
 20
227.165606
 30
0.0
 11
212.366616
 21
232.165606
 31
0.0
  0
LINE
  8
LC-008-005-----0
  6
CONTINUOUS
  5
46B
 10
204.538189
 20
227.165606
 30
0.0
 11
209.538189
 21
232.165606
 31
0.0
  0
LINE
  8
LC-001-002-----0
  6
CONTINUOUS
  5
46C
 10
204.839514
 20
229.665606
 30
0.0
 11
193.339514
 21
229.665606
 31
0.0
  0
LINE
  8
LC-001-002-----0
  6
CONTINUOUS
  5
46D
 10
330.08954
 20
208.215147
 30
0.0
 11
330.08954
 21
219.165606
 31
0.0
  0
LINE
  8
LC-001-002-----0
  6
CONTINUOUS
  5
46E
 10
214.839343
 20
221.665606
 30
0.0
 11
193.339514
 21
221.665606
 31
0.0
  0
LINE
  8
LC-008-005-----0
  6
CONTINUOUS
  5
46F
 10
204.839514
 20
230.295358
 30
0.0
 11
207.339514
 21
232.795358
 31
0.0
  0
LINE
  8
LC-008-005-----0
  6
CONTINUOUS
  5
470
 10
204.839514
 20
233.123785
 30
0.0
 11
207.339514
 21
235.623785
 31
0.0
  0
LINE
  8
LC-008-005-----0
  6
CONTINUOUS
  5
471
 10
204.839514
 20
235.952212
 30
0.0
 11
207.339514
 21
238.452212
 31
0.0
  0
LINE
  8
LC-008-005-----0
  6
CONTINUOUS
  5
472
 10
204.839514
 20
238.780639
 30
0.0
 11
207.339514
 21
241.280639
 31
0.0
  0
LINE
  8
LC-008-005-----0
  6
CONTINUOUS
  5
473
 10
204.839514
 20
241.609066
 30
0.0
 11
207.339514
 21
244.109066
 31
0.0
  0
LINE
  8
LC-001-002-----0
  6
CONTINUOUS
  5
474
 10
193.339514
 20
229.665606
 30
0.0
 11
193.339514
 21
221.665606
 31
0.0
  0
LINE
  8
LC-001-002-----0
  6
CONTINUOUS
  5
475
 10
212.839343
 20
227.165606
 30
0.0
 11
195.339514
 21
227.165606
 31
0.0
  0
LINE
  8
LC-001-002-----0
  6
CONTINUOUS
  5
476
 10
197.839514
 20
229.665606
 30
0.0
 11
197.839514
 21
227.165606
 31
0.0
  0
LINE
  8
LC-001-002-----0
  6
CONTINUOUS
  5
477
 10
203.839514
 20
229.665606
 30
0.0
 11
203.839514
 21
227.165606
 31
0.0
  0
LINE
  8
LC-001-002-----0
  6
CONTINUOUS
  5
478
 10
195.339514
 20
227.165606
 30
0.0
 11
195.339514
 21
221.665606
 31
0.0
  0
LINE
  8
LC-008-005-----0
  6
CONTINUOUS
  5
479
 10
204.839514
 20
244.437493
 30
0.0
 11
207.339514
 21
246.937493
 31
0.0
  0
LINE
  8
LC-008-005-----0
  6
CONTINUOUS
  5
47A
 10
204.839514
 20
247.265921
 30
0.0
 11
207.339514
 21
249.765921
 31
0.0
  0
LINE
  8
LC-008-005-----0
  6
CONTINUOUS
  5
47B
 10
204.839514
 20
250.094348
 30
0.0
 11
207.339514
 21
252.594348
 31
0.0
  0
LINE
  8
LC-008-005-----0
  6
CONTINUOUS
  5
47C
 10
204.839514
 20
252.922775
 30
0.0
 11
207.339514
 21
255.422775
 31
0.0
  0
LINE
  8
LC-008-005-----0
  6
CONTINUOUS
  5
47D
 10
204.839514
 20
255.751202
 30
0.0
 11
207.339514
 21
258.251202
 31
0.0
  0
LINE
  8
LC-008-005-----0
  6
CONTINUOUS
  5
47E
 10
204.839514
 20
258.579629
 30
0.0
 11
207.339514
 21
261.079629
 31
0.0
  0
LINE
  8
LC-008-005-----0
  6
CONTINUOUS
  5
47F
 10
204.839514
 20
261.408056
 30
0.0
 11
207.339514
 21
263.908056
 31
0.0
  0
LINE
  8
LC-008-005-----0
  6
CONTINUOUS
  5
480
 10
204.839514
 20
264.236483
 30
0.0
 11
207.339514
 21
266.736483
 31
0.0
  0
LINE
  8
LC-008-005-----0
  6
CONTINUOUS
  5
481
 10
204.839514
 20
267.06491
 30
0.0
 11
207.339514
 21
269.56491
 31
0.0
  0
LINE
  8
LC-008-005-----0
  6
CONTINUOUS
  5
482
 10
204.839514
 20
269.893338
 30
0.0
 11
207.339514
 21
272.393338
 31
0.0
  0
LINE
  8
LC-008-005-----0
  6
CONTINUOUS
  5
483
 10
204.839514
 20
272.721765
 30
0.0
 11
207.339514
 21
275.221765
 31
0.0
  0
LINE
  8
LC-008-005-----0
  6
CONTINUOUS
  5
484
 10
204.839514
 20
275.550192
 30
0.0
 11
207.339514
 21
278.050192
 31
0.0
  0
LINE
  8
LC-008-005-----0
  6
CONTINUOUS
  5
485
 10
204.839514
 20
278.378619
 30
0.0
 11
207.339514
 21
280.878619
 31
0.0
  0
LINE
  8
LC-008-005-----0
  6
CONTINUOUS
  5
486
 10
204.839514
 20
281.207046
 30
0.0
 11
205.298074
 21
281.665606
 31
0.0
  0
LINE
  8
LC-001-002-----0
  6
CONTINUOUS
  5
487
 10
325.23954
 20
213.744538
 30
0.0
 11
325.23954
 21
211.715147
 31
0.0
  0
LINE
  8
LC-001-002-----0
  6
CONTINUOUS
  5
488
 10
330.08954
 20
208.215147
 30
0.0
 11
327.589514
 21
208.215147
 31
0.0
  0
LINE
  8
LC-001-002-----0
  6
CONTINUOUS
  5
489
 10
214.089514
 20
213.340857
 30
0.0
 11
214.089514
 21
208.215147
 31
0.0
  0
ARC
  8
LC-002-002-RND-0
  6
CONTINUOUS
  5
48A
 10
211.439488
 20
213.744538
 30
0.0
 40
5.0
 50
0.0
 51
45.0
  0
LINE
  8
LC-001-002-----0
  6
CONTINUOUS
  5
48B
 10
211.589488
 20
208.215147
 30
0.0
 11
211.589488
 21
219.165606
 31
0.0
  0
LINE
  8
LC-001-002-----0
  6
CONTINUOUS
  5
48C
 10
211.589488
 20
208.215147
 30
0.0
 11
327.589514
 21
208.215147
 31
0.0
  0
LINE
  8
LC-001-002-----0
  6
CONTINUOUS
  5
48D
 10
214.839343
 20
217.666917
 30
0.0
 11
215.839343
 21
216.665606
 31
0.0
  0
LINE
  8
LC-001-002-----0
  6
CONTINUOUS
  5
48E
 10
211.589488
 20
219.165606
 30
0.0
 11
214.839343
 21
219.165606
 31
0.0
  0
LINE
  8
LC-001-002-----0
  6
CONTINUOUS
  5
48F
 10
330.08954
 20
219.165606
 30
0.0
 11
328.58954
 21
219.165606
 31
0.0
  0
ARC
  8
LC-001-002-----0
  6
CONTINUOUS
  5
490
 10
209.994913
 20
272.770403
 30
0.0
 40
5.844601
 50
331.647004
 51
60.0
  0
ARC
  8
LC-002-002-RND-0
  6
CONTINUOUS
  5
491
 10
330.23954
 20
213.744538
 30
0.0
 40
5.0
 50
135.0
 51
180.0
  0
LINE
  8
LC-001-002-----0
  6
CONTINUOUS
  5
492
 10
214.839343
 20
221.665606
 30
0.0
 11
214.839343
 21
217.666917
 31
0.0
  0
ARC
  8
LC-002-002-RND-0
  6
CONTINUOUS
  5
493
 10
327.289514
 20
213.340857
 30
0.0
 40
0.3
 50
0.0
 51
135.0
  0
LINE
  8
LC-001-002-----0
  6
CONTINUOUS
  5
494
 10
213.089488
 20
219.165606
 30
0.0
 11
214.975021
 21
217.280072
 31
0.0
  0
LINE
  8
LC-001-002-----0
  6
CONTINUOUS
  5
495
 10
327.077382
 20
213.552989
 30
0.0
 11
325.23954
 21
211.715147
 31
0.0
  0
LINE
  8
LC-001-002-----0
  6
CONTINUOUS
  5
496
 10
214.601646
 20
213.552989
 30
0.0
 11
216.439488
 21
211.715147
 31
0.0
  0
ARC
  8
LC-002-002-RND-0
  6
CONTINUOUS
  5
497
 10
214.962379
 20
270.089769
 30
0.0
 40
0.2
 50
157.017983
 51
331.647004
  0
ARC
  8
LC-001-002-----0
  6
CONTINUOUS
  5
498
 10
211.90492
 20
261.655287
 30
0.0
 40
3.12106
 50
337.017983
 51
85.0
  0
ARC
  8
LC-002-002-RND-0
  6
CONTINUOUS
  5
499
 10
214.389514
 20
213.340857
 30
0.0
 40
0.3
 50
45.0
 51
180.0
  0
LINE
  8
LC-001-002-----0
  6
CONTINUOUS
  5
49A
 10
326.839684
 20
221.665606
 30
0.0
 11
328.839684
 21
221.665606
 31
0.0
  0
LINE
  8
LC-001-002-----0
  6
CONTINUOUS
  5
49B
 10
216.439488
 20
213.744538
 30
0.0
 11
216.439488
 21
211.715147
 31
0.0
  0
LINE
  8
LC-001-002-----0
  6
CONTINUOUS
  5
49C
 10
328.58954
 20
219.165606
 30
0.0
 11
326.704006
 21
217.280072
 31
0.0
  0
ARC
  8
LC-001-002-----0
  6
CONTINUOUS
  5
49D
 10
211.90492
 20
271.386451
 30
0.0
 40
3.12106
 50
337.017983
 51
85.0
  0
LINE
  8
LC-001-002-----0
  6
CONTINUOUS
  5
49E
 10
215.839343
 20
216.665606
 30
0.0
 11
215.839343
 21
212.165606
 31
0.0
  0
LINE
  8
LC-001-002-----0
  6
CONTINUOUS
  5
49F
 10
212.839343
 20
227.165606
 30
0.0
 11
212.839343
 21
221.665606
 31
0.0
  0
LINE
  8
LC-001-002-----0
  6
CONTINUOUS
  5
4A0
 10
328.839684
 20
229.665606
 30
0.0
 11
328.839684
 21
221.665606
 31
0.0
  0
LINE
  8
LC-001-002-----0
  6
CONTINUOUS
  5
4A1
 10
334.339514
 20
232.165606
 30
0.0
 11
334.339514
 21
243.165606
 31
0.0
  0
LINE
  8
LC-001-002-----0
  6
CONTINUOUS
  5
4A2
 10
207.339514
 20
232.165606
 30
0.0
 11
207.339514
 21
243.165606
 31
0.0
  0
LINE
  8
LC-001-002-----0
  6
CONTINUOUS
  5
4A3
 10
204.839514
 20
229.665606
 30
0.0
 11
204.839514
 21
281.665606
 31
0.0
  0
LINE
  8
LC-001-002-----0
  6
CONTINUOUS
  5
4A4
 10
336.839514
 20
229.665606
 30
0.0
 11
336.839514
 21
281.665606
 31
0.0
  0
LINE
  8
LC-001-002-----0
  6
CONTINUOUS
  5
4A5
 10
328.839684
 20
229.665606
 30
0.0
 11
336.839514
 21
229.665606
 31
0.0
  0
LINE
  8
LC-001-002-----0
  6
CONTINUOUS
  5
4A6
 10
270.839514
 20
232.165606
 30
0.0
 11
207.339514
 21
232.165606
 31
0.0
  0
LINE
  8
LC-001-002-----0
  6
CONTINUOUS
  5
4A7
 10
214.839343
 20
221.665606
 30
0.0
 11
212.839343
 21
221.665606
 31
0.0
  0
LINE
  8
LC-001-002-----0
  6
CONTINUOUS
  5
4A8
 10
270.839514
 20
232.165606
 30
0.0
 11
334.339514
 21
232.165606
 31
0.0
  0
LINE
  8
LC-001-002-----0
  6
CONTINUOUS
  5
4A9
 10
324.339684
 20
220.665606
 30
0.0
 11
324.339684
 21
208.665606
 31
0.0
  0
LINE
  8
LC-001-002-----0
  6
CONTINUOUS
  5
4AA
 10
336.839514
 20
281.665606
 30
0.0
 11
334.339514
 21
281.665606
 31
0.0
  0
LINE
  8
LC-001-002-----0
  6
CONTINUOUS
  5
4AB
 10
326.139684
 20
232.165606
 30
0.0
 11
326.139684
 21
225.665606
 31
0.0
  0
LINE
  8
LC-001-002-----0
  6
CONTINUOUS
  5
4AC
 10
216.777165
 20
208.665606
 30
0.0
 11
324.339684
 21
208.665606
 31
0.0
  0
ARC
  8
LC-001-002-----0
  6
CONTINUOUS
  5
4AD
 10
209.994913
 20
263.03924
 30
0.0
 40
5.844601
 50
331.647004
 51
60.0
  0
LINE
  8
LC-001-002-----0
  6
CONTINUOUS
  5
4AE
 10
326.839684
 20
220.165606
 30
0.0
 11
328.839684
 21
220.165606
 31
0.0
  0
LINE
  8
LC-001-002-----0
  6
CONTINUOUS
  5
4AF
 10
325.839684
 20
216.665606
 30
0.0
 11
325.839684
 21
212.165606
 31
0.0
  0
LINE
  8
LC-008-005-----0
  6
CONTINUOUS
  5
4B0
 10
322.839523
 20
430.319754
 30
0.0
 11
327.686756
 21
435.166987
 31
0.0
  0
LINE
  8
LC-008-005-----0
  6
CONTINUOUS
  5
4B1
 10
330.839626
 20
438.319857
 30
0.0
 11
337.841239
 21
445.32147
 31
0.0
  0
LINE
  8
LC-008-005-----0
  6
CONTINUOUS
  5
4B2
 10
322.839523
 20
433.148181
 30
0.0
 11
324.858329
 21
435.166987
 31
0.0
  0
LINE
  8
LC-001-002-----0
  6
CONTINUOUS
  5
4B3
 10
187.838992
 20
439.667677
 30
0.0
 11
185.391359
 21
442.11531
 31
0.0
  0
LINE
  8
LC-001-002-----0
  6
CONTINUOUS
  5
4B4
 10
194.838992
 20
439.667677
 30
0.0
 11
187.838992
 21
439.667677
 31
0.0
  0
LINE
  8
LC-001-002-----0
  6
CONTINUOUS
  5
4B5
 10
187.838992
 20
442.167677
 30
0.0
 11
187.838992
 21
445.667677
 31
0.0
  0
LINE
  8
LC-001-002-----0
  6
CONTINUOUS
  5
4B6
 10
194.838992
 20
442.167677
 30
0.0
 11
187.838992
 21
442.167677
 31
0.0
  0
LINE
  8
LC-001-002-----0
  6
CONTINUOUS
  5
4B7
 10
194.839514
 20
445.667677
 30
0.0
 11
194.839514
 21
442.167677
 31
0.0
  0
LINE
  8
LC-001-002-----0
  6
CONTINUOUS
  5
4B8
 10
353.840035
 20
439.667677
 30
0.0
 11
356.287668
 21
442.11531
 31
0.0
  0
LINE
  8
LC-001-002-----0
  6
CONTINUOUS
  5
4B9
 10
346.840035
 20
439.667677
 30
0.0
 11
353.840035
 21
439.667677
 31
0.0
  0
LINE
  8
LC-001-002-----0
  6
CONTINUOUS
  5
4BA
 10
346.839514
 20
445.667677
 30
0.0
 11
346.839514
 21
442.167677
 31
0.0
  0
LINE
  8
LC-001-002-----0
  6
CONTINUOUS
  5
4BB
 10
346.840035
 20
442.167677
 30
0.0
 11
353.840035
 21
442.167677
 31
0.0
  0
LINE
  8
LC-001-002-----0
  6
CONTINUOUS
  5
4BC
 10
353.840035
 20
442.167677
 30
0.0
 11
353.840035
 21
445.667677
 31
0.0
  0
LINE
  8
LC-001-002-----0
  6
CONTINUOUS
  5
4BD
 10
298.890037
 20
447.166987
 30
0.0
 11
298.890037
 21
450.166987
 31
0.0
  0
LINE
  8
LC-001-002-----0
  6
CONTINUOUS
  5
4BE
 10
298.890037
 20
450.166987
 30
0.0
 11
303.839527
 21
450.166987
 31
0.0
  0
LINE
  8
LC-001-002-----0
  6
CONTINUOUS
  5
4BF
 10
303.839527
 20
450.166987
 30
0.0
 11
303.839527
 21
447.166987
 31
0.0
  0
LINE
  8
LC-008-005-----0
  6
CONTINUOUS
  5
4C0
 10
330.839626
 20
441.148284
 30
0.0
 11
336.857639
 21
447.166296
 31
0.0
  0
LINE
  8
LC-008-005-----0
  6
CONTINUOUS
  5
4C1
 10
330.839626
 20
443.976711
 30
0.0
 11
334.029211
 21
447.166296
 31
0.0
  0
LINE
  8
LC-008-005-----0
  6
CONTINUOUS
  5
4C2
 10
330.839626
 20
446.805138
 30
0.0
 11
331.201475
 21
447.166987
 31
0.0
  0
LINE
  8
LC-001-002-----0
  6
CONTINUOUS
  5
4C3
 10
215.839343
 20
212.165606
 30
0.0
 11
216.777165
 21
208.665606
 31
0.0
  0
LINE
  8
LC-001-002-----0
  6
CONTINUOUS
  5
4C4
 10
325.839684
 20
212.165606
 30
0.0
 11
324.901862
 21
208.665606
 31
0.0
  0
LINE
  8
LC-001-002-----0
  6
CONTINUOUS
  5
4C5
 10
328.839684
 20
219.66954
 30
0.0
 11
325.839684
 21
216.665606
 31
0.0
  0
LINE
  8
LC-001-002-----0
  6
CONTINUOUS
  5
4C6
 10
215.539343
 20
232.165606
 30
0.0
 11
215.539343
 21
225.665606
 31
0.0
  0
LINE
  8
LC-001-002-----0
  6
CONTINUOUS
  5
4C7
 10
216.879089
 20
220.665606
 30
0.0
 11
324.799939
 21
220.665606
 31
0.0
  0
LINE
  8
LC-001-002-----0
  6
CONTINUOUS
  5
4C8
 10
324.901862
 20
208.665606
 30
0.0
 11
324.339684
 21
208.665606
 31
0.0
  0
LINE
  8
LC-001-002-----0
  6
CONTINUOUS
  5
4C9
 10
215.539343
 20
225.665606
 30
0.0
 11
216.879089
 21
220.665606
 31
0.0
  0
LINE
  8
LC-001-002-----0
  6
CONTINUOUS
  5
4CA
 10
324.499939
 20
220.665606
 30
0.0
 11
324.339684
 21
220.665606
 31
0.0
  0
LINE
  8
LC-001-002-----0
  6
CONTINUOUS
  5
4CB
 10
326.839684
 20
221.665606
 30
0.0
 11
326.839684
 21
220.165606
 31
0.0
  0
LINE
  8
LC-001-002-----0
  6
CONTINUOUS
  5
4CC
 10
205.839514
 20
286.165606
 30
0.0
 11
215.839514
 21
286.165606
 31
0.0
  0
LINE
  8
LC-001-002-----0
  6
CONTINUOUS
  5
4CD
 10
217.339343
 20
208.665606
 30
0.0
 11
217.339343
 21
220.665606
 31
0.0
  0
LINE
  8
LC-001-002-----0
  6
CONTINUOUS
  5
4CE
 10
326.139684
 20
225.665606
 30
0.0
 11
324.799939
 21
220.665606
 31
0.0
  0
LINE
  8
LC-001-002-----0
  6
CONTINUOUS
  5
4CF
 10
207.339514
 20
281.665606
 30
0.0
 11
204.839514
 21
281.665606
 31
0.0
  0
LINE
  8
LC-001-002-----0
  6
CONTINUOUS
  5
4D0
 10
328.839684
 20
220.165606
 30
0.0
 11
328.839684
 21
219.665606
 31
0.0
  0
ARC
  8
LC-002-002-RND-0
  6
CONTINUOUS
  5
4D1
 10
205.839514
 20
284.165606
 30
0.0
 40
2.0
 50
90.0
 51
180.0
  0
ARC
  8
LC-002-002-RND-0
  6
CONTINUOUS
  5
4D2
 10
214.962379
 20
260.358605
 30
0.0
 40
0.2
 50
157.017983
 51
331.647004
  0
ARC
  8
LC-001-002-----0
  6
CONTINUOUS
  5
4D3
 10
331.684114
 20
272.770403
 30
0.0
 40
5.844601
 50
120.0
 51
208.352996
  0
LINE
  8
LC-001-002-----0
  6
CONTINUOUS
  5
4D4
 10
334.339514
 20
271.665606
 30
0.0
 11
334.339514
 21
281.665606
 31
0.0
  0
LINE
  8
LC-001-002-----0
  6
CONTINUOUS
  5
4D5
 10
334.339514
 20
257.665606
 30
0.0
 11
334.339514
 21
271.165606
 31
0.0
  0
ARC
  8
LC-001-002-----0
  6
CONTINUOUS
  5
4D6
 10
207.339514
 20
271.415606
 30
0.0
 40
0.25
 50
270.0
 51
90.0
  0
ARC
  8
LC-001-002-----0
  6
CONTINUOUS
  5
4D7
 10
207.339514
 20
257.415606
 30
0.0
 40
0.25
 50
270.0
 51
90.0
  0
ARC
  8
LC-001-002-----0
  6
CONTINUOUS
  5
4D8
 10
207.339514
 20
243.415606
 30
0.0
 40
0.25
 50
270.0
 51
90.0
  0
ARC
  8
LC-001-002-----0
  6
CONTINUOUS
  5
4D9
 10
334.339514
 20
257.415606
 30
0.0
 40
0.25
 50
90.0
 51
270.0
  0
ARC
  8
LC-001-002-----0
  6
CONTINUOUS
  5
4DA
 10
334.339514
 20
243.415606
 30
0.0
 40
0.25
 50
90.0
 51
270.0
  0
ARC
  8
LC-001-002-----0
  6
CONTINUOUS
  5
4DB
 10
334.339514
 20
271.415606
 30
0.0
 40
0.25
 50
90.0
 51
270.0
  0
LINE
  8
LC-001-002-----0
  6
CONTINUOUS
  5
4DC
 10
334.339514
 20
243.665606
 30
0.0
 11
334.339514
 21
257.165606
 31
0.0
  0
LINE
  8
LC-001-002-----0
  6
CONTINUOUS
  5
4DD
 10
207.339514
 20
243.665606
 30
0.0
 11
207.339514
 21
257.165606
 31
0.0
  0
LINE
  8
LC-001-002-----0
  6
CONTINUOUS
  5
4DE
 10
207.339514
 20
257.665606
 30
0.0
 11
207.339514
 21
271.165606
 31
0.0
  0
LINE
  8
LC-001-002-----0
  6
CONTINUOUS
  5
4DF
 10
207.339514
 20
271.665606
 30
0.0
 11
207.339514
 21
281.665606
 31
0.0
  0
ARC
  8
LC-002-002-RND-0
  6
CONTINUOUS
  5
4E0
 10
326.716649
 20
270.089769
 30
0.0
 40
0.2
 50
208.352996
 51
22.982017
  0
ARC
  8
LC-001-002-----0
  6
CONTINUOUS
  5
4E1
 10
329.774107
 20
261.655287
 30
0.0
 40
3.12106
 50
95.0
 51
202.982017
  0
ARC
  8
LC-001-002-----0
  6
CONTINUOUS
  5
4E2
 10
329.774107
 20
271.386451
 30
0.0
 40
3.12106
 50
95.0
 51
202.982017
  0
ARC
  8
LC-001-002-----0
  6
CONTINUOUS
  5
4E3
 10
331.684114
 20
263.03924
 30
0.0
 40
5.844601
 50
120.0
 51
208.352996
  0
LINE
  8
LC-001-002-----0
  6
CONTINUOUS
  5
4E4
 10
203.839514
 20
284.165606
 30
0.0
 11
203.839514
 21
282.165606
 31
0.0
  0
ARC
  8
LC-002-002-RND-0
  6
CONTINUOUS
  5
4E5
 10
326.716649
 20
260.358605
 30
0.0
 40
0.2
 50
208.352996
 51
22.982017
  0
LINE
  8
LC-001-002-----0
  6
CONTINUOUS
  5
4E6
 10
208.089514
 20
232.165606
 30
0.0
 11
270.839514
 21
232.165606
 31
0.0
  0
ARC
  8
LC-002-002-RND-0
  6
CONTINUOUS
  5
4E7
 10
211.839514
 20
264.292082
 30
0.0
 40
0.5
 50
85.0
 51
180.0
  0
LINE
  8
LC-001-002-----0
  6
CONTINUOUS
  5
4E8
 10
206.839514
 20
282.165606
 30
0.0
 11
206.839514
 21
235.845842
 31
0.0
  0
LINE
  8
LC-001-002-----0
  6
CONTINUOUS
  5
4E9
 10
203.839514
 20
282.165606
 30
0.0
 11
206.839514
 21
282.165606
 31
0.0
  0
LINE
  8
LC-001-002-----0
  6
CONTINUOUS
  5
4EA
 10
335.839514
 20
286.165606
 30
0.0
 11
325.839516
 21
286.165606
 31
0.0
  0
LINE
  8
LC-001-002-----0
  6
CONTINUOUS
  5
4EB
 10
328.761814
 20
268.100813
 30
0.0
 11
329.589514
 21
268.578685
 31
0.0
  0
LINE
  8
LC-001-002-----0
  6
CONTINUOUS
  5
4EC
 10
211.339514
 20
264.292082
 30
0.0
 11
211.339514
 21
232.165606
 31
0.0
  0
ARC
  8
LC-002-002-RND-0
  6
CONTINUOUS
  5
4ED
 10
335.839514
 20
284.165606
 30
0.0
 40
2.0
 50
0.0
 51
90.0
  0
LINE
  8
LC-001-002-----0
  6
CONTINUOUS
  5
4EE
 10
212.339514
 20
283.665606
 30
0.0
 11
212.339514
 21
278.742861
 31
0.0
  0
LINE
  8
LC-001-002-----0
  6
CONTINUOUS
  5
4EF
 10
337.839514
 20
284.165606
 30
0.0
 11
337.839514
 21
282.165606
 31
0.0
  0
LINE
  8
LC-001-002-----0
  6
CONTINUOUS
  5
4F0
 10
211.883092
 20
264.790179
 30
0.0
 11
212.176938
 21
264.764471
 31
0.0
  0
LINE
  8
LC-001-002-----0
  6
CONTINUOUS
  5
4F1
 10
333.589514
 20
232.165606
 30
0.0
 11
270.839514
 21
232.165606
 31
0.0
  0
ARC
  8
LC-002-002-RND-0
  6
CONTINUOUS
  5
4F2
 10
329.839514
 20
264.292082
 30
0.0
 40
0.5
 50
0.0
 51
95.0
  0
LINE
  8
LC-001-002-----0
  6
CONTINUOUS
  5
4F3
 10
334.839514
 20
282.165606
 30
0.0
 11
334.839514
 21
235.845842
 31
0.0
  0
LINE
  8
LC-001-002-----0
  6
CONTINUOUS
  5
4F4
 10
337.839514
 20
282.165606
 30
0.0
 11
334.839514
 21
282.165606
 31
0.0
  0
LINE
  8
LC-001-002-----0
  6
CONTINUOUS
  5
4F5
 10
328.839514
 20
277.876836
 30
0.0
 11
328.761814
 21
277.831976
 31
0.0
  0
LINE
  8
LC-001-002-----0
  6
CONTINUOUS
  5
4F6
 10
330.339514
 20
264.292082
 30
0.0
 11
330.339514
 21
232.165606
 31
0.0
  0
ARC
  8
LC-002-002-RND-0
  6
CONTINUOUS
  5
4F7
 10
328.339514
 20
278.742861
 30
0.0
 40
1.0
 50
300.0
 51
0.0
  0
LINE
  8
LC-001-002-----0
  6
CONTINUOUS
  5
4F8
 10
212.917213
 20
268.100813
 30
0.0
 11
212.089514
 21
268.578685
 31
0.0
  0
LINE
  8
LC-001-002-----0
  6
CONTINUOUS
  5
4F9
 10
329.339514
 20
283.665606
 30
0.0
 11
329.339514
 21
278.742861
 31
0.0
  0
LINE
  8
LC-001-002-----0
  6
CONTINUOUS
  5
4FA
 10
212.339514
 20
283.665606
 30
0.0
 11
210.339514
 21
285.665606
 31
0.0
  0
LINE
  8
LC-001-002-----0
  6
CONTINUOUS
  5
4FB
 10
210.339514
 20
285.665606
 30
0.0
 11
210.339514
 21
286.165606
 31
0.0
  0
LINE
  8
LC-001-002-----0
  6
CONTINUOUS
  5
4FC
 10
329.795936
 20
264.790179
 30
0.0
 11
329.502089
 21
264.764471
 31
0.0
  0
LINE
  8
LC-001-002-----0
  6
CONTINUOUS
  5
4FD
 10
329.502089
 20
274.495634
 30
0.0
 11
329.545936
 21
274.49947
 31
0.0
  0
LINE
  8
LC-001-002-----0
  6
CONTINUOUS
  5
4FE
 10
211.589514
 20
274.001373
 30
0.0
 11
211.589514
 21
269.444711
 31
0.0
  0
LINE
  8
LC-001-002-----0
  6
CONTINUOUS
  5
4FF
 10
212.839514
 20
277.876836
 30
0.0
 11
212.917213
 21
277.831976
 31
0.0
  0
LINE
  8
LC-001-002-----0
  6
CONTINUOUS
  5
500
 10
212.133092
 20
274.49947
 30
0.0
 11
212.176938
 21
274.495634
 31
0.0
  0
LINE
  8
LC-001-002-----0
  6
CONTINUOUS
  5
501
 10
329.339514
 20
283.665606
 30
0.0
 11
331.339514
 21
285.665606
 31
0.0
  0
LINE
  8
LC-001-002-----0
  6
CONTINUOUS
  5
502
 10
331.339514
 20
285.665606
 30
0.0
 11
331.339514
 21
286.165606
 31
0.0
  0
ARC
  8
LC-002-002-RND-0
  6
CONTINUOUS
  5
503
 10
213.339514
 20
278.742861
 30
0.0
 40
1.0
 50
180.0
 51
240.0
  0
ARC
  8
LC-002-002-RND-0
  6
CONTINUOUS
  5
504
 10
212.089514
 20
274.001373
 30
0.0
 40
0.5
 50
85.0
 51
180.0
  0
LINE
  8
LC-001-002-----0
  6
CONTINUOUS
  5
505
 10
330.089514
 20
274.001373
 30
0.0
 11
330.089514
 21
269.444711
 31
0.0
  0
ARC
  8
LC-002-002-RND-0
  6
CONTINUOUS
  5
506
 10
329.589514
 20
274.001373
 30
0.0
 40
0.5
 50
0.0
 51
95.0
  0
ARC
  8
LC-002-002-RND-0
  6
CONTINUOUS
  5
507
 10
329.089514
 20
269.444711
 30
0.0
 40
1.0
 50
300.0
 51
0.0
  0
LINE
  8
LC-001-002-----0
  6
CONTINUOUS
  5
508
 10
334.839514
 20
235.845842
 30
0.0
 11
334.527336
 21
235.665606
 31
0.0
  0
ARC
  8
LC-002-002-RND-0
  6
CONTINUOUS
  5
509
 10
212.589514
 20
269.444711
 30
0.0
 40
1.0
 50
180.0
 51
240.0
  0
LINE
  8
LC-001-002-----0
  6
CONTINUOUS
  5
50A
 10
206.839514
 20
235.845842
 30
0.0
 11
207.151691
 21
235.665606
 31
0.0
  0
LINE
  8
LC-001-002-----0
  6
CONTINUOUS
  5
50B
 10
207.151691
 20
235.665606
 30
0.0
 11
208.089514
 21
232.165606
 31
0.0
  0
LINE
  8
LC-001-002-----0
  6
CONTINUOUS
  5
50C
 10
334.527336
 20
235.665606
 30
0.0
 11
333.589514
 21
232.165606
 31
0.0
  0
LINE
  8
LC-001-002-----0
  6
DASHDOT
 62
     2
  5
50D
 10
270.839514
 20
232.165606
 30
0.0
 11
270.839514
 21
208.215147
 31
0.0
  0
LINE
  8
LC-001-002-----0
  6
CONTINUOUS
  5
50E
 10
203.844231
 20
446.166987
 30
0.0
 11
205.839514
 21
446.166987
 31
0.0
  0
LINE
  8
LC-001-002-----0
  6
CONTINUOUS
  5
50F
 10
343.846433
 20
446.166987
 30
0.0
 11
345.839514
 21
446.166987
 31
0.0
  0
LINE
  8
LC-001-002-----0
  6
CONTINUOUS
  5
510
 10
270.838826
 20
453.36658
 30
0.0
 11
334.089794
 21
453.36658
 31
0.0
  0
LINE
  8
LC-001-002-----0
  6
CONTINUOUS
  5
511
 10
270.838916
 20
452.366974
 30
0.0
 11
334.089794
 21
452.366974
 31
0.0
  0
LINE
  8
LC-001-002-----0
  6
CONTINUOUS
  5
512
 10
195.839514
 20
446.166987
 30
0.0
 11
197.845479
 21
446.166987
 31
0.0
  0
LINE
  8
LC-001-002-----0
  6
CONTINUOUS
  5
513
 10
205.839514
 20
446.166987
 30
0.0
 11
206.095843
 21
446.166987
 31
0.0
  0
LINE
  8
LC-001-002-----0
  6
CONTINUOUS
  5
514
 10
185.839514
 20
445.666987
 30
0.0
 11
164.602855
 21
452.159685
 31
0.0
  0
LINE
  8
LC-001-002-----0
  6
CONTINUOUS
  5
515
 10
355.839514
 20
445.666987
 30
0.0
 11
376.124444
 21
451.868712
 31
0.0
  0
LINE
  8
LC-001-002-----0
  6
CONTINUOUS
  5
516
 10
187.838993
 20
445.666987
 30
0.0
 11
194.839514
 21
445.666987
 31
0.0
  0
LINE
  8
LC-001-002-----0
  6
CONTINUOUS
  5
517
 10
195.839514
 20
446.166987
 30
0.0
 11
195.550839
 21
445.666987
 31
0.0
  0
LINE
  8
LC-001-002-----0
  6
CONTINUOUS
  5
518
 10
195.550839
 20
445.666987
 30
0.0
 11
194.839514
 21
445.666987
 31
0.0
  0
LINE
  8
LC-001-002-----0
  6
CONTINUOUS
  5
519
 10
335.596067
 20
446.166987
 30
0.0
 11
337.847681
 21
446.166987
 31
0.0
  0
LINE
  8
LC-001-002-----0
  6
CONTINUOUS
  5
51A
 10
353.840036
 20
445.666987
 30
0.0
 11
346.839514
 21
445.666987
 31
0.0
  0
LINE
  8
LC-001-002-----0
  6
CONTINUOUS
  5
51B
 10
187.838993
 20
445.666987
 30
0.0
 11
185.839514
 21
445.666987
 31
0.0
  0
LINE
  8
LC-001-002-----0
  6
CONTINUOUS
  5
51C
 10
345.839514
 20
446.166987
 30
0.0
 11
346.128189
 21
445.666987
 31
0.0
  0
LINE
  8
LC-001-002-----0
  6
CONTINUOUS
  5
51D
 10
346.128189
 20
445.666987
 30
0.0
 11
346.839514
 21
445.666987
 31
0.0
  0
LINE
  8
LC-001-002-----0
  6
CONTINUOUS
  5
51E
 10
353.840036
 20
445.666987
 30
0.0
 11
355.839514
 21
445.666987
 31
0.0
  0
LINE
  8
LC-001-002-----0
  6
CONTINUOUS
  5
51F
 10
207.589402
 20
453.36658
 30
0.0
 11
270.838826
 21
453.36658
 31
0.0
  0
LINE
  8
LC-001-002-----0
  6
CONTINUOUS
  5
520
 10
335.340087
 20
453.366572
 30
0.0
 11
337.090089
 21
453.36656
 31
0.0
  0
LINE
  8
LC-001-002-----0
  6
CONTINUOUS
  5
521
 10
337.090089
 20
453.366471
 30
0.0
 11
337.847679
 21
453.366496
 31
0.0
  0
LINE
  8
LC-001-002-----0
  6
CONTINUOUS
  5
522
 10
206.339109
 20
453.366572
 30
0.0
 11
203.844235
 21
453.366555
 31
0.0
  0
LINE
  8
LC-001-002-----0
  6
CONTINUOUS
  5
523
 10
334.089794
 20
453.36658
 30
0.0
 11
334.089794
 21
452.366974
 31
0.0
  0
LINE
  8
LC-001-002-----0
  6
CONTINUOUS
  5
524
 10
343.84642
 20
453.366694
 30
0.0
 11
344.590084
 21
453.366719
 31
0.0
  0
LINE
  8
LC-001-002-----0
  6
CONTINUOUS
  5
525
 10
346.901354
 20
454.074005
 30
0.0
 11
349.454998
 21
451.513391
 31
0.0
  0
LINE
  8
LC-001-002-----0
  6
CONTINUOUS
  5
526
 10
206.095843
 20
450.366987
 30
0.0
 11
206.095843
 21
446.166984
 31
0.0
  0
LINE
  8
LC-001-002-----0
  6
CONTINUOUS
  5
527
 10
164.602855
 20
452.159685
 30
0.0
 11
80.943908
 21
452.159685
 31
0.0
  0
LINE
  8
LC-001-002-----0
  6
CONTINUOUS
  5
528
 10
70.943908
 20
456.859685
 30
0.0
 11
70.943908
 21
452.159685
 31
0.0
  0
LINE
  8
LC-003-004-----0
  6
CONTINUOUS
  5
529
 10
194.845497
 20
454.366988
 30
0.0
 11
200.845497
 21
454.366972
 31
0.0
  0
LINE
  8
LC-003-004-----0
  6
CONTINUOUS
  5
52A
 10
197.845497
 20
454.36698
 30
0.0
 11
197.845458
 21
439.866881
 31
0.0
  0
LINE
  8
LC-003-004-----0
  6
CONTINUOUS
 62
     2
  5
52B
 10
198.845491
 20
452.066878
 30
0.0
 11
198.845453
 21
438.199926
 31
0.0
  0
LINE
  8
LC-003-004-----0
  6
CONTINUOUS
  5
52C
 10
200.045506
 20
457.866974
 30
0.0
 11
200.045502
 21
456.366974
 31
0.0
  0
LINE
  8
LC-003-004-----0
  6
CONTINUOUS
  5
52D
 10
200.045502
 20
456.366974
 30
0.0
 11
200.845502
 21
456.366972
 31
0.0
  0
LINE
  8
LC-003-004-----0
  6
CONTINUOUS
  5
52E
 10
206.844236
 20
454.366059
 30
0.0
 11
200.844236
 21
454.366063
 31
0.0
  0
LINE
  8
LC-003-004-----0
  6
CONTINUOUS
 62
     2
  5
52F
 10
203.844233
 20
452.065962
 30
0.0
 11
197.845491
 21
452.065965
 31
0.0
  0
LINE
  8
LC-003-004-----0
  6
CONTINUOUS
 62
     2
  5
530
 10
202.844233
 20
452.065962
 30
0.0
 11
202.844224
 21
438.199587
 31
0.0
  0
LINE
  8
LC-003-004-----0
  6
CONTINUOUS
  5
531
 10
201.644239
 20
457.866062
 30
0.0
 11
201.644238
 21
456.366062
 31
0.0
  0
LINE
  8
LC-003-004-----0
  6
CONTINUOUS
  5
532
 10
201.644238
 20
456.366062
 30
0.0
 11
200.844238
 21
456.366063
 31
0.0
  0
LINE
  8
LC-003-004-----0
  6
CONTINUOUS
  5
533
 10
194.845504
 20
456.866988
 30
0.0
 11
194.845497
 21
454.366988
 31
0.0
  0
ARC
  8
LC-003-004-----0
  6
CONTINUOUS
  5
534
 10
195.845504
 20
456.866985
 30
0.0
 40
1.0
 50
89.99996
 51
179.999846
  0
LINE
  8
LC-003-004-----0
  6
CONTINUOUS
  5
535
 10
200.045506
 20
457.866974
 30
0.0
 11
195.845506
 21
457.866985
 31
0.0
  0
LINE
  8
LC-003-004-----0
  6
CONTINUOUS
  5
536
 10
206.844238
 20
456.866059
 30
0.0
 11
206.844236
 21
454.366059
 31
0.0
  0
ARC
  8
LC-003-004-----0
  6
CONTINUOUS
  5
537
 10
205.844238
 20
456.86606
 30
0.0
 40
1.0
 50
359.999963
 51
90.000002
  0
LINE
  8
LC-003-004-----0
  6
CONTINUOUS
  5
538
 10
201.644239
 20
457.866062
 30
0.0
 11
205.844238
 21
457.86606
 31
0.0
  0
LINE
  8
LC-001-002-----0
  6
CONTINUOUS
  5
539
 10
335.596067
 20
450.366987
 30
0.0
 11
335.596067
 21
446.166987
 31
0.0
  0
LINE
  8
LC-003-004-----0
  6
CONTINUOUS
  5
53A
 10
346.846418
 20
454.366988
 30
0.0
 11
340.846418
 21
454.366972
 31
0.0
  0
LINE
  8
LC-003-004-----0
  6
CONTINUOUS
  5
53B
 10
343.846418
 20
454.36698
 30
0.0
 11
343.846452
 21
439.866881
 31
0.0
  0
LINE
  8
LC-003-004-----0
  6
CONTINUOUS
 62
     2
  5
53C
 10
342.846419
 20
452.066878
 30
0.0
 11
342.846457
 21
438.200512
 31
0.0
  0
LINE
  8
LC-003-004-----0
  6
CONTINUOUS
  5
53D
 10
341.646408
 20
457.866974
 30
0.0
 11
341.646412
 21
456.366974
 31
0.0
  0
LINE
  8
LC-003-004-----0
  6
CONTINUOUS
  5
53E
 10
341.646412
 20
456.366974
 30
0.0
 11
340.846412
 21
456.366972
 31
0.0
  0
LINE
  8
LC-003-004-----0
  6
CONTINUOUS
  5
53F
 10
334.847678
 20
454.366059
 30
0.0
 11
340.847678
 21
454.366063
 31
0.0
  0
LINE
  8
LC-003-004-----0
  6
CONTINUOUS
  5
540
 10
337.847678
 20
454.366061
 30
0.0
 11
337.847685
 21
439.865962
 31
0.0
  0
LINE
  8
LC-003-004-----0
  6
CONTINUOUS
 62
     2
  5
541
 10
337.847677
 20
452.065962
 30
0.0
 11
343.846419
 21
452.065965
 31
0.0
  0
LINE
  8
LC-003-004-----0
  6
CONTINUOUS
 62
     2
  5
542
 10
338.847677
 20
452.065962
 30
0.0
 11
338.847686
 21
438.199001
 31
0.0
  0
LINE
  8
LC-003-004-----0
  6
CONTINUOUS
  5
543
 10
340.047676
 20
457.866062
 30
0.0
 11
340.047677
 21
456.366062
 31
0.0
  0
LINE
  8
LC-003-004-----0
  6
CONTINUOUS
  5
544
 10
340.047677
 20
456.366062
 30
0.0
 11
340.847677
 21
456.366063
 31
0.0
  0
LINE
  8
LC-003-004-----0
  6
CONTINUOUS
  5
545
 10
346.846411
 20
456.866988
 30
0.0
 11
346.846418
 21
454.366988
 31
0.0
  0
ARC
  8
LC-003-004-----0
  6
CONTINUOUS
  5
546
 10
345.846411
 20
456.866985
 30
0.0
 40
1.0
 50
0.000154
 51
90.00004
  0
LINE
  8
LC-003-004-----0
  6
CONTINUOUS
  5
547
 10
341.646408
 20
457.866974
 30
0.0
 11
345.846408
 21
457.866985
 31
0.0
  0
LINE
  8
LC-003-004-----0
  6
CONTINUOUS
  5
548
 10
334.847677
 20
456.866059
 30
0.0
 11
334.847678
 21
454.366059
 31
0.0
  0
ARC
  8
LC-003-004-----0
  6
CONTINUOUS
  5
549
 10
335.847677
 20
456.86606
 30
0.0
 40
1.0
 50
89.999998
 51
180.000037
  0
LINE
  8
LC-003-004-----0
  6
CONTINUOUS
  5
54A
 10
340.047676
 20
457.866062
 30
0.0
 11
335.847676
 21
457.86606
 31
0.0
  0
LINE
  8
LC-001-002-----0
  6
CONTINUOUS
  5
54B
 10
207.589107
 20
452.366974
 30
0.0
 11
270.838916
 21
452.366974
 31
0.0
  0
LINE
  8
LC-001-002-----0
  6
CONTINUOUS
  5
54C
 10
346.194247
 20
453.366898
 30
0.0
 11
348.754831
 21
450.806314
 31
0.0
  0
LINE
  8
LC-001-002-----0
  6
CONTINUOUS
  5
54D
 10
346.194247
 20
453.366898
 30
0.0
 11
344.590084
 21
453.366908
 31
0.0
  0
LINE
  8
LC-001-002-----0
  6
CONTINUOUS
  5
54E
 10
207.589402
 20
453.36658
 30
0.0
 11
207.589402
 21
452.366974
 31
0.0
  0
LINE
  8
LC-001-002-----0
  6
CONTINUOUS
  5
54F
 10
344.590084
 20
453.366719
 30
0.0
 11
344.590084
 21
454.366908
 31
0.0
  0
LINE
  8
LC-001-002-----0
  6
CONTINUOUS
  5
550
 10
344.590084
 20
454.366908
 30
0.0
 11
337.090084
 21
454.366955
 31
0.0
  0
LINE
  8
LC-001-002-----0
  6
CONTINUOUS
  5
551
 10
344.590084
 20
454.366908
 30
0.0
 11
346.194253
 21
454.366898
 31
0.0
  0
LINE
  8
LC-001-002-----0
  6
CONTINUOUS
  5
552
 10
337.090084
 20
454.366955
 30
0.0
 11
335.340094
 21
454.366968
 31
0.0
  0
ARC
  8
LC-002-002-RND-0
  6
CONTINUOUS
  5
553
 10
353.011171
 20
453.366975
 30
0.0
 40
3.0
 50
270.0
 51
340.528779
  0
LINE
  8
LC-001-002-----0
  6
CONTINUOUS
  5
554
 10
337.090089
 20
453.366559
 30
0.0
 11
337.090081
 21
454.366876
 31
0.0
  0
LINE
  8
LC-001-002-----0
  6
CONTINUOUS
  5
555
 10
334.089794
 20
453.36658
 30
0.0
 11
334.540089
 21
453.96697
 31
0.0
  0
LINE
  8
LC-001-002-----0
  6
CONTINUOUS
  5
556
 10
194.777842
 20
454.074005
 30
0.0
 11
192.224199
 21
451.513391
 31
0.0
  0
LINE
  8
LC-001-002-----0
  6
CONTINUOUS
  5
557
 10
334.890088
 20
452.766972
 30
0.0
 11
335.33979
 21
453.366572
 31
0.0
  0
LINE
  8
LC-001-002-----0
  6
CONTINUOUS
  5
558
 10
354.743222
 20
452.366975
 30
0.0
 11
355.839598
 21
452.366975
 31
0.0
  0
ARC
  8
LC-001-002-----0
  6
CONTINUOUS
  5
559
 10
353.011171
 20
453.366975
 30
0.0
 40
2.0
 50
270.0
 51
330.0
  0
LINE
  8
LC-001-002-----0
  6
CONTINUOUS
  5
55A
 10
353.011171
 20
451.366975
 30
0.0
 11
349.814063
 21
451.366975
 31
0.0
  0
LINE
  8
LC-001-002-----0
  6
CONTINUOUS
  5
55B
 10
195.484949
 20
453.366898
 30
0.0
 11
192.924365
 21
450.806314
 31
0.0
  0
ARC
  8
LC-002-002-RND-0
  6
CONTINUOUS
  5
55C
 10
349.808551
 20
451.866944
 30
0.0
 40
0.5
 50
225.0
 51
270.631639
  0
ARC
  8
LC-002-002-RND-0
  6
CONTINUOUS
  5
55D
 10
349.815491
 20
451.866975
 30
0.0
 40
1.5
 50
225.0
 51
270.0
  0
ARC
  8
LC-002-002-RND-0
  6
CONTINUOUS
  5
55E
 10
346.194247
 20
453.366898
 30
0.0
 40
1.0
 50
45.0
 51
89.999642
  0
ARC
  8
LC-002-002-RND-0
  6
CONTINUOUS
  5
55F
 10
335.340087
 20
453.366968
 30
0.0
 40
1.0
 50
89.999642
 51
143.129973
  0
LINE
  8
LC-001-002-----0
  6
CONTINUOUS
  5
560
 10
195.484949
 20
453.366898
 30
0.0
 11
197.845494
 21
453.366913
 31
0.0
  0
LINE
  8
LC-001-002-----0
  6
CONTINUOUS
  5
561
 10
197.089112
 20
453.366719
 30
0.0
 11
197.089112
 21
454.366908
 31
0.0
  0
LINE
  8
LC-001-002-----0
  6
CONTINUOUS
  5
562
 10
197.089112
 20
454.366908
 30
0.0
 11
204.589112
 21
454.366955
 31
0.0
  0
LINE
  8
LC-001-002-----0
  6
CONTINUOUS
  5
563
 10
197.089112
 20
454.366908
 30
0.0
 11
195.484943
 21
454.366898
 31
0.0
  0
ARC
  8
LC-002-002-RND-0
  6
CONTINUOUS
  5
564
 10
188.668025
 20
453.366975
 30
0.0
 40
3.0
 50
199.471221
 51
270.0
  0
LINE
  8
LC-001-002-----0
  6
CONTINUOUS
  5
565
 10
204.589107
 20
453.366559
 30
0.0
 11
204.589116
 21
454.366876
 31
0.0
  0
LINE
  8
LC-001-002-----0
  6
CONTINUOUS
  5
566
 10
207.589402
 20
453.36658
 30
0.0
 11
207.139108
 21
453.96697
 31
0.0
  0
LINE
  8
LC-001-002-----0
  6
CONTINUOUS
  5
567
 10
206.789108
 20
452.766972
 30
0.0
 11
206.339406
 21
453.366572
 31
0.0
  0
LINE
  8
LC-001-002-----0
  6
CONTINUOUS
  5
568
 10
186.935974
 20
452.366975
 30
0.0
 11
185.839598
 21
452.366975
 31
0.0
  0
ARC
  8
LC-001-002-----0
  6
CONTINUOUS
  5
569
 10
188.668025
 20
453.366975
 30
0.0
 40
2.0
 50
210.0
 51
270.0
  0
LINE
  8
LC-001-002-----0
  6
CONTINUOUS
  5
56A
 10
188.668025
 20
451.366975
 30
0.0
 11
191.865133
 21
451.366975
 31
0.0
  0
ARC
  8
LC-002-002-RND-0
  6
CONTINUOUS
  5
56B
 10
334.090089
 20
453.366974
 30
0.0
 40
1.000002
 50
270.0
 51
323.129973
  0
ARC
  8
LC-002-002-RND-0
  6
CONTINUOUS
  5
56C
 10
191.870645
 20
451.866944
 30
0.0
 40
0.5
 50
269.368361
 51
315.0
  0
ARC
  8
LC-002-002-RND-0
  6
CONTINUOUS
  5
56D
 10
191.863705
 20
451.866975
 30
0.0
 40
1.5
 50
270.0
 51
315.0
  0
ARC
  8
LC-002-002-RND-0
  6
CONTINUOUS
  5
56E
 10
195.484949
 20
453.366898
 30
0.0
 40
1.0
 50
90.000358
 51
135.0
  0
ARC
  8
LC-002-002-RND-0
  6
CONTINUOUS
  5
56F
 10
206.339109
 20
453.366968
 30
0.0
 40
1.0
 50
36.870027
 51
90.000358
  0
ARC
  8
LC-002-002-RND-0
  6
CONTINUOUS
  5
570
 10
207.589107
 20
453.366974
 30
0.0
 40
1.0
 50
216.870027
 51
270.0
  0
LINE
  8
LC-001-002-----0
  6
CONTINUOUS
  5
571
 10
156.853633
 20
456.859685
 30
0.0
 11
80.943908
 21
456.859685
 31
0.0
  0
LINE
  8
LC-001-002-----0
  6
CONTINUOUS
  5
572
 10
80.943908
 20
456.859685
 30
0.0
 11
80.943908
 21
452.159685
 31
0.0
  0
LINE
  8
LC-001-002-----0
  6
CONTINUOUS
  5
573
 10
90.943908
 20
456.859685
 30
0.0
 11
90.943908
 21
452.159685
 31
0.0
  0
LINE
  8
LC-001-002-----0
  6
CONTINUOUS
  5
574
 10
80.943908
 20
452.159685
 30
0.0
 11
70.943908
 21
452.159685
 31
0.0
  0
LINE
  8
LC-001-002-----0
  6
CONTINUOUS
  5
575
 10
80.943908
 20
456.859685
 30
0.0
 11
70.943908
 21
456.859685
 31
0.0
  0
LINE
  8
LC-001-002-----0
  6
CONTINUOUS
  5
576
 10
100.943908
 20
456.859685
 30
0.0
 11
100.943908
 21
452.159685
 31
0.0
  0
LINE
  8
LC-001-002-----0
  6
CONTINUOUS
  5
577
 10
120.943908
 20
456.859685
 30
0.0
 11
120.943908
 21
452.159685
 31
0.0
  0
LINE
  8
LC-001-002-----0
  6
CONTINUOUS
  5
578
 10
110.943908
 20
456.859685
 30
0.0
 11
110.943908
 21
452.159685
 31
0.0
  0
LINE
  8
LC-001-002-----0
  6
CONTINUOUS
  5
579
 10
130.943908
 20
456.859685
 30
0.0
 11
130.943908
 21
452.159685
 31
0.0
  0
LINE
  8
LC-001-002-----0
  6
CONTINUOUS
  5
57A
 10
140.943908
 20
456.859685
 30
0.0
 11
140.943908
 21
452.159685
 31
0.0
  0
LINE
  8
LC-001-002-----0
  6
CONTINUOUS
  5
57B
 10
160.943908
 20
456.724113
 30
0.0
 11
160.943908
 21
452.021532
 31
0.0
  0
LINE
  8
LC-001-002-----0
  6
CONTINUOUS
  5
57C
 10
150.943908
 20
456.859685
 30
0.0
 11
150.943908
 21
452.159685
 31
0.0
  0
LINE
  8
LC-001-002-----0
  6
CONTINUOUS
  5
57D
 10
188.668025
 20
450.366975
 30
0.0
 11
191.863705
 21
450.366975
 31
0.0
  0
LINE
  8
LC-001-002-----0
  6
CONTINUOUS
  5
57E
 10
166.332945
 20
456.545495
 30
0.0
 11
156.853633
 21
456.859685
 31
0.0
  0
LINE
  8
LC-001-002-----0
  6
CONTINUOUS
  5
57F
 10
186.541933
 20
450.366987
 30
0.0
 11
166.332945
 21
456.545495
 31
0.0
  0
LINE
  8
LC-001-002-----0
  6
CONTINUOUS
  5
580
 10
186.541933
 20
450.366987
 30
0.0
 11
197.845486
 21
450.366987
 31
0.0
  0
LINE
  8
LC-001-002-----0
  6
CONTINUOUS
  5
581
 10
170.943908
 20
455.135782
 30
0.0
 11
170.943908
 21
450.22103
 31
0.0
  0
LINE
  8
LC-001-002-----0
  6
CONTINUOUS
  5
582
 10
180.943908
 20
452.078475
 30
0.0
 11
180.943908
 21
447.163724
 31
0.0
  0
LINE
  8
LC-001-002-----0
  6
CONTINUOUS
  5
583
 10
190.943908
 20
450.366975
 30
0.0
 11
190.943908
 21
445.666987
 31
0.0
  0
LINE
  8
LC-001-002-----0
  6
CONTINUOUS
  5
584
 10
206.095843
 20
450.366987
 30
0.0
 11
203.844233
 21
450.366989
 31
0.0
  0
LINE
  8
LC-001-002-----0
  6
CONTINUOUS
  5
585
 10
165.651044
 20
451.839221
 30
0.0
 11
165.554585
 21
451.868712
 31
0.0
  0
LINE
  8
LC-001-002-----0
  6
CONTINUOUS
  5
586
 10
349.815491
 20
450.366975
 30
0.0
 11
353.011171
 21
450.366975
 31
0.0
  0
LINE
  8
LC-001-002-----0
  6
CONTINUOUS
  5
587
 10
380.735119
 20
452.159685
 30
0.0
 11
460.735119
 21
452.159685
 31
0.0
  0
LINE
  8
LC-001-002-----0
  6
CONTINUOUS
  5
588
 10
470.735119
 20
456.859685
 30
0.0
 11
470.735119
 21
452.159685
 31
0.0
  0
LINE
  8
LC-001-002-----0
  6
CONTINUOUS
  5
589
 10
384.825395
 20
456.859685
 30
0.0
 11
460.735119
 21
456.859685
 31
0.0
  0
LINE
  8
LC-001-002-----0
  6
CONTINUOUS
  5
58A
 10
460.735119
 20
456.859685
 30
0.0
 11
460.735119
 21
452.159685
 31
0.0
  0
LINE
  8
LC-001-002-----0
  6
CONTINUOUS
  5
58B
 10
450.735119
 20
456.859685
 30
0.0
 11
450.735119
 21
452.159685
 31
0.0
  0
LINE
  8
LC-001-002-----0
  6
CONTINUOUS
  5
58C
 10
460.735119
 20
452.159685
 30
0.0
 11
470.735119
 21
452.159685
 31
0.0
  0
LINE
  8
LC-001-002-----0
  6
CONTINUOUS
  5
58D
 10
460.735119
 20
456.859685
 30
0.0
 11
470.735119
 21
456.859685
 31
0.0
  0
LINE
  8
LC-001-002-----0
  6
CONTINUOUS
  5
58E
 10
440.735119
 20
456.859685
 30
0.0
 11
440.735119
 21
452.159685
 31
0.0
  0
LINE
  8
LC-001-002-----0
  6
CONTINUOUS
  5
58F
 10
420.735119
 20
456.859685
 30
0.0
 11
420.735119
 21
452.159685
 31
0.0
  0
LINE
  8
LC-001-002-----0
  6
CONTINUOUS
  5
590
 10
430.735119
 20
456.859685
 30
0.0
 11
430.735119
 21
452.159685
 31
0.0
  0
LINE
  8
LC-001-002-----0
  6
CONTINUOUS
  5
591
 10
410.735119
 20
456.859685
 30
0.0
 11
410.735119
 21
452.159685
 31
0.0
  0
LINE
  8
LC-001-002-----0
  6
CONTINUOUS
  5
592
 10
390.735119
 20
456.859685
 30
0.0
 11
390.735119
 21
452.159685
 31
0.0
  0
LINE
  8
LC-001-002-----0
  6
CONTINUOUS
  5
593
 10
380.735119
 20
456.724113
 30
0.0
 11
380.735119
 21
452.021532
 31
0.0
  0
LINE
  8
LC-001-002-----0
  6
CONTINUOUS
  5
594
 10
375.346083
 20
456.545495
 30
0.0
 11
384.825395
 21
456.859685
 31
0.0
  0
LINE
  8
LC-001-002-----0
  6
CONTINUOUS
  5
595
 10
355.137094
 20
450.366987
 30
0.0
 11
375.346083
 21
456.545495
 31
0.0
  0
LINE
  8
LC-001-002-----0
  6
CONTINUOUS
  5
596
 10
370.735119
 20
455.135782
 30
0.0
 11
370.735119
 21
450.22103
 31
0.0
  0
LINE
  8
LC-001-002-----0
  6
CONTINUOUS
  5
597
 10
360.735119
 20
452.078475
 30
0.0
 11
360.735119
 21
447.163724
 31
0.0
  0
LINE
  8
LC-001-002-----0
  6
CONTINUOUS
  5
598
 10
355.137094
 20
450.366987
 30
0.0
 11
343.833541
 21
450.366987
 31
0.0
  0
LINE
  8
LC-001-002-----0
  6
CONTINUOUS
  5
599
 10
350.735119
 20
450.366975
 30
0.0
 11
350.735119
 21
445.666987
 31
0.0
  0
LINE
  8
LC-001-002-----0
  6
CONTINUOUS
  5
59A
 10
335.583184
 20
450.366987
 30
0.0
 11
337.834794
 21
450.366989
 31
0.0
  0
ENDSEC
  0
EOF
