  0
SECTION
  2
HEADER
  9
$ACADVER
  1
AC1009
  9
$INSBASE
 10
0.0
 20
0.0
 30
0.0
  9
$EXTMIN
 10
0.0
 20
0.0
 30
0.0
  9
$EXTMAX
 10
1188.0
 20
840.0
 30
0.0
  9
$LIMMIN
 10
0.0
 20
0.0
  9
$LIMMAX
 10
1188.0
 20
840.0
  9
$ORTHOMODE
 70
     0
  9
$REGENMODE
 70
     1
  9
$FILLMODE
 70
     1
  9
$QTEXTMODE
 70
     0
  9
$MIRRTEXT
 70
     1
  9
$DRAGMODE
 70
     2
  9
$LTSCALE
 40
2.0
  9
$OSMODE
 70
     0
  9
$ATTMODE
 70
     1
  9
$TEXTSIZE
 40
0.2
  9
$TRACEWID
 40
0.05
  9
$TEXTSTYLE
  7
STANDARD
  9
$CLAYER
  8
0
  9
$CELTYPE
  6
BYLAYER
  9
$CECOLOR
 62
     7
  9
$DIMSCALE
 40
2.0
  9
$DIMASZ
 40
3.5
  9
$DIMEXO
 40
0.0625
  9
$DIMDLI
 40
0.38
  9
$DIMRND
 40
0.0
  9
$DIMDLE
 40
0.0
  9
$DIMEXE
 40
0.18
  9
$DIMTP
 40
0.0
  9
$DIMTM
 40
0.0
  9
$DIMTXT
 40
3.5
  9
$DIMCEN
 40
0.09
  9
$DIMTSZ
 40
0.0
  9
$DIMTOL
 70
     0
  9
$DIMLIM
 70
     0
  9
$DIMTIH
 70
     1
  9
$DIMTOH
 70
     1
  9
$DIMSE1
 70
     0
  9
$DIMSE2
 70
     0
  9
$DIMTAD
 70
     1
  9
$DIMZIN
 70
     0
  9
$DIMBLK
  1

  9
$DIMASO
 70
     1
  9
$DIMSHO
 70
     1
  9
$DIMPOST
  1

  9
$DIMAPOST
  1

  9
$DIMALT
 70
     0
  9
$DIMALTD
 70
     2
  9
$DIMALTF
 40
25.4
  9
$DIMLFAC
 40
1.0
  9
$DIMTOFL
 70
     0
  9
$DIMTVP
 40
0.0
  9
$DIMTIX
 70
     0
  9
$DIMSOXD
 70
     0
  9
$DIMSAH
 70
     0
  9
$DIMBLK1
  1

  9
$DIMBLK2
  1

  9
$DIMSTYLE
  2
STANDARD
  9
$DIMCLRD
 70
     0
  9
$DIMCLRE
 70
     0
  9
$DIMCLRT
 70
     0
  9
$DIMTFAC
 40
1.0
  9
$DIMGAP
 40
0.09
  9
$LUNITS
 70
     2
  9
$LUPREC
 70
     2
  9
$AXISMODE
 70
     0
  9
$AXISUNIT
 10
0.0
 20
0.0
  9
$SKETCHINC
 40
0.1
  9
$FILLETRAD
 40
0.0
  9
$AUNITS
 70
     0
  9
$AUPREC
 70
     0
  9
$MENU
  1
acad
  9
$ELEVATION
 40
0.0
  9
$PELEVATION
 40
0.0
  9
$THICKNESS
 40
0.0
  9
$LIMCHECK
 70
     0
  9
$BLIPMODE
 70
     1
  9
$CHAMFERA
 40
0.0
  9
$CHAMFERB
 40
0.0
  9
$SKPOLY
 70
     0
  9
$TDCREATE
 40
0.000000000
  9
$TDUPDATE
 40
0.000000000
  9
$TDINDWG
 40
0.0000000000
  9
$TDUSRTIMER
 40
0.0000000000
  9
$USRTIMER
 70
     1
  9
$ANGBASE
 50
0.0
  9
$ANGDIR
 70
     0
  9
$PDMODE
 70
     0
  9
$PDSIZE
 40
0.0
  9
$PLINEWID
 40
0.0
  9
$COORDS
 70
     0
  9
$SPLFRAME
 70
     0
  9
$SPLINETYPE
 70
     6
  9
$SPLINESEGS
 70
     8
  9
$ATTDIA
 70
     0
  9
$ATTREQ
 70
     1
  9
$HANDLING
 70
     1
  9
$HANDSEED
  5
95E
  9
$SURFTAB1
 70
     6
  9
$SURFTAB2
 70
     6
  9
$SURFTYPE
 70
     6
  9
$SURFU
 70
     6
  9
$SURFV
 70
     6
  9
$UCSNAME
  2

  9
$UCSORG
 10
0.0
 20
0.0
 30
0.0
  9
$UCSXDIR
 10
1.0
 20
0.0
 30
0.0
  9
$UCSYDIR
 10
0.0
 20
1.0
 30
0.0
  9
$PUCSNAME
  2

  9
$PUCSORG
 10
0.0
 20
0.0
 30
0.0
  9
$PUCSXDIR
 10
1.0
 20
0.0
 30
0.0
  9
$PUCSYDIR
 10
0.0
 20
1.0
 30
0.0
  9
$USERI1
 70
     0
  9
$USERI2
 70
     0
  9
$USERI3
 70
     0
  9
$USERI4
 70
     0
  9
$USERI5
 70
     0
  9
$USERR1
 40
0.0
  9
$USERR2
 40
0.0
  9
$USERR3
 40
0.0
  9
$USERR4
 40
0.0
  9
$USERR5
 40
0.0
  9
$WORLDVIEW
 70
     1
  9
$SHADEDGE
 70
     3
  9
$SHADEDIF
 70
    70
  9
$TILEMODE
 70
     1
  9
$MAXACTVP
 70
    16
  9
$PINSBASE
 10
0.0
 20
0.0
 30
0.0
  9
$PLIMCHECK
 70
     0
  9
$PEXTMIN
 10
1.000000E+20
 20
1.000000E+20
 30
1.000000E+20
  9
$PEXTMAX
 10
-1.000000E+20
 20
-1.000000E+20
 30
-1.000000E+20
  9
$PLIMMIN
 10
0.0
 20
0.0
  9
$PLIMMAX
 10
1188.0
 20
840.0
  9
$UNITMODE
 70
     0
  9
$VISRETAIN
 70
     0
  9
$PLINEGEN
 70
     1
  9
$PSLTSCALE
 70
     0
  9
$TREEDEPTH
 70
  3020
  9
$DWGCODEPAGE
  3
dos850
  0
ENDSEC
  0
SECTION
  2
TABLES
  0
TABLE
  2
VPORT
 70
     1
  0
VPORT
  2
*ACTIVE
 70
     0
 10
0.0
 20
0.0
 11
1.0
 21
1.0
 12
594.0
 22
420.0
 13
0.0
 23
0.0
 14
1.0
 24
1.0
 15
0.0
 25
0.0
 16
0.0
 26
0.0
 36
1.0
 17
0.0
 27
0.0
 37
0.0
 40
840.0
 41
1.604229
 42
50.0
 43
0.0
 44
0.0
 50
0.0
 51
0.0
 71
     0
 72
   100
 73
     1
 74
     1
 75
     0
 76
     0
 77
     0
 78
     0
  0
ENDTAB
  0
TABLE
  2
LTYPE
 70
     3
  0
LTYPE
  2
CONTINUOUS
 70
    64
  3
Solid line
 72
    65
 73
     0
 40
0.0
  0
LTYPE
  2
DASHED
 70
    64
  3
__ __ __ __ __
 72
    65
 73
     2
 40
6.25
 49
5.0
 49
-1.25
  0
LTYPE
  2
DASHDOT
 70
    64
  3
__ . __ . __ . __ . __
 72
    65
 73
     4
 40
7.5
 49
5.0
 49
-1.25
 49
0.0
 49
-1.25
  0
ENDTAB
  0
TABLE
  2
LAYER
 70
    13
  0
LAYER
  2
0
 70
     0
 62
     7
  6
CONTINUOUS
  0
LAYER
  2
LC-INFO-1-2-MM-A2-0
 70
     1
 62
    -1
  6
CONTINUOUS
  0
LAYER
  2
LC-003-003-MTH-0
 70
     0
 62
     2
  6
CONTINUOUS
  0
LAYER
  2
LC-004-003-MTG-0
 70
     0
 62
     2
  6
CONTINUOUS
  0
LAYER
  2
LC-002-003-----0
 70
     0
 62
     2
  6
CONTINUOUS
  0
LAYER
  2
LC-006-005-----0
 70
     0
 62
     2
  6
CONTINUOUS
  0
LAYER
  2
LC-007-000-----0
 70
     0
 62
     7
  6
CONTINUOUS
  0
LAYER
  2
LC-009-100-D02-0
 70
     0
 62
     7
  6
CONTINUOUS
  0
LAYER
  2
LC-001-002-----0
 70
     0
 62
     2
  6
CONTINUOUS
  0
LAYER
  2
LC-005-002-RND-0
 70
     0
 62
     1
  6
CONTINUOUS
  0
LAYER
  2
LC-008-061-----0
 70
     0
 62
     2
  6
DASHDOT
  0
LAYER
  2
LC-010-100-D00-0
 70
     0
 62
     7
  6
CONTINUOUS
  0
LAYER
  2
LC-000
 70
     0
 62
     7
  6
CONTINUOUS
  0
ENDTAB
  0
TABLE
  2
STYLE
 70
     4
  0
STYLE
  2
STANDARD
 70
     0
 40
0.0
 41
1.0
 50
0.0
 71
     0
 42
0.0
  3
txt
  4

  0
STYLE
  2
LC-STANDARD
 70
    64
 40
0.0
 41
1.0
 50
0.0
 71
     0
 42
3.5
  3
MONOTXT
  4

  0
STYLE
  2
LC-TXTSTYLE-150-400-0-0-D2
 70
    64
 40
0.0
 41
1.0
 50
15.0
 71
     0
 42
3.5
  3
MONOTXT
  4

  0
STYLE
  2
LC-TXTSTYLE-150-400-0-0-D3
 70
    64
 40
0.0
 41
1.0
 50
15.0
 71
     0
 42
3.5
  3
LC-STANDARD
  4

  0
ENDTAB
  0
TABLE
  2
VIEW
 70
     0
  0
ENDTAB
  0
TABLE
  2
UCS
 70
     0
  0
ENDTAB
  0
TABLE
  2
APPID
 70
     1
  0
APPID
  2
ACAD
 70
     0
  0
ENDTAB
  0
TABLE
  2
DIMSTYLE
 70
     3
  0
DIMSTYLE
  2
STANDARD
 70
     0
  3

  4

  5

  6

  7

 40
1.0
 41
0.18
 42
0.0625
 43
0.38
 44
0.18
 45
0.0
 46
0.0
 47
0.0
 48
0.0
 71
     0
 72
     0
 73
     1
 74
     1
 75
     0
 76
     0
 77
     0
 78
     0
140
0.18
141
0.09
142
0.0
143
25.4
144
1.0
145
0.0
146
1.0
147
0.09
170
     0
171
     2
172
     0
173
     0
174
     0
175
     0
176
     0
177
     0
178
     0
  0
DIMSTYLE
  2
LC-STANDARD
 70
     0
  3

  4

  5

  6

  7

 40
1.0
 41
3.5
 42
0.0
 43
7.5
 44
1.8
 45
0.0
 46
0.0
 47
0.0
 48
0.0
 71
     0
 72
     0
 73
     0
 74
     0
 75
     0
 76
     0
 77
     1
 78
     8
140
3.5
141
0.0
142
0.0
143
25.4
144
1.0
145
0.0
146
0.71
147
1.5
170
     0
171
     2
172
     1
173
     0
174
     0
175
     0
176
     0
177
     0
178
     3
  0
DIMSTYLE
  2
LC-DIM-L-0090-02-02
 70
     0
  3

  4

  5

  6

  7

 40
2.0
 41
3.5
 42
0.0
 43
7.5
 44
1.8
 45
0.0
 46
0.0
 47
0.0
 48
0.0
 71
     0
 72
     0
 73
     0
 74
     0
 75
     0
 76
     0
 77
     1
 78
     8
140
9.0
141
0.0
142
0.0
143
25.4
144
1.0
145
0.0
146
0.71
147
1.5
170
     0
171
     2
172
     0
173
     0
174
     0
175
     0
176
     2
177
     2
178
     6
  0
ENDTAB
  0
ENDSEC
  0
SECTION
  2
BLOCKS
  0
BLOCK
  8
0
  5
23
  2
*D0
 70
    65
 10
0.0
 20
0.0
 30
0.0
  3
*D0
  0
LINE
  8
LC-003-003-MTH-0
  6
CONTINUOUS
  5
25
 10
519.163072
 20
296.441947
 30
0.0
 11
519.163072
 21
133.2
 31
0.0
  0
LINE
  8
LC-003-003-MTH-0
  6
CONTINUOUS
  5
26
 10
685.404451
 20
296.441947
 30
0.0
 11
685.404451
 21
133.2
 31
0.0
  0
LINE
  8
LC-004-003-MTG-0
  6
CONTINUOUS
  5
28
 10
519.163072
 20
144.0
 30
0.0
 11
685.404451
 21
144.0
 31
0.0
  0
LINE
  8
LC-002-003-----0
  6
CONTINUOUS
  5
2A
 10
537.009079
 20
146.349471
 30
0.0
 11
519.163072
 21
144.0
 31
0.0
  0
LINE
  8
LC-002-003-----0
  6
CONTINUOUS
  5
2B
 10
519.163072
 20
144.0
 30
0.0
 11
537.009079
 21
141.650529
 31
0.0
  0
LINE
  8
LC-002-003-----0
  6
CONTINUOUS
  5
2C
 10
537.009079
 20
141.650529
 30
0.0
 11
537.009079
 21
146.349471
 31
0.0
  0
LINE
  8
LC-002-003-----0
  6
CONTINUOUS
  5
2D
 10
537.049117
 20
145.738609
 30
0.0
 11
523.843072
 21
144.0
 31
0.0
  0
LINE
  8
LC-002-003-----0
  6
CONTINUOUS
  5
2E
 10
523.843072
 20
144.0
 30
0.0
 11
537.049117
 21
142.261391
 31
0.0
  0
LINE
  8
LC-002-003-----0
  6
CONTINUOUS
  5
2F
 10
537.089155
 20
145.127746
 30
0.0
 11
528.523072
 21
144.0
 31
0.0
  0
LINE
  8
LC-002-003-----0
  6
CONTINUOUS
  5
30
 10
528.523072
 20
144.0
 30
0.0
 11
537.089155
 21
142.872254
 31
0.0
  0
LINE
  8
LC-002-003-----0
  6
CONTINUOUS
  5
31
 10
537.129193
 20
144.516884
 30
0.0
 11
533.203072
 21
144.0
 31
0.0
  0
LINE
  8
LC-002-003-----0
  6
CONTINUOUS
  5
32
 10
533.203072
 20
144.0
 30
0.0
 11
537.129193
 21
143.483116
 31
0.0
  0
LINE
  8
LC-002-003-----0
  6
CONTINUOUS
  5
33
 10
667.558444
 20
141.650529
 30
0.0
 11
685.404451
 21
144.0
 31
0.0
  0
LINE
  8
LC-002-003-----0
  6
CONTINUOUS
  5
34
 10
685.404451
 20
144.0
 30
0.0
 11
667.558444
 21
146.349471
 31
0.0
  0
LINE
  8
LC-002-003-----0
  6
CONTINUOUS
  5
35
 10
667.558444
 20
146.349471
 30
0.0
 11
667.558444
 21
141.650529
 31
0.0
  0
LINE
  8
LC-002-003-----0
  6
CONTINUOUS
  5
36
 10
667.518406
 20
142.261391
 30
0.0
 11
680.724451
 21
144.0
 31
0.0
  0
LINE
  8
LC-002-003-----0
  6
CONTINUOUS
  5
37
 10
680.724451
 20
144.0
 30
0.0
 11
667.518406
 21
145.738609
 31
0.0
  0
LINE
  8
LC-002-003-----0
  6
CONTINUOUS
  5
38
 10
667.478367
 20
142.872254
 30
0.0
 11
676.044451
 21
144.0
 31
0.0
  0
LINE
  8
LC-002-003-----0
  6
CONTINUOUS
  5
39
 10
676.044451
 20
144.0
 30
0.0
 11
667.478367
 21
145.127746
 31
0.0
  0
LINE
  8
LC-002-003-----0
  6
CONTINUOUS
  5
3A
 10
667.438329
 20
143.483116
 30
0.0
 11
671.364451
 21
144.0
 31
0.0
  0
LINE
  8
LC-002-003-----0
  6
CONTINUOUS
  5
3B
 10
671.364451
 20
144.0
 30
0.0
 11
667.438329
 21
144.516884
 31
0.0
  0
TEXT
  8
LC-002-003-----0
  6
CONTINUOUS
 62
     6
  5
3D
 10
580.587669
 20
154.431999
 30
0.0
 40
18.0
  1
Ø166
 41
0.9
 51
15.0
  7
LC-TXTSTYLE-150-400-0-0-D0
 72
     1
 11
605.079007
 21
154.431999
 31
0.0
  0
ENDBLK
  8
0
  5
3E
  0
BLOCK
  8
0
  5
40
  2
*D1
 70
    65
 10
0.0
 20
0.0
 30
0.0
  3
*D1
  0
LINE
  8
LC-003-003-MTH-0
  6
CONTINUOUS
  5
41
 10
483.837511
 20
579.90943
 30
0.0
 11
389.2
 21
579.90943
 31
0.0
  0
LINE
  8
LC-003-003-MTH-0
  6
CONTINUOUS
  5
42
 10
485.807511
 20
602.56443
 30
0.0
 11
389.2
 21
602.56443
 31
0.0
  0
LINE
  8
LC-002-003-----0
  6
CONTINUOUS
  5
43
 10
402.349471
 20
562.063422
 30
0.0
 11
400.0
 21
579.90943
 31
0.0
  0
LINE
  8
LC-002-003-----0
  6
CONTINUOUS
  5
44
 10
400.0
 20
579.90943
 30
0.0
 11
397.650529
 21
562.063422
 31
0.0
  0
LINE
  8
LC-002-003-----0
  6
CONTINUOUS
  5
45
 10
397.650529
 20
562.063422
 30
0.0
 11
402.349471
 21
562.063422
 31
0.0
  0
LINE
  8
LC-002-003-----0
  6
CONTINUOUS
  5
46
 10
401.738609
 20
562.023384
 30
0.0
 11
400.0
 21
575.22943
 31
0.0
  0
LINE
  8
LC-002-003-----0
  6
CONTINUOUS
  5
47
 10
400.0
 20
575.22943
 30
0.0
 11
398.261391
 21
562.023384
 31
0.0
  0
LINE
  8
LC-002-003-----0
  6
CONTINUOUS
  5
48
 10
401.127746
 20
561.983346
 30
0.0
 11
400.0
 21
570.54943
 31
0.0
  0
LINE
  8
LC-002-003-----0
  6
CONTINUOUS
  5
49
 10
400.0
 20
570.54943
 30
0.0
 11
398.872254
 21
561.983346
 31
0.0
  0
LINE
  8
LC-002-003-----0
  6
CONTINUOUS
  5
4A
 10
400.516884
 20
561.943308
 30
0.0
 11
400.0
 21
565.86943
 31
0.0
  0
LINE
  8
LC-002-003-----0
  6
CONTINUOUS
  5
4B
 10
400.0
 20
565.86943
 30
0.0
 11
399.483116
 21
561.943308
 31
0.0
  0
LINE
  8
LC-002-003-----0
  6
CONTINUOUS
  5
4C
 10
397.650529
 20
620.410437
 30
0.0
 11
400.0
 21
602.56443
 31
0.0
  0
LINE
  8
LC-002-003-----0
  6
CONTINUOUS
  5
4D
 10
400.0
 20
602.56443
 30
0.0
 11
402.349471
 21
620.410437
 31
0.0
  0
LINE
  8
LC-002-003-----0
  6
CONTINUOUS
  5
4E
 10
402.349471
 20
620.410437
 30
0.0
 11
397.650529
 21
620.410437
 31
0.0
  0
LINE
  8
LC-002-003-----0
  6
CONTINUOUS
  5
4F
 10
398.261391
 20
620.450475
 30
0.0
 11
400.0
 21
607.24443
 31
0.0
  0
LINE
  8
LC-002-003-----0
  6
CONTINUOUS
  5
50
 10
400.0
 20
607.24443
 30
0.0
 11
401.738609
 21
620.450475
 31
0.0
  0
LINE
  8
LC-002-003-----0
  6
CONTINUOUS
  5
51
 10
398.872254
 20
620.490513
 30
0.0
 11
400.0
 21
611.92443
 31
0.0
  0
LINE
  8
LC-002-003-----0
  6
CONTINUOUS
  5
52
 10
400.0
 20
611.92443
 30
0.0
 11
401.127746
 21
620.490513
 31
0.0
  0
LINE
  8
LC-002-003-----0
  6
CONTINUOUS
  5
53
 10
399.483116
 20
620.530551
 30
0.0
 11
400.0
 21
616.60443
 31
0.0
  0
LINE
  8
LC-002-003-----0
  6
CONTINUOUS
  5
54
 10
400.0
 20
616.60443
 30
0.0
 11
400.516884
 21
620.530551
 31
0.0
  0
LINE
  8
LC-004-003-MTG-0
  6
CONTINUOUS
  5
55
 10
400.0
 20
554.70943
 30
0.0
 11
400.0
 21
660.566949
 31
0.0
  0
TEXT
  8
LC-002-003-----0
  6
CONTINUOUS
 62
     6
  5
56
 10
389.568001
 20
629.839675
 30
0.0
 40
18.0
  1
23
 50
90.0
 51
15.0
  7
LC-TXTSTYLE-150-400-0-0-D0
  0
ENDBLK
  8
0
  5
57
  0
BLOCK
  8
0
  5
59
  2
*X2
 70
    65
 10
503.783761
 20
463.129896
 30
0.0
  3
*X2
  0
LINE
  8
LC-006-005-----0
  6
CONTINUOUS
  5
5B
 10
506.835277
 20
463.277499
 30
0.0
 11
508.136158
 21
464.578381
 31
0.0
  0
LINE
  8
LC-006-005-----0
  6
CONTINUOUS
  5
5C
 10
506.442216
 20
463.167281
 30
0.0
 11
508.246376
 21
464.971441
 31
0.0
  0
LINE
  8
LC-006-005-----0
  6
CONTINUOUS
  5
5D
 10
506.12379
 20
463.131698
 30
0.0
 11
508.28196
 21
465.289867
 31
0.0
  0
LINE
  8
LC-006-005-----0
  6
CONTINUOUS
  5
5E
 10
505.846917
 20
463.137667
 30
0.0
 11
508.283761
 21
465.574512
 31
0.0
  0
LINE
  8
LC-006-005-----0
  6
CONTINUOUS
  5
5F
 10
505.598755
 20
463.172348
 30
0.0
 11
508.283761
 21
465.857355
 31
0.0
  0
LINE
  8
LC-006-005-----0
  6
CONTINUOUS
  5
60
 10
505.372748
 20
463.229184
 30
0.0
 11
508.283761
 21
466.140197
 31
0.0
  0
LINE
  8
LC-006-005-----0
  6
CONTINUOUS
  5
61
 10
505.165074
 20
463.304352
 30
0.0
 11
508.283761
 21
466.42304
 31
0.0
  0
LINE
  8
LC-006-005-----0
  6
CONTINUOUS
  5
62
 10
504.973336
 20
463.395457
 30
0.0
 11
508.283761
 21
466.705883
 31
0.0
  0
LINE
  8
LC-006-005-----0
  6
CONTINUOUS
  5
63
 10
504.79599
 20
463.500954
 30
0.0
 11
508.283761
 21
466.988725
 31
0.0
  0
LINE
  8
LC-006-005-----0
  6
CONTINUOUS
  5
64
 10
504.632055
 20
463.619862
 30
0.0
 11
508.283761
 21
467.271568
 31
0.0
  0
LINE
  8
LC-006-005-----0
  6
CONTINUOUS
  5
65
 10
504.480961
 20
463.751611
 30
0.0
 11
508.28176
 21
467.552409
 31
0.0
  0
LINE
  8
LC-006-005-----0
  6
CONTINUOUS
  5
66
 10
504.342474
 20
463.895966
 30
0.0
 11
508.256053
 21
467.809545
 31
0.0
  0
LINE
  8
LC-006-005-----0
  6
CONTINUOUS
  5
67
 10
504.216664
 20
464.052999
 30
0.0
 11
508.206339
 21
468.042674
 31
0.0
  0
LINE
  8
LC-006-005-----0
  6
CONTINUOUS
  5
68
 10
504.103915
 20
464.223093
 30
0.0
 11
508.137178
 21
468.256356
 31
0.0
  0
LINE
  8
LC-006-005-----0
  6
CONTINUOUS
  5
69
 10
504.004977
 20
464.406997
 30
0.0
 11
508.05137
 21
468.45339
 31
0.0
  0
LINE
  8
LC-006-005-----0
  6
CONTINUOUS
  5
6A
 10
503.921067
 20
464.60593
 30
0.0
 11
507.95071
 21
468.635573
 31
0.0
  0
LINE
  8
LC-006-005-----0
  6
CONTINUOUS
  5
6B
 10
503.85408
 20
464.821785
 30
0.0
 11
507.836352
 21
468.804058
 31
0.0
  0
LINE
  8
LC-006-005-----0
  6
CONTINUOUS
  5
6C
 10
503.806975
 20
465.057524
 30
0.0
 11
507.708998
 21
468.959546
 31
0.0
  0
LINE
  8
LC-006-005-----0
  6
CONTINUOUS
  5
6D
 10
503.784613
 20
465.318004
 30
0.0
 11
507.568991
 21
469.102382
 31
0.0
  0
LINE
  8
LC-006-005-----0
  6
CONTINUOUS
  5
6E
 10
503.783761
 20
465.599995
 30
0.0
 11
507.416365
 21
469.232599
 31
0.0
  0
LINE
  8
LC-006-005-----0
  6
CONTINUOUS
  5
6F
 10
503.783761
 20
465.882838
 30
0.0
 11
507.250849
 21
469.349925
 31
0.0
  0
LINE
  8
LC-006-005-----0
  6
CONTINUOUS
  5
70
 10
503.783761
 20
466.165681
 30
0.0
 11
507.071827
 21
469.453746
 31
0.0
  0
LINE
  8
LC-006-005-----0
  6
CONTINUOUS
  5
71
 10
503.783761
 20
466.448523
 30
0.0
 11
506.87826
 21
469.543022
 31
0.0
  0
LINE
  8
LC-006-005-----0
  6
CONTINUOUS
  5
72
 10
503.783761
 20
466.731366
 30
0.0
 11
506.668521
 21
469.616126
 31
0.0
  0
LINE
  8
LC-006-005-----0
  6
CONTINUOUS
  5
73
 10
503.783761
 20
467.014209
 30
0.0
 11
506.44008
 21
469.670528
 31
0.0
  0
LINE
  8
LC-006-005-----0
  6
CONTINUOUS
  5
74
 10
503.783761
 20
467.297052
 30
0.0
 11
506.188876
 21
469.702166
 31
0.0
  0
LINE
  8
LC-006-005-----0
  6
CONTINUOUS
  5
75
 10
503.787287
 20
467.583419
 30
0.0
 11
505.907862
 21
469.703994
 31
0.0
  0
LINE
  8
LC-006-005-----0
  6
CONTINUOUS
  5
76
 10
503.829394
 20
467.90837
 30
0.0
 11
505.582911
 21
469.661887
 31
0.0
  0
LINE
  8
LC-006-005-----0
  6
CONTINUOUS
  5
77
 10
503.95383
 20
468.315648
 30
0.0
 11
505.175633
 21
469.537451
 31
0.0
  0
ENDBLK
  8
0
  5
78
  0
BLOCK
  8
0
  5
7A
  2
*X3
 70
    65
 10
481.867511
 20
459.441947
 30
0.0
  3
*X3
  0
LINE
  8
LC-006-005-----0
  6
CONTINUOUS
  5
7B
 10
510.353636
 20
459.441947
 30
0.0
 11
511.171261
 21
460.259573
 31
0.0
  0
LINE
  8
LC-006-005-----0
  6
CONTINUOUS
  5
7C
 10
506.422425
 20
459.753377
 30
0.0
 11
511.171261
 21
464.502214
 31
0.0
  0
LINE
  8
LC-006-005-----0
  6
CONTINUOUS
  5
7D
 10
504.522511
 20
462.096105
 30
0.0
 11
505.381541
 21
462.955134
 31
0.0
  0
LINE
  8
LC-006-005-----0
  6
CONTINUOUS
  5
7E
 10
508.314761
 20
465.888355
 30
0.0
 11
511.171261
 21
468.744855
 31
0.0
  0
LINE
  8
LC-006-005-----0
  6
CONTINUOUS
  5
7F
 10
507.498745
 20
469.314978
 30
0.0
 11
511.171261
 21
472.987495
 31
0.0
  0
LINE
  8
LC-006-005-----0
  6
CONTINUOUS
  5
80
 10
504.522511
 20
470.581386
 30
0.0
 11
507.245781
 21
473.304656
 31
0.0
  0
LINE
  8
LC-006-005-----0
  6
CONTINUOUS
  5
81
 10
508.314761
 20
474.373636
 30
0.0
 11
511.171261
 21
477.230136
 31
0.0
  0
LINE
  8
LC-006-005-----0
  6
CONTINUOUS
  5
82
 10
508.247287
 20
478.548802
 30
0.0
 11
511.171261
 21
481.472777
 31
0.0
  0
LINE
  8
LC-006-005-----0
  6
CONTINUOUS
  5
83
 10
505.228999
 20
479.773155
 30
0.0
 11
511.171261
 21
485.715417
 31
0.0
  0
LINE
  8
LC-006-005-----0
  6
CONTINUOUS
  5
84
 10
508.314761
 20
487.101558
 30
0.0
 11
511.171261
 21
489.958058
 31
0.0
  0
LINE
  8
LC-006-005-----0
  6
CONTINUOUS
  5
85
 10
506.305319
 20
489.334756
 30
0.0
 11
511.171261
 21
494.200699
 31
0.0
  0
LINE
  8
LC-006-005-----0
  6
CONTINUOUS
  5
86
 10
504.522511
 20
491.794589
 30
0.0
 11
505.178707
 21
492.450785
 31
0.0
  0
LINE
  8
LC-006-005-----0
  6
CONTINUOUS
  5
87
 10
508.314761
 20
495.586839
 30
0.0
 11
511.171261
 21
498.443339
 31
0.0
  0
LINE
  8
LC-006-005-----0
  6
CONTINUOUS
  5
88
 10
507.381638
 20
498.896357
 30
0.0
 11
511.171261
 21
502.68598
 31
0.0
  0
LINE
  8
LC-006-005-----0
  6
CONTINUOUS
  5
89
 10
504.522511
 20
500.279871
 30
0.0
 11
507.042947
 21
502.800307
 31
0.0
  0
LINE
  8
LC-006-005-----0
  6
CONTINUOUS
  5
8A
 10
508.314761
 20
504.072121
 30
0.0
 11
511.171261
 21
506.928621
 31
0.0
  0
LINE
  8
LC-006-005-----0
  6
CONTINUOUS
  5
8B
 10
508.200669
 20
508.200669
 30
0.0
 11
511.171261
 21
511.171261
 31
0.0
  0
LINE
  8
LC-006-005-----0
  6
CONTINUOUS
  5
8C
 10
505.111893
 20
509.354534
 30
0.0
 11
511.171261
 21
515.413902
 31
0.0
  0
LINE
  8
LC-006-005-----0
  6
CONTINUOUS
  5
8D
 10
508.314761
 20
516.800043
 30
0.0
 11
511.171261
 21
519.656543
 31
0.0
  0
LINE
  8
LC-006-005-----0
  6
CONTINUOUS
  5
8E
 10
506.188212
 20
518.916135
 30
0.0
 11
511.171261
 21
523.899183
 31
0.0
  0
LINE
  8
LC-006-005-----0
  6
CONTINUOUS
  5
8F
 10
504.522511
 20
521.493074
 30
0.0
 11
504.975873
 21
521.946436
 31
0.0
  0
LINE
  8
LC-006-005-----0
  6
CONTINUOUS
  5
90
 10
508.314761
 20
525.285324
 30
0.0
 11
511.171261
 21
528.141824
 31
0.0
  0
LINE
  8
LC-006-005-----0
  6
CONTINUOUS
  5
91
 10
507.264532
 20
528.477736
 30
0.0
 11
511.171261
 21
532.384465
 31
0.0
  0
LINE
  8
LC-006-005-----0
  6
CONTINUOUS
  5
92
 10
504.522511
 20
529.978356
 30
0.0
 11
506.840113
 21
532.295957
 31
0.0
  0
LINE
  8
LC-006-005-----0
  6
CONTINUOUS
  5
93
 10
508.314761
 20
533.770606
 30
0.0
 11
511.171261
 21
536.627106
 31
0.0
  0
LINE
  8
LC-006-005-----0
  6
CONTINUOUS
  5
94
 10
508.144938
 20
537.843423
 30
0.0
 11
511.171261
 21
540.869746
 31
0.0
  0
LINE
  8
LC-006-005-----0
  6
CONTINUOUS
  5
95
 10
504.994787
 20
538.935912
 30
0.0
 11
511.171261
 21
545.112387
 31
0.0
  0
LINE
  8
LC-006-005-----0
  6
CONTINUOUS
  5
96
 10
508.314761
 20
546.498528
 30
0.0
 11
511.171261
 21
549.355028
 31
0.0
  0
LINE
  8
LC-006-005-----0
  6
CONTINUOUS
  5
97
 10
506.071106
 20
548.497513
 30
0.0
 11
511.171261
 21
553.597668
 31
0.0
  0
LINE
  8
LC-006-005-----0
  6
CONTINUOUS
  5
98
 10
504.522511
 20
551.191559
 30
0.0
 11
504.773039
 21
551.442086
 31
0.0
  0
LINE
  8
LC-006-005-----0
  6
CONTINUOUS
  5
99
 10
508.314761
 20
554.983809
 30
0.0
 11
511.171261
 21
557.840309
 31
0.0
  0
LINE
  8
LC-006-005-----0
  6
CONTINUOUS
  5
9A
 10
507.032241
 20
557.94393
 30
0.0
 11
509.870193
 21
560.781881
 31
0.0
  0
LINE
  8
LC-006-005-----0
  6
CONTINUOUS
  5
9B
 10
502.832678
 20
557.987007
 30
0.0
 11
505.744601
 21
560.89893
 31
0.0
  0
LINE
  8
LC-006-005-----0
  6
CONTINUOUS
  5
9C
 10
500.834953
 20
560.231922
 30
0.0
 11
503.55598
 21
562.95295
 31
0.0
  0
LINE
  8
LC-006-005-----0
  6
CONTINUOUS
  5
9D
 10
500.828761
 20
564.468372
 30
0.0
 11
503.55598
 21
567.19559
 31
0.0
  0
LINE
  8
LC-006-005-----0
  6
CONTINUOUS
  5
9E
 10
500.828761
 20
568.711012
 30
0.0
 11
503.55598
 21
571.438231
 31
0.0
  0
LINE
  8
LC-006-005-----0
  6
CONTINUOUS
  5
9F
 10
500.828761
 20
572.953653
 30
0.0
 11
503.55598
 21
575.680872
 31
0.0
  0
LINE
  8
LC-006-005-----0
  6
CONTINUOUS
  5
A0
 10
500.828761
 20
577.196294
 30
0.0
 11
503.55598
 21
579.923513
 31
0.0
  0
LINE
  8
LC-006-005-----0
  6
CONTINUOUS
  5
A1
 10
499.165832
 20
579.776005
 30
0.0
 11
502.254256
 21
582.86443
 31
0.0
  0
LINE
  8
LC-006-005-----0
  6
CONTINUOUS
  5
A2
 10
495.056616
 20
579.90943
 30
0.0
 11
498.011616
 21
582.86443
 31
0.0
  0
LINE
  8
LC-006-005-----0
  6
CONTINUOUS
  5
A3
 10
490.813975
 20
579.90943
 30
0.0
 11
493.768975
 21
582.86443
 31
0.0
  0
LINE
  8
LC-006-005-----0
  6
CONTINUOUS
  5
A4
 10
486.571334
 20
579.90943
 30
0.0
 11
489.526334
 21
582.86443
 31
0.0
  0
LINE
  8
LC-006-005-----0
  6
CONTINUOUS
  5
A5
 10
482.77722
 20
580.357955
 30
0.0
 11
487.777511
 21
585.358247
 31
0.0
  0
LINE
  8
LC-006-005-----0
  6
CONTINUOUS
  5
A6
 10
484.822511
 20
586.645888
 30
0.0
 11
487.777511
 21
589.600888
 31
0.0
  0
LINE
  8
LC-006-005-----0
  6
CONTINUOUS
  5
A7
 10
484.822511
 20
590.888529
 30
0.0
 11
487.777511
 21
593.843529
 31
0.0
  0
LINE
  8
LC-006-005-----0
  6
CONTINUOUS
  5
A8
 10
484.822511
 20
595.131169
 30
0.0
 11
487.777511
 21
598.086169
 31
0.0
  0
LINE
  8
LC-006-005-----0
  6
CONTINUOUS
  5
A9
 10
484.500908
 20
599.052206
 30
0.0
 11
487.313331
 21
601.864629
 31
0.0
  0
LINE
  8
LC-006-005-----0
  6
CONTINUOUS
  5
AA
 10
482.481444
 20
601.275383
 30
0.0
 11
483.649058
 21
602.442997
 31
0.0
  0
ENDBLK
  8
0
  5
AB
  0
BLOCK
  8
0
  5
AD
  2
*X4
 70
    65
 10
693.396261
 20
459.441947
 30
0.0
  3
*X4
  0
LINE
  8
LC-006-005-----0
  6
CONTINUOUS
  5
AE
 10
697.047029
 20
459.459151
 30
0.0
 11
700.045011
 21
462.457133
 31
0.0
  0
LINE
  8
LC-006-005-----0
  6
CONTINUOUS
  5
AF
 10
693.396261
 20
460.051024
 30
0.0
 11
696.912423
 21
463.567185
 31
0.0
  0
LINE
  8
LC-006-005-----0
  6
CONTINUOUS
  5
B0
 10
693.396261
 20
464.293664
 30
0.0
 11
696.252761
 21
467.150164
 31
0.0
  0
LINE
  8
LC-006-005-----0
  6
CONTINUOUS
  5
B1
 10
698.91127
 20
469.808673
 30
0.0
 11
700.045011
 21
470.942414
 31
0.0
  0
LINE
  8
LC-006-005-----0
  6
CONTINUOUS
  5
B2
 10
693.396261
 20
468.536305
 30
0.0
 11
697.986493
 21
473.126536
 31
0.0
  0
LINE
  8
LC-006-005-----0
  6
CONTINUOUS
  5
B3
 10
693.396261
 20
472.778946
 30
0.0
 11
696.252761
 21
475.635446
 31
0.0
  0
LINE
  8
LC-006-005-----0
  6
CONTINUOUS
  5
B4
 10
693.396261
 20
477.021586
 30
0.0
 11
699.062812
 21
482.688137
 31
0.0
  0
LINE
  8
LC-006-005-----0
  6
CONTINUOUS
  5
B5
 10
693.396261
 20
481.264227
 30
0.0
 11
696.255503
 21
484.123468
 31
0.0
  0
LINE
  8
LC-006-005-----0
  6
CONTINUOUS
  5
B6
 10
693.396261
 20
485.506868
 30
0.0
 11
696.344062
 21
488.454669
 31
0.0
  0
LINE
  8
LC-006-005-----0
  6
CONTINUOUS
  5
B7
 10
696.823603
 20
488.934209
 30
0.0
 11
700.045011
 21
492.155618
 31
0.0
  0
LINE
  8
LC-006-005-----0
  6
CONTINUOUS
  5
B8
 10
693.396261
 20
489.749508
 30
0.0
 11
696.807567
 21
493.160814
 31
0.0
  0
LINE
  8
LC-006-005-----0
  6
CONTINUOUS
  5
B9
 10
693.396261
 20
493.992149
 30
0.0
 11
696.252761
 21
496.848649
 31
0.0
  0
LINE
  8
LC-006-005-----0
  6
CONTINUOUS
  5
BA
 10
698.708436
 20
499.304323
 30
0.0
 11
700.045011
 21
500.640899
 31
0.0
  0
LINE
  8
LC-006-005-----0
  6
CONTINUOUS
  5
BB
 10
693.396261
 20
498.23479
 30
0.0
 11
697.869386
 21
502.707915
 31
0.0
  0
LINE
  8
LC-006-005-----0
  6
CONTINUOUS
  5
BC
 10
693.396261
 20
502.47743
 30
0.0
 11
696.252761
 21
505.33393
 31
0.0
  0
LINE
  8
LC-006-005-----0
  6
CONTINUOUS
  5
BD
 10
693.396261
 20
506.720071
 30
0.0
 11
698.945706
 21
512.269516
 31
0.0
  0
LINE
  8
LC-006-005-----0
  6
CONTINUOUS
  5
BE
 10
693.396261
 20
510.962712
 30
0.0
 11
696.252761
 21
513.819212
 31
0.0
  0
LINE
  8
LC-006-005-----0
  6
CONTINUOUS
  5
BF
 10
693.396261
 20
515.205353
 30
0.0
 11
700.022026
 21
521.831117
 31
0.0
  0
LINE
  8
LC-006-005-----0
  6
CONTINUOUS
  5
C0
 10
693.396261
 20
519.447993
 30
0.0
 11
696.712139
 21
522.763871
 31
0.0
  0
LINE
  8
LC-006-005-----0
  6
CONTINUOUS
  5
C1
 10
693.396261
 20
523.690634
 30
0.0
 11
696.252761
 21
526.547134
 31
0.0
  0
LINE
  8
LC-006-005-----0
  6
CONTINUOUS
  5
C2
 10
698.505602
 20
528.799974
 30
0.0
 11
700.045011
 21
530.339384
 31
0.0
  0
LINE
  8
LC-006-005-----0
  6
CONTINUOUS
  5
C3
 10
693.396261
 20
527.933275
 30
0.0
 11
697.75228
 21
532.289293
 31
0.0
  0
LINE
  8
LC-006-005-----0
  6
CONTINUOUS
  5
C4
 10
693.396261
 20
532.175915
 30
0.0
 11
696.252761
 21
535.032415
 31
0.0
  0
LINE
  8
LC-006-005-----0
  6
CONTINUOUS
  5
C5
 10
693.396261
 20
536.418556
 30
0.0
 11
698.8286
 21
541.850894
 31
0.0
  0
LINE
  8
LC-006-005-----0
  6
CONTINUOUS
  5
C6
 10
693.396261
 20
540.661197
 30
0.0
 11
696.252761
 21
543.517697
 31
0.0
  0
LINE
  8
LC-006-005-----0
  6
CONTINUOUS
  5
C7
 10
693.396261
 20
544.903837
 30
0.0
 11
699.904919
 21
551.412495
 31
0.0
  0
LINE
  8
LC-006-005-----0
  6
CONTINUOUS
  5
C8
 10
693.396261
 20
549.146478
 30
0.0
 11
696.625273
 21
552.375489
 31
0.0
  0
LINE
  8
LC-006-005-----0
  6
CONTINUOUS
  5
C9
 10
702.546791
 20
558.297008
 30
0.0
 11
703.385683
 21
559.1359
 31
0.0
  0
LINE
  8
LC-006-005-----0
  6
CONTINUOUS
  5
CA
 10
693.396261
 20
553.389119
 30
0.0
 11
696.252761
 21
556.245619
 31
0.0
  0
LINE
  8
LC-006-005-----0
  6
CONTINUOUS
  5
CB
 10
697.951072
 20
557.94393
 30
0.0
 11
703.738761
 21
563.731619
 31
0.0
  0
LINE
  8
LC-006-005-----0
  6
CONTINUOUS
  5
CC
 10
719.916572
 20
579.90943
 30
0.0
 11
722.052627
 21
582.045484
 31
0.0
  0
LINE
  8
LC-006-005-----0
  6
CONTINUOUS
  5
CD
 10
693.396261
 20
557.631759
 30
0.0
 11
696.663432
 21
560.89893
 31
0.0
  0
LINE
  8
LC-006-005-----0
  6
CONTINUOUS
  5
CE
 10
701.011543
 20
565.247041
 30
0.0
 11
703.738761
 21
567.974259
 31
0.0
  0
LINE
  8
LC-006-005-----0
  6
CONTINUOUS
  5
CF
 10
715.673932
 20
579.90943
 30
0.0
 11
719.745011
 21
583.980509
 31
0.0
  0
LINE
  8
LC-006-005-----0
  6
CONTINUOUS
  5
D0
 10
701.011543
 20
569.489681
 30
0.0
 11
703.738761
 21
572.2169
 31
0.0
  0
LINE
  8
LC-006-005-----0
  6
CONTINUOUS
  5
D1
 10
711.431291
 20
579.90943
 30
0.0
 11
714.386291
 21
582.86443
 31
0.0
  0
LINE
  8
LC-006-005-----0
  6
CONTINUOUS
  5
D2
 10
716.790011
 20
585.26815
 30
0.0
 11
719.745011
 21
588.22315
 31
0.0
  0
LINE
  8
LC-006-005-----0
  6
CONTINUOUS
  5
D3
 10
701.011543
 20
573.732322
 30
0.0
 11
703.738761
 21
576.459541
 31
0.0
  0
LINE
  8
LC-006-005-----0
  6
CONTINUOUS
  5
D4
 10
707.18865
 20
579.90943
 30
0.0
 11
710.14365
 21
582.86443
 31
0.0
  0
LINE
  8
LC-006-005-----0
  6
CONTINUOUS
  5
D5
 10
716.790011
 20
589.510791
 30
0.0
 11
719.745011
 21
592.465791
 31
0.0
  0
LINE
  8
LC-006-005-----0
  6
CONTINUOUS
  5
D6
 10
701.011543
 20
577.974963
 30
0.0
 11
705.901009
 21
582.86443
 31
0.0
  0
LINE
  8
LC-006-005-----0
  6
CONTINUOUS
  5
D7
 10
716.790011
 20
593.753431
 30
0.0
 11
719.745011
 21
596.708431
 31
0.0
  0
LINE
  8
LC-006-005-----0
  6
CONTINUOUS
  5
D8
 10
701.117205
 20
582.323266
 30
0.0
 11
701.552706
 21
582.758767
 31
0.0
  0
LINE
  8
LC-006-005-----0
  6
CONTINUOUS
  5
D9
 10
716.790011
 20
597.996072
 30
0.0
 11
721.139661
 21
602.345722
 31
0.0
  0
ENDBLK
  8
0
  5
DA
  0
BLOCK
  8
0
  5
DC
  2
*X5
 70
    65
 10
505.283761
 20
570.474179
 30
0.0
  3
*X5
  0
LINE
  8
LC-006-005-----0
  6
CONTINUOUS
  5
DD
 10
528.047772
 20
570.474179
 30
0.0
 11
530.033196
 21
572.459603
 31
0.0
  0
LINE
  8
LC-006-005-----0
  6
CONTINUOUS
  5
DE
 10
527.509944
 20
572.764778
 30
0.0
 11
529.870643
 21
575.125477
 31
0.0
  0
LINE
  8
LC-006-005-----0
  6
CONTINUOUS
  5
DF
 10
527.347391
 20
575.430652
 30
0.0
 11
529.708089
 21
577.79135
 31
0.0
  0
LINE
  8
LC-006-005-----0
  6
CONTINUOUS
  5
E0
 10
525.700967
 20
576.612655
 30
0.0
 11
528.008623
 21
578.920311
 31
0.0
  0
LINE
  8
LC-006-005-----0
  6
CONTINUOUS
  5
E1
 10
523.100088
 20
576.840203
 30
0.0
 11
525.407743
 21
579.147859
 31
0.0
  0
LINE
  8
LC-006-005-----0
  6
CONTINUOUS
  5
E2
 10
520.499208
 20
577.06775
 30
0.0
 11
522.806864
 21
579.375406
 31
0.0
  0
LINE
  8
LC-006-005-----0
  6
CONTINUOUS
  5
E3
 10
517.898328
 20
577.295298
 30
0.0
 11
520.205984
 21
579.602954
 31
0.0
  0
LINE
  8
LC-006-005-----0
  6
CONTINUOUS
  5
E4
 10
515.297449
 20
577.522845
 30
0.0
 11
517.605105
 21
579.830501
 31
0.0
  0
LINE
  8
LC-006-005-----0
  6
CONTINUOUS
  5
E5
 10
512.696569
 20
577.750393
 30
0.0
 11
515.004225
 21
580.058049
 31
0.0
  0
LINE
  8
LC-006-005-----0
  6
CONTINUOUS
  5
E6
 10
510.095689
 20
577.97794
 30
0.0
 11
512.403345
 21
580.285596
 31
0.0
  0
LINE
  8
LC-006-005-----0
  6
CONTINUOUS
  5
E7
 10
507.49481
 20
578.205488
 30
0.0
 11
509.802466
 21
580.513144
 31
0.0
  0
LINE
  8
LC-006-005-----0
  6
CONTINUOUS
  5
E8
 10
505.283761
 20
578.822867
 30
0.0
 11
507.201586
 21
580.740691
 31
0.0
  0
ENDBLK
  8
0
  5
E9
  0
BLOCK
  8
0
  5
EB
  2
*X6
 70
    65
 10
529.539859
 20
522.799753
 30
0.0
  3
*X6
  0
LINE
  8
LC-006-005-----0
  6
CONTINUOUS
  5
EC
 10
585.051041
 20
522.825644
 30
0.0
 11
585.283761
 21
523.058365
 31
0.0
  0
LINE
  8
LC-006-005-----0
  6
CONTINUOUS
  5
ED
 10
582.505778
 20
523.108808
 30
0.0
 11
584.76011
 21
525.36314
 31
0.0
  0
LINE
  8
LC-006-005-----0
  6
CONTINUOUS
  5
EE
 10
579.960515
 20
523.391972
 30
0.0
 11
582.215517
 21
525.646974
 31
0.0
  0
LINE
  8
LC-006-005-----0
  6
CONTINUOUS
  5
EF
 10
577.415252
 20
523.675136
 30
0.0
 11
579.670924
 21
525.930809
 31
0.0
  0
LINE
  8
LC-006-005-----0
  6
CONTINUOUS
  5
F0
 10
574.869989
 20
523.9583
 30
0.0
 11
577.126332
 21
526.214643
 31
0.0
  0
LINE
  8
LC-006-005-----0
  6
CONTINUOUS
  5
F1
 10
572.324726
 20
524.241464
 30
0.0
 11
574.581739
 21
526.498478
 31
0.0
  0
LINE
  8
LC-006-005-----0
  6
CONTINUOUS
  5
F2
 10
569.779463
 20
524.524629
 30
0.0
 11
572.037146
 21
526.782312
 31
0.0
  0
LINE
  8
LC-006-005-----0
  6
CONTINUOUS
  5
F3
 10
567.2342
 20
524.807793
 30
0.0
 11
569.492553
 21
527.066147
 31
0.0
  0
LINE
  8
LC-006-005-----0
  6
CONTINUOUS
  5
F4
 10
564.688937
 20
525.090957
 30
0.0
 11
566.947961
 21
527.349981
 31
0.0
  0
LINE
  8
LC-006-005-----0
  6
CONTINUOUS
  5
F5
 10
562.143674
 20
525.374121
 30
0.0
 11
564.403368
 21
527.633815
 31
0.0
  0
LINE
  8
LC-006-005-----0
  6
CONTINUOUS
  5
F6
 10
559.598411
 20
525.657285
 30
0.0
 11
561.858775
 21
527.91765
 31
0.0
  0
LINE
  8
LC-006-005-----0
  6
CONTINUOUS
  5
F7
 10
557.053148
 20
525.940449
 30
0.0
 11
559.314183
 21
528.201484
 31
0.0
  0
LINE
  8
LC-006-005-----0
  6
CONTINUOUS
  5
F8
 10
554.507885
 20
526.223613
 30
0.0
 11
556.76959
 21
528.485319
 31
0.0
  0
LINE
  8
LC-006-005-----0
  6
CONTINUOUS
  5
F9
 10
551.962622
 20
526.506777
 30
0.0
 11
554.224997
 21
528.769153
 31
0.0
  0
LINE
  8
LC-006-005-----0
  6
CONTINUOUS
  5
FA
 10
549.417359
 20
526.789942
 30
0.0
 11
551.680405
 21
529.052988
 31
0.0
  0
LINE
  8
LC-006-005-----0
  6
CONTINUOUS
  5
FB
 10
546.872096
 20
527.073106
 30
0.0
 11
549.135812
 21
529.336822
 31
0.0
  0
LINE
  8
LC-006-005-----0
  6
CONTINUOUS
  5
FC
 10
544.326833
 20
527.35627
 30
0.0
 11
546.591219
 21
529.620656
 31
0.0
  0
LINE
  8
LC-006-005-----0
  6
CONTINUOUS
  5
FD
 10
541.78157
 20
527.639434
 30
0.0
 11
544.046627
 21
529.904491
 31
0.0
  0
LINE
  8
LC-006-005-----0
  6
CONTINUOUS
  5
FE
 10
539.236307
 20
527.922598
 30
0.0
 11
541.502034
 21
530.188325
 31
0.0
  0
LINE
  8
LC-006-005-----0
  6
CONTINUOUS
  5
FF
 10
536.948454
 20
528.463172
 30
0.0
 11
538.965046
 21
530.479765
 31
0.0
  0
LINE
  8
LC-006-005-----0
  6
CONTINUOUS
  5
100
 10
535.158067
 20
529.501212
 30
0.0
 11
536.956795
 21
531.299941
 31
0.0
  0
LINE
  8
LC-006-005-----0
  6
CONTINUOUS
  5
101
 10
533.761076
 20
530.932648
 30
0.0
 11
535.574274
 21
532.745847
 31
0.0
  0
LINE
  8
LC-006-005-----0
  6
CONTINUOUS
  5
102
 10
532.761685
 20
532.761685
 30
0.0
 11
534.83889
 21
534.83889
 31
0.0
  0
LINE
  8
LC-006-005-----0
  6
CONTINUOUS
  5
103
 10
532.284935
 20
535.113362
 30
0.0
 11
534.345127
 21
537.173554
 31
0.0
  0
LINE
  8
LC-006-005-----0
  6
CONTINUOUS
  5
104
 10
531.052865
 20
536.709719
 30
0.0
 11
532.930913
 21
538.587768
 31
0.0
  0
LINE
  8
LC-006-005-----0
  6
CONTINUOUS
  5
105
 10
529.638651
 20
538.123932
 30
0.0
 11
530.988898
 21
539.474179
 31
0.0
  0
ENDBLK
  8
0
  5
106
  0
BLOCK
  8
0
  5
108
  2
*X7
 70
    65
 10
589.283761
 20
520.908479
 30
0.0
  3
*X7
  0
LINE
  8
LC-006-005-----0
  6
CONTINUOUS
  5
109
 10
600.322619
 20
521.126659
 30
0.0
 11
602.283761
 21
523.087802
 31
0.0
  0
LINE
  8
LC-006-005-----0
  6
CONTINUOUS
  5
10A
 10
597.777356
 20
521.409823
 30
0.0
 11
600.027666
 21
523.660133
 31
0.0
  0
LINE
  8
LC-006-005-----0
  6
CONTINUOUS
  5
10B
 10
595.232093
 20
521.692987
 30
0.0
 11
597.483073
 21
523.943968
 31
0.0
  0
LINE
  8
LC-006-005-----0
  6
CONTINUOUS
  5
10C
 10
592.68683
 20
521.976151
 30
0.0
 11
594.93848
 21
524.227802
 31
0.0
  0
LINE
  8
LC-006-005-----0
  6
CONTINUOUS
  5
10D
 10
590.141567
 20
522.259316
 30
0.0
 11
592.393888
 21
524.511637
 31
0.0
  0
LINE
  8
LC-006-005-----0
  6
CONTINUOUS
  5
10E
 10
589.283761
 20
524.229938
 30
0.0
 11
589.849295
 21
524.795471
 31
0.0
  0
ENDBLK
  8
0
  5
10F
  0
BLOCK
  8
0
  5
111
  2
*X8
 70
    65
 10
602.283761
 20
520.908479
 30
0.0
  3
*X8
  0
LINE
  8
LC-006-005-----0
  6
CONTINUOUS
  5
112
 10
612.561568
 20
522.0519
 30
0.0
 11
615.283761
 21
524.774093
 31
0.0
  0
LINE
  8
LC-006-005-----0
  6
CONTINUOUS
  5
113
 10
609.379085
 20
521.697844
 30
0.0
 11
612.195293
 21
524.514053
 31
0.0
  0
LINE
  8
LC-006-005-----0
  6
CONTINUOUS
  5
114
 10
606.196602
 20
521.343788
 30
0.0
 11
609.011762
 21
524.158948
 31
0.0
  0
LINE
  8
LC-006-005-----0
  6
CONTINUOUS
  5
115
 10
603.014119
 20
520.989732
 30
0.0
 11
605.828231
 21
523.803844
 31
0.0
  0
LINE
  8
LC-006-005-----0
  6
CONTINUOUS
  5
116
 10
602.283761
 20
523.087802
 30
0.0
 11
602.644699
 21
523.44874
 31
0.0
  0
ENDBLK
  8
0
  5
117
  0
BLOCK
  8
0
  5
119
  2
*X9
 70
    65
 10
619.283761
 20
522.799753
 30
0.0
  3
*X9
  0
LINE
  8
LC-006-005-----0
  6
CONTINUOUS
  5
11A
 10
666.767146
 20
528.174217
 30
0.0
 11
672.022658
 21
533.429729
 31
0.0
  0
LINE
  8
LC-006-005-----0
  6
CONTINUOUS
  5
11B
 10
663.481294
 20
527.716792
 30
0.0
 11
666.476374
 21
530.711872
 31
0.0
  0
LINE
  8
LC-006-005-----0
  6
CONTINUOUS
  5
11C
 10
669.457789
 20
533.693288
 30
0.0
 11
675.013961
 21
539.249459
 31
0.0
  0
LINE
  8
LC-006-005-----0
  6
CONTINUOUS
  5
11D
 10
660.298811
 20
527.362736
 30
0.0
 11
663.131796
 21
530.195722
 31
0.0
  0
LINE
  8
LC-006-005-----0
  6
CONTINUOUS
  5
11E
 10
657.116328
 20
527.00868
 30
0.0
 11
659.948265
 21
529.840617
 31
0.0
  0
LINE
  8
LC-006-005-----0
  6
CONTINUOUS
  5
11F
 10
653.933845
 20
526.654624
 30
0.0
 11
656.764734
 21
529.485513
 31
0.0
  0
LINE
  8
LC-006-005-----0
  6
CONTINUOUS
  5
120
 10
650.751362
 20
526.300569
 30
0.0
 11
653.581202
 21
529.130409
 31
0.0
  0
LINE
  8
LC-006-005-----0
  6
CONTINUOUS
  5
121
 10
647.568879
 20
525.946513
 30
0.0
 11
650.397671
 21
528.775304
 31
0.0
  0
LINE
  8
LC-006-005-----0
  6
CONTINUOUS
  5
122
 10
644.386396
 20
525.592457
 30
0.0
 11
647.214139
 21
528.4202
 31
0.0
  0
LINE
  8
LC-006-005-----0
  6
CONTINUOUS
  5
123
 10
641.203913
 20
525.238401
 30
0.0
 11
644.030608
 21
528.065096
 31
0.0
  0
LINE
  8
LC-006-005-----0
  6
CONTINUOUS
  5
124
 10
638.021431
 20
524.884346
 30
0.0
 11
640.847076
 21
527.709991
 31
0.0
  0
LINE
  8
LC-006-005-----0
  6
CONTINUOUS
  5
125
 10
634.838948
 20
524.53029
 30
0.0
 11
637.663545
 21
527.354887
 31
0.0
  0
LINE
  8
LC-006-005-----0
  6
CONTINUOUS
  5
126
 10
631.656465
 20
524.176234
 30
0.0
 11
634.480013
 21
526.999783
 31
0.0
  0
LINE
  8
LC-006-005-----0
  6
CONTINUOUS
  5
127
 10
628.473982
 20
523.822178
 30
0.0
 11
631.296482
 21
526.644678
 31
0.0
  0
LINE
  8
LC-006-005-----0
  6
CONTINUOUS
  5
128
 10
625.291499
 20
523.468123
 30
0.0
 11
628.112951
 21
526.289574
 31
0.0
  0
LINE
  8
LC-006-005-----0
  6
CONTINUOUS
  5
129
 10
622.109016
 20
523.114067
 30
0.0
 11
624.929419
 21
525.93447
 31
0.0
  0
LINE
  8
LC-006-005-----0
  6
CONTINUOUS
  5
12A
 10
619.283761
 20
523.117239
 30
0.0
 11
621.745888
 21
525.579365
 31
0.0
  0
ENDBLK
  8
0
  5
12B
  0
BLOCK
  8
0
  5
12D
  2
*X10
 70
    65
 10
674.413265
 20
570.474179
 30
0.0
  3
*X10
  0
LINE
  8
LC-006-005-----0
  6
CONTINUOUS
  5
12E
 10
696.992401
 20
578.198461
 30
0.0
 11
699.283761
 21
580.489822
 31
0.0
  0
LINE
  8
LC-006-005-----0
  6
CONTINUOUS
  5
12F
 10
693.892793
 20
577.927281
 30
0.0
 11
696.64295
 21
580.677438
 31
0.0
  0
LINE
  8
LC-006-005-----0
  6
CONTINUOUS
  5
130
 10
690.793185
 20
577.6561
 30
0.0
 11
693.543343
 21
580.406258
 31
0.0
  0
LINE
  8
LC-006-005-----0
  6
CONTINUOUS
  5
131
 10
687.693578
 20
577.38492
 30
0.0
 11
690.443735
 21
580.135077
 31
0.0
  0
LINE
  8
LC-006-005-----0
  6
CONTINUOUS
  5
132
 10
684.59397
 20
577.113739
 30
0.0
 11
687.344127
 21
579.863896
 31
0.0
  0
LINE
  8
LC-006-005-----0
  6
CONTINUOUS
  5
133
 10
675.125983
 20
570.474179
 30
0.0
 11
677.034267
 21
572.382463
 31
0.0
  0
LINE
  8
LC-006-005-----0
  6
CONTINUOUS
  5
134
 10
681.494362
 20
576.842559
 30
0.0
 11
684.24452
 21
579.592716
 31
0.0
  0
LINE
  8
LC-006-005-----0
  6
CONTINUOUS
  5
135
 10
674.550648
 20
572.727272
 30
0.0
 11
677.217931
 21
575.394554
 31
0.0
  0
LINE
  8
LC-006-005-----0
  6
CONTINUOUS
  5
136
 10
678.394755
 20
576.571378
 30
0.0
 11
681.144912
 21
579.321535
 31
0.0
  0
LINE
  8
LC-006-005-----0
  6
CONTINUOUS
  5
137
 10
674.734312
 20
575.739363
 30
0.0
 11
678.045304
 21
579.050355
 31
0.0
  0
LINE
  8
LC-006-005-----0
  6
CONTINUOUS
  5
138
 10
674.917976
 20
578.751454
 30
0.0
 11
674.945697
 21
578.779174
 31
0.0
  0
ENDBLK
  8
0
  5
139
  0
BLOCK
  8
0
  5
13B
  2
*D11
 70
    65
 10
0.0
 20
0.0
 30
0.0
  3
*D11
  0
LINE
  8
LC-003-003-MTH-0
  6
CONTINUOUS
  5
13C
 10
482.360011
 20
600.59443
 30
0.0
 11
482.360011
 21
690.8
 31
0.0
  0
LINE
  8
LC-003-003-MTH-0
  6
CONTINUOUS
  5
13D
 10
722.207511
 20
600.59443
 30
0.0
 11
722.207511
 21
690.8
 31
0.0
  0
LINE
  8
LC-004-003-MTG-0
  6
CONTINUOUS
  5
13E
 10
482.360011
 20
680.0
 30
0.0
 11
722.207511
 21
680.0
 31
0.0
  0
LINE
  8
LC-002-003-----0
  6
CONTINUOUS
  5
13F
 10
500.206019
 20
682.349471
 30
0.0
 11
482.360011
 21
680.0
 31
0.0
  0
LINE
  8
LC-002-003-----0
  6
CONTINUOUS
  5
140
 10
482.360011
 20
680.0
 30
0.0
 11
500.206019
 21
677.650529
 31
0.0
  0
LINE
  8
LC-002-003-----0
  6
CONTINUOUS
  5
141
 10
500.206019
 20
677.650529
 30
0.0
 11
500.206019
 21
682.349471
 31
0.0
  0
LINE
  8
LC-002-003-----0
  6
CONTINUOUS
  5
142
 10
500.246057
 20
681.738609
 30
0.0
 11
487.040011
 21
680.0
 31
0.0
  0
LINE
  8
LC-002-003-----0
  6
CONTINUOUS
  5
143
 10
487.040011
 20
680.0
 30
0.0
 11
500.246057
 21
678.261391
 31
0.0
  0
LINE
  8
LC-002-003-----0
  6
CONTINUOUS
  5
144
 10
500.286095
 20
681.127746
 30
0.0
 11
491.720011
 21
680.0
 31
0.0
  0
LINE
  8
LC-002-003-----0
  6
CONTINUOUS
  5
145
 10
491.720011
 20
680.0
 30
0.0
 11
500.286095
 21
678.872254
 31
0.0
  0
LINE
  8
LC-002-003-----0
  6
CONTINUOUS
  5
146
 10
500.326133
 20
680.516884
 30
0.0
 11
496.400011
 21
680.0
 31
0.0
  0
LINE
  8
LC-002-003-----0
  6
CONTINUOUS
  5
147
 10
496.400011
 20
680.0
 30
0.0
 11
500.326133
 21
679.483116
 31
0.0
  0
LINE
  8
LC-002-003-----0
  6
CONTINUOUS
  5
148
 10
704.361504
 20
677.650529
 30
0.0
 11
722.207511
 21
680.0
 31
0.0
  0
LINE
  8
LC-002-003-----0
  6
CONTINUOUS
  5
149
 10
722.207511
 20
680.0
 30
0.0
 11
704.361504
 21
682.349471
 31
0.0
  0
LINE
  8
LC-002-003-----0
  6
CONTINUOUS
  5
14A
 10
704.361504
 20
682.349471
 30
0.0
 11
704.361504
 21
677.650529
 31
0.0
  0
LINE
  8
LC-002-003-----0
  6
CONTINUOUS
  5
14B
 10
704.321466
 20
678.261391
 30
0.0
 11
717.527511
 21
680.0
 31
0.0
  0
LINE
  8
LC-002-003-----0
  6
CONTINUOUS
  5
14C
 10
717.527511
 20
680.0
 30
0.0
 11
704.321466
 21
681.738609
 31
0.0
  0
LINE
  8
LC-002-003-----0
  6
CONTINUOUS
  5
14D
 10
704.281428
 20
678.872254
 30
0.0
 11
712.847511
 21
680.0
 31
0.0
  0
LINE
  8
LC-002-003-----0
  6
CONTINUOUS
  5
14E
 10
712.847511
 20
680.0
 30
0.0
 11
704.281428
 21
681.127746
 31
0.0
  0
LINE
  8
LC-002-003-----0
  6
CONTINUOUS
  5
14F
 10
704.24139
 20
679.483116
 30
0.0
 11
708.167511
 21
680.0
 31
0.0
  0
LINE
  8
LC-002-003-----0
  6
CONTINUOUS
  5
150
 10
708.167511
 20
680.0
 30
0.0
 11
704.24139
 21
680.516884
 31
0.0
  0
TEXT
  8
LC-002-003-----0
  6
CONTINUOUS
 62
     6
  5
151
 10
590.020895
 20
690.431999
 30
0.0
 40
18.0
  1
240
 51
15.0
  7
LC-TXTSTYLE-150-400-0-0-D0
 72
     1
 11
609.154753
 21
690.431999
 31
0.0
  0
ENDBLK
  8
0
  5
152
  0
BLOCK
  8
0
  5
154
  2
*X12
 70
    65
 10
696.283761
 20
463.129896
 30
0.0
  3
*X12
  0
LINE
  8
LC-006-005-----0
  6
CONTINUOUS
  5
155
 10
699.542211
 20
463.368546
 30
0.0
 11
700.545112
 21
464.371447
 31
0.0
  0
LINE
  8
LC-006-005-----0
  6
CONTINUOUS
  5
156
 10
699.090749
 20
463.199927
 30
0.0
 11
700.71373
 21
464.822908
 31
0.0
  0
LINE
  8
LC-006-005-----0
  6
CONTINUOUS
  5
157
 10
698.748109
 20
463.140129
 30
0.0
 11
700.773528
 21
465.165549
 31
0.0
  0
LINE
  8
LC-006-005-----0
  6
CONTINUOUS
  5
158
 10
698.456364
 20
463.131228
 30
0.0
 11
700.783761
 21
465.458625
 31
0.0
  0
LINE
  8
LC-006-005-----0
  6
CONTINUOUS
  5
159
 10
698.197464
 20
463.15517
 30
0.0
 11
700.783761
 21
465.741467
 31
0.0
  0
LINE
  8
LC-006-005-----0
  6
CONTINUOUS
  5
15A
 10
697.962956
 20
463.203504
 30
0.0
 11
700.783761
 21
466.02431
 31
0.0
  0
LINE
  8
LC-006-005-----0
  6
CONTINUOUS
  5
15B
 10
697.748123
 20
463.271515
 30
0.0
 11
700.783761
 21
466.307153
 31
0.0
  0
LINE
  8
LC-006-005-----0
  6
CONTINUOUS
  5
15C
 10
697.550082
 20
463.356316
 30
0.0
 11
700.783761
 21
466.589995
 31
0.0
  0
LINE
  8
LC-006-005-----0
  6
CONTINUOUS
  5
15D
 10
697.366986
 20
463.456063
 30
0.0
 11
700.783761
 21
466.872838
 31
0.0
  0
LINE
  8
LC-006-005-----0
  6
CONTINUOUS
  5
15E
 10
697.197646
 20
463.569566
 30
0.0
 11
700.783761
 21
467.155681
 31
0.0
  0
LINE
  8
LC-006-005-----0
  6
CONTINUOUS
  5
15F
 10
697.041337
 20
463.6961
 30
0.0
 11
700.783761
 21
467.438524
 31
0.0
  0
LINE
  8
LC-006-005-----0
  6
CONTINUOUS
  5
160
 10
696.897693
 20
463.835298
 30
0.0
 11
700.769838
 21
467.707443
 31
0.0
  0
LINE
  8
LC-006-005-----0
  6
CONTINUOUS
  5
161
 10
696.766661
 20
463.987109
 30
0.0
 11
700.729267
 21
467.949714
 31
0.0
  0
LINE
  8
LC-006-005-----0
  6
CONTINUOUS
  5
162
 10
696.648493
 20
464.151783
 30
0.0
 11
700.667659
 21
468.170949
 31
0.0
  0
LINE
  8
LC-006-005-----0
  6
CONTINUOUS
  5
163
 10
696.543778
 20
464.329911
 30
0.0
 11
700.588408
 21
468.374541
 31
0.0
  0
LINE
  8
LC-006-005-----0
  6
CONTINUOUS
  5
164
 10
696.453527
 20
464.522503
 30
0.0
 11
700.493663
 21
468.562638
 31
0.0
  0
LINE
  8
LC-006-005-----0
  6
CONTINUOUS
  5
165
 10
696.379321
 20
464.731139
 30
0.0
 11
700.38481
 21
468.736628
 31
0.0
  0
LINE
  8
LC-006-005-----0
  6
CONTINUOUS
  5
166
 10
696.323617
 20
464.958278
 30
0.0
 11
700.26272
 21
468.897381
 31
0.0
  0
LINE
  8
LC-006-005-----0
  6
CONTINUOUS
  5
167
 10
696.290349
 20
465.207853
 30
0.0
 11
700.127876
 21
469.04538
 31
0.0
  0
LINE
  8
LC-006-005-----0
  6
CONTINUOUS
  5
168
 10
696.283761
 20
465.484108
 30
0.0
 11
699.980436
 21
469.180782
 31
0.0
  0
LINE
  8
LC-006-005-----0
  6
CONTINUOUS
  5
169
 10
696.283761
 20
465.766951
 30
0.0
 11
699.820254
 21
469.303444
 31
0.0
  0
LINE
  8
LC-006-005-----0
  6
CONTINUOUS
  5
16A
 10
696.283761
 20
466.049793
 30
0.0
 11
699.646865
 21
469.412897
 31
0.0
  0
LINE
  8
LC-006-005-----0
  6
CONTINUOUS
  5
16B
 10
696.283761
 20
466.332636
 30
0.0
 11
699.459416
 21
469.508291
 31
0.0
  0
LINE
  8
LC-006-005-----0
  6
CONTINUOUS
  5
16C
 10
696.283761
 20
466.615479
 30
0.0
 11
699.256548
 21
469.588266
 31
0.0
  0
LINE
  8
LC-006-005-----0
  6
CONTINUOUS
  5
16D
 10
696.283761
 20
466.898322
 30
0.0
 11
699.036154
 21
469.650714
 31
0.0
  0
LINE
  8
LC-006-005-----0
  6
CONTINUOUS
  5
16E
 10
696.283761
 20
467.181164
 30
0.0
 11
698.79491
 21
469.692313
 31
0.0
  0
LINE
  8
LC-006-005-----0
  6
CONTINUOUS
  5
16F
 10
696.283771
 20
467.464016
 30
0.0
 11
698.527265
 21
469.70751
 31
0.0
  0
LINE
  8
LC-006-005-----0
  6
CONTINUOUS
  5
170
 10
696.305347
 20
467.768435
 30
0.0
 11
698.222846
 21
469.685934
 31
0.0
  0
LINE
  8
LC-006-005-----0
  6
CONTINUOUS
  5
171
 10
696.38777
 20
468.133701
 30
0.0
 11
697.85758
 21
469.603511
 31
0.0
  0
LINE
  8
LC-006-005-----0
  6
CONTINUOUS
  5
172
 10
696.633447
 20
468.662221
 30
0.0
 11
697.32906
 21
469.357834
 31
0.0
  0
ENDBLK
  8
0
  5
173
  0
BLOCK
  8
0
  5
175
  2
*X13
 70
    65
 10
666.583256
 20
576.816161
 30
0.0
  3
*X13
  0
LINE
  8
LC-006-005-----0
  6
CONTINUOUS
  5
176
 10
676.685187
 20
579.104451
 30
0.0
 11
676.971966
 21
579.391231
 31
0.0
  0
LINE
  8
LC-006-005-----0
  6
CONTINUOUS
  5
177
 10
675.02248
 20
578.855958
 30
0.0
 11
676.926368
 21
580.759846
 31
0.0
  0
LINE
  8
LC-006-005-----0
  6
CONTINUOUS
  5
178
 10
672.19712
 20
577.444811
 30
0.0
 11
675.737311
 21
580.985002
 31
0.0
  0
LINE
  8
LC-006-005-----0
  6
CONTINUOUS
  5
179
 10
670.534413
 20
577.196318
 30
0.0
 11
674.074604
 21
580.736509
 31
0.0
  0
LINE
  8
LC-006-005-----0
  6
CONTINUOUS
  5
17A
 10
668.871706
 20
576.947825
 30
0.0
 11
673.224131
 21
581.30025
 31
0.0
  0
LINE
  8
LC-006-005-----0
  6
CONTINUOUS
  5
17B
 10
667.608593
 20
577.098925
 30
0.0
 11
671.911844
 21
581.402176
 31
0.0
  0
LINE
  8
LC-006-005-----0
  6
CONTINUOUS
  5
17C
 10
666.860082
 20
577.764628
 30
0.0
 11
670.249138
 21
581.153683
 31
0.0
  0
LINE
  8
LC-006-005-----0
  6
CONTINUOUS
  5
17D
 10
666.676207
 20
578.994966
 30
0.0
 11
668.586431
 21
580.90519
 31
0.0
  0
ENDBLK
  8
0
  5
17E
  0
BLOCK
  8
0
  5
180
  2
BLK1
 70
    64
 10
0.0
 20
0.0
 30
0.0
  3
BLK1
  0
ENDBLK
  8
0
  5
181
  0
BLOCK
  8
0
  5
183
  2
*X15
 70
    65
 10
444.283761
 20
228.441947
 30
0.0
  3
*X15
  0
LINE
  8
LC-006-005-----0
  6
CONTINUOUS
  5
184
 10
550.88264
 20
228.441947
 30
0.0
 11
551.283761
 21
228.843069
 31
0.0
  0
LINE
  8
LC-006-005-----0
  6
CONTINUOUS
  5
185
 10
548.397539
 20
228.785274
 30
0.0
 11
551.283761
 21
231.671496
 31
0.0
  0
LINE
  8
LC-006-005-----0
  6
CONTINUOUS
  5
186
 10
547.799822
 20
231.015984
 30
0.0
 11
551.283761
 21
234.499923
 31
0.0
  0
LINE
  8
LC-006-005-----0
  6
CONTINUOUS
  5
187
 10
547.283761
 20
233.328351
 30
0.0
 11
551.283761
 21
237.328351
 31
0.0
  0
LINE
  8
LC-006-005-----0
  6
CONTINUOUS
  5
188
 10
547.283761
 20
236.156778
 30
0.0
 11
551.283761
 21
240.156778
 31
0.0
  0
LINE
  8
LC-006-005-----0
  6
CONTINUOUS
  5
189
 10
547.283761
 20
238.985205
 30
0.0
 11
551.283761
 21
242.985205
 31
0.0
  0
LINE
  8
LC-006-005-----0
  6
CONTINUOUS
  5
18A
 10
547.283761
 20
241.813632
 30
0.0
 11
551.283761
 21
245.813632
 31
0.0
  0
LINE
  8
LC-006-005-----0
  6
CONTINUOUS
  5
18B
 10
547.283761
 20
244.642059
 30
0.0
 11
551.283761
 21
248.642059
 31
0.0
  0
LINE
  8
LC-006-005-----0
  6
CONTINUOUS
  5
18C
 10
547.283761
 20
247.470486
 30
0.0
 11
551.283761
 21
251.470486
 31
0.0
  0
LINE
  8
LC-006-005-----0
  6
CONTINUOUS
  5
18D
 10
547.283761
 20
250.298913
 30
0.0
 11
551.283761
 21
254.298913
 31
0.0
  0
LINE
  8
LC-006-005-----0
  6
CONTINUOUS
  5
18E
 10
547.283761
 20
253.12734
 30
0.0
 11
551.283761
 21
257.12734
 31
0.0
  0
LINE
  8
LC-006-005-----0
  6
CONTINUOUS
  5
18F
 10
547.283761
 20
255.955768
 30
0.0
 11
551.283761
 21
259.955768
 31
0.0
  0
LINE
  8
LC-006-005-----0
  6
CONTINUOUS
  5
190
 10
547.283761
 20
258.784195
 30
0.0
 11
551.283761
 21
262.784195
 31
0.0
  0
LINE
  8
LC-006-005-----0
  6
CONTINUOUS
  5
191
 10
547.283761
 20
261.612622
 30
0.0
 11
551.283761
 21
265.612622
 31
0.0
  0
LINE
  8
LC-006-005-----0
  6
CONTINUOUS
  5
192
 10
547.283761
 20
264.441049
 30
0.0
 11
551.283761
 21
268.441049
 31
0.0
  0
LINE
  8
LC-006-005-----0
  6
CONTINUOUS
  5
193
 10
547.283761
 20
267.269476
 30
0.0
 11
551.283761
 21
271.269476
 31
0.0
  0
LINE
  8
LC-006-005-----0
  6
CONTINUOUS
  5
194
 10
547.283761
 20
270.097903
 30
0.0
 11
551.283761
 21
274.097903
 31
0.0
  0
LINE
  8
LC-006-005-----0
  6
CONTINUOUS
  5
195
 10
547.283761
 20
272.92633
 30
0.0
 11
551.283761
 21
276.92633
 31
0.0
  0
LINE
  8
LC-006-005-----0
  6
CONTINUOUS
  5
196
 10
547.283761
 20
275.754757
 30
0.0
 11
551.283761
 21
279.754757
 31
0.0
  0
LINE
  8
LC-006-005-----0
  6
CONTINUOUS
  5
197
 10
547.283761
 20
278.583185
 30
0.0
 11
551.283761
 21
282.583185
 31
0.0
  0
LINE
  8
LC-006-005-----0
  6
CONTINUOUS
  5
198
 10
547.283761
 20
281.411612
 30
0.0
 11
551.283761
 21
285.411612
 31
0.0
  0
LINE
  8
LC-006-005-----0
  6
CONTINUOUS
  5
199
 10
547.283761
 20
284.240039
 30
0.0
 11
551.283761
 21
288.240039
 31
0.0
  0
LINE
  8
LC-006-005-----0
  6
CONTINUOUS
  5
19A
 10
547.283761
 20
287.068466
 30
0.0
 11
551.283761
 21
291.068466
 31
0.0
  0
LINE
  8
LC-006-005-----0
  6
CONTINUOUS
  5
19B
 10
547.283761
 20
289.896893
 30
0.0
 11
551.283761
 21
293.896893
 31
0.0
  0
LINE
  8
LC-006-005-----0
  6
CONTINUOUS
  5
19C
 10
545.000389
 20
290.441947
 30
0.0
 11
549.000389
 21
294.441947
 31
0.0
  0
LINE
  8
LC-006-005-----0
  6
CONTINUOUS
  5
19D
 10
542.171961
 20
290.441947
 30
0.0
 11
546.171961
 21
294.441947
 31
0.0
  0
LINE
  8
LC-006-005-----0
  6
CONTINUOUS
  5
19E
 10
539.343534
 20
290.441947
 30
0.0
 11
543.343534
 21
294.441947
 31
0.0
  0
LINE
  8
LC-006-005-----0
  6
CONTINUOUS
  5
19F
 10
536.515107
 20
290.441947
 30
0.0
 11
540.515107
 21
294.441947
 31
0.0
  0
LINE
  8
LC-006-005-----0
  6
CONTINUOUS
  5
1A0
 10
533.68668
 20
290.441947
 30
0.0
 11
537.68668
 21
294.441947
 31
0.0
  0
LINE
  8
LC-006-005-----0
  6
CONTINUOUS
  5
1A1
 10
530.858253
 20
290.441947
 30
0.0
 11
534.858253
 21
294.441947
 31
0.0
  0
LINE
  8
LC-006-005-----0
  6
CONTINUOUS
  5
1A2
 10
528.029826
 20
290.441947
 30
0.0
 11
532.029826
 21
294.441947
 31
0.0
  0
LINE
  8
LC-006-005-----0
  6
CONTINUOUS
  5
1A3
 10
525.201399
 20
290.441947
 30
0.0
 11
529.201399
 21
294.441947
 31
0.0
  0
LINE
  8
LC-006-005-----0
  6
CONTINUOUS
  5
1A4
 10
522.534129
 20
290.603105
 30
0.0
 11
526.372972
 21
294.441947
 31
0.0
  0
LINE
  8
LC-006-005-----0
  6
CONTINUOUS
  5
1A5
 10
521.498853
 20
292.396256
 30
0.0
 11
524.427056
 21
295.324459
 31
0.0
  0
LINE
  8
LC-006-005-----0
  6
CONTINUOUS
  5
1A6
 10
520.463577
 20
294.189407
 30
0.0
 11
523.39178
 21
297.11761
 31
0.0
  0
LINE
  8
LC-006-005-----0
  6
CONTINUOUS
  5
1A7
 10
519.428301
 20
295.982558
 30
0.0
 11
522.98353
 21
299.537787
 31
0.0
  0
LINE
  8
LC-006-005-----0
  6
CONTINUOUS
  5
1A8
 10
519.043343
 20
298.426027
 30
0.0
 11
522.822563
 21
302.205247
 31
0.0
  0
LINE
  8
LC-006-005-----0
  6
CONTINUOUS
  5
1A9
 10
518.882375
 20
301.093487
 30
0.0
 11
522.661595
 21
304.872707
 31
0.0
  0
LINE
  8
LC-006-005-----0
  6
CONTINUOUS
  5
1AA
 10
518.721408
 20
303.760947
 30
0.0
 11
522.500628
 21
307.540167
 31
0.0
  0
LINE
  8
LC-006-005-----0
  6
CONTINUOUS
  5
1AB
 10
518.560441
 20
306.428406
 30
0.0
 11
522.339661
 21
310.207626
 31
0.0
  0
LINE
  8
LC-006-005-----0
  6
CONTINUOUS
  5
1AC
 10
518.399473
 20
309.095866
 30
0.0
 11
522.178693
 21
312.875086
 31
0.0
  0
LINE
  8
LC-006-005-----0
  6
CONTINUOUS
  5
1AD
 10
518.238506
 20
311.763326
 30
0.0
 11
522.017726
 21
315.542546
 31
0.0
  0
LINE
  8
LC-006-005-----0
  6
CONTINUOUS
  5
1AE
 10
518.077538
 20
314.430785
 30
0.0
 11
521.856758
 21
318.210005
 31
0.0
  0
LINE
  8
LC-006-005-----0
  6
CONTINUOUS
  5
1AF
 10
517.916571
 20
317.098245
 30
0.0
 11
521.695791
 21
320.877465
 31
0.0
  0
LINE
  8
LC-006-005-----0
  6
CONTINUOUS
  5
1B0
 10
517.755604
 20
319.765705
 30
0.0
 11
521.534824
 21
323.544925
 31
0.0
  0
LINE
  8
LC-006-005-----0
  6
CONTINUOUS
  5
1B1
 10
517.594636
 20
322.433165
 30
0.0
 11
521.373856
 21
326.212385
 31
0.0
  0
LINE
  8
LC-006-005-----0
  6
CONTINUOUS
  5
1B2
 10
517.433669
 20
325.100624
 30
0.0
 11
521.212889
 21
328.879844
 31
0.0
  0
LINE
  8
LC-006-005-----0
  6
CONTINUOUS
  5
1B3
 10
517.272701
 20
327.768084
 30
0.0
 11
521.051921
 21
331.547304
 31
0.0
  0
LINE
  8
LC-006-005-----0
  6
CONTINUOUS
  5
1B4
 10
517.111734
 20
330.435544
 30
0.0
 11
520.890954
 21
334.214764
 31
0.0
  0
LINE
  8
LC-006-005-----0
  6
CONTINUOUS
  5
1B5
 10
516.950767
 20
333.103004
 30
0.0
 11
520.729987
 21
336.882224
 31
0.0
  0
LINE
  8
LC-006-005-----0
  6
CONTINUOUS
  5
1B6
 10
516.789799
 20
335.770463
 30
0.0
 11
520.569019
 21
339.549683
 31
0.0
  0
LINE
  8
LC-006-005-----0
  6
CONTINUOUS
  5
1B7
 10
516.628832
 20
338.437923
 30
0.0
 11
520.408052
 21
342.217143
 31
0.0
  0
LINE
  8
LC-006-005-----0
  6
CONTINUOUS
  5
1B8
 10
516.467864
 20
341.105383
 30
0.0
 11
520.247084
 21
344.884603
 31
0.0
  0
LINE
  8
LC-006-005-----0
  6
CONTINUOUS
  5
1B9
 10
516.306897
 20
343.772842
 30
0.0
 11
520.086117
 21
347.552062
 31
0.0
  0
LINE
  8
LC-006-005-----0
  6
CONTINUOUS
  5
1BA
 10
516.14593
 20
346.440302
 30
0.0
 11
519.92515
 21
350.219522
 31
0.0
  0
LINE
  8
LC-006-005-----0
  6
CONTINUOUS
  5
1BB
 10
515.984962
 20
349.107762
 30
0.0
 11
519.764182
 21
352.886982
 31
0.0
  0
LINE
  8
LC-006-005-----0
  6
CONTINUOUS
  5
1BC
 10
515.823995
 20
351.775222
 30
0.0
 11
519.603215
 21
355.554442
 31
0.0
  0
LINE
  8
LC-006-005-----0
  6
CONTINUOUS
  5
1BD
 10
515.663027
 20
354.442681
 30
0.0
 11
519.442247
 21
358.221901
 31
0.0
  0
LINE
  8
LC-006-005-----0
  6
CONTINUOUS
  5
1BE
 10
515.50206
 20
357.110141
 30
0.0
 11
519.28128
 21
360.889361
 31
0.0
  0
LINE
  8
LC-006-005-----0
  6
CONTINUOUS
  5
1BF
 10
515.341093
 20
359.777601
 30
0.0
 11
519.120313
 21
363.556821
 31
0.0
  0
LINE
  8
LC-006-005-----0
  6
CONTINUOUS
  5
1C0
 10
515.180125
 20
362.445061
 30
0.0
 11
518.959345
 21
366.224281
 31
0.0
  0
LINE
  8
LC-006-005-----0
  6
CONTINUOUS
  5
1C1
 10
515.019158
 20
365.11252
 30
0.0
 11
518.798378
 21
368.89174
 31
0.0
  0
LINE
  8
LC-006-005-----0
  6
CONTINUOUS
  5
1C2
 10
514.85819
 20
367.77998
 30
0.0
 11
518.63741
 21
371.5592
 31
0.0
  0
LINE
  8
LC-006-005-----0
  6
CONTINUOUS
  5
1C3
 10
514.697223
 20
370.44744
 30
0.0
 11
518.476443
 21
374.22666
 31
0.0
  0
LINE
  8
LC-006-005-----0
  6
CONTINUOUS
  5
1C4
 10
514.536256
 20
373.114899
 30
0.0
 11
518.315476
 21
376.894119
 31
0.0
  0
LINE
  8
LC-006-005-----0
  6
CONTINUOUS
  5
1C5
 10
514.375288
 20
375.782359
 30
0.0
 11
518.154508
 21
379.561579
 31
0.0
  0
LINE
  8
LC-006-005-----0
  6
CONTINUOUS
  5
1C6
 10
514.214321
 20
378.449819
 30
0.0
 11
517.993541
 21
382.229039
 31
0.0
  0
LINE
  8
LC-006-005-----0
  6
CONTINUOUS
  5
1C7
 10
514.053353
 20
381.117279
 30
0.0
 11
517.832573
 21
384.896499
 31
0.0
  0
LINE
  8
LC-006-005-----0
  6
CONTINUOUS
  5
1C8
 10
513.892386
 20
383.784738
 30
0.0
 11
517.671606
 21
387.563958
 31
0.0
  0
LINE
  8
LC-006-005-----0
  6
CONTINUOUS
  5
1C9
 10
513.731419
 20
386.452198
 30
0.0
 11
517.510639
 21
390.231418
 31
0.0
  0
LINE
  8
LC-006-005-----0
  6
CONTINUOUS
  5
1CA
 10
513.570451
 20
389.119658
 30
0.0
 11
517.349671
 21
392.898878
 31
0.0
  0
LINE
  8
LC-006-005-----0
  6
CONTINUOUS
  5
1CB
 10
513.409484
 20
391.787118
 30
0.0
 11
517.188704
 21
395.566338
 31
0.0
  0
LINE
  8
LC-006-005-----0
  6
CONTINUOUS
  5
1CC
 10
513.248517
 20
394.454577
 30
0.0
 11
517.027737
 21
398.233797
 31
0.0
  0
LINE
  8
LC-006-005-----0
  6
CONTINUOUS
  5
1CD
 10
513.087549
 20
397.122037
 30
0.0
 11
516.866769
 21
400.901257
 31
0.0
  0
LINE
  8
LC-006-005-----0
  6
CONTINUOUS
  5
1CE
 10
512.926582
 20
399.789497
 30
0.0
 11
516.705802
 21
403.568717
 31
0.0
  0
LINE
  8
LC-006-005-----0
  6
CONTINUOUS
  5
1CF
 10
512.765614
 20
402.456956
 30
0.0
 11
516.544834
 21
406.236176
 31
0.0
  0
LINE
  8
LC-006-005-----0
  6
CONTINUOUS
  5
1D0
 10
512.604647
 20
405.124416
 30
0.0
 11
516.383867
 21
408.903636
 31
0.0
  0
LINE
  8
LC-006-005-----0
  6
CONTINUOUS
  5
1D1
 10
512.44368
 20
407.791876
 30
0.0
 11
516.290392
 21
411.638588
 31
0.0
  0
LINE
  8
LC-006-005-----0
  6
CONTINUOUS
  5
1D2
 10
512.283761
 20
410.460385
 30
0.0
 11
516.288928
 21
414.465551
 31
0.0
  0
LINE
  8
LC-006-005-----0
  6
CONTINUOUS
  5
1D3
 10
512.283761
 20
413.288812
 30
0.0
 11
516.287464
 21
417.292515
 31
0.0
  0
LINE
  8
LC-006-005-----0
  6
CONTINUOUS
  5
1D4
 10
512.283761
 20
416.117239
 30
0.0
 11
516.286
 21
420.119478
 31
0.0
  0
LINE
  8
LC-006-005-----0
  6
CONTINUOUS
  5
1D5
 10
512.283761
 20
418.945666
 30
0.0
 11
516.284536
 21
422.946441
 31
0.0
  0
LINE
  8
LC-006-005-----0
  6
CONTINUOUS
  5
1D6
 10
511.123568
 20
420.6139
 30
0.0
 11
514.951615
 21
424.441947
 31
0.0
  0
LINE
  8
LC-006-005-----0
  6
CONTINUOUS
  5
1D7
 10
509.376187
 20
421.694947
 30
0.0
 11
512.283761
 21
424.602521
 31
0.0
  0
LINE
  8
LC-006-005-----0
  6
CONTINUOUS
  5
1D8
 10
508.387914
 20
423.5351
 30
0.0
 11
512.283761
 21
427.430948
 31
0.0
  0
LINE
  8
LC-006-005-----0
  6
CONTINUOUS
  5
1D9
 10
508.283761
 20
426.259375
 30
0.0
 11
512.283761
 21
430.259375
 31
0.0
  0
LINE
  8
LC-006-005-----0
  6
CONTINUOUS
  5
1DA
 10
508.283761
 20
429.087802
 30
0.0
 11
512.283761
 21
433.087802
 31
0.0
  0
LINE
  8
LC-006-005-----0
  6
CONTINUOUS
  5
1DB
 10
508.283761
 20
431.916229
 30
0.0
 11
512.283761
 21
435.916229
 31
0.0
  0
LINE
  8
LC-006-005-----0
  6
CONTINUOUS
  5
1DC
 10
508.283761
 20
434.744656
 30
0.0
 11
512.283761
 21
438.744656
 31
0.0
  0
LINE
  8
LC-006-005-----0
  6
CONTINUOUS
  5
1DD
 10
508.283761
 20
437.573083
 30
0.0
 11
512.283761
 21
441.573083
 31
0.0
  0
LINE
  8
LC-006-005-----0
  6
CONTINUOUS
  5
1DE
 10
508.283761
 20
440.40151
 30
0.0
 11
512.283761
 21
444.40151
 31
0.0
  0
LINE
  8
LC-006-005-----0
  6
CONTINUOUS
  5
1DF
 10
508.283761
 20
443.229938
 30
0.0
 11
512.283761
 21
447.229938
 31
0.0
  0
LINE
  8
LC-006-005-----0
  6
CONTINUOUS
  5
1E0
 10
508.283761
 20
446.058365
 30
0.0
 11
512.283761
 21
450.058365
 31
0.0
  0
LINE
  8
LC-006-005-----0
  6
CONTINUOUS
  5
1E1
 10
508.283761
 20
448.886792
 30
0.0
 11
512.283761
 21
452.886792
 31
0.0
  0
LINE
  8
LC-006-005-----0
  6
CONTINUOUS
  5
1E2
 10
508.013798
 20
451.445255
 30
0.0
 11
512.01049
 21
455.441947
 31
0.0
  0
LINE
  8
LC-006-005-----0
  6
CONTINUOUS
  5
1E3
 10
505.511535
 20
451.77142
 30
0.0
 11
509.182063
 21
455.441947
 31
0.0
  0
LINE
  8
LC-006-005-----0
  6
CONTINUOUS
  5
1E4
 10
503.559712
 20
452.648023
 30
0.0
 11
506.548989
 21
455.637301
 31
0.0
  0
LINE
  8
LC-006-005-----0
  6
CONTINUOUS
  5
1E5
 10
501.999108
 20
453.915847
 30
0.0
 11
504.829014
 21
456.745753
 31
0.0
  0
LINE
  8
LC-006-005-----0
  6
CONTINUOUS
  5
1E6
 10
500.798062
 20
455.543228
 30
0.0
 11
503.870116
 21
458.615282
 31
0.0
  0
LINE
  8
LC-006-005-----0
  6
CONTINUOUS
  5
1E7
 10
500.004026
 20
457.577619
 30
0.0
 11
503.783761
 21
461.357355
 31
0.0
  0
LINE
  8
LC-006-005-----0
  6
CONTINUOUS
  5
1E8
 10
499.783761
 20
460.185782
 30
0.0
 11
503.783761
 21
464.185782
 31
0.0
  0
LINE
  8
LC-006-005-----0
  6
CONTINUOUS
  5
1E9
 10
499.783761
 20
463.014209
 30
0.0
 11
503.783761
 21
467.014209
 31
0.0
  0
LINE
  8
LC-006-005-----0
  6
CONTINUOUS
  5
1EA
 10
499.783761
 20
465.842636
 30
0.0
 11
503.783761
 21
469.842636
 31
0.0
  0
LINE
  8
LC-006-005-----0
  6
CONTINUOUS
  5
1EB
 10
499.783761
 20
468.671063
 30
0.0
 11
503.783761
 21
472.671063
 31
0.0
  0
LINE
  8
LC-006-005-----0
  6
CONTINUOUS
  5
1EC
 10
499.783761
 20
471.49949
 30
0.0
 11
503.783761
 21
475.49949
 31
0.0
  0
LINE
  8
LC-006-005-----0
  6
CONTINUOUS
  5
1ED
 10
486.597891
 20
461.142047
 30
0.0
 11
492.083662
 21
466.627817
 31
0.0
  0
LINE
  8
LC-006-005-----0
  6
CONTINUOUS
  5
1EE
 10
499.783761
 20
474.327917
 30
0.0
 11
503.783761
 21
478.327917
 31
0.0
  0
LINE
  8
LC-006-005-----0
  6
CONTINUOUS
  5
1EF
 10
484.969456
 20
462.342039
 30
0.0
 11
492.083761
 21
469.456344
 31
0.0
  0
LINE
  8
LC-006-005-----0
  6
CONTINUOUS
  5
1F0
 10
499.71579
 20
477.088373
 30
0.0
 11
503.783761
 21
481.156344
 31
0.0
  0
LINE
  8
LC-006-005-----0
  6
CONTINUOUS
  5
1F1
 10
483.555243
 20
463.756253
 30
0.0
 11
485.676563
 21
465.877573
 31
0.0
  0
LINE
  8
LC-006-005-----0
  6
CONTINUOUS
  5
1F2
 10
488.783761
 20
468.984772
 30
0.0
 11
492.083761
 21
472.284772
 31
0.0
  0
LINE
  8
LC-006-005-----0
  6
CONTINUOUS
  5
1F3
 10
497.940937
 20
478.141947
 30
0.0
 11
501.240937
 21
481.441947
 31
0.0
  0
LINE
  8
LC-006-005-----0
  6
CONTINUOUS
  5
1F4
 10
482.141029
 20
465.170466
 30
0.0
 11
484.383761
 21
467.413199
 31
0.0
  0
LINE
  8
LC-006-005-----0
  6
CONTINUOUS
  5
1F5
 10
488.783761
 20
471.813199
 30
0.0
 11
492.083761
 21
475.113199
 31
0.0
  0
LINE
  8
LC-006-005-----0
  6
CONTINUOUS
  5
1F6
 10
495.11251
 20
478.141947
 30
0.0
 11
498.41251
 21
481.441947
 31
0.0
  0
LINE
  8
LC-006-005-----0
  6
CONTINUOUS
  5
1F7
 10
481.083761
 20
466.941626
 30
0.0
 11
484.383761
 21
470.241626
 31
0.0
  0
LINE
  8
LC-006-005-----0
  6
CONTINUOUS
  5
1F8
 10
488.783761
 20
474.641626
 30
0.0
 11
495.584083
 21
481.441947
 31
0.0
  0
LINE
  8
LC-006-005-----0
  6
CONTINUOUS
  5
1F9
 10
481.083761
 20
469.770053
 30
0.0
 11
484.383761
 21
473.070053
 31
0.0
  0
LINE
  8
LC-006-005-----0
  6
CONTINUOUS
  5
1FA
 10
488.783761
 20
477.470053
 30
0.0
 11
492.755656
 21
481.441947
 31
0.0
  0
LINE
  8
LC-006-005-----0
  6
CONTINUOUS
  5
1FB
 10
481.083761
 20
472.59848
 30
0.0
 11
484.383761
 21
475.89848
 31
0.0
  0
LINE
  8
LC-006-005-----0
  6
CONTINUOUS
  5
1FC
 10
488.783761
 20
480.29848
 30
0.0
 11
489.927229
 21
481.441947
 31
0.0
  0
LINE
  8
LC-006-005-----0
  6
CONTINUOUS
  5
1FD
 10
481.083761
 20
475.426907
 30
0.0
 11
484.383761
 21
478.726907
 31
0.0
  0
LINE
  8
LC-006-005-----0
  6
CONTINUOUS
  5
1FE
 10
474.970374
 20
472.141947
 30
0.0
 11
477.587827
 21
474.7594
 31
0.0
  0
LINE
  8
LC-006-005-----0
  6
CONTINUOUS
  5
1FF
 10
480.731898
 20
477.903471
 30
0.0
 11
484.270374
 21
481.441947
 31
0.0
  0
LINE
  8
LC-006-005-----0
  6
CONTINUOUS
  5
200
 10
472.141947
 20
472.141947
 30
0.0
 11
481.441947
 21
481.441947
 31
0.0
  0
LINE
  8
LC-006-005-----0
  6
CONTINUOUS
  5
201
 10
469.31352
 20
472.141947
 30
0.0
 11
473.11352
 21
475.941947
 31
0.0
  0
LINE
  8
LC-006-005-----0
  6
CONTINUOUS
  5
202
 10
474.883761
 20
477.712189
 30
0.0
 11
478.61352
 21
481.441947
 31
0.0
  0
LINE
  8
LC-006-005-----0
  6
CONTINUOUS
  5
203
 10
466.510152
 20
472.167007
 30
0.0
 11
470.285093
 21
475.941947
 31
0.0
  0
LINE
  8
LC-006-005-----0
  6
CONTINUOUS
  5
204
 10
474.883761
 20
480.540616
 30
0.0
 11
475.785093
 21
481.441947
 31
0.0
  0
LINE
  8
LC-006-005-----0
  6
CONTINUOUS
  5
205
 10
465.267742
 20
473.753024
 30
0.0
 11
467.883761
 21
476.369043
 31
0.0
  0
LINE
  8
LC-006-005-----0
  6
CONTINUOUS
  5
206
 10
465.040195
 20
476.353903
 30
0.0
 11
467.883761
 21
479.19747
 31
0.0
  0
LINE
  8
LC-006-005-----0
  6
CONTINUOUS
  5
207
 10
463.937411
 20
478.079546
 30
0.0
 11
467.299812
 21
481.441947
 31
0.0
  0
LINE
  8
LC-006-005-----0
  6
CONTINUOUS
  5
208
 10
461.171385
 20
478.141947
 30
0.0
 11
464.471385
 21
481.441947
 31
0.0
  0
LINE
  8
LC-006-005-----0
  6
CONTINUOUS
  5
209
 10
458.342957
 20
478.141947
 30
0.0
 11
461.642957
 21
481.441947
 31
0.0
  0
LINE
  8
LC-006-005-----0
  6
CONTINUOUS
  5
20A
 10
455.629835
 20
478.257252
 30
0.0
 11
458.81453
 21
481.441947
 31
0.0
  0
LINE
  8
LC-006-005-----0
  6
CONTINUOUS
  5
20B
 10
453.225379
 20
478.681223
 30
0.0
 11
456.105669
 21
481.561513
 31
0.0
  0
LINE
  8
LC-006-005-----0
  6
CONTINUOUS
  5
20C
 10
450.820922
 20
479.105193
 30
0.0
 11
453.701213
 21
481.985484
 31
0.0
  0
LINE
  8
LC-006-005-----0
  6
CONTINUOUS
  5
20D
 10
448.416465
 20
479.529164
 30
0.0
 11
451.296756
 21
482.409454
 31
0.0
  0
LINE
  8
LC-006-005-----0
  6
CONTINUOUS
  5
20E
 10
446.012009
 20
479.953134
 30
0.0
 11
448.892299
 21
482.833425
 31
0.0
  0
LINE
  8
LC-006-005-----0
  6
CONTINUOUS
  5
20F
 10
444.283761
 20
481.053314
 30
0.0
 11
446.487843
 21
483.257396
 31
0.0
  0
ENDBLK
  8
0
  5
210
  0
BLOCK
  8
0
  5
212
  2
*X16
 70
    65
 10
513.283761
 20
316.67747
 30
0.0
  3
*X16
  0
LINE
  8
LC-006-005-----0
  6
CONTINUOUS
  5
213
 10
599.934433
 20
317.09172
 30
0.0
 11
602.283761
 21
319.441049
 31
0.0
  0
LINE
  8
LC-006-005-----0
  6
CONTINUOUS
  5
214
 10
597.529976
 20
317.515691
 30
0.0
 11
600.11963
 21
320.105345
 31
0.0
  0
LINE
  8
LC-006-005-----0
  6
CONTINUOUS
  5
215
 10
595.125519
 20
317.939661
 30
0.0
 11
597.715173
 21
320.529315
 31
0.0
  0
LINE
  8
LC-006-005-----0
  6
CONTINUOUS
  5
216
 10
592.721063
 20
318.363632
 30
0.0
 11
595.310717
 21
320.953286
 31
0.0
  0
LINE
  8
LC-006-005-----0
  6
CONTINUOUS
  5
217
 10
590.316606
 20
318.787602
 30
0.0
 11
592.90626
 21
321.377256
 31
0.0
  0
LINE
  8
LC-006-005-----0
  6
CONTINUOUS
  5
218
 10
587.91215
 20
319.211573
 30
0.0
 11
590.501804
 21
321.801227
 31
0.0
  0
LINE
  8
LC-006-005-----0
  6
CONTINUOUS
  5
219
 10
585.507693
 20
319.635543
 30
0.0
 11
588.097347
 21
322.225197
 31
0.0
  0
LINE
  8
LC-006-005-----0
  6
CONTINUOUS
  5
21A
 10
583.103237
 20
320.059514
 30
0.0
 11
585.692891
 21
322.649168
 31
0.0
  0
LINE
  8
LC-006-005-----0
  6
CONTINUOUS
  5
21B
 10
580.69878
 20
320.483485
 30
0.0
 11
583.288434
 21
323.073139
 31
0.0
  0
LINE
  8
LC-006-005-----0
  6
CONTINUOUS
  5
21C
 10
578.294324
 20
320.907455
 30
0.0
 11
580.883977
 21
323.497109
 31
0.0
  0
LINE
  8
LC-006-005-----0
  6
CONTINUOUS
  5
21D
 10
575.889867
 20
321.331426
 30
0.0
 11
578.479521
 21
323.92108
 31
0.0
  0
LINE
  8
LC-006-005-----0
  6
CONTINUOUS
  5
21E
 10
573.48541
 20
321.755396
 30
0.0
 11
576.075064
 21
324.34505
 31
0.0
  0
LINE
  8
LC-006-005-----0
  6
CONTINUOUS
  5
21F
 10
571.080954
 20
322.179367
 30
0.0
 11
573.670608
 21
324.769021
 31
0.0
  0
LINE
  8
LC-006-005-----0
  6
CONTINUOUS
  5
220
 10
568.676497
 20
322.603337
 30
0.0
 11
571.266151
 21
325.192991
 31
0.0
  0
LINE
  8
LC-006-005-----0
  6
CONTINUOUS
  5
221
 10
566.272041
 20
323.027308
 30
0.0
 11
568.861695
 21
325.616962
 31
0.0
  0
LINE
  8
LC-006-005-----0
  6
CONTINUOUS
  5
222
 10
563.867584
 20
323.451279
 30
0.0
 11
566.457238
 21
326.040933
 31
0.0
  0
LINE
  8
LC-006-005-----0
  6
CONTINUOUS
  5
223
 10
561.463128
 20
323.875249
 30
0.0
 11
564.052782
 21
326.464903
 31
0.0
  0
LINE
  8
LC-006-005-----0
  6
CONTINUOUS
  5
224
 10
559.058671
 20
324.29922
 30
0.0
 11
561.648325
 21
326.888874
 31
0.0
  0
LINE
  8
LC-006-005-----0
  6
CONTINUOUS
  5
225
 10
556.654214
 20
324.72319
 30
0.0
 11
559.243868
 21
327.312844
 31
0.0
  0
LINE
  8
LC-006-005-----0
  6
CONTINUOUS
  5
226
 10
554.249758
 20
325.147161
 30
0.0
 11
556.839412
 21
327.736815
 31
0.0
  0
LINE
  8
LC-006-005-----0
  6
CONTINUOUS
  5
227
 10
551.845301
 20
325.571131
 30
0.0
 11
554.434955
 21
328.160785
 31
0.0
  0
LINE
  8
LC-006-005-----0
  6
CONTINUOUS
  5
228
 10
549.440845
 20
325.995102
 30
0.0
 11
552.030499
 21
328.584756
 31
0.0
  0
LINE
  8
LC-006-005-----0
  6
CONTINUOUS
  5
229
 10
547.036388
 20
326.419072
 30
0.0
 11
549.626042
 21
329.008726
 31
0.0
  0
LINE
  8
LC-006-005-----0
  6
CONTINUOUS
  5
22A
 10
544.657399
 20
326.86851
 30
0.0
 11
547.221586
 21
329.432697
 31
0.0
  0
LINE
  8
LC-006-005-----0
  6
CONTINUOUS
  5
22B
 10
542.440454
 20
327.479992
 30
0.0
 11
544.863597
 21
329.903136
 31
0.0
  0
LINE
  8
LC-006-005-----0
  6
CONTINUOUS
  5
22C
 10
540.383956
 20
328.251922
 30
0.0
 11
542.696196
 21
330.564162
 31
0.0
  0
LINE
  8
LC-006-005-----0
  6
CONTINUOUS
  5
22D
 10
538.469603
 20
329.165996
 30
0.0
 11
540.70279
 21
331.399182
 31
0.0
  0
LINE
  8
LC-006-005-----0
  6
CONTINUOUS
  5
22E
 10
536.685043
 20
330.209863
 30
0.0
 11
538.863333
 21
332.388153
 31
0.0
  0
LINE
  8
LC-006-005-----0
  6
CONTINUOUS
  5
22F
 10
535.022043
 20
331.37529
 30
0.0
 11
537.16505
 21
333.518297
 31
0.0
  0
LINE
  8
LC-006-005-----0
  6
CONTINUOUS
  5
230
 10
533.475461
 20
332.657136
 30
0.0
 11
535.60019
 21
334.781865
 31
0.0
  0
LINE
  8
LC-006-005-----0
  6
CONTINUOUS
  5
231
 10
532.042683
 20
334.052785
 30
0.0
 11
534.164875
 21
336.174977
 31
0.0
  0
LINE
  8
LC-006-005-----0
  6
CONTINUOUS
  5
232
 10
530.723348
 20
335.561876
 30
0.0
 11
532.858574
 21
337.697102
 31
0.0
  0
LINE
  8
LC-006-005-----0
  6
CONTINUOUS
  5
233
 10
529.519314
 20
337.186269
 30
0.0
 11
531.684034
 21
339.350989
 31
0.0
  0
LINE
  8
LC-006-005-----0
  6
CONTINUOUS
  5
234
 10
528.434848
 20
338.930231
 30
0.0
 11
530.647644
 21
341.143026
 31
0.0
  0
LINE
  8
LC-006-005-----0
  6
CONTINUOUS
  5
235
 10
527.477084
 20
340.800894
 30
0.0
 11
529.760353
 21
343.084163
 31
0.0
  0
LINE
  8
LC-006-005-----0
  6
CONTINUOUS
  5
236
 10
526.65687
 20
342.809107
 30
0.0
 11
529.039477
 21
345.191714
 31
0.0
  0
LINE
  8
LC-006-005-----0
  6
CONTINUOUS
  5
237
 10
525.990284
 20
344.970948
 30
0.0
 11
528.512205
 21
347.492869
 31
0.0
  0
LINE
  8
LC-006-005-----0
  6
CONTINUOUS
  5
238
 10
525.501378
 20
347.310469
 30
0.0
 11
528.212546
 21
350.021637
 31
0.0
  0
LINE
  8
LC-006-005-----0
  6
CONTINUOUS
  5
239
 10
525.215812
 20
349.85333
 30
0.0
 11
527.984999
 21
352.622517
 31
0.0
  0
LINE
  8
LC-006-005-----0
  6
CONTINUOUS
  5
23A
 10
524.988264
 20
352.454209
 30
0.0
 11
527.757451
 21
355.223397
 31
0.0
  0
LINE
  8
LC-006-005-----0
  6
CONTINUOUS
  5
23B
 10
524.760717
 20
355.055089
 30
0.0
 11
527.529904
 21
357.824276
 31
0.0
  0
LINE
  8
LC-006-005-----0
  6
CONTINUOUS
  5
23C
 10
524.533169
 20
357.655969
 30
0.0
 11
527.302356
 21
360.425156
 31
0.0
  0
LINE
  8
LC-006-005-----0
  6
CONTINUOUS
  5
23D
 10
524.305622
 20
360.256848
 30
0.0
 11
527.074809
 21
363.026035
 31
0.0
  0
LINE
  8
LC-006-005-----0
  6
CONTINUOUS
  5
23E
 10
524.078074
 20
362.857728
 30
0.0
 11
526.847261
 21
365.626915
 31
0.0
  0
LINE
  8
LC-006-005-----0
  6
CONTINUOUS
  5
23F
 10
523.850527
 20
365.458608
 30
0.0
 11
526.619714
 21
368.227795
 31
0.0
  0
LINE
  8
LC-006-005-----0
  6
CONTINUOUS
  5
240
 10
523.622979
 20
368.059487
 30
0.0
 11
526.392166
 21
370.828674
 31
0.0
  0
LINE
  8
LC-006-005-----0
  6
CONTINUOUS
  5
241
 10
523.395432
 20
370.660367
 30
0.0
 11
526.164619
 21
373.429554
 31
0.0
  0
LINE
  8
LC-006-005-----0
  6
CONTINUOUS
  5
242
 10
523.167884
 20
373.261247
 30
0.0
 11
525.937071
 21
376.030434
 31
0.0
  0
LINE
  8
LC-006-005-----0
  6
CONTINUOUS
  5
243
 10
522.940337
 20
375.862126
 30
0.0
 11
525.709524
 21
378.631313
 31
0.0
  0
LINE
  8
LC-006-005-----0
  6
CONTINUOUS
  5
244
 10
522.712789
 20
378.463006
 30
0.0
 11
525.481976
 21
381.232193
 31
0.0
  0
LINE
  8
LC-006-005-----0
  6
CONTINUOUS
  5
245
 10
522.485242
 20
381.063886
 30
0.0
 11
525.254429
 21
383.833073
 31
0.0
  0
LINE
  8
LC-006-005-----0
  6
CONTINUOUS
  5
246
 10
522.257694
 20
383.664765
 30
0.0
 11
525.026881
 21
386.433952
 31
0.0
  0
LINE
  8
LC-006-005-----0
  6
CONTINUOUS
  5
247
 10
522.030147
 20
386.265645
 30
0.0
 11
524.799334
 21
389.034832
 31
0.0
  0
LINE
  8
LC-006-005-----0
  6
CONTINUOUS
  5
248
 10
521.802599
 20
388.866524
 30
0.0
 11
524.571786
 21
391.635712
 31
0.0
  0
LINE
  8
LC-006-005-----0
  6
CONTINUOUS
  5
249
 10
521.575052
 20
391.467404
 30
0.0
 11
524.344239
 21
394.236591
 31
0.0
  0
LINE
  8
LC-006-005-----0
  6
CONTINUOUS
  5
24A
 10
521.347504
 20
394.068284
 30
0.0
 11
524.116691
 21
396.837471
 31
0.0
  0
LINE
  8
LC-006-005-----0
  6
CONTINUOUS
  5
24B
 10
521.119957
 20
396.669163
 30
0.0
 11
523.889144
 21
399.43835
 31
0.0
  0
LINE
  8
LC-006-005-----0
  6
CONTINUOUS
  5
24C
 10
520.892409
 20
399.270043
 30
0.0
 11
523.661596
 21
402.03923
 31
0.0
  0
LINE
  8
LC-006-005-----0
  6
CONTINUOUS
  5
24D
 10
520.664862
 20
401.870923
 30
0.0
 11
523.434049
 21
404.64011
 31
0.0
  0
LINE
  8
LC-006-005-----0
  6
CONTINUOUS
  5
24E
 10
520.437314
 20
404.471802
 30
0.0
 11
523.206501
 21
407.240989
 31
0.0
  0
LINE
  8
LC-006-005-----0
  6
CONTINUOUS
  5
24F
 10
520.209767
 20
407.072682
 30
0.0
 11
522.978954
 21
409.841869
 31
0.0
  0
LINE
  8
LC-006-005-----0
  6
CONTINUOUS
  5
250
 10
519.982219
 20
409.673562
 30
0.0
 11
522.783761
 21
412.475104
 31
0.0
  0
LINE
  8
LC-006-005-----0
  6
CONTINUOUS
  5
251
 10
519.422178
 20
411.941947
 30
0.0
 11
522.783761
 21
415.303531
 31
0.0
  0
LINE
  8
LC-006-005-----0
  6
CONTINUOUS
  5
252
 10
517.033761
 20
412.381958
 30
0.0
 11
519.446038
 21
414.794234
 31
0.0
  0
LINE
  8
LC-006-005-----0
  6
CONTINUOUS
  5
253
 10
520.283761
 20
415.631958
 30
0.0
 11
522.783761
 21
418.131958
 31
0.0
  0
LINE
  8
LC-006-005-----0
  6
CONTINUOUS
  5
254
 10
520.283761
 20
418.460385
 30
0.0
 11
522.783761
 21
420.960385
 31
0.0
  0
LINE
  8
LC-006-005-----0
  6
CONTINUOUS
  5
255
 10
519.138787
 20
420.143837
 30
0.0
 11
522.360329
 21
423.36538
 31
0.0
  0
LINE
  8
LC-006-005-----0
  6
CONTINUOUS
  5
256
 10
517.033761
 20
420.867239
 30
0.0
 11
520.946115
 21
424.779593
 31
0.0
  0
LINE
  8
LC-006-005-----0
  6
CONTINUOUS
  5
257
 10
517.033761
 20
423.695666
 30
0.0
 11
519.531902
 21
426.193807
 31
0.0
  0
LINE
  8
LC-006-005-----0
  6
CONTINUOUS
  5
258
 10
515.451615
 20
424.941947
 30
0.0
 11
518.117688
 21
427.60802
 31
0.0
  0
LINE
  8
LC-006-005-----0
  6
CONTINUOUS
  5
259
 10
513.445551
 20
425.76431
 30
0.0
 11
515.623188
 21
427.941947
 31
0.0
  0
ENDBLK
  8
0
  5
25A
  0
BLOCK
  8
0
  5
25C
  2
*X17
 70
    65
 10
587.405882
 20
377.515389
 30
0.0
  3
*X17
  0
LINE
  8
LC-006-005-----0
  6
CONTINUOUS
  5
25D
 10
602.085504
 20
378.639761
 30
0.0
 11
602.283761
 21
378.838019
 31
0.0
  0
LINE
  8
LC-006-005-----0
  6
CONTINUOUS
  5
25E
 10
601.661534
 20
381.044218
 30
0.0
 11
602.283761
 21
381.666446
 31
0.0
  0
LINE
  8
LC-006-005-----0
  6
CONTINUOUS
  5
25F
 10
601.237563
 20
383.448675
 30
0.0
 11
602.283761
 21
384.494873
 31
0.0
  0
LINE
  8
LC-006-005-----0
  6
CONTINUOUS
  5
260
 10
600.813593
 20
385.853131
 30
0.0
 11
602.283761
 21
387.3233
 31
0.0
  0
LINE
  8
LC-006-005-----0
  6
CONTINUOUS
  5
261
 10
600.389622
 20
388.257588
 30
0.0
 11
602.283761
 21
390.151727
 31
0.0
  0
LINE
  8
LC-006-005-----0
  6
CONTINUOUS
  5
262
 10
599.965651
 20
390.662044
 30
0.0
 11
602.283761
 21
392.980154
 31
0.0
  0
LINE
  8
LC-006-005-----0
  6
CONTINUOUS
  5
263
 10
599.541681
 20
393.066501
 30
0.0
 11
602.283761
 21
395.808581
 31
0.0
  0
LINE
  8
LC-006-005-----0
  6
CONTINUOUS
  5
264
 10
599.11771
 20
395.470957
 30
0.0
 11
602.138973
 21
398.49222
 31
0.0
  0
LINE
  8
LC-006-005-----0
  6
CONTINUOUS
  5
265
 10
598.69374
 20
397.875414
 30
0.0
 11
599.741946
 21
398.92362
 31
0.0
  0
ENDBLK
  8
0
  5
266
  0
BLOCK
  8
0
  5
268
  2
*X18
 70
    65
 10
591.633636
 20
390.617261
 30
0.0
  3
*X18
  0
LINE
  8
LC-006-005-----0
  6
CONTINUOUS
  5
269
 10
598.813801
 20
395.167048
 30
0.0
 11
599.11771
 21
395.470957
 31
0.0
  0
LINE
  8
LC-006-005-----0
  6
CONTINUOUS
  5
26A
 10
596.409344
 20
395.591019
 30
0.0
 11
598.69374
 21
397.875414
 31
0.0
  0
LINE
  8
LC-006-005-----0
  6
CONTINUOUS
  5
26B
 10
594.004888
 20
396.014989
 30
0.0
 11
596.583774
 21
398.593875
 31
0.0
  0
LINE
  8
LC-006-005-----0
  6
CONTINUOUS
  5
26C
 10
591.641997
 20
396.480525
 30
0.0
 11
595.340406
 21
400.178935
 31
0.0
  0
LINE
  8
LC-006-005-----0
  6
CONTINUOUS
  5
26D
 10
592.24749
 20
399.914445
 30
0.0
 11
596.481791
 21
404.148747
 31
0.0
  0
LINE
  8
LC-006-005-----0
  6
CONTINUOUS
  5
26E
 10
598.994195
 20
406.66115
 30
0.0
 11
602.283761
 21
409.950717
 31
0.0
  0
LINE
  8
LC-006-005-----0
  6
CONTINUOUS
  5
26F
 10
592.92725
 20
403.422632
 30
0.0
 11
599.72031
 21
410.215692
 31
0.0
  0
ENDBLK
  8
0
  5
270
  0
BLOCK
  8
0
  5
272
  2
*X19
 70
    65
 10
587.405882
 20
398.619254
 30
0.0
  3
*X19
  0
LINE
  8
LC-006-005-----0
  6
CONTINUOUS
  5
273
 10
599.741946
 20
398.92362
 30
0.0
 11
601.715003
 21
400.896677
 31
0.0
  0
LINE
  8
LC-006-005-----0
  6
CONTINUOUS
  5
274
 10
598.269769
 20
400.27987
 30
0.0
 11
599.704356
 21
401.714458
 31
0.0
  0
ENDBLK
  8
0
  5
275
  0
BLOCK
  8
0
  5
277
  2
*X20
 70
    65
 10
602.283761
 20
314.817645
 30
0.0
  3
*X20
  0
LINE
  8
LC-006-005-----0
  6
CONTINUOUS
  5
278
 10
611.956715
 20
314.971867
 30
0.0
 11
612.67713
 21
315.692282
 31
0.0
  0
LINE
  8
LC-006-005-----0
  6
CONTINUOUS
  5
279
 10
609.552259
 20
315.395838
 30
0.0
 11
612.141913
 21
317.985492
 31
0.0
  0
LINE
  8
LC-006-005-----0
  6
CONTINUOUS
  5
27A
 10
607.147802
 20
315.819808
 30
0.0
 11
609.737456
 21
318.409462
 31
0.0
  0
LINE
  8
LC-006-005-----0
  6
CONTINUOUS
  5
27B
 10
604.743346
 20
316.243779
 30
0.0
 11
607.333
 21
318.833433
 31
0.0
  0
LINE
  8
LC-006-005-----0
  6
CONTINUOUS
  5
27C
 10
602.338889
 20
316.667749
 30
0.0
 11
604.928543
 21
319.257403
 31
0.0
  0
LINE
  8
LC-006-005-----0
  6
CONTINUOUS
  5
27D
 10
602.283761
 20
319.441049
 30
0.0
 11
602.524087
 21
319.681374
 31
0.0
  0
ENDBLK
  8
0
  5
27E
  0
BLOCK
  8
0
  5
280
  2
*X21
 70
    65
 10
602.283761
 20
314.52072
 30
0.0
  3
*X21
  0
LINE
  8
LC-006-005-----0
  6
CONTINUOUS
  5
281
 10
614.535776
 20
314.7225
 30
0.0
 11
616.553972
 21
316.740697
 31
0.0
  0
LINE
  8
LC-006-005-----0
  6
CONTINUOUS
  5
282
 10
613.108739
 20
316.123891
 30
0.0
 11
616.130002
 21
319.145154
 31
0.0
  0
LINE
  8
LC-006-005-----0
  6
CONTINUOUS
  5
283
 10
612.684768
 20
318.528347
 30
0.0
 11
615.706031
 21
321.54961
 31
0.0
  0
LINE
  8
LC-006-005-----0
  6
CONTINUOUS
  5
284
 10
612.260798
 20
320.932804
 30
0.0
 11
615.282061
 21
323.954067
 31
0.0
  0
LINE
  8
LC-006-005-----0
  6
CONTINUOUS
  5
285
 10
611.836827
 20
323.337261
 30
0.0
 11
614.85809
 21
326.358524
 31
0.0
  0
LINE
  8
LC-006-005-----0
  6
CONTINUOUS
  5
286
 10
611.412857
 20
325.741717
 30
0.0
 11
614.43412
 21
328.76298
 31
0.0
  0
LINE
  8
LC-006-005-----0
  6
CONTINUOUS
  5
287
 10
610.988886
 20
328.146174
 30
0.0
 11
614.010149
 21
331.167437
 31
0.0
  0
LINE
  8
LC-006-005-----0
  6
CONTINUOUS
  5
288
 10
610.564916
 20
330.55063
 30
0.0
 11
613.586179
 21
333.571893
 31
0.0
  0
LINE
  8
LC-006-005-----0
  6
CONTINUOUS
  5
289
 10
610.140945
 20
332.955087
 30
0.0
 11
613.162208
 21
335.97635
 31
0.0
  0
LINE
  8
LC-006-005-----0
  6
CONTINUOUS
  5
28A
 10
609.716974
 20
335.359543
 30
0.0
 11
612.738237
 21
338.380806
 31
0.0
  0
LINE
  8
LC-006-005-----0
  6
CONTINUOUS
  5
28B
 10
609.293004
 20
337.764
 30
0.0
 11
612.314267
 21
340.785263
 31
0.0
  0
LINE
  8
LC-006-005-----0
  6
CONTINUOUS
  5
28C
 10
608.869033
 20
340.168456
 30
0.0
 11
611.890296
 21
343.189719
 31
0.0
  0
LINE
  8
LC-006-005-----0
  6
CONTINUOUS
  5
28D
 10
608.445063
 20
342.572913
 30
0.0
 11
611.466326
 21
345.594176
 31
0.0
  0
LINE
  8
LC-006-005-----0
  6
CONTINUOUS
  5
28E
 10
608.021092
 20
344.97737
 30
0.0
 11
611.042355
 21
347.998633
 31
0.0
  0
LINE
  8
LC-006-005-----0
  6
CONTINUOUS
  5
28F
 10
607.597122
 20
347.381826
 30
0.0
 11
610.618385
 21
350.403089
 31
0.0
  0
LINE
  8
LC-006-005-----0
  6
CONTINUOUS
  5
290
 10
607.173151
 20
349.786283
 30
0.0
 11
610.194414
 21
352.807546
 31
0.0
  0
LINE
  8
LC-006-005-----0
  6
CONTINUOUS
  5
291
 10
606.74918
 20
352.190739
 30
0.0
 11
609.770443
 21
355.212002
 31
0.0
  0
LINE
  8
LC-006-005-----0
  6
CONTINUOUS
  5
292
 10
606.32521
 20
354.595196
 30
0.0
 11
609.346473
 21
357.616459
 31
0.0
  0
LINE
  8
LC-006-005-----0
  6
CONTINUOUS
  5
293
 10
605.901239
 20
356.999652
 30
0.0
 11
608.922502
 21
360.020915
 31
0.0
  0
LINE
  8
LC-006-005-----0
  6
CONTINUOUS
  5
294
 10
605.477269
 20
359.404109
 30
0.0
 11
608.498532
 21
362.425372
 31
0.0
  0
LINE
  8
LC-006-005-----0
  6
CONTINUOUS
  5
295
 10
605.053298
 20
361.808565
 30
0.0
 11
608.074561
 21
364.829828
 31
0.0
  0
LINE
  8
LC-006-005-----0
  6
CONTINUOUS
  5
296
 10
604.629328
 20
364.213022
 30
0.0
 11
607.650591
 21
367.234285
 31
0.0
  0
LINE
  8
LC-006-005-----0
  6
CONTINUOUS
  5
297
 10
604.205357
 20
366.617479
 30
0.0
 11
607.22662
 21
369.638742
 31
0.0
  0
LINE
  8
LC-006-005-----0
  6
CONTINUOUS
  5
298
 10
603.781387
 20
369.021935
 30
0.0
 11
606.802649
 21
372.043198
 31
0.0
  0
LINE
  8
LC-006-005-----0
  6
CONTINUOUS
  5
299
 10
603.357416
 20
371.426392
 30
0.0
 11
606.378679
 21
374.447655
 31
0.0
  0
LINE
  8
LC-006-005-----0
  6
CONTINUOUS
  5
29A
 10
602.933445
 20
373.830848
 30
0.0
 11
605.954708
 21
376.852111
 31
0.0
  0
LINE
  8
LC-006-005-----0
  6
CONTINUOUS
  5
29B
 10
602.509475
 20
376.235305
 30
0.0
 11
605.530738
 21
379.256568
 31
0.0
  0
LINE
  8
LC-006-005-----0
  6
CONTINUOUS
  5
29C
 10
602.283761
 20
378.838019
 30
0.0
 11
605.106767
 21
381.661024
 31
0.0
  0
LINE
  8
LC-006-005-----0
  6
CONTINUOUS
  5
29D
 10
602.283761
 20
381.666446
 30
0.0
 11
604.682797
 21
384.065481
 31
0.0
  0
LINE
  8
LC-006-005-----0
  6
CONTINUOUS
  5
29E
 10
602.283761
 20
384.494873
 30
0.0
 11
604.258826
 21
386.469937
 31
0.0
  0
LINE
  8
LC-006-005-----0
  6
CONTINUOUS
  5
29F
 10
602.283761
 20
387.3233
 30
0.0
 11
603.834856
 21
388.874394
 31
0.0
  0
LINE
  8
LC-006-005-----0
  6
CONTINUOUS
  5
2A0
 10
602.283761
 20
390.151727
 30
0.0
 11
603.410885
 21
391.278851
 31
0.0
  0
LINE
  8
LC-006-005-----0
  6
CONTINUOUS
  5
2A1
 10
602.283761
 20
392.980154
 30
0.0
 11
602.986914
 21
393.683307
 31
0.0
  0
LINE
  8
LC-006-005-----0
  6
CONTINUOUS
  5
2A2
 10
602.283761
 20
395.808581
 30
0.0
 11
602.562944
 21
396.087764
 31
0.0
  0
ENDBLK
  8
0
  5
2A3
  0
BLOCK
  8
0
  5
2A5
  2
*X22
 70
    65
 10
516.283761
 20
414.589293
 30
0.0
  3
*X22
  0
LINE
  8
LC-006-005-----0
  6
DASHED
  5
2A7
 10
516.935472
 20
415.112095
 30
0.0
 11
520.277398
 21
418.454021
 31
0.0
  0
LINE
  8
LC-006-005-----0
  6
DASHED
  5
2A8
 10
516.381348
 20
415.972185
 30
0.0
 11
519.892298
 21
419.483135
 31
0.0
  0
LINE
  8
LC-006-005-----0
  6
CONTINUOUS
  5
2A9
 10
516.338015
 20
418.757279
 30
0.0
 11
517.821084
 21
420.240348
 31
0.0
  0
ENDBLK
  8
0
  5
2AA
  0
BLOCK
  8
0
  5
2AC
  2
*X23
 70
    65
 10
684.283761
 20
414.589293
 30
0.0
  3
*X23
  0
LINE
  8
LC-006-005-----0
  6
DASHED
  5
2AD
 10
685.095412
 20
414.980621
 30
0.0
 11
688.283761
 21
418.168971
 31
0.0
  0
LINE
  8
LC-006-005-----0
  6
DASHED
  5
2AE
 10
684.46279
 20
415.762213
 30
0.0
 11
688.008218
 21
419.307641
 31
0.0
  0
LINE
  8
LC-006-005-----0
  6
CONTINUOUS
  5
2AF
 10
684.287404
 20
418.415254
 30
0.0
 11
686.141702
 21
420.269552
 31
0.0
  0
ENDBLK
  8
0
  5
2B0
  0
BLOCK
  8
0
  5
2B2
  2
*X24
 70
    65
 10
602.283761
 20
407.614189
 30
0.0
  3
*X24
  0
LINE
  8
LC-006-005-----0
  6
CONTINUOUS
  5
2B3
 10
686.301333
 20
411.943901
 30
0.0
 11
687.533761
 21
413.17633
 31
0.0
  0
LINE
  8
LC-006-005-----0
  6
CONTINUOUS
  5
2B4
 10
683.394
 20
411.864996
 30
0.0
 11
686.124637
 21
414.595634
 31
0.0
  0
LINE
  8
LC-006-005-----0
  6
CONTINUOUS
  5
2B5
 10
680.409143
 20
411.708566
 30
0.0
 11
684.283761
 21
415.583185
 31
0.0
  0
LINE
  8
LC-006-005-----0
  6
CONTINUOUS
  5
2B6
 10
677.424286
 20
411.552137
 30
0.0
 11
680.59455
 21
414.7224
 31
0.0
  0
LINE
  8
LC-006-005-----0
  6
CONTINUOUS
  5
2B7
 10
681.783761
 20
415.911612
 30
0.0
 11
684.283761
 21
418.411612
 31
0.0
  0
LINE
  8
LC-006-005-----0
  6
CONTINUOUS
  5
2B8
 10
686.163108
 20
420.290959
 30
0.0
 11
687.533761
 21
421.661612
 31
0.0
  0
LINE
  8
LC-006-005-----0
  6
CONTINUOUS
  5
2B9
 10
674.439429
 20
411.395707
 30
0.0
 11
677.609693
 21
414.56597
 31
0.0
  0
LINE
  8
LC-006-005-----0
  6
CONTINUOUS
  5
2BA
 10
681.783761
 20
418.740039
 30
0.0
 11
687.533761
 21
424.490039
 31
0.0
  0
LINE
  8
LC-006-005-----0
  6
CONTINUOUS
  5
2BB
 10
687.98567
 20
424.941947
 30
0.0
 11
690.684852
 21
427.641129
 31
0.0
  0
LINE
  8
LC-006-005-----0
  6
CONTINUOUS
  5
2BC
 10
671.454573
 20
411.239277
 30
0.0
 11
674.624836
 21
414.409541
 31
0.0
  0
LINE
  8
LC-006-005-----0
  6
CONTINUOUS
  5
2BD
 10
681.783761
 20
421.568466
 30
0.0
 11
688.157243
 21
427.941947
 31
0.0
  0
LINE
  8
LC-006-005-----0
  6
CONTINUOUS
  5
2BE
 10
668.469716
 20
411.082847
 30
0.0
 11
671.639979
 21
414.253111
 31
0.0
  0
LINE
  8
LC-006-005-----0
  6
CONTINUOUS
  5
2BF
 10
665.484859
 20
410.926418
 30
0.0
 11
668.655122
 21
414.096681
 31
0.0
  0
LINE
  8
LC-006-005-----0
  6
CONTINUOUS
  5
2C0
 10
662.500002
 20
410.769988
 30
0.0
 11
665.670266
 21
413.940251
 31
0.0
  0
LINE
  8
LC-006-005-----0
  6
CONTINUOUS
  5
2C1
 10
659.515145
 20
410.613558
 30
0.0
 11
662.685409
 21
413.783822
 31
0.0
  0
LINE
  8
LC-006-005-----0
  6
CONTINUOUS
  5
2C2
 10
656.530288
 20
410.457129
 30
0.0
 11
659.700552
 21
413.627392
 31
0.0
  0
LINE
  8
LC-006-005-----0
  6
CONTINUOUS
  5
2C3
 10
653.545432
 20
410.300699
 30
0.0
 11
656.715695
 21
413.470962
 31
0.0
  0
LINE
  8
LC-006-005-----0
  6
CONTINUOUS
  5
2C4
 10
650.560575
 20
410.144269
 30
0.0
 11
653.730838
 21
413.314533
 31
0.0
  0
LINE
  8
LC-006-005-----0
  6
CONTINUOUS
  5
2C5
 10
647.575718
 20
409.987839
 30
0.0
 11
650.745981
 21
413.158103
 31
0.0
  0
LINE
  8
LC-006-005-----0
  6
CONTINUOUS
  5
2C6
 10
644.590861
 20
409.83141
 30
0.0
 11
647.761124
 21
413.001673
 31
0.0
  0
LINE
  8
LC-006-005-----0
  6
CONTINUOUS
  5
2C7
 10
641.606004
 20
409.67498
 30
0.0
 11
644.776268
 21
412.845243
 31
0.0
  0
LINE
  8
LC-006-005-----0
  6
CONTINUOUS
  5
2C8
 10
638.621147
 20
409.51855
 30
0.0
 11
641.791411
 21
412.688814
 31
0.0
  0
LINE
  8
LC-006-005-----0
  6
CONTINUOUS
  5
2C9
 10
635.63629
 20
409.36212
 30
0.0
 11
638.806554
 21
412.532384
 31
0.0
  0
LINE
  8
LC-006-005-----0
  6
CONTINUOUS
  5
2CA
 10
632.651434
 20
409.205691
 30
0.0
 11
635.821697
 21
412.375954
 31
0.0
  0
LINE
  8
LC-006-005-----0
  6
CONTINUOUS
  5
2CB
 10
629.666577
 20
409.049261
 30
0.0
 11
632.83684
 21
412.219525
 31
0.0
  0
LINE
  8
LC-006-005-----0
  6
CONTINUOUS
  5
2CC
 10
626.68172
 20
408.892831
 30
0.0
 11
629.851983
 21
412.063095
 31
0.0
  0
LINE
  8
LC-006-005-----0
  6
CONTINUOUS
  5
2CD
 10
623.696863
 20
408.736402
 30
0.0
 11
626.867127
 21
411.906665
 31
0.0
  0
LINE
  8
LC-006-005-----0
  6
CONTINUOUS
  5
2CE
 10
620.712006
 20
408.579972
 30
0.0
 11
623.88227
 21
411.750235
 31
0.0
  0
LINE
  8
LC-006-005-----0
  6
CONTINUOUS
  5
2CF
 10
617.727149
 20
408.423542
 30
0.0
 11
620.897413
 21
411.593806
 31
0.0
  0
LINE
  8
LC-006-005-----0
  6
CONTINUOUS
  5
2D0
 10
614.742293
 20
408.267112
 30
0.0
 11
617.912556
 21
411.437376
 31
0.0
  0
LINE
  8
LC-006-005-----0
  6
CONTINUOUS
  5
2D1
 10
611.757436
 20
408.110683
 30
0.0
 11
614.927699
 21
411.280946
 31
0.0
  0
LINE
  8
LC-006-005-----0
  6
CONTINUOUS
  5
2D2
 10
608.772579
 20
407.954253
 30
0.0
 11
611.942842
 21
411.124517
 31
0.0
  0
LINE
  8
LC-006-005-----0
  6
CONTINUOUS
  5
2D3
 10
605.787722
 20
407.797823
 30
0.0
 11
608.957986
 21
410.968087
 31
0.0
  0
LINE
  8
LC-006-005-----0
  6
CONTINUOUS
  5
2D4
 10
602.802865
 20
407.641394
 30
0.0
 11
605.973129
 21
410.811657
 31
0.0
  0
LINE
  8
LC-006-005-----0
  6
CONTINUOUS
  5
2D5
 10
602.283761
 20
409.950717
 30
0.0
 11
602.988272
 21
410.655227
 31
0.0
  0
ENDBLK
  8
0
  5
2D6
  0
BLOCK
  8
0
  5
2D8
  2
*X25
 70
    65
 10
653.283761
 20
228.441947
 30
0.0
  3
*X25
  0
LINE
  8
LC-006-005-----0
  6
CONTINUOUS
  5
2D9
 10
655.534443
 20
228.441947
 30
0.0
 11
656.276942
 21
229.184446
 31
0.0
  0
LINE
  8
LC-006-005-----0
  6
CONTINUOUS
  5
2DA
 10
653.283761
 20
229.019693
 30
0.0
 11
657.283761
 21
233.019693
 31
0.0
  0
LINE
  8
LC-006-005-----0
  6
CONTINUOUS
  5
2DB
 10
653.283761
 20
231.84812
 30
0.0
 11
657.283761
 21
235.84812
 31
0.0
  0
LINE
  8
LC-006-005-----0
  6
CONTINUOUS
  5
2DC
 10
653.283761
 20
234.676547
 30
0.0
 11
657.283761
 21
238.676547
 31
0.0
  0
LINE
  8
LC-006-005-----0
  6
CONTINUOUS
  5
2DD
 10
653.283761
 20
237.504974
 30
0.0
 11
657.283761
 21
241.504974
 31
0.0
  0
LINE
  8
LC-006-005-----0
  6
CONTINUOUS
  5
2DE
 10
653.283761
 20
240.333401
 30
0.0
 11
657.283761
 21
244.333401
 31
0.0
  0
LINE
  8
LC-006-005-----0
  6
CONTINUOUS
  5
2DF
 10
653.283761
 20
243.161828
 30
0.0
 11
657.283761
 21
247.161828
 31
0.0
  0
LINE
  8
LC-006-005-----0
  6
CONTINUOUS
  5
2E0
 10
653.283761
 20
245.990255
 30
0.0
 11
657.283761
 21
249.990255
 31
0.0
  0
LINE
  8
LC-006-005-----0
  6
CONTINUOUS
  5
2E1
 10
653.283761
 20
248.818683
 30
0.0
 11
657.283761
 21
252.818683
 31
0.0
  0
LINE
  8
LC-006-005-----0
  6
CONTINUOUS
  5
2E2
 10
653.283761
 20
251.64711
 30
0.0
 11
657.283761
 21
255.64711
 31
0.0
  0
LINE
  8
LC-006-005-----0
  6
CONTINUOUS
  5
2E3
 10
653.283761
 20
254.475537
 30
0.0
 11
657.283761
 21
258.475537
 31
0.0
  0
LINE
  8
LC-006-005-----0
  6
CONTINUOUS
  5
2E4
 10
653.283761
 20
257.303964
 30
0.0
 11
657.283761
 21
261.303964
 31
0.0
  0
LINE
  8
LC-006-005-----0
  6
CONTINUOUS
  5
2E5
 10
653.283761
 20
260.132391
 30
0.0
 11
657.283761
 21
264.132391
 31
0.0
  0
LINE
  8
LC-006-005-----0
  6
CONTINUOUS
  5
2E6
 10
653.283761
 20
262.960818
 30
0.0
 11
657.283761
 21
266.960818
 31
0.0
  0
LINE
  8
LC-006-005-----0
  6
CONTINUOUS
  5
2E7
 10
680.764891
 20
290.441947
 30
0.0
 11
683.546056
 21
293.223113
 31
0.0
  0
LINE
  8
LC-006-005-----0
  6
CONTINUOUS
  5
2E8
 10
653.283761
 20
265.789245
 30
0.0
 11
657.283761
 21
269.789245
 31
0.0
  0
LINE
  8
LC-006-005-----0
  6
CONTINUOUS
  5
2E9
 10
677.936463
 20
290.441947
 30
0.0
 11
685.498726
 21
298.004209
 31
0.0
  0
LINE
  8
LC-006-005-----0
  6
CONTINUOUS
  5
2EA
 10
653.283761
 20
268.617672
 30
0.0
 11
657.283761
 21
272.617672
 31
0.0
  0
LINE
  8
LC-006-005-----0
  6
CONTINUOUS
  5
2EB
 10
675.108036
 20
290.441947
 30
0.0
 11
679.108036
 21
294.441947
 31
0.0
  0
LINE
  8
LC-006-005-----0
  6
CONTINUOUS
  5
2EC
 10
680.34526
 20
295.679171
 30
0.0
 11
685.680368
 21
301.014279
 31
0.0
  0
LINE
  8
LC-006-005-----0
  6
CONTINUOUS
  5
2ED
 10
653.283761
 20
271.4461
 30
0.0
 11
657.283761
 21
275.4461
 31
0.0
  0
LINE
  8
LC-006-005-----0
  6
CONTINUOUS
  5
2EE
 10
672.279609
 20
290.441947
 30
0.0
 11
676.279609
 21
294.441947
 31
0.0
  0
LINE
  8
LC-006-005-----0
  6
CONTINUOUS
  5
2EF
 10
681.597385
 20
299.759723
 30
0.0
 11
685.86201
 21
304.024348
 31
0.0
  0
LINE
  8
LC-006-005-----0
  6
CONTINUOUS
  5
2F0
 10
653.283761
 20
274.274527
 30
0.0
 11
657.283761
 21
278.274527
 31
0.0
  0
LINE
  8
LC-006-005-----0
  6
CONTINUOUS
  5
2F1
 10
669.451182
 20
290.441947
 30
0.0
 11
673.451182
 21
294.441947
 31
0.0
  0
LINE
  8
LC-006-005-----0
  6
CONTINUOUS
  5
2F2
 10
681.779027
 20
302.769793
 30
0.0
 11
686.043652
 21
307.034417
 31
0.0
  0
LINE
  8
LC-006-005-----0
  6
CONTINUOUS
  5
2F3
 10
653.283761
 20
277.102954
 30
0.0
 11
657.283761
 21
281.102954
 31
0.0
  0
LINE
  8
LC-006-005-----0
  6
CONTINUOUS
  5
2F4
 10
666.622755
 20
290.441947
 30
0.0
 11
670.622755
 21
294.441947
 31
0.0
  0
LINE
  8
LC-006-005-----0
  6
CONTINUOUS
  5
2F5
 10
681.96067
 20
305.779862
 30
0.0
 11
686.225294
 21
310.044486
 31
0.0
  0
LINE
  8
LC-006-005-----0
  6
CONTINUOUS
  5
2F6
 10
653.283761
 20
279.931381
 30
0.0
 11
657.283761
 21
283.931381
 31
0.0
  0
LINE
  8
LC-006-005-----0
  6
CONTINUOUS
  5
2F7
 10
663.794328
 20
290.441947
 30
0.0
 11
667.794328
 21
294.441947
 31
0.0
  0
LINE
  8
LC-006-005-----0
  6
CONTINUOUS
  5
2F8
 10
682.142312
 20
308.789931
 30
0.0
 11
686.406936
 21
313.054556
 31
0.0
  0
LINE
  8
LC-006-005-----0
  6
CONTINUOUS
  5
2F9
 10
653.283761
 20
282.759808
 30
0.0
 11
657.283761
 21
286.759808
 31
0.0
  0
LINE
  8
LC-006-005-----0
  6
CONTINUOUS
  5
2FA
 10
660.965901
 20
290.441947
 30
0.0
 11
664.965901
 21
294.441947
 31
0.0
  0
LINE
  8
LC-006-005-----0
  6
CONTINUOUS
  5
2FB
 10
682.323954
 20
311.8
 30
0.0
 11
686.588578
 21
316.064625
 31
0.0
  0
LINE
  8
LC-006-005-----0
  6
CONTINUOUS
  5
2FC
 10
653.283761
 20
285.588235
 30
0.0
 11
657.283761
 21
289.588235
 31
0.0
  0
LINE
  8
LC-006-005-----0
  6
CONTINUOUS
  5
2FD
 10
658.137474
 20
290.441947
 30
0.0
 11
662.137474
 21
294.441947
 31
0.0
  0
LINE
  8
LC-006-005-----0
  6
CONTINUOUS
  5
2FE
 10
682.505596
 20
314.81007
 30
0.0
 11
686.77022
 21
319.074694
 31
0.0
  0
LINE
  8
LC-006-005-----0
  6
CONTINUOUS
  5
2FF
 10
653.283761
 20
288.416662
 30
0.0
 11
659.309046
 21
294.441947
 31
0.0
  0
LINE
  8
LC-006-005-----0
  6
CONTINUOUS
  5
300
 10
682.687238
 20
317.820139
 30
0.0
 11
686.951862
 21
322.084763
 31
0.0
  0
LINE
  8
LC-006-005-----0
  6
CONTINUOUS
  5
301
 10
653.283761
 20
291.245089
 30
0.0
 11
656.480619
 21
294.441947
 31
0.0
  0
LINE
  8
LC-006-005-----0
  6
CONTINUOUS
  5
302
 10
682.86888
 20
320.830208
 30
0.0
 11
687.133504
 21
325.094833
 31
0.0
  0
LINE
  8
LC-006-005-----0
  6
CONTINUOUS
  5
303
 10
653.283761
 20
294.073517
 30
0.0
 11
653.652192
 21
294.441947
 31
0.0
  0
LINE
  8
LC-006-005-----0
  6
CONTINUOUS
  5
304
 10
683.050522
 20
323.840277
 30
0.0
 11
687.315147
 21
328.104902
 31
0.0
  0
LINE
  8
LC-006-005-----0
  6
CONTINUOUS
  5
305
 10
683.232164
 20
326.850347
 30
0.0
 11
687.496789
 21
331.114971
 31
0.0
  0
LINE
  8
LC-006-005-----0
  6
CONTINUOUS
  5
306
 10
683.413806
 20
329.860416
 30
0.0
 11
687.678431
 21
334.12504
 31
0.0
  0
LINE
  8
LC-006-005-----0
  6
CONTINUOUS
  5
307
 10
683.595449
 20
332.870485
 30
0.0
 11
687.860073
 21
337.135109
 31
0.0
  0
LINE
  8
LC-006-005-----0
  6
CONTINUOUS
  5
308
 10
683.777091
 20
335.880554
 30
0.0
 11
688.041715
 21
340.145179
 31
0.0
  0
LINE
  8
LC-006-005-----0
  6
CONTINUOUS
  5
309
 10
683.958733
 20
338.890624
 30
0.0
 11
688.223357
 21
343.155248
 31
0.0
  0
LINE
  8
LC-006-005-----0
  6
CONTINUOUS
  5
30A
 10
684.140375
 20
341.900693
 30
0.0
 11
688.404999
 21
346.165317
 31
0.0
  0
LINE
  8
LC-006-005-----0
  6
CONTINUOUS
  5
30B
 10
684.322017
 20
344.910762
 30
0.0
 11
688.586641
 21
349.175386
 31
0.0
  0
LINE
  8
LC-006-005-----0
  6
CONTINUOUS
  5
30C
 10
684.503659
 20
347.920831
 30
0.0
 11
688.768283
 21
352.185456
 31
0.0
  0
LINE
  8
LC-006-005-----0
  6
CONTINUOUS
  5
30D
 10
684.685301
 20
350.9309
 30
0.0
 11
688.949926
 21
355.195525
 31
0.0
  0
LINE
  8
LC-006-005-----0
  6
CONTINUOUS
  5
30E
 10
684.866943
 20
353.94097
 30
0.0
 11
689.131568
 21
358.205594
 31
0.0
  0
LINE
  8
LC-006-005-----0
  6
CONTINUOUS
  5
30F
 10
685.048585
 20
356.951039
 30
0.0
 11
689.31321
 21
361.215663
 31
0.0
  0
LINE
  8
LC-006-005-----0
  6
CONTINUOUS
  5
310
 10
685.230228
 20
359.961108
 30
0.0
 11
689.494852
 21
364.225733
 31
0.0
  0
LINE
  8
LC-006-005-----0
  6
CONTINUOUS
  5
311
 10
685.41187
 20
362.971177
 30
0.0
 11
689.676494
 21
367.235802
 31
0.0
  0
LINE
  8
LC-006-005-----0
  6
CONTINUOUS
  5
312
 10
685.593512
 20
365.981247
 30
0.0
 11
689.858136
 21
370.245871
 31
0.0
  0
LINE
  8
LC-006-005-----0
  6
CONTINUOUS
  5
313
 10
685.775154
 20
368.991316
 30
0.0
 11
690.039778
 21
373.25594
 31
0.0
  0
LINE
  8
LC-006-005-----0
  6
CONTINUOUS
  5
314
 10
685.956796
 20
372.001385
 30
0.0
 11
690.22142
 21
376.266009
 31
0.0
  0
LINE
  8
LC-006-005-----0
  6
CONTINUOUS
  5
315
 10
686.138438
 20
375.011454
 30
0.0
 11
690.403062
 21
379.276079
 31
0.0
  0
LINE
  8
LC-006-005-----0
  6
CONTINUOUS
  5
316
 10
686.32008
 20
378.021524
 30
0.0
 11
690.584705
 21
382.286148
 31
0.0
  0
LINE
  8
LC-006-005-----0
  6
CONTINUOUS
  5
317
 10
686.501722
 20
381.031593
 30
0.0
 11
690.766347
 21
385.296217
 31
0.0
  0
LINE
  8
LC-006-005-----0
  6
CONTINUOUS
  5
318
 10
686.683364
 20
384.041662
 30
0.0
 11
690.947989
 21
388.306286
 31
0.0
  0
LINE
  8
LC-006-005-----0
  6
CONTINUOUS
  5
319
 10
686.865006
 20
387.051731
 30
0.0
 11
691.129631
 21
391.316356
 31
0.0
  0
LINE
  8
LC-006-005-----0
  6
CONTINUOUS
  5
31A
 10
687.046649
 20
390.0618
 30
0.0
 11
691.311273
 21
394.326425
 31
0.0
  0
LINE
  8
LC-006-005-----0
  6
CONTINUOUS
  5
31B
 10
687.228291
 20
393.07187
 30
0.0
 11
691.492915
 21
397.336494
 31
0.0
  0
LINE
  8
LC-006-005-----0
  6
CONTINUOUS
  5
31C
 10
687.409933
 20
396.081939
 30
0.0
 11
691.674557
 21
400.346563
 31
0.0
  0
LINE
  8
LC-006-005-----0
  6
CONTINUOUS
  5
31D
 10
687.591575
 20
399.092008
 30
0.0
 11
691.856199
 21
403.356633
 31
0.0
  0
LINE
  8
LC-006-005-----0
  6
CONTINUOUS
  5
31E
 10
687.773217
 20
402.102077
 30
0.0
 11
692.037841
 21
406.366702
 31
0.0
  0
LINE
  8
LC-006-005-----0
  6
CONTINUOUS
  5
31F
 10
687.954859
 20
405.112147
 30
0.0
 11
692.219484
 21
409.376771
 31
0.0
  0
LINE
  8
LC-006-005-----0
  6
CONTINUOUS
  5
320
 10
688.136501
 20
408.122216
 30
0.0
 11
692.283761
 21
412.269476
 31
0.0
  0
LINE
  8
LC-006-005-----0
  6
CONTINUOUS
  5
321
 10
760.269672
 20
480.255387
 30
0.0
 11
760.283761
 21
480.269476
 31
0.0
  0
LINE
  8
LC-006-005-----0
  6
CONTINUOUS
  5
322
 10
688.276847
 20
411.090989
 30
0.0
 11
692.283761
 21
415.097903
 31
0.0
  0
LINE
  8
LC-006-005-----0
  6
CONTINUOUS
  5
323
 10
756.835752
 20
479.649894
 30
0.0
 11
760.283761
 21
483.097903
 31
0.0
  0
LINE
  8
LC-006-005-----0
  6
CONTINUOUS
  5
324
 10
688.278313
 20
413.920882
 30
0.0
 11
692.283761
 21
417.92633
 31
0.0
  0
LINE
  8
LC-006-005-----0
  6
CONTINUOUS
  5
325
 10
753.401832
 20
479.044401
 30
0.0
 11
757.515314
 21
483.157883
 31
0.0
  0
LINE
  8
LC-006-005-----0
  6
CONTINUOUS
  5
326
 10
688.279778
 20
416.750774
 30
0.0
 11
696.283761
 21
424.754757
 31
0.0
  0
LINE
  8
LC-006-005-----0
  6
CONTINUOUS
  5
327
 10
749.967913
 20
478.438909
 30
0.0
 11
754.081394
 21
482.55239
 31
0.0
  0
LINE
  8
LC-006-005-----0
  6
CONTINUOUS
  5
328
 10
688.281244
 20
419.580667
 30
0.0
 11
696.283761
 21
427.583185
 31
0.0
  0
LINE
  8
LC-006-005-----0
  6
CONTINUOUS
  5
329
 10
746.842524
 20
478.141947
 30
0.0
 11
750.647474
 21
481.946897
 31
0.0
  0
LINE
  8
LC-006-005-----0
  6
CONTINUOUS
  5
32A
 10
688.282709
 20
422.41056
 30
0.0
 11
690.314097
 21
424.441947
 31
0.0
  0
LINE
  8
LC-006-005-----0
  6
CONTINUOUS
  5
32B
 10
692.283761
 20
426.411612
 30
0.0
 11
696.283761
 21
430.411612
 31
0.0
  0
LINE
  8
LC-006-005-----0
  6
CONTINUOUS
  5
32C
 10
738.035229
 20
472.163079
 30
0.0
 11
739.263201
 21
473.391051
 31
0.0
  0
LINE
  8
LC-006-005-----0
  6
CONTINUOUS
  5
32D
 10
744.014097
 20
478.141947
 30
0.0
 11
747.314097
 21
481.441947
 31
0.0
  0
LINE
  8
LC-006-005-----0
  6
CONTINUOUS
  5
32E
 10
692.283761
 20
429.240039
 30
0.0
 11
696.283761
 21
433.240039
 31
0.0
  0
LINE
  8
LC-006-005-----0
  6
CONTINUOUS
  5
32F
 10
735.18567
 20
472.141947
 30
0.0
 11
739.539763
 21
476.496041
 31
0.0
  0
LINE
  8
LC-006-005-----0
  6
CONTINUOUS
  5
330
 10
741.18567
 20
478.141947
 30
0.0
 11
744.48567
 21
481.441947
 31
0.0
  0
LINE
  8
LC-006-005-----0
  6
CONTINUOUS
  5
331
 10
692.283761
 20
432.068466
 30
0.0
 11
696.283761
 21
436.068466
 31
0.0
  0
LINE
  8
LC-006-005-----0
  6
CONTINUOUS
  5
332
 10
732.357243
 20
472.141947
 30
0.0
 11
736.157243
 21
475.941947
 31
0.0
  0
LINE
  8
LC-006-005-----0
  6
CONTINUOUS
  5
333
 10
736.683761
 20
476.468466
 30
0.0
 11
741.657243
 21
481.441947
 31
0.0
  0
LINE
  8
LC-006-005-----0
  6
CONTINUOUS
  5
334
 10
692.283761
 20
434.896893
 30
0.0
 11
696.283761
 21
438.896893
 31
0.0
  0
LINE
  8
LC-006-005-----0
  6
CONTINUOUS
  5
335
 10
729.528816
 20
472.141947
 30
0.0
 11
733.328816
 21
475.941947
 31
0.0
  0
LINE
  8
LC-006-005-----0
  6
CONTINUOUS
  5
336
 10
736.683761
 20
479.296893
 30
0.0
 11
738.828816
 21
481.441947
 31
0.0
  0
LINE
  8
LC-006-005-----0
  6
CONTINUOUS
  5
337
 10
692.283761
 20
437.72532
 30
0.0
 11
696.283761
 21
441.72532
 31
0.0
  0
LINE
  8
LC-006-005-----0
  6
CONTINUOUS
  5
338
 10
716.634968
 20
462.076527
 30
0.0
 11
723.483761
 21
468.92532
 31
0.0
  0
LINE
  8
LC-006-005-----0
  6
CONTINUOUS
  5
339
 10
727.348542
 20
472.7901
 30
0.0
 11
730.500389
 21
475.941947
 31
0.0
  0
LINE
  8
LC-006-005-----0
  6
CONTINUOUS
  5
33A
 10
692.283761
 20
440.553747
 30
0.0
 11
696.283761
 21
444.553747
 31
0.0
  0
LINE
  8
LC-006-005-----0
  6
CONTINUOUS
  5
33B
 10
715.220755
 20
463.490741
 30
0.0
 11
717.342075
 21
465.612061
 31
0.0
  0
LINE
  8
LC-006-005-----0
  6
CONTINUOUS
  5
33C
 10
720.183761
 20
468.453747
 30
0.0
 11
723.483761
 21
471.753747
 31
0.0
  0
LINE
  8
LC-006-005-----0
  6
CONTINUOUS
  5
33D
 10
726.940253
 20
475.210239
 30
0.0
 11
729.683761
 21
477.953747
 31
0.0
  0
LINE
  8
LC-006-005-----0
  6
CONTINUOUS
  5
33E
 10
692.283761
 20
443.382174
 30
0.0
 11
696.283761
 21
447.382174
 31
0.0
  0
LINE
  8
LC-006-005-----0
  6
CONTINUOUS
  5
33F
 10
713.806541
 20
464.904954
 30
0.0
 11
715.927861
 21
467.026274
 31
0.0
  0
LINE
  8
LC-006-005-----0
  6
CONTINUOUS
  5
340
 10
720.183761
 20
471.282174
 30
0.0
 11
723.483761
 21
474.582174
 31
0.0
  0
LINE
  8
LC-006-005-----0
  6
CONTINUOUS
  5
341
 10
726.480572
 20
477.578985
 30
0.0
 11
729.683761
 21
480.782174
 31
0.0
  0
LINE
  8
LC-006-005-----0
  6
CONTINUOUS
  5
342
 10
692.283761
 20
446.210602
 30
0.0
 11
696.283761
 21
450.210602
 31
0.0
  0
LINE
  8
LC-006-005-----0
  6
CONTINUOUS
  5
343
 10
697.552088
 20
451.478928
 30
0.0
 11
704.746781
 21
458.673621
 31
0.0
  0
LINE
  8
LC-006-005-----0
  6
CONTINUOUS
  5
344
 10
712.505892
 20
466.432732
 30
0.0
 11
715.783761
 21
469.710602
 31
0.0
  0
LINE
  8
LC-006-005-----0
  6
CONTINUOUS
  5
345
 10
720.183761
 20
474.110602
 30
0.0
 11
723.536978
 21
477.463818
 31
0.0
  0
LINE
  8
LC-006-005-----0
  6
CONTINUOUS
  5
346
 10
724.161891
 20
478.088731
 30
0.0
 11
727.515107
 21
481.441947
 31
0.0
  0
LINE
  8
LC-006-005-----0
  6
CONTINUOUS
  5
347
 10
692.283761
 20
449.039029
 30
0.0
 11
704.783761
 21
461.539029
 31
0.0
  0
LINE
  8
LC-006-005-----0
  6
CONTINUOUS
  5
348
 10
712.483761
 20
469.239029
 30
0.0
 11
715.783761
 21
472.539029
 31
0.0
  0
LINE
  8
LC-006-005-----0
  6
CONTINUOUS
  5
349
 10
720.183761
 20
476.939029
 30
0.0
 11
724.68668
 21
481.441947
 31
0.0
  0
LINE
  8
LC-006-005-----0
  6
CONTINUOUS
  5
34A
 10
692.283761
 20
451.867456
 30
0.0
 11
695.858253
 21
455.441947
 31
0.0
  0
LINE
  8
LC-006-005-----0
  6
CONTINUOUS
  5
34B
 10
700.783761
 20
460.367456
 30
0.0
 11
704.783761
 21
464.367456
 31
0.0
  0
LINE
  8
LC-006-005-----0
  6
CONTINUOUS
  5
34C
 10
712.483761
 20
472.067456
 30
0.0
 11
715.783761
 21
475.367456
 31
0.0
  0
LINE
  8
LC-006-005-----0
  6
CONTINUOUS
  5
34D
 10
720.183761
 20
479.767456
 30
0.0
 11
721.858253
 21
481.441947
 31
0.0
  0
LINE
  8
LC-006-005-----0
  6
CONTINUOUS
  5
34E
 10
692.283761
 20
454.695883
 30
0.0
 11
693.029826
 21
455.441947
 31
0.0
  0
LINE
  8
LC-006-005-----0
  6
CONTINUOUS
  5
34F
 10
700.783761
 20
463.195883
 30
0.0
 11
704.783761
 21
467.195883
 31
0.0
  0
LINE
  8
LC-006-005-----0
  6
CONTINUOUS
  5
350
 10
712.483761
 20
474.895883
 30
0.0
 11
715.783761
 21
478.195883
 31
0.0
  0
LINE
  8
LC-006-005-----0
  6
CONTINUOUS
  5
351
 10
700.783761
 20
466.02431
 30
0.0
 11
704.783761
 21
470.02431
 31
0.0
  0
LINE
  8
LC-006-005-----0
  6
CONTINUOUS
  5
352
 10
712.36815
 20
477.608699
 30
0.0
 11
715.783761
 21
481.02431
 31
0.0
  0
LINE
  8
LC-006-005-----0
  6
CONTINUOUS
  5
353
 10
700.783761
 20
468.852737
 30
0.0
 11
704.783761
 21
472.852737
 31
0.0
  0
LINE
  8
LC-006-005-----0
  6
CONTINUOUS
  5
354
 10
710.072972
 20
478.141947
 30
0.0
 11
713.372972
 21
481.441947
 31
0.0
  0
LINE
  8
LC-006-005-----0
  6
CONTINUOUS
  5
355
 10
700.783761
 20
471.681164
 30
0.0
 11
704.783761
 21
475.681164
 31
0.0
  0
LINE
  8
LC-006-005-----0
  6
CONTINUOUS
  5
356
 10
707.244544
 20
478.141947
 30
0.0
 11
710.544544
 21
481.441947
 31
0.0
  0
LINE
  8
LC-006-005-----0
  6
CONTINUOUS
  5
357
 10
700.783761
 20
474.509591
 30
0.0
 11
707.716117
 21
481.441947
 31
0.0
  0
LINE
  8
LC-006-005-----0
  6
CONTINUOUS
  5
358
 10
700.783761
 20
477.338019
 30
0.0
 11
704.88769
 21
481.441947
 31
0.0
  0
LINE
  8
LC-006-005-----0
  6
CONTINUOUS
  5
359
 10
700.783761
 20
480.166446
 30
0.0
 11
702.059263
 21
481.441947
 31
0.0
  0
ENDBLK
  8
0
  5
35A
  0
BLOCK
  8
0
  5
35C
  2
*D26
 70
    65
 10
0.0
 20
0.0
 30
0.0
  3
*D26
  0
LINE
  8
LC-003-003-MTH-0
  6
CONTINUOUS
  5
35D
 10
547.283761
 20
232.941947
 30
0.0
 11
547.283761
 21
169.2
 31
0.0
  0
LINE
  8
LC-003-003-MTH-0
  6
CONTINUOUS
  5
35E
 10
657.283761
 20
232.941947
 30
0.0
 11
657.283761
 21
169.2
 31
0.0
  0
LINE
  8
LC-004-003-MTG-0
  6
CONTINUOUS
  5
35F
 10
547.283761
 20
180.0
 30
0.0
 11
657.283761
 21
180.0
 31
0.0
  0
LINE
  8
LC-002-003-----0
  6
CONTINUOUS
  5
360
 10
565.129769
 20
182.349471
 30
0.0
 11
547.283761
 21
180.0
 31
0.0
  0
LINE
  8
LC-002-003-----0
  6
CONTINUOUS
  5
361
 10
547.283761
 20
180.0
 30
0.0
 11
565.129769
 21
177.650529
 31
0.0
  0
LINE
  8
LC-002-003-----0
  6
CONTINUOUS
  5
362
 10
565.129769
 20
177.650529
 30
0.0
 11
565.129769
 21
182.349471
 31
0.0
  0
LINE
  8
LC-002-003-----0
  6
CONTINUOUS
  5
363
 10
565.169807
 20
181.738609
 30
0.0
 11
551.963761
 21
180.0
 31
0.0
  0
LINE
  8
LC-002-003-----0
  6
CONTINUOUS
  5
364
 10
551.963761
 20
180.0
 30
0.0
 11
565.169807
 21
178.261391
 31
0.0
  0
LINE
  8
LC-002-003-----0
  6
CONTINUOUS
  5
365
 10
565.209845
 20
181.127746
 30
0.0
 11
556.643761
 21
180.0
 31
0.0
  0
LINE
  8
LC-002-003-----0
  6
CONTINUOUS
  5
366
 10
556.643761
 20
180.0
 30
0.0
 11
565.209845
 21
178.872254
 31
0.0
  0
LINE
  8
LC-002-003-----0
  6
CONTINUOUS
  5
367
 10
565.249883
 20
180.516884
 30
0.0
 11
561.323761
 21
180.0
 31
0.0
  0
LINE
  8
LC-002-003-----0
  6
CONTINUOUS
  5
368
 10
561.323761
 20
180.0
 30
0.0
 11
565.249883
 21
179.483116
 31
0.0
  0
LINE
  8
LC-002-003-----0
  6
CONTINUOUS
  5
369
 10
639.437754
 20
177.650529
 30
0.0
 11
657.283761
 21
180.0
 31
0.0
  0
LINE
  8
LC-002-003-----0
  6
CONTINUOUS
  5
36A
 10
657.283761
 20
180.0
 30
0.0
 11
639.437754
 21
182.349471
 31
0.0
  0
LINE
  8
LC-002-003-----0
  6
CONTINUOUS
  5
36B
 10
639.437754
 20
182.349471
 30
0.0
 11
639.437754
 21
177.650529
 31
0.0
  0
LINE
  8
LC-002-003-----0
  6
CONTINUOUS
  5
36C
 10
639.397716
 20
178.261391
 30
0.0
 11
652.603761
 21
180.0
 31
0.0
  0
LINE
  8
LC-002-003-----0
  6
CONTINUOUS
  5
36D
 10
652.603761
 20
180.0
 30
0.0
 11
639.397716
 21
181.738609
 31
0.0
  0
LINE
  8
LC-002-003-----0
  6
CONTINUOUS
  5
36E
 10
639.357678
 20
178.872254
 30
0.0
 11
647.923761
 21
180.0
 31
0.0
  0
LINE
  8
LC-002-003-----0
  6
CONTINUOUS
  5
36F
 10
647.923761
 20
180.0
 30
0.0
 11
639.357678
 21
181.127746
 31
0.0
  0
LINE
  8
LC-002-003-----0
  6
CONTINUOUS
  5
370
 10
639.31764
 20
179.483116
 30
0.0
 11
643.243761
 21
180.0
 31
0.0
  0
LINE
  8
LC-002-003-----0
  6
CONTINUOUS
  5
371
 10
643.243761
 20
180.0
 30
0.0
 11
639.31764
 21
180.516884
 31
0.0
  0
TEXT
  8
LC-002-003-----0
  6
CONTINUOUS
 62
     6
  5
372
 10
571.403417
 20
190.431999
 30
0.0
 40
18.0
  1
DN100
 51
15.0
  7
LC-TXTSTYLE-150-400-0-0-D0
 72
     1
 11
605.079007
 21
190.431999
 31
0.0
  0
ENDBLK
  8
0
  5
373
  0
BLOCK
  8
0
  5
375
  2
*D27
 70
    65
 10
0.0
 20
0.0
 30
0.0
  3
*D27
  0
LINE
  8
LC-003-003-MTH-0
  6
CONTINUOUS
  5
376
 10
508.283761
 20
427.141947
 30
0.0
 11
508.283761
 21
97.2
 31
0.0
  0
LINE
  8
LC-003-003-MTH-0
  6
CONTINUOUS
  5
377
 10
696.283761
 20
427.141947
 30
0.0
 11
696.283761
 21
97.2
 31
0.0
  0
LINE
  8
LC-004-003-MTG-0
  6
CONTINUOUS
  5
378
 10
508.283761
 20
108.0
 30
0.0
 11
696.283761
 21
108.0
 31
0.0
  0
LINE
  8
LC-002-003-----0
  6
CONTINUOUS
  5
379
 10
526.129769
 20
110.349471
 30
0.0
 11
508.283761
 21
108.0
 31
0.0
  0
LINE
  8
LC-002-003-----0
  6
CONTINUOUS
  5
37A
 10
508.283761
 20
108.0
 30
0.0
 11
526.129769
 21
105.650529
 31
0.0
  0
LINE
  8
LC-002-003-----0
  6
CONTINUOUS
  5
37B
 10
526.129769
 20
105.650529
 30
0.0
 11
526.129769
 21
110.349471
 31
0.0
  0
LINE
  8
LC-002-003-----0
  6
CONTINUOUS
  5
37C
 10
526.169807
 20
109.738609
 30
0.0
 11
512.963761
 21
108.0
 31
0.0
  0
LINE
  8
LC-002-003-----0
  6
CONTINUOUS
  5
37D
 10
512.963761
 20
108.0
 30
0.0
 11
526.169807
 21
106.261391
 31
0.0
  0
LINE
  8
LC-002-003-----0
  6
CONTINUOUS
  5
37E
 10
526.209845
 20
109.127746
 30
0.0
 11
517.643761
 21
108.0
 31
0.0
  0
LINE
  8
LC-002-003-----0
  6
CONTINUOUS
  5
37F
 10
517.643761
 20
108.0
 30
0.0
 11
526.209845
 21
106.872254
 31
0.0
  0
LINE
  8
LC-002-003-----0
  6
CONTINUOUS
  5
380
 10
526.249883
 20
108.516884
 30
0.0
 11
522.323761
 21
108.0
 31
0.0
  0
LINE
  8
LC-002-003-----0
  6
CONTINUOUS
  5
381
 10
522.323761
 20
108.0
 30
0.0
 11
526.249883
 21
107.483116
 31
0.0
  0
LINE
  8
LC-002-003-----0
  6
CONTINUOUS
  5
382
 10
678.437754
 20
105.650529
 30
0.0
 11
696.283761
 21
108.0
 31
0.0
  0
LINE
  8
LC-002-003-----0
  6
CONTINUOUS
  5
383
 10
696.283761
 20
108.0
 30
0.0
 11
678.437754
 21
110.349471
 31
0.0
  0
LINE
  8
LC-002-003-----0
  6
CONTINUOUS
  5
384
 10
678.437754
 20
110.349471
 30
0.0
 11
678.437754
 21
105.650529
 31
0.0
  0
LINE
  8
LC-002-003-----0
  6
CONTINUOUS
  5
385
 10
678.397716
 20
106.261391
 30
0.0
 11
691.603761
 21
108.0
 31
0.0
  0
LINE
  8
LC-002-003-----0
  6
CONTINUOUS
  5
386
 10
691.603761
 20
108.0
 30
0.0
 11
678.397716
 21
109.738609
 31
0.0
  0
LINE
  8
LC-002-003-----0
  6
CONTINUOUS
  5
387
 10
678.357678
 20
106.872254
 30
0.0
 11
686.923761
 21
108.0
 31
0.0
  0
LINE
  8
LC-002-003-----0
  6
CONTINUOUS
  5
388
 10
686.923761
 20
108.0
 30
0.0
 11
678.357678
 21
109.127746
 31
0.0
  0
LINE
  8
LC-002-003-----0
  6
CONTINUOUS
  5
389
 10
678.31764
 20
107.483116
 30
0.0
 11
682.243761
 21
108.0
 31
0.0
  0
LINE
  8
LC-002-003-----0
  6
CONTINUOUS
  5
38A
 10
682.243761
 20
108.0
 30
0.0
 11
678.31764
 21
108.516884
 31
0.0
  0
TEXT
  8
LC-002-003-----0
  6
CONTINUOUS
 62
     6
  5
38B
 10
580.587669
 20
118.431999
 30
0.0
 40
18.0
  1
Ø188
 51
15.0
  7
LC-TXTSTYLE-150-400-0-0-D0
 72
     1
 11
605.079007
 21
118.431999
 31
0.0
  0
ENDBLK
  8
0
  5
38C
  0
BLOCK
  8
0
  5
38E
  2
*D28
 70
    65
 10
0.0
 20
0.0
 30
0.0
  3
*D28
  0
LINE
  8
LC-003-003-MTH-0
  6
CONTINUOUS
  5
38F
 10
499.783761
 20
459.441947
 30
0.0
 11
499.783761
 21
61.2
 31
0.0
  0
LINE
  8
LC-003-003-MTH-0
  6
CONTINUOUS
  5
390
 10
704.783761
 20
459.441947
 30
0.0
 11
704.783761
 21
61.2
 31
0.0
  0
LINE
  8
LC-004-003-MTG-0
  6
CONTINUOUS
  5
391
 10
499.783761
 20
72.0
 30
0.0
 11
704.783761
 21
72.0
 31
0.0
  0
LINE
  8
LC-002-003-----0
  6
CONTINUOUS
  5
392
 10
517.629769
 20
74.349471
 30
0.0
 11
499.783761
 21
72.0
 31
0.0
  0
LINE
  8
LC-002-003-----0
  6
CONTINUOUS
  5
393
 10
499.783761
 20
72.0
 30
0.0
 11
517.629769
 21
69.650529
 31
0.0
  0
LINE
  8
LC-002-003-----0
  6
CONTINUOUS
  5
394
 10
517.629769
 20
69.650529
 30
0.0
 11
517.629769
 21
74.349471
 31
0.0
  0
LINE
  8
LC-002-003-----0
  6
CONTINUOUS
  5
395
 10
517.669807
 20
73.738609
 30
0.0
 11
504.463761
 21
72.0
 31
0.0
  0
LINE
  8
LC-002-003-----0
  6
CONTINUOUS
  5
396
 10
504.463761
 20
72.0
 30
0.0
 11
517.669807
 21
70.261391
 31
0.0
  0
LINE
  8
LC-002-003-----0
  6
CONTINUOUS
  5
397
 10
517.709845
 20
73.127746
 30
0.0
 11
509.143761
 21
72.0
 31
0.0
  0
LINE
  8
LC-002-003-----0
  6
CONTINUOUS
  5
398
 10
509.143761
 20
72.0
 30
0.0
 11
517.709845
 21
70.872254
 31
0.0
  0
LINE
  8
LC-002-003-----0
  6
CONTINUOUS
  5
399
 10
517.749883
 20
72.516884
 30
0.0
 11
513.823761
 21
72.0
 31
0.0
  0
LINE
  8
LC-002-003-----0
  6
CONTINUOUS
  5
39A
 10
513.823761
 20
72.0
 30
0.0
 11
517.749883
 21
71.483116
 31
0.0
  0
LINE
  8
LC-002-003-----0
  6
CONTINUOUS
  5
39B
 10
686.937754
 20
69.650529
 30
0.0
 11
704.783761
 21
72.0
 31
0.0
  0
LINE
  8
LC-002-003-----0
  6
CONTINUOUS
  5
39C
 10
704.783761
 20
72.0
 30
0.0
 11
686.937754
 21
74.349471
 31
0.0
  0
LINE
  8
LC-002-003-----0
  6
CONTINUOUS
  5
39D
 10
686.937754
 20
74.349471
 30
0.0
 11
686.937754
 21
69.650529
 31
0.0
  0
LINE
  8
LC-002-003-----0
  6
CONTINUOUS
  5
39E
 10
686.897716
 20
70.261391
 30
0.0
 11
700.103761
 21
72.0
 31
0.0
  0
LINE
  8
LC-002-003-----0
  6
CONTINUOUS
  5
39F
 10
700.103761
 20
72.0
 30
0.0
 11
686.897716
 21
73.738609
 31
0.0
  0
LINE
  8
LC-002-003-----0
  6
CONTINUOUS
  5
3A0
 10
686.857678
 20
70.872254
 30
0.0
 11
695.423761
 21
72.0
 31
0.0
  0
LINE
  8
LC-002-003-----0
  6
CONTINUOUS
  5
3A1
 10
695.423761
 20
72.0
 30
0.0
 11
686.857678
 21
73.127746
 31
0.0
  0
LINE
  8
LC-002-003-----0
  6
CONTINUOUS
  5
3A2
 10
686.81764
 20
71.483116
 30
0.0
 11
690.743761
 21
72.0
 31
0.0
  0
LINE
  8
LC-002-003-----0
  6
CONTINUOUS
  5
3A3
 10
690.743761
 20
72.0
 30
0.0
 11
686.81764
 21
72.516884
 31
0.0
  0
TEXT
  8
LC-002-003-----0
  6
CONTINUOUS
 62
     6
  5
3A4
 10
580.587669
 20
82.431999
 30
0.0
 40
18.0
  1
Ø205
 51
15.0
  7
LC-TXTSTYLE-150-400-0-0-D0
 72
     1
 11
605.079007
 21
82.431999
 31
0.0
  0
ENDBLK
  8
0
  5
3A5
  0
BLOCK
  8
0
  5
3A7
  2
*D29
 70
    65
 10
0.0
 20
0.0
 30
0.0
  3
*D29
  0
LINE
  8
LC-003-003-MTH-0
  6
CONTINUOUS
  5
3A8
 10
444.283761
 20
483.646035
 30
0.0
 11
444.283761
 21
730.8
 31
0.0
  0
LINE
  8
LC-003-003-MTH-0
  6
CONTINUOUS
  5
3A9
 10
760.283761
 20
483.646035
 30
0.0
 11
760.283761
 21
730.8
 31
0.0
  0
LINE
  8
LC-004-003-MTG-0
  6
CONTINUOUS
  5
3AA
 10
444.283761
 20
720.0
 30
0.0
 11
760.283761
 21
720.0
 31
0.0
  0
LINE
  8
LC-002-003-----0
  6
CONTINUOUS
  5
3AB
 10
462.129769
 20
722.349471
 30
0.0
 11
444.283761
 21
720.0
 31
0.0
  0
LINE
  8
LC-002-003-----0
  6
CONTINUOUS
  5
3AC
 10
444.283761
 20
720.0
 30
0.0
 11
462.129769
 21
717.650529
 31
0.0
  0
LINE
  8
LC-002-003-----0
  6
CONTINUOUS
  5
3AD
 10
462.129769
 20
717.650529
 30
0.0
 11
462.129769
 21
722.349471
 31
0.0
  0
LINE
  8
LC-002-003-----0
  6
CONTINUOUS
  5
3AE
 10
462.169807
 20
721.738609
 30
0.0
 11
448.963761
 21
720.0
 31
0.0
  0
LINE
  8
LC-002-003-----0
  6
CONTINUOUS
  5
3AF
 10
448.963761
 20
720.0
 30
0.0
 11
462.169807
 21
718.261391
 31
0.0
  0
LINE
  8
LC-002-003-----0
  6
CONTINUOUS
  5
3B0
 10
462.209845
 20
721.127746
 30
0.0
 11
453.643761
 21
720.0
 31
0.0
  0
LINE
  8
LC-002-003-----0
  6
CONTINUOUS
  5
3B1
 10
453.643761
 20
720.0
 30
0.0
 11
462.209845
 21
718.872254
 31
0.0
  0
LINE
  8
LC-002-003-----0
  6
CONTINUOUS
  5
3B2
 10
462.249883
 20
720.516884
 30
0.0
 11
458.323761
 21
720.0
 31
0.0
  0
LINE
  8
LC-002-003-----0
  6
CONTINUOUS
  5
3B3
 10
458.323761
 20
720.0
 30
0.0
 11
462.249883
 21
719.483116
 31
0.0
  0
LINE
  8
LC-002-003-----0
  6
CONTINUOUS
  5
3B4
 10
742.437754
 20
717.650529
 30
0.0
 11
760.283761
 21
720.0
 31
0.0
  0
LINE
  8
LC-002-003-----0
  6
CONTINUOUS
  5
3B5
 10
760.283761
 20
720.0
 30
0.0
 11
742.437754
 21
722.349471
 31
0.0
  0
LINE
  8
LC-002-003-----0
  6
CONTINUOUS
  5
3B6
 10
742.437754
 20
722.349471
 30
0.0
 11
742.437754
 21
717.650529
 31
0.0
  0
LINE
  8
LC-002-003-----0
  6
CONTINUOUS
  5
3B7
 10
742.397716
 20
718.261391
 30
0.0
 11
755.603761
 21
720.0
 31
0.0
  0
LINE
  8
LC-002-003-----0
  6
CONTINUOUS
  5
3B8
 10
755.603761
 20
720.0
 30
0.0
 11
742.397716
 21
721.738609
 31
0.0
  0
LINE
  8
LC-002-003-----0
  6
CONTINUOUS
  5
3B9
 10
742.357678
 20
718.872254
 30
0.0
 11
750.923761
 21
720.0
 31
0.0
  0
LINE
  8
LC-002-003-----0
  6
CONTINUOUS
  5
3BA
 10
750.923761
 20
720.0
 30
0.0
 11
742.357678
 21
721.127746
 31
0.0
  0
LINE
  8
LC-002-003-----0
  6
CONTINUOUS
  5
3BB
 10
742.31764
 20
719.483116
 30
0.0
 11
746.243761
 21
720.0
 31
0.0
  0
LINE
  8
LC-002-003-----0
  6
CONTINUOUS
  5
3BC
 10
746.243761
 20
720.0
 30
0.0
 11
742.31764
 21
720.516884
 31
0.0
  0
TEXT
  8
LC-002-003-----0
  6
CONTINUOUS
 62
     6
  5
3BD
 10
575.820851
 20
730.431999
 30
0.0
 40
18.0
  1
Ø315
 51
15.0
  7
LC-TXTSTYLE-150-400-0-0-D0
 72
     1
 11
600.312189
 21
730.431999
 31
0.0
  0
ENDBLK
  8
0
  5
3BE
  0
BLOCK
  8
0
  5
3C0
  2
*X30
 70
    65
 10
702.276655
 20
481.441947
 30
0.0
  3
*X30
  0
LINE
  8
LC-006-005-----0
  6
CONTINUOUS
  5
3C1
 10
712.241601
 20
481.441947
 30
0.0
 11
712.276655
 21
481.477001
 31
0.0
  0
LINE
  8
LC-006-005-----0
  6
CONTINUOUS
  5
3C2
 10
711.958758
 20
481.441947
 30
0.0
 11
712.276655
 21
481.759844
 31
0.0
  0
LINE
  8
LC-006-005-----0
  6
CONTINUOUS
  5
3C3
 10
711.675915
 20
481.441947
 30
0.0
 11
712.276655
 21
482.042687
 31
0.0
  0
LINE
  8
LC-006-005-----0
  6
CONTINUOUS
  5
3C4
 10
711.393073
 20
481.441947
 30
0.0
 11
712.276655
 21
482.325529
 31
0.0
  0
LINE
  8
LC-006-005-----0
  6
CONTINUOUS
  5
3C5
 10
711.11023
 20
481.441947
 30
0.0
 11
712.276655
 21
482.608372
 31
0.0
  0
LINE
  8
LC-006-005-----0
  6
CONTINUOUS
  5
3C6
 10
710.827387
 20
481.441947
 30
0.0
 11
712.276655
 21
482.891215
 31
0.0
  0
LINE
  8
LC-006-005-----0
  6
CONTINUOUS
  5
3C7
 10
710.544544
 20
481.441947
 30
0.0
 11
712.276655
 21
483.174058
 31
0.0
  0
LINE
  8
LC-006-005-----0
  6
CONTINUOUS
  5
3C8
 10
710.261702
 20
481.441947
 30
0.0
 11
712.276655
 21
483.4569
 31
0.0
  0
LINE
  8
LC-006-005-----0
  6
CONTINUOUS
  5
3C9
 10
709.978859
 20
481.441947
 30
0.0
 11
712.276655
 21
483.739743
 31
0.0
  0
LINE
  8
LC-006-005-----0
  6
CONTINUOUS
  5
3CA
 10
709.696016
 20
481.441947
 30
0.0
 11
712.276655
 21
484.022586
 31
0.0
  0
LINE
  8
LC-006-005-----0
  6
CONTINUOUS
  5
3CB
 10
709.413174
 20
481.441947
 30
0.0
 11
712.276655
 21
484.305428
 31
0.0
  0
LINE
  8
LC-006-005-----0
  6
CONTINUOUS
  5
3CC
 10
709.130331
 20
481.441947
 30
0.0
 11
712.276655
 21
484.588271
 31
0.0
  0
LINE
  8
LC-006-005-----0
  6
CONTINUOUS
  5
3CD
 10
708.847488
 20
481.441947
 30
0.0
 11
712.276655
 21
484.871114
 31
0.0
  0
LINE
  8
LC-006-005-----0
  6
CONTINUOUS
  5
3CE
 10
708.564645
 20
481.441947
 30
0.0
 11
712.064645
 21
484.941947
 31
0.0
  0
LINE
  8
LC-006-005-----0
  6
CONTINUOUS
  5
3CF
 10
708.281803
 20
481.441947
 30
0.0
 11
711.781803
 21
484.941947
 31
0.0
  0
LINE
  8
LC-006-005-----0
  6
CONTINUOUS
  5
3D0
 10
707.99896
 20
481.441947
 30
0.0
 11
711.49896
 21
484.941947
 31
0.0
  0
LINE
  8
LC-006-005-----0
  6
CONTINUOUS
  5
3D1
 10
707.716117
 20
481.441947
 30
0.0
 11
711.216117
 21
484.941947
 31
0.0
  0
LINE
  8
LC-006-005-----0
  6
CONTINUOUS
  5
3D2
 10
707.433275
 20
481.441947
 30
0.0
 11
710.933275
 21
484.941947
 31
0.0
  0
LINE
  8
LC-006-005-----0
  6
CONTINUOUS
  5
3D3
 10
707.150432
 20
481.441947
 30
0.0
 11
710.650432
 21
484.941947
 31
0.0
  0
LINE
  8
LC-006-005-----0
  6
CONTINUOUS
  5
3D4
 10
706.867589
 20
481.441947
 30
0.0
 11
710.367589
 21
484.941947
 31
0.0
  0
LINE
  8
LC-006-005-----0
  6
CONTINUOUS
  5
3D5
 10
706.584746
 20
481.441947
 30
0.0
 11
710.084746
 21
484.941947
 31
0.0
  0
LINE
  8
LC-006-005-----0
  6
CONTINUOUS
  5
3D6
 10
706.301904
 20
481.441947
 30
0.0
 11
709.801904
 21
484.941947
 31
0.0
  0
LINE
  8
LC-006-005-----0
  6
CONTINUOUS
  5
3D7
 10
706.019061
 20
481.441947
 30
0.0
 11
709.519061
 21
484.941947
 31
0.0
  0
LINE
  8
LC-006-005-----0
  6
CONTINUOUS
  5
3D8
 10
705.736218
 20
481.441947
 30
0.0
 11
709.236218
 21
484.941947
 31
0.0
  0
LINE
  8
LC-006-005-----0
  6
CONTINUOUS
  5
3D9
 10
705.453376
 20
481.441947
 30
0.0
 11
708.953376
 21
484.941947
 31
0.0
  0
LINE
  8
LC-006-005-----0
  6
CONTINUOUS
  5
3DA
 10
705.170533
 20
481.441947
 30
0.0
 11
708.670533
 21
484.941947
 31
0.0
  0
LINE
  8
LC-006-005-----0
  6
CONTINUOUS
  5
3DB
 10
704.88769
 20
481.441947
 30
0.0
 11
708.38769
 21
484.941947
 31
0.0
  0
LINE
  8
LC-006-005-----0
  6
CONTINUOUS
  5
3DC
 10
704.604847
 20
481.441947
 30
0.0
 11
708.104847
 21
484.941947
 31
0.0
  0
LINE
  8
LC-006-005-----0
  6
CONTINUOUS
  5
3DD
 10
704.322005
 20
481.441947
 30
0.0
 11
707.822005
 21
484.941947
 31
0.0
  0
LINE
  8
LC-006-005-----0
  6
CONTINUOUS
  5
3DE
 10
704.039162
 20
481.441947
 30
0.0
 11
707.539162
 21
484.941947
 31
0.0
  0
LINE
  8
LC-006-005-----0
  6
CONTINUOUS
  5
3DF
 10
703.756319
 20
481.441947
 30
0.0
 11
707.256319
 21
484.941947
 31
0.0
  0
LINE
  8
LC-006-005-----0
  6
CONTINUOUS
  5
3E0
 10
703.473477
 20
481.441947
 30
0.0
 11
706.973477
 21
484.941947
 31
0.0
  0
LINE
  8
LC-006-005-----0
  6
CONTINUOUS
  5
3E1
 10
703.190634
 20
481.441947
 30
0.0
 11
706.690634
 21
484.941947
 31
0.0
  0
LINE
  8
LC-006-005-----0
  6
CONTINUOUS
  5
3E2
 10
702.907791
 20
481.441947
 30
0.0
 11
706.407791
 21
484.941947
 31
0.0
  0
LINE
  8
LC-006-005-----0
  6
CONTINUOUS
  5
3E3
 10
702.624948
 20
481.441947
 30
0.0
 11
706.124948
 21
484.941947
 31
0.0
  0
LINE
  8
LC-006-005-----0
  6
CONTINUOUS
  5
3E4
 10
702.342106
 20
481.441947
 30
0.0
 11
705.842106
 21
484.941947
 31
0.0
  0
LINE
  8
LC-006-005-----0
  6
CONTINUOUS
  5
3E5
 10
702.276655
 20
481.659339
 30
0.0
 11
705.559263
 21
484.941947
 31
0.0
  0
LINE
  8
LC-006-005-----0
  6
CONTINUOUS
  5
3E6
 10
702.276655
 20
481.942182
 30
0.0
 11
705.27642
 21
484.941947
 31
0.0
  0
LINE
  8
LC-006-005-----0
  6
CONTINUOUS
  5
3E7
 10
702.276655
 20
482.225024
 30
0.0
 11
704.993578
 21
484.941947
 31
0.0
  0
LINE
  8
LC-006-005-----0
  6
CONTINUOUS
  5
3E8
 10
702.276655
 20
482.507867
 30
0.0
 11
704.710735
 21
484.941947
 31
0.0
  0
LINE
  8
LC-006-005-----0
  6
CONTINUOUS
  5
3E9
 10
702.276655
 20
482.79071
 30
0.0
 11
704.427892
 21
484.941947
 31
0.0
  0
LINE
  8
LC-006-005-----0
  6
CONTINUOUS
  5
3EA
 10
702.276655
 20
483.073552
 30
0.0
 11
704.145049
 21
484.941947
 31
0.0
  0
LINE
  8
LC-006-005-----0
  6
CONTINUOUS
  5
3EB
 10
702.276655
 20
483.356395
 30
0.0
 11
703.862207
 21
484.941947
 31
0.0
  0
LINE
  8
LC-006-005-----0
  6
CONTINUOUS
  5
3EC
 10
702.276655
 20
483.639238
 30
0.0
 11
703.579364
 21
484.941947
 31
0.0
  0
LINE
  8
LC-006-005-----0
  6
CONTINUOUS
  5
3ED
 10
702.276655
 20
483.922081
 30
0.0
 11
703.296521
 21
484.941947
 31
0.0
  0
LINE
  8
LC-006-005-----0
  6
CONTINUOUS
  5
3EE
 10
702.276655
 20
484.204923
 30
0.0
 11
703.013679
 21
484.941947
 31
0.0
  0
LINE
  8
LC-006-005-----0
  6
CONTINUOUS
  5
3EF
 10
702.276655
 20
484.487766
 30
0.0
 11
702.730836
 21
484.941947
 31
0.0
  0
LINE
  8
LC-006-005-----0
  6
CONTINUOUS
  5
3F0
 10
702.276655
 20
484.770609
 30
0.0
 11
702.447993
 21
484.941947
 31
0.0
  0
ENDBLK
  8
0
  5
3F1
  0
BLOCK
  8
0
  5
3F3
  2
*X31
 70
    65
 10
722.276655
 20
481.441947
 30
0.0
  3
*X31
  0
LINE
  8
LC-006-005-----0
  6
CONTINUOUS
  5
3F4
 10
732.040591
 20
481.441947
 30
0.0
 11
732.276655
 21
481.678011
 31
0.0
  0
LINE
  8
LC-006-005-----0
  6
CONTINUOUS
  5
3F5
 10
731.757748
 20
481.441947
 30
0.0
 11
732.276655
 21
481.960854
 31
0.0
  0
LINE
  8
LC-006-005-----0
  6
CONTINUOUS
  5
3F6
 10
731.474905
 20
481.441947
 30
0.0
 11
732.276655
 21
482.243697
 31
0.0
  0
LINE
  8
LC-006-005-----0
  6
CONTINUOUS
  5
3F7
 10
731.192062
 20
481.441947
 30
0.0
 11
732.276655
 21
482.52654
 31
0.0
  0
LINE
  8
LC-006-005-----0
  6
CONTINUOUS
  5
3F8
 10
730.90922
 20
481.441947
 30
0.0
 11
732.276655
 21
482.809382
 31
0.0
  0
LINE
  8
LC-006-005-----0
  6
CONTINUOUS
  5
3F9
 10
730.626377
 20
481.441947
 30
0.0
 11
732.276655
 21
483.092225
 31
0.0
  0
LINE
  8
LC-006-005-----0
  6
CONTINUOUS
  5
3FA
 10
730.343534
 20
481.441947
 30
0.0
 11
732.276655
 21
483.375068
 31
0.0
  0
LINE
  8
LC-006-005-----0
  6
CONTINUOUS
  5
3FB
 10
730.060692
 20
481.441947
 30
0.0
 11
732.276655
 21
483.65791
 31
0.0
  0
LINE
  8
LC-006-005-----0
  6
CONTINUOUS
  5
3FC
 10
729.777849
 20
481.441947
 30
0.0
 11
732.276655
 21
483.940753
 31
0.0
  0
LINE
  8
LC-006-005-----0
  6
CONTINUOUS
  5
3FD
 10
729.495006
 20
481.441947
 30
0.0
 11
732.276655
 21
484.223596
 31
0.0
  0
LINE
  8
LC-006-005-----0
  6
CONTINUOUS
  5
3FE
 10
729.212163
 20
481.441947
 30
0.0
 11
732.06421
 21
484.293994
 31
0.0
  0
LINE
  8
LC-006-005-----0
  6
CONTINUOUS
  5
3FF
 10
728.929321
 20
481.441947
 30
0.0
 11
731.839072
 21
484.351698
 31
0.0
  0
LINE
  8
LC-006-005-----0
  6
CONTINUOUS
  5
400
 10
728.646478
 20
481.441947
 30
0.0
 11
731.630434
 21
484.425903
 31
0.0
  0
LINE
  8
LC-006-005-----0
  6
CONTINUOUS
  5
401
 10
728.363635
 20
481.441947
 30
0.0
 11
731.436315
 21
484.514627
 31
0.0
  0
LINE
  8
LC-006-005-----0
  6
CONTINUOUS
  5
402
 10
728.080793
 20
481.441947
 30
0.0
 11
731.255382
 21
484.616537
 31
0.0
  0
LINE
  8
LC-006-005-----0
  6
CONTINUOUS
  5
403
 10
727.79795
 20
481.441947
 30
0.0
 11
731.08674
 21
484.730738
 31
0.0
  0
LINE
  8
LC-006-005-----0
  6
CONTINUOUS
  5
404
 10
727.515107
 20
481.441947
 30
0.0
 11
730.92982
 21
484.85666
 31
0.0
  0
LINE
  8
LC-006-005-----0
  6
CONTINUOUS
  5
405
 10
727.232264
 20
481.441947
 30
0.0
 11
730.732264
 21
484.941947
 31
0.0
  0
LINE
  8
LC-006-005-----0
  6
CONTINUOUS
  5
406
 10
726.949422
 20
481.441947
 30
0.0
 11
730.449422
 21
484.941947
 31
0.0
  0
LINE
  8
LC-006-005-----0
  6
CONTINUOUS
  5
407
 10
726.666579
 20
481.441947
 30
0.0
 11
730.166579
 21
484.941947
 31
0.0
  0
LINE
  8
LC-006-005-----0
  6
CONTINUOUS
  5
408
 10
726.383736
 20
481.441947
 30
0.0
 11
729.883736
 21
484.941947
 31
0.0
  0
LINE
  8
LC-006-005-----0
  6
CONTINUOUS
  5
409
 10
726.100894
 20
481.441947
 30
0.0
 11
729.600894
 21
484.941947
 31
0.0
  0
LINE
  8
LC-006-005-----0
  6
CONTINUOUS
  5
40A
 10
725.818051
 20
481.441947
 30
0.0
 11
729.318051
 21
484.941947
 31
0.0
  0
LINE
  8
LC-006-005-----0
  6
CONTINUOUS
  5
40B
 10
725.535208
 20
481.441947
 30
0.0
 11
729.035208
 21
484.941947
 31
0.0
  0
LINE
  8
LC-006-005-----0
  6
CONTINUOUS
  5
40C
 10
725.252365
 20
481.441947
 30
0.0
 11
728.752365
 21
484.941947
 31
0.0
  0
LINE
  8
LC-006-005-----0
  6
CONTINUOUS
  5
40D
 10
724.969523
 20
481.441947
 30
0.0
 11
728.469523
 21
484.941947
 31
0.0
  0
LINE
  8
LC-006-005-----0
  6
CONTINUOUS
  5
40E
 10
724.68668
 20
481.441947
 30
0.0
 11
728.18668
 21
484.941947
 31
0.0
  0
LINE
  8
LC-006-005-----0
  6
CONTINUOUS
  5
40F
 10
724.403837
 20
481.441947
 30
0.0
 11
727.903837
 21
484.941947
 31
0.0
  0
LINE
  8
LC-006-005-----0
  6
CONTINUOUS
  5
410
 10
724.120995
 20
481.441947
 30
0.0
 11
727.620995
 21
484.941947
 31
0.0
  0
LINE
  8
LC-006-005-----0
  6
CONTINUOUS
  5
411
 10
723.838152
 20
481.441947
 30
0.0
 11
727.338152
 21
484.941947
 31
0.0
  0
LINE
  8
LC-006-005-----0
  6
CONTINUOUS
  5
412
 10
723.555309
 20
481.441947
 30
0.0
 11
727.055309
 21
484.941947
 31
0.0
  0
LINE
  8
LC-006-005-----0
  6
CONTINUOUS
  5
413
 10
723.272466
 20
481.441947
 30
0.0
 11
726.772466
 21
484.941947
 31
0.0
  0
LINE
  8
LC-006-005-----0
  6
CONTINUOUS
  5
414
 10
722.989624
 20
481.441947
 30
0.0
 11
726.489624
 21
484.941947
 31
0.0
  0
LINE
  8
LC-006-005-----0
  6
CONTINUOUS
  5
415
 10
722.706781
 20
481.441947
 30
0.0
 11
726.206781
 21
484.941947
 31
0.0
  0
LINE
  8
LC-006-005-----0
  6
CONTINUOUS
  5
416
 10
722.423938
 20
481.441947
 30
0.0
 11
725.923938
 21
484.941947
 31
0.0
  0
LINE
  8
LC-006-005-----0
  6
CONTINUOUS
  5
417
 10
722.276655
 20
481.577506
 30
0.0
 11
725.641096
 21
484.941947
 31
0.0
  0
LINE
  8
LC-006-005-----0
  6
CONTINUOUS
  5
418
 10
722.276655
 20
481.860349
 30
0.0
 11
725.358253
 21
484.941947
 31
0.0
  0
LINE
  8
LC-006-005-----0
  6
CONTINUOUS
  5
419
 10
722.276655
 20
482.143192
 30
0.0
 11
725.07541
 21
484.941947
 31
0.0
  0
LINE
  8
LC-006-005-----0
  6
CONTINUOUS
  5
41A
 10
722.276655
 20
482.426034
 30
0.0
 11
724.792568
 21
484.941947
 31
0.0
  0
LINE
  8
LC-006-005-----0
  6
CONTINUOUS
  5
41B
 10
722.276655
 20
482.708877
 30
0.0
 11
724.509725
 21
484.941947
 31
0.0
  0
LINE
  8
LC-006-005-----0
  6
CONTINUOUS
  5
41C
 10
722.276655
 20
482.99172
 30
0.0
 11
724.226882
 21
484.941947
 31
0.0
  0
LINE
  8
LC-006-005-----0
  6
CONTINUOUS
  5
41D
 10
722.276655
 20
483.274563
 30
0.0
 11
723.944039
 21
484.941947
 31
0.0
  0
LINE
  8
LC-006-005-----0
  6
CONTINUOUS
  5
41E
 10
722.276655
 20
483.557405
 30
0.0
 11
723.661197
 21
484.941947
 31
0.0
  0
LINE
  8
LC-006-005-----0
  6
CONTINUOUS
  5
41F
 10
722.276655
 20
483.840248
 30
0.0
 11
723.378354
 21
484.941947
 31
0.0
  0
LINE
  8
LC-006-005-----0
  6
CONTINUOUS
  5
420
 10
722.276655
 20
484.123091
 30
0.0
 11
723.095511
 21
484.941947
 31
0.0
  0
LINE
  8
LC-006-005-----0
  6
CONTINUOUS
  5
421
 10
722.276655
 20
484.405933
 30
0.0
 11
722.812669
 21
484.941947
 31
0.0
  0
LINE
  8
LC-006-005-----0
  6
CONTINUOUS
  5
422
 10
722.276655
 20
484.688776
 30
0.0
 11
722.529826
 21
484.941947
 31
0.0
  0
ENDBLK
  8
0
  5
423
  0
BLOCK
  8
0
  5
425
  2
*X32
 70
    65
 10
742.276655
 20
481.441947
 30
0.0
  3
*X32
  0
LINE
  8
LC-006-005-----0
  6
CONTINUOUS
  5
426
 10
752.172415
 20
482.340467
 30
0.0
 11
752.276655
 21
482.444707
 31
0.0
  0
LINE
  8
LC-006-005-----0
  6
CONTINUOUS
  5
427
 10
751.829023
 20
482.279918
 30
0.0
 11
752.276655
 21
482.72755
 31
0.0
  0
LINE
  8
LC-006-005-----0
  6
CONTINUOUS
  5
428
 10
751.485631
 20
482.219369
 30
0.0
 11
752.276655
 21
483.010392
 31
0.0
  0
LINE
  8
LC-006-005-----0
  6
CONTINUOUS
  5
429
 10
751.142239
 20
482.15882
 30
0.0
 11
752.276655
 21
483.293235
 31
0.0
  0
LINE
  8
LC-006-005-----0
  6
CONTINUOUS
  5
42A
 10
750.798847
 20
482.09827
 30
0.0
 11
752.276655
 21
483.576078
 31
0.0
  0
LINE
  8
LC-006-005-----0
  6
CONTINUOUS
  5
42B
 10
750.455455
 20
482.037721
 30
0.0
 11
752.276655
 21
483.85892
 31
0.0
  0
LINE
  8
LC-006-005-----0
  6
CONTINUOUS
  5
42C
 10
750.112063
 20
481.977172
 30
0.0
 11
752.276655
 21
484.141763
 31
0.0
  0
LINE
  8
LC-006-005-----0
  6
CONTINUOUS
  5
42D
 10
749.768671
 20
481.916622
 30
0.0
 11
752.276655
 21
484.424606
 31
0.0
  0
LINE
  8
LC-006-005-----0
  6
CONTINUOUS
  5
42E
 10
749.425279
 20
481.856073
 30
0.0
 11
752.276655
 21
484.707449
 31
0.0
  0
LINE
  8
LC-006-005-----0
  6
CONTINUOUS
  5
42F
 10
749.081887
 20
481.795524
 30
0.0
 11
752.276655
 21
484.990291
 31
0.0
  0
LINE
  8
LC-006-005-----0
  6
CONTINUOUS
  5
430
 10
748.738495
 20
481.734975
 30
0.0
 11
752.276655
 21
485.273134
 31
0.0
  0
LINE
  8
LC-006-005-----0
  6
CONTINUOUS
  5
431
 10
748.395103
 20
481.674425
 30
0.0
 11
752.276655
 21
485.555977
 31
0.0
  0
LINE
  8
LC-006-005-----0
  6
CONTINUOUS
  5
432
 10
748.051711
 20
481.613876
 30
0.0
 11
752.276655
 21
485.838819
 31
0.0
  0
LINE
  8
LC-006-005-----0
  6
CONTINUOUS
  5
433
 10
747.708319
 20
481.553327
 30
0.0
 11
752.02313
 21
485.868138
 31
0.0
  0
LINE
  8
LC-006-005-----0
  6
CONTINUOUS
  5
434
 10
747.364927
 20
481.492778
 30
0.0
 11
751.679738
 21
485.807588
 31
0.0
  0
LINE
  8
LC-006-005-----0
  6
CONTINUOUS
  5
435
 10
747.031254
 20
481.441947
 30
0.0
 11
751.336346
 21
485.747039
 31
0.0
  0
LINE
  8
LC-006-005-----0
  6
CONTINUOUS
  5
436
 10
746.748412
 20
481.441947
 30
0.0
 11
750.992954
 21
485.68649
 31
0.0
  0
LINE
  8
LC-006-005-----0
  6
CONTINUOUS
  5
437
 10
746.465569
 20
481.441947
 30
0.0
 11
750.649562
 21
485.62594
 31
0.0
  0
LINE
  8
LC-006-005-----0
  6
CONTINUOUS
  5
438
 10
746.182726
 20
481.441947
 30
0.0
 11
750.30617
 21
485.565391
 31
0.0
  0
LINE
  8
LC-006-005-----0
  6
CONTINUOUS
  5
439
 10
745.899883
 20
481.441947
 30
0.0
 11
749.962778
 21
485.504842
 31
0.0
  0
LINE
  8
LC-006-005-----0
  6
CONTINUOUS
  5
43A
 10
745.617041
 20
481.441947
 30
0.0
 11
749.619386
 21
485.444293
 31
0.0
  0
LINE
  8
LC-006-005-----0
  6
CONTINUOUS
  5
43B
 10
745.334198
 20
481.441947
 30
0.0
 11
749.275994
 21
485.383743
 31
0.0
  0
LINE
  8
LC-006-005-----0
  6
CONTINUOUS
  5
43C
 10
745.051355
 20
481.441947
 30
0.0
 11
748.932602
 21
485.323194
 31
0.0
  0
LINE
  8
LC-006-005-----0
  6
CONTINUOUS
  5
43D
 10
744.768513
 20
481.441947
 30
0.0
 11
748.58921
 21
485.262645
 31
0.0
  0
LINE
  8
LC-006-005-----0
  6
CONTINUOUS
  5
43E
 10
744.48567
 20
481.441947
 30
0.0
 11
748.245818
 21
485.202096
 31
0.0
  0
LINE
  8
LC-006-005-----0
  6
CONTINUOUS
  5
43F
 10
744.202827
 20
481.441947
 30
0.0
 11
747.902426
 21
485.141546
 31
0.0
  0
LINE
  8
LC-006-005-----0
  6
CONTINUOUS
  5
440
 10
743.919985
 20
481.441947
 30
0.0
 11
747.559034
 21
485.080997
 31
0.0
  0
LINE
  8
LC-006-005-----0
  6
CONTINUOUS
  5
441
 10
743.637142
 20
481.441947
 30
0.0
 11
747.215642
 21
485.020448
 31
0.0
  0
LINE
  8
LC-006-005-----0
  6
CONTINUOUS
  5
442
 10
743.354299
 20
481.441947
 30
0.0
 11
746.87225
 21
484.959898
 31
0.0
  0
LINE
  8
LC-006-005-----0
  6
CONTINUOUS
  5
443
 10
743.071456
 20
481.441947
 30
0.0
 11
746.571456
 21
484.941947
 31
0.0
  0
LINE
  8
LC-006-005-----0
  6
CONTINUOUS
  5
444
 10
742.788614
 20
481.441947
 30
0.0
 11
746.288614
 21
484.941947
 31
0.0
  0
LINE
  8
LC-006-005-----0
  6
CONTINUOUS
  5
445
 10
742.505771
 20
481.441947
 30
0.0
 11
746.005771
 21
484.941947
 31
0.0
  0
LINE
  8
LC-006-005-----0
  6
CONTINUOUS
  5
446
 10
742.276655
 20
481.495674
 30
0.0
 11
745.722928
 21
484.941947
 31
0.0
  0
LINE
  8
LC-006-005-----0
  6
CONTINUOUS
  5
447
 10
742.276655
 20
481.778516
 30
0.0
 11
745.440086
 21
484.941947
 31
0.0
  0
LINE
  8
LC-006-005-----0
  6
CONTINUOUS
  5
448
 10
742.276655
 20
482.061359
 30
0.0
 11
745.157243
 21
484.941947
 31
0.0
  0
LINE
  8
LC-006-005-----0
  6
CONTINUOUS
  5
449
 10
742.276655
 20
482.344202
 30
0.0
 11
744.8744
 21
484.941947
 31
0.0
  0
LINE
  8
LC-006-005-----0
  6
CONTINUOUS
  5
44A
 10
742.276655
 20
482.627045
 30
0.0
 11
744.591557
 21
484.941947
 31
0.0
  0
LINE
  8
LC-006-005-----0
  6
CONTINUOUS
  5
44B
 10
742.276655
 20
482.909887
 30
0.0
 11
744.308715
 21
484.941947
 31
0.0
  0
LINE
  8
LC-006-005-----0
  6
CONTINUOUS
  5
44C
 10
742.276655
 20
483.19273
 30
0.0
 11
744.025872
 21
484.941947
 31
0.0
  0
LINE
  8
LC-006-005-----0
  6
CONTINUOUS
  5
44D
 10
742.276655
 20
483.475573
 30
0.0
 11
743.743029
 21
484.941947
 31
0.0
  0
LINE
  8
LC-006-005-----0
  6
CONTINUOUS
  5
44E
 10
742.276655
 20
483.758415
 30
0.0
 11
743.460187
 21
484.941947
 31
0.0
  0
LINE
  8
LC-006-005-----0
  6
CONTINUOUS
  5
44F
 10
742.276655
 20
484.041258
 30
0.0
 11
743.177344
 21
484.941947
 31
0.0
  0
LINE
  8
LC-006-005-----0
  6
CONTINUOUS
  5
450
 10
742.276655
 20
484.324101
 30
0.0
 11
742.894501
 21
484.941947
 31
0.0
  0
LINE
  8
LC-006-005-----0
  6
CONTINUOUS
  5
451
 10
742.276655
 20
484.606944
 30
0.0
 11
742.611658
 21
484.941947
 31
0.0
  0
LINE
  8
LC-006-005-----0
  6
CONTINUOUS
  5
452
 10
742.276655
 20
484.889786
 30
0.0
 11
742.328816
 21
484.941947
 31
0.0
  0
ENDBLK
  8
0
  5
453
  0
BLOCK
  8
0
  5
455
  2
*X33
 70
    65
 10
762.276655
 20
484.122117
 30
0.0
  3
*X33
  0
LINE
  8
LC-006-005-----0
  6
CONTINUOUS
  5
456
 10
772.08915
 20
485.852325
 30
0.0
 11
772.276655
 21
486.03983
 31
0.0
  0
LINE
  8
LC-006-005-----0
  6
CONTINUOUS
  5
457
 10
771.745758
 20
485.791776
 30
0.0
 11
772.276655
 21
486.322672
 31
0.0
  0
LINE
  8
LC-006-005-----0
  6
CONTINUOUS
  5
458
 10
771.402366
 20
485.731227
 30
0.0
 11
772.276655
 21
486.605515
 31
0.0
  0
LINE
  8
LC-006-005-----0
  6
CONTINUOUS
  5
459
 10
771.058974
 20
485.670677
 30
0.0
 11
772.276655
 21
486.888358
 31
0.0
  0
LINE
  8
LC-006-005-----0
  6
CONTINUOUS
  5
45A
 10
770.715582
 20
485.610128
 30
0.0
 11
772.276655
 21
487.1712
 31
0.0
  0
LINE
  8
LC-006-005-----0
  6
CONTINUOUS
  5
45B
 10
770.37219
 20
485.549579
 30
0.0
 11
772.276655
 21
487.454043
 31
0.0
  0
LINE
  8
LC-006-005-----0
  6
CONTINUOUS
  5
45C
 10
770.028798
 20
485.48903
 30
0.0
 11
772.276655
 21
487.736886
 31
0.0
  0
LINE
  8
LC-006-005-----0
  6
CONTINUOUS
  5
45D
 10
769.685406
 20
485.42848
 30
0.0
 11
772.276655
 21
488.019729
 31
0.0
  0
LINE
  8
LC-006-005-----0
  6
CONTINUOUS
  5
45E
 10
769.342014
 20
485.367931
 30
0.0
 11
772.276655
 21
488.302571
 31
0.0
  0
LINE
  8
LC-006-005-----0
  6
CONTINUOUS
  5
45F
 10
768.998622
 20
485.307382
 30
0.0
 11
772.276655
 21
488.585414
 31
0.0
  0
LINE
  8
LC-006-005-----0
  6
CONTINUOUS
  5
460
 10
768.65523
 20
485.246832
 30
0.0
 11
772.276655
 21
488.868257
 31
0.0
  0
LINE
  8
LC-006-005-----0
  6
CONTINUOUS
  5
461
 10
768.311838
 20
485.186283
 30
0.0
 11
772.276655
 21
489.151099
 31
0.0
  0
LINE
  8
LC-006-005-----0
  6
CONTINUOUS
  5
462
 10
767.968446
 20
485.125734
 30
0.0
 11
772.276655
 21
489.433942
 31
0.0
  0
LINE
  8
LC-006-005-----0
  6
CONTINUOUS
  5
463
 10
767.625054
 20
485.065185
 30
0.0
 11
771.939865
 21
489.379995
 31
0.0
  0
LINE
  8
LC-006-005-----0
  6
CONTINUOUS
  5
464
 10
767.281662
 20
485.004635
 30
0.0
 11
771.596473
 21
489.319446
 31
0.0
  0
LINE
  8
LC-006-005-----0
  6
CONTINUOUS
  5
465
 10
766.93827
 20
484.944086
 30
0.0
 11
771.253081
 21
489.258897
 31
0.0
  0
LINE
  8
LC-006-005-----0
  6
CONTINUOUS
  5
466
 10
766.594878
 20
484.883537
 30
0.0
 11
770.909689
 21
489.198347
 31
0.0
  0
LINE
  8
LC-006-005-----0
  6
CONTINUOUS
  5
467
 10
766.251486
 20
484.822988
 30
0.0
 11
770.566297
 21
489.137798
 31
0.0
  0
LINE
  8
LC-006-005-----0
  6
CONTINUOUS
  5
468
 10
765.908094
 20
484.762438
 30
0.0
 11
770.222905
 21
489.077249
 31
0.0
  0
LINE
  8
LC-006-005-----0
  6
CONTINUOUS
  5
469
 10
765.564702
 20
484.701889
 30
0.0
 11
769.879513
 21
489.0167
 31
0.0
  0
LINE
  8
LC-006-005-----0
  6
CONTINUOUS
  5
46A
 10
765.22131
 20
484.64134
 30
0.0
 11
769.536121
 21
488.95615
 31
0.0
  0
LINE
  8
LC-006-005-----0
  6
CONTINUOUS
  5
46B
 10
764.877919
 20
484.58079
 30
0.0
 11
769.192729
 21
488.895601
 31
0.0
  0
LINE
  8
LC-006-005-----0
  6
CONTINUOUS
  5
46C
 10
764.534527
 20
484.520241
 30
0.0
 11
768.849337
 21
488.835052
 31
0.0
  0
LINE
  8
LC-006-005-----0
  6
CONTINUOUS
  5
46D
 10
764.191135
 20
484.459692
 30
0.0
 11
768.505945
 21
488.774503
 31
0.0
  0
LINE
  8
LC-006-005-----0
  6
CONTINUOUS
  5
46E
 10
763.847743
 20
484.399143
 30
0.0
 11
768.162553
 21
488.713953
 31
0.0
  0
LINE
  8
LC-006-005-----0
  6
CONTINUOUS
  5
46F
 10
763.504351
 20
484.338593
 30
0.0
 11
767.819161
 21
488.653404
 31
0.0
  0
LINE
  8
LC-006-005-----0
  6
CONTINUOUS
  5
470
 10
763.160959
 20
484.278044
 30
0.0
 11
767.475769
 21
488.592855
 31
0.0
  0
LINE
  8
LC-006-005-----0
  6
CONTINUOUS
  5
471
 10
762.817567
 20
484.217495
 30
0.0
 11
767.132377
 21
488.532305
 31
0.0
  0
LINE
  8
LC-006-005-----0
  6
CONTINUOUS
  5
472
 10
762.474175
 20
484.156946
 30
0.0
 11
766.788985
 21
488.471756
 31
0.0
  0
LINE
  8
LC-006-005-----0
  6
CONTINUOUS
  5
473
 10
762.276655
 20
484.242268
 30
0.0
 11
766.445593
 21
488.411207
 31
0.0
  0
LINE
  8
LC-006-005-----0
  6
CONTINUOUS
  5
474
 10
762.276655
 20
484.525111
 30
0.0
 11
766.102201
 21
488.350658
 31
0.0
  0
LINE
  8
LC-006-005-----0
  6
CONTINUOUS
  5
475
 10
762.276655
 20
484.807954
 30
0.0
 11
765.758809
 21
488.290108
 31
0.0
  0
LINE
  8
LC-006-005-----0
  6
CONTINUOUS
  5
476
 10
762.276655
 20
485.090796
 30
0.0
 11
765.415417
 21
488.229559
 31
0.0
  0
LINE
  8
LC-006-005-----0
  6
CONTINUOUS
  5
477
 10
762.276655
 20
485.373639
 30
0.0
 11
765.072025
 21
488.16901
 31
0.0
  0
LINE
  8
LC-006-005-----0
  6
CONTINUOUS
  5
478
 10
762.276655
 20
485.656482
 30
0.0
 11
764.728633
 21
488.108461
 31
0.0
  0
LINE
  8
LC-006-005-----0
  6
CONTINUOUS
  5
479
 10
762.276655
 20
485.939325
 30
0.0
 11
764.385241
 21
488.047911
 31
0.0
  0
LINE
  8
LC-006-005-----0
  6
CONTINUOUS
  5
47A
 10
762.276655
 20
486.222167
 30
0.0
 11
764.041849
 21
487.987362
 31
0.0
  0
LINE
  8
LC-006-005-----0
  6
CONTINUOUS
  5
47B
 10
762.276655
 20
486.50501
 30
0.0
 11
763.698457
 21
487.926813
 31
0.0
  0
LINE
  8
LC-006-005-----0
  6
CONTINUOUS
  5
47C
 10
762.276655
 20
486.787853
 30
0.0
 11
763.355065
 21
487.866264
 31
0.0
  0
LINE
  8
LC-006-005-----0
  6
CONTINUOUS
  5
47D
 10
762.276655
 20
487.070695
 30
0.0
 11
763.011673
 21
487.805714
 31
0.0
  0
LINE
  8
LC-006-005-----0
  6
CONTINUOUS
  5
47E
 10
762.276655
 20
487.353538
 30
0.0
 11
762.668281
 21
487.745165
 31
0.0
  0
LINE
  8
LC-006-005-----0
  6
CONTINUOUS
  5
47F
 10
762.276655
 20
487.636381
 30
0.0
 11
762.324889
 21
487.684616
 31
0.0
  0
ENDBLK
  8
0
  5
480
  0
BLOCK
  8
0
  5
482
  2
*X34
 70
    65
 10
782.276655
 20
487.648657
 30
0.0
  3
*X34
  0
LINE
  8
LC-006-005-----0
  6
CONTINUOUS
  5
483
 10
792.125684
 20
488.069769
 30
0.0
 11
792.276655
 21
488.220739
 31
0.0
  0
LINE
  8
LC-006-005-----0
  6
CONTINUOUS
  5
484
 10
791.842842
 20
488.069769
 30
0.0
 11
792.276655
 21
488.503581
 31
0.0
  0
LINE
  8
LC-006-005-----0
  6
CONTINUOUS
  5
485
 10
791.559999
 20
488.069769
 30
0.0
 11
792.276655
 21
488.786424
 31
0.0
  0
LINE
  8
LC-006-005-----0
  6
CONTINUOUS
  5
486
 10
791.277156
 20
488.069769
 30
0.0
 11
792.276655
 21
489.069267
 31
0.0
  0
LINE
  8
LC-006-005-----0
  6
CONTINUOUS
  5
487
 10
790.994314
 20
488.069769
 30
0.0
 11
792.276655
 21
489.35211
 31
0.0
  0
LINE
  8
LC-006-005-----0
  6
CONTINUOUS
  5
488
 10
790.711471
 20
488.069769
 30
0.0
 11
792.276655
 21
489.634952
 31
0.0
  0
LINE
  8
LC-006-005-----0
  6
CONTINUOUS
  5
489
 10
790.428628
 20
488.069769
 30
0.0
 11
792.276655
 21
489.917795
 31
0.0
  0
LINE
  8
LC-006-005-----0
  6
CONTINUOUS
  5
48A
 10
790.145785
 20
488.069769
 30
0.0
 11
792.276655
 21
490.200638
 31
0.0
  0
LINE
  8
LC-006-005-----0
  6
CONTINUOUS
  5
48B
 10
789.862943
 20
488.069769
 30
0.0
 11
792.276655
 21
490.48348
 31
0.0
  0
LINE
  8
LC-006-005-----0
  6
CONTINUOUS
  5
48C
 10
789.5801
 20
488.069769
 30
0.0
 11
792.276655
 21
490.766323
 31
0.0
  0
LINE
  8
LC-006-005-----0
  6
CONTINUOUS
  5
48D
 10
789.297257
 20
488.069769
 30
0.0
 11
792.276655
 21
491.049166
 31
0.0
  0
LINE
  8
LC-006-005-----0
  6
CONTINUOUS
  5
48E
 10
789.014415
 20
488.069769
 30
0.0
 11
792.276655
 21
491.332009
 31
0.0
  0
LINE
  8
LC-006-005-----0
  6
CONTINUOUS
  5
48F
 10
788.731572
 20
488.069769
 30
0.0
 11
792.231572
 21
491.569769
 31
0.0
  0
LINE
  8
LC-006-005-----0
  6
CONTINUOUS
  5
490
 10
788.448729
 20
488.069769
 30
0.0
 11
791.948729
 21
491.569769
 31
0.0
  0
LINE
  8
LC-006-005-----0
  6
CONTINUOUS
  5
491
 10
788.165886
 20
488.069769
 30
0.0
 11
791.665886
 21
491.569769
 31
0.0
  0
LINE
  8
LC-006-005-----0
  6
CONTINUOUS
  5
492
 10
787.883044
 20
488.069769
 30
0.0
 11
791.383044
 21
491.569769
 31
0.0
  0
LINE
  8
LC-006-005-----0
  6
CONTINUOUS
  5
493
 10
787.600201
 20
488.069769
 30
0.0
 11
791.100201
 21
491.569769
 31
0.0
  0
LINE
  8
LC-006-005-----0
  6
CONTINUOUS
  5
494
 10
787.317358
 20
488.069769
 30
0.0
 11
790.817358
 21
491.569769
 31
0.0
  0
LINE
  8
LC-006-005-----0
  6
CONTINUOUS
  5
495
 10
787.034516
 20
488.069769
 30
0.0
 11
790.534516
 21
491.569769
 31
0.0
  0
LINE
  8
LC-006-005-----0
  6
CONTINUOUS
  5
496
 10
786.751673
 20
488.069769
 30
0.0
 11
790.251673
 21
491.569769
 31
0.0
  0
LINE
  8
LC-006-005-----0
  6
CONTINUOUS
  5
497
 10
786.46883
 20
488.069769
 30
0.0
 11
789.96883
 21
491.569769
 31
0.0
  0
LINE
  8
LC-006-005-----0
  6
CONTINUOUS
  5
498
 10
786.185987
 20
488.069769
 30
0.0
 11
789.685987
 21
491.569769
 31
0.0
  0
LINE
  8
LC-006-005-----0
  6
CONTINUOUS
  5
499
 10
785.903145
 20
488.069769
 30
0.0
 11
789.403145
 21
491.569769
 31
0.0
  0
LINE
  8
LC-006-005-----0
  6
CONTINUOUS
  5
49A
 10
785.620302
 20
488.069769
 30
0.0
 11
789.120302
 21
491.569769
 31
0.0
  0
LINE
  8
LC-006-005-----0
  6
CONTINUOUS
  5
49B
 10
785.337459
 20
488.069769
 30
0.0
 11
788.837459
 21
491.569769
 31
0.0
  0
LINE
  8
LC-006-005-----0
  6
CONTINUOUS
  5
49C
 10
785.054617
 20
488.069769
 30
0.0
 11
788.554617
 21
491.569769
 31
0.0
  0
LINE
  8
LC-006-005-----0
  6
CONTINUOUS
  5
49D
 10
784.771774
 20
488.069769
 30
0.0
 11
788.271774
 21
491.569769
 31
0.0
  0
LINE
  8
LC-006-005-----0
  6
CONTINUOUS
  5
49E
 10
784.451262
 20
488.032099
 30
0.0
 11
787.988931
 21
491.569769
 31
0.0
  0
LINE
  8
LC-006-005-----0
  6
CONTINUOUS
  5
49F
 10
784.10787
 20
487.97155
 30
0.0
 11
787.706088
 21
491.569769
 31
0.0
  0
LINE
  8
LC-006-005-----0
  6
CONTINUOUS
  5
4A0
 10
783.764478
 20
487.911
 30
0.0
 11
787.423246
 21
491.569769
 31
0.0
  0
LINE
  8
LC-006-005-----0
  6
CONTINUOUS
  5
4A1
 10
783.421086
 20
487.850451
 30
0.0
 11
787.140403
 21
491.569769
 31
0.0
  0
LINE
  8
LC-006-005-----0
  6
CONTINUOUS
  5
4A2
 10
783.077694
 20
487.789902
 30
0.0
 11
786.85756
 21
491.569769
 31
0.0
  0
LINE
  8
LC-006-005-----0
  6
CONTINUOUS
  5
4A3
 10
782.734302
 20
487.729353
 30
0.0
 11
786.574718
 21
491.569769
 31
0.0
  0
LINE
  8
LC-006-005-----0
  6
CONTINUOUS
  5
4A4
 10
782.39091
 20
487.668803
 30
0.0
 11
786.291875
 21
491.569769
 31
0.0
  0
LINE
  8
LC-006-005-----0
  6
CONTINUOUS
  5
4A5
 10
782.276655
 20
487.837391
 30
0.0
 11
786.009032
 21
491.569769
 31
0.0
  0
LINE
  8
LC-006-005-----0
  6
CONTINUOUS
  5
4A6
 10
782.276655
 20
488.120234
 30
0.0
 11
785.726189
 21
491.569769
 31
0.0
  0
LINE
  8
LC-006-005-----0
  6
CONTINUOUS
  5
4A7
 10
782.276655
 20
488.403076
 30
0.0
 11
785.443347
 21
491.569769
 31
0.0
  0
LINE
  8
LC-006-005-----0
  6
CONTINUOUS
  5
4A8
 10
782.276655
 20
488.685919
 30
0.0
 11
785.160504
 21
491.569769
 31
0.0
  0
LINE
  8
LC-006-005-----0
  6
CONTINUOUS
  5
4A9
 10
782.276655
 20
488.968762
 30
0.0
 11
784.877661
 21
491.569769
 31
0.0
  0
LINE
  8
LC-006-005-----0
  6
CONTINUOUS
  5
4AA
 10
782.276655
 20
489.251605
 30
0.0
 11
784.594819
 21
491.569769
 31
0.0
  0
LINE
  8
LC-006-005-----0
  6
CONTINUOUS
  5
4AB
 10
782.276655
 20
489.534447
 30
0.0
 11
784.301976
 21
491.559769
 31
0.0
  0
LINE
  8
LC-006-005-----0
  6
CONTINUOUS
  5
4AC
 10
782.276655
 20
489.81729
 30
0.0
 11
783.958585
 21
491.49922
 31
0.0
  0
LINE
  8
LC-006-005-----0
  6
CONTINUOUS
  5
4AD
 10
782.276655
 20
490.100133
 30
0.0
 11
783.615193
 21
491.438671
 31
0.0
  0
LINE
  8
LC-006-005-----0
  6
CONTINUOUS
  5
4AE
 10
782.276655
 20
490.382975
 30
0.0
 11
783.271801
 21
491.378121
 31
0.0
  0
LINE
  8
LC-006-005-----0
  6
CONTINUOUS
  5
4AF
 10
782.276655
 20
490.665818
 30
0.0
 11
782.928409
 21
491.317572
 31
0.0
  0
LINE
  8
LC-006-005-----0
  6
CONTINUOUS
  5
4B0
 10
782.276655
 20
490.948661
 30
0.0
 11
782.585017
 21
491.257023
 31
0.0
  0
ENDBLK
  8
0
  5
4B1
  0
BLOCK
  8
0
  5
4B3
  2
*X35
 70
    65
 10
802.276655
 20
488.069769
 30
0.0
  3
*X35
  0
LINE
  8
LC-006-005-----0
  6
CONTINUOUS
  5
4B4
 10
812.207517
 20
488.069769
 30
0.0
 11
812.276655
 21
488.138906
 31
0.0
  0
LINE
  8
LC-006-005-----0
  6
CONTINUOUS
  5
4B5
 10
811.924674
 20
488.069769
 30
0.0
 11
812.276655
 21
488.421749
 31
0.0
  0
LINE
  8
LC-006-005-----0
  6
CONTINUOUS
  5
4B6
 10
811.641832
 20
488.069769
 30
0.0
 11
812.276655
 21
488.704592
 31
0.0
  0
LINE
  8
LC-006-005-----0
  6
CONTINUOUS
  5
4B7
 10
811.358989
 20
488.069769
 30
0.0
 11
812.276655
 21
488.987434
 31
0.0
  0
LINE
  8
LC-006-005-----0
  6
CONTINUOUS
  5
4B8
 10
811.076146
 20
488.069769
 30
0.0
 11
812.276655
 21
489.270277
 31
0.0
  0
LINE
  8
LC-006-005-----0
  6
CONTINUOUS
  5
4B9
 10
810.793303
 20
488.069769
 30
0.0
 11
812.276655
 21
489.55312
 31
0.0
  0
LINE
  8
LC-006-005-----0
  6
CONTINUOUS
  5
4BA
 10
810.510461
 20
488.069769
 30
0.0
 11
812.276655
 21
489.835962
 31
0.0
  0
LINE
  8
LC-006-005-----0
  6
CONTINUOUS
  5
4BB
 10
810.227618
 20
488.069769
 30
0.0
 11
812.276655
 21
490.118805
 31
0.0
  0
LINE
  8
LC-006-005-----0
  6
CONTINUOUS
  5
4BC
 10
809.944775
 20
488.069769
 30
0.0
 11
812.276655
 21
490.401648
 31
0.0
  0
LINE
  8
LC-006-005-----0
  6
CONTINUOUS
  5
4BD
 10
809.661933
 20
488.069769
 30
0.0
 11
812.276655
 21
490.684491
 31
0.0
  0
LINE
  8
LC-006-005-----0
  6
CONTINUOUS
  5
4BE
 10
809.37909
 20
488.069769
 30
0.0
 11
812.276655
 21
490.967333
 31
0.0
  0
LINE
  8
LC-006-005-----0
  6
CONTINUOUS
  5
4BF
 10
809.096247
 20
488.069769
 30
0.0
 11
812.276655
 21
491.250176
 31
0.0
  0
LINE
  8
LC-006-005-----0
  6
CONTINUOUS
  5
4C0
 10
808.813404
 20
488.069769
 30
0.0
 11
812.276655
 21
491.533019
 31
0.0
  0
LINE
  8
LC-006-005-----0
  6
CONTINUOUS
  5
4C1
 10
808.530562
 20
488.069769
 30
0.0
 11
812.030562
 21
491.569769
 31
0.0
  0
LINE
  8
LC-006-005-----0
  6
CONTINUOUS
  5
4C2
 10
808.247719
 20
488.069769
 30
0.0
 11
811.747719
 21
491.569769
 31
0.0
  0
LINE
  8
LC-006-005-----0
  6
CONTINUOUS
  5
4C3
 10
807.964876
 20
488.069769
 30
0.0
 11
811.464876
 21
491.569769
 31
0.0
  0
LINE
  8
LC-006-005-----0
  6
CONTINUOUS
  5
4C4
 10
807.682034
 20
488.069769
 30
0.0
 11
811.182034
 21
491.569769
 31
0.0
  0
LINE
  8
LC-006-005-----0
  6
CONTINUOUS
  5
4C5
 10
807.399191
 20
488.069769
 30
0.0
 11
810.899191
 21
491.569769
 31
0.0
  0
LINE
  8
LC-006-005-----0
  6
CONTINUOUS
  5
4C6
 10
807.116348
 20
488.069769
 30
0.0
 11
810.616348
 21
491.569769
 31
0.0
  0
LINE
  8
LC-006-005-----0
  6
CONTINUOUS
  5
4C7
 10
806.833505
 20
488.069769
 30
0.0
 11
810.333505
 21
491.569769
 31
0.0
  0
LINE
  8
LC-006-005-----0
  6
CONTINUOUS
  5
4C8
 10
806.550663
 20
488.069769
 30
0.0
 11
810.050663
 21
491.569769
 31
0.0
  0
LINE
  8
LC-006-005-----0
  6
CONTINUOUS
  5
4C9
 10
806.26782
 20
488.069769
 30
0.0
 11
809.76782
 21
491.569769
 31
0.0
  0
LINE
  8
LC-006-005-----0
  6
CONTINUOUS
  5
4CA
 10
805.984977
 20
488.069769
 30
0.0
 11
809.484977
 21
491.569769
 31
0.0
  0
LINE
  8
LC-006-005-----0
  6
CONTINUOUS
  5
4CB
 10
805.702135
 20
488.069769
 30
0.0
 11
809.202135
 21
491.569769
 31
0.0
  0
LINE
  8
LC-006-005-----0
  6
CONTINUOUS
  5
4CC
 10
805.419292
 20
488.069769
 30
0.0
 11
808.919292
 21
491.569769
 31
0.0
  0
LINE
  8
LC-006-005-----0
  6
CONTINUOUS
  5
4CD
 10
805.136449
 20
488.069769
 30
0.0
 11
808.636449
 21
491.569769
 31
0.0
  0
LINE
  8
LC-006-005-----0
  6
CONTINUOUS
  5
4CE
 10
804.853606
 20
488.069769
 30
0.0
 11
808.353606
 21
491.569769
 31
0.0
  0
LINE
  8
LC-006-005-----0
  6
CONTINUOUS
  5
4CF
 10
804.570764
 20
488.069769
 30
0.0
 11
808.070764
 21
491.569769
 31
0.0
  0
LINE
  8
LC-006-005-----0
  6
CONTINUOUS
  5
4D0
 10
804.287921
 20
488.069769
 30
0.0
 11
807.787921
 21
491.569769
 31
0.0
  0
LINE
  8
LC-006-005-----0
  6
CONTINUOUS
  5
4D1
 10
804.005078
 20
488.069769
 30
0.0
 11
807.505078
 21
491.569769
 31
0.0
  0
LINE
  8
LC-006-005-----0
  6
CONTINUOUS
  5
4D2
 10
803.722236
 20
488.069769
 30
0.0
 11
807.222236
 21
491.569769
 31
0.0
  0
LINE
  8
LC-006-005-----0
  6
CONTINUOUS
  5
4D3
 10
803.439393
 20
488.069769
 30
0.0
 11
806.939393
 21
491.569769
 31
0.0
  0
LINE
  8
LC-006-005-----0
  6
CONTINUOUS
  5
4D4
 10
803.15655
 20
488.069769
 30
0.0
 11
806.65655
 21
491.569769
 31
0.0
  0
LINE
  8
LC-006-005-----0
  6
CONTINUOUS
  5
4D5
 10
802.873708
 20
488.069769
 30
0.0
 11
806.373708
 21
491.569769
 31
0.0
  0
LINE
  8
LC-006-005-----0
  6
CONTINUOUS
  5
4D6
 10
802.590865
 20
488.069769
 30
0.0
 11
806.090865
 21
491.569769
 31
0.0
  0
LINE
  8
LC-006-005-----0
  6
CONTINUOUS
  5
4D7
 10
802.308022
 20
488.069769
 30
0.0
 11
805.808022
 21
491.569769
 31
0.0
  0
LINE
  8
LC-006-005-----0
  6
CONTINUOUS
  5
4D8
 10
802.276655
 20
488.321244
 30
0.0
 11
805.525179
 21
491.569769
 31
0.0
  0
LINE
  8
LC-006-005-----0
  6
CONTINUOUS
  5
4D9
 10
802.276655
 20
488.604087
 30
0.0
 11
805.242337
 21
491.569769
 31
0.0
  0
LINE
  8
LC-006-005-----0
  6
CONTINUOUS
  5
4DA
 10
802.276655
 20
488.886929
 30
0.0
 11
804.959494
 21
491.569769
 31
0.0
  0
LINE
  8
LC-006-005-----0
  6
CONTINUOUS
  5
4DB
 10
802.276655
 20
489.169772
 30
0.0
 11
804.676651
 21
491.569769
 31
0.0
  0
LINE
  8
LC-006-005-----0
  6
CONTINUOUS
  5
4DC
 10
802.276655
 20
489.452615
 30
0.0
 11
804.393809
 21
491.569769
 31
0.0
  0
LINE
  8
LC-006-005-----0
  6
CONTINUOUS
  5
4DD
 10
802.276655
 20
489.735457
 30
0.0
 11
804.110966
 21
491.569769
 31
0.0
  0
LINE
  8
LC-006-005-----0
  6
CONTINUOUS
  5
4DE
 10
802.276655
 20
490.0183
 30
0.0
 11
803.828123
 21
491.569769
 31
0.0
  0
LINE
  8
LC-006-005-----0
  6
CONTINUOUS
  5
4DF
 10
802.276655
 20
490.301143
 30
0.0
 11
803.54528
 21
491.569769
 31
0.0
  0
LINE
  8
LC-006-005-----0
  6
CONTINUOUS
  5
4E0
 10
802.276655
 20
490.583985
 30
0.0
 11
803.262438
 21
491.569769
 31
0.0
  0
LINE
  8
LC-006-005-----0
  6
CONTINUOUS
  5
4E1
 10
802.276655
 20
490.866828
 30
0.0
 11
802.979595
 21
491.569769
 31
0.0
  0
LINE
  8
LC-006-005-----0
  6
CONTINUOUS
  5
4E2
 10
802.276655
 20
491.149671
 30
0.0
 11
802.696752
 21
491.569769
 31
0.0
  0
LINE
  8
LC-006-005-----0
  6
CONTINUOUS
  5
4E3
 10
802.276655
 20
491.432514
 30
0.0
 11
802.41391
 21
491.569769
 31
0.0
  0
ENDBLK
  8
0
  5
4E4
  0
BLOCK
  8
0
  5
4E6
  2
*X36
 70
    65
 10
492.290868
 20
481.441947
 30
0.0
  3
*X36
  0
LINE
  8
LC-006-005-----0
  6
CONTINUOUS
  5
4E7
 10
502.089465
 20
481.441947
 30
0.0
 11
502.290868
 21
481.64335
 31
0.0
  0
LINE
  8
LC-006-005-----0
  6
CONTINUOUS
  5
4E8
 10
501.806623
 20
481.441947
 30
0.0
 11
502.290868
 21
481.926193
 31
0.0
  0
LINE
  8
LC-006-005-----0
  6
CONTINUOUS
  5
4E9
 10
501.52378
 20
481.441947
 30
0.0
 11
502.290868
 21
482.209036
 31
0.0
  0
LINE
  8
LC-006-005-----0
  6
CONTINUOUS
  5
4EA
 10
501.240937
 20
481.441947
 30
0.0
 11
502.290868
 21
482.491878
 31
0.0
  0
LINE
  8
LC-006-005-----0
  6
CONTINUOUS
  5
4EB
 10
500.958094
 20
481.441947
 30
0.0
 11
502.290868
 21
482.774721
 31
0.0
  0
LINE
  8
LC-006-005-----0
  6
CONTINUOUS
  5
4EC
 10
500.675252
 20
481.441947
 30
0.0
 11
502.290868
 21
483.057564
 31
0.0
  0
LINE
  8
LC-006-005-----0
  6
CONTINUOUS
  5
4ED
 10
500.392409
 20
481.441947
 30
0.0
 11
502.290868
 21
483.340406
 31
0.0
  0
LINE
  8
LC-006-005-----0
  6
CONTINUOUS
  5
4EE
 10
500.109566
 20
481.441947
 30
0.0
 11
502.290868
 21
483.623249
 31
0.0
  0
LINE
  8
LC-006-005-----0
  6
CONTINUOUS
  5
4EF
 10
499.826724
 20
481.441947
 30
0.0
 11
502.290868
 21
483.906092
 31
0.0
  0
LINE
  8
LC-006-005-----0
  6
CONTINUOUS
  5
4F0
 10
499.543881
 20
481.441947
 30
0.0
 11
502.290868
 21
484.188935
 31
0.0
  0
LINE
  8
LC-006-005-----0
  6
CONTINUOUS
  5
4F1
 10
499.261038
 20
481.441947
 30
0.0
 11
502.290868
 21
484.471777
 31
0.0
  0
LINE
  8
LC-006-005-----0
  6
CONTINUOUS
  5
4F2
 10
498.978196
 20
481.441947
 30
0.0
 11
502.290868
 21
484.75462
 31
0.0
  0
LINE
  8
LC-006-005-----0
  6
CONTINUOUS
  5
4F3
 10
498.695353
 20
481.441947
 30
0.0
 11
502.195353
 21
484.941947
 31
0.0
  0
LINE
  8
LC-006-005-----0
  6
CONTINUOUS
  5
4F4
 10
498.41251
 20
481.441947
 30
0.0
 11
501.91251
 21
484.941947
 31
0.0
  0
LINE
  8
LC-006-005-----0
  6
CONTINUOUS
  5
4F5
 10
498.129667
 20
481.441947
 30
0.0
 11
501.629667
 21
484.941947
 31
0.0
  0
LINE
  8
LC-006-005-----0
  6
CONTINUOUS
  5
4F6
 10
497.846825
 20
481.441947
 30
0.0
 11
501.346825
 21
484.941947
 31
0.0
  0
LINE
  8
LC-006-005-----0
  6
CONTINUOUS
  5
4F7
 10
497.563982
 20
481.441947
 30
0.0
 11
501.063982
 21
484.941947
 31
0.0
  0
LINE
  8
LC-006-005-----0
  6
CONTINUOUS
  5
4F8
 10
497.281139
 20
481.441947
 30
0.0
 11
500.781139
 21
484.941947
 31
0.0
  0
LINE
  8
LC-006-005-----0
  6
CONTINUOUS
  5
4F9
 10
496.998297
 20
481.441947
 30
0.0
 11
500.498297
 21
484.941947
 31
0.0
  0
LINE
  8
LC-006-005-----0
  6
CONTINUOUS
  5
4FA
 10
496.715454
 20
481.441947
 30
0.0
 11
500.215454
 21
484.941947
 31
0.0
  0
LINE
  8
LC-006-005-----0
  6
CONTINUOUS
  5
4FB
 10
496.432611
 20
481.441947
 30
0.0
 11
499.932611
 21
484.941947
 31
0.0
  0
LINE
  8
LC-006-005-----0
  6
CONTINUOUS
  5
4FC
 10
496.149768
 20
481.441947
 30
0.0
 11
499.649768
 21
484.941947
 31
0.0
  0
LINE
  8
LC-006-005-----0
  6
CONTINUOUS
  5
4FD
 10
495.866926
 20
481.441947
 30
0.0
 11
499.366926
 21
484.941947
 31
0.0
  0
LINE
  8
LC-006-005-----0
  6
CONTINUOUS
  5
4FE
 10
495.584083
 20
481.441947
 30
0.0
 11
499.084083
 21
484.941947
 31
0.0
  0
LINE
  8
LC-006-005-----0
  6
CONTINUOUS
  5
4FF
 10
495.30124
 20
481.441947
 30
0.0
 11
498.80124
 21
484.941947
 31
0.0
  0
LINE
  8
LC-006-005-----0
  6
CONTINUOUS
  5
500
 10
495.018398
 20
481.441947
 30
0.0
 11
498.518398
 21
484.941947
 31
0.0
  0
LINE
  8
LC-006-005-----0
  6
CONTINUOUS
  5
501
 10
494.735555
 20
481.441947
 30
0.0
 11
498.235555
 21
484.941947
 31
0.0
  0
LINE
  8
LC-006-005-----0
  6
CONTINUOUS
  5
502
 10
494.452712
 20
481.441947
 30
0.0
 11
497.952712
 21
484.941947
 31
0.0
  0
LINE
  8
LC-006-005-----0
  6
CONTINUOUS
  5
503
 10
494.169869
 20
481.441947
 30
0.0
 11
497.669869
 21
484.941947
 31
0.0
  0
LINE
  8
LC-006-005-----0
  6
CONTINUOUS
  5
504
 10
493.887027
 20
481.441947
 30
0.0
 11
497.387027
 21
484.941947
 31
0.0
  0
LINE
  8
LC-006-005-----0
  6
CONTINUOUS
  5
505
 10
493.604184
 20
481.441947
 30
0.0
 11
497.104184
 21
484.941947
 31
0.0
  0
LINE
  8
LC-006-005-----0
  6
CONTINUOUS
  5
506
 10
493.321341
 20
481.441947
 30
0.0
 11
496.821341
 21
484.941947
 31
0.0
  0
LINE
  8
LC-006-005-----0
  6
CONTINUOUS
  5
507
 10
493.038499
 20
481.441947
 30
0.0
 11
496.538499
 21
484.941947
 31
0.0
  0
LINE
  8
LC-006-005-----0
  6
CONTINUOUS
  5
508
 10
492.755656
 20
481.441947
 30
0.0
 11
496.255656
 21
484.941947
 31
0.0
  0
LINE
  8
LC-006-005-----0
  6
CONTINUOUS
  5
509
 10
492.472813
 20
481.441947
 30
0.0
 11
495.972813
 21
484.941947
 31
0.0
  0
LINE
  8
LC-006-005-----0
  6
CONTINUOUS
  5
50A
 10
492.290868
 20
481.542845
 30
0.0
 11
495.68997
 21
484.941947
 31
0.0
  0
LINE
  8
LC-006-005-----0
  6
CONTINUOUS
  5
50B
 10
492.290868
 20
481.825688
 30
0.0
 11
495.407128
 21
484.941947
 31
0.0
  0
LINE
  8
LC-006-005-----0
  6
CONTINUOUS
  5
50C
 10
492.290868
 20
482.108531
 30
0.0
 11
495.124285
 21
484.941947
 31
0.0
  0
LINE
  8
LC-006-005-----0
  6
CONTINUOUS
  5
50D
 10
492.290868
 20
482.391373
 30
0.0
 11
494.841442
 21
484.941947
 31
0.0
  0
LINE
  8
LC-006-005-----0
  6
CONTINUOUS
  5
50E
 10
492.290868
 20
482.674216
 30
0.0
 11
494.5586
 21
484.941947
 31
0.0
  0
LINE
  8
LC-006-005-----0
  6
CONTINUOUS
  5
50F
 10
492.290868
 20
482.957059
 30
0.0
 11
494.275757
 21
484.941947
 31
0.0
  0
LINE
  8
LC-006-005-----0
  6
CONTINUOUS
  5
510
 10
492.290868
 20
483.239901
 30
0.0
 11
493.992914
 21
484.941947
 31
0.0
  0
LINE
  8
LC-006-005-----0
  6
CONTINUOUS
  5
511
 10
492.290868
 20
483.522744
 30
0.0
 11
493.710071
 21
484.941947
 31
0.0
  0
LINE
  8
LC-006-005-----0
  6
CONTINUOUS
  5
512
 10
492.290868
 20
483.805587
 30
0.0
 11
493.427229
 21
484.941947
 31
0.0
  0
LINE
  8
LC-006-005-----0
  6
CONTINUOUS
  5
513
 10
492.290868
 20
484.08843
 30
0.0
 11
493.144386
 21
484.941947
 31
0.0
  0
LINE
  8
LC-006-005-----0
  6
CONTINUOUS
  5
514
 10
492.290868
 20
484.371272
 30
0.0
 11
492.861543
 21
484.941947
 31
0.0
  0
LINE
  8
LC-006-005-----0
  6
CONTINUOUS
  5
515
 10
492.290868
 20
484.654115
 30
0.0
 11
492.578701
 21
484.941947
 31
0.0
  0
LINE
  8
LC-006-005-----0
  6
CONTINUOUS
  5
516
 10
492.290868
 20
484.936958
 30
0.0
 11
492.295858
 21
484.941947
 31
0.0
  0
ENDBLK
  8
0
  5
517
  0
BLOCK
  8
0
  5
519
  2
*X37
 70
    65
 10
469.495846
 20
481.441947
 30
0.0
  3
*X37
  0
LINE
  8
LC-006-005-----0
  6
CONTINUOUS
  5
51A
 10
482.290475
 20
481.441947
 30
0.0
 11
482.290868
 21
481.44234
 31
0.0
  0
LINE
  8
LC-006-005-----0
  6
CONTINUOUS
  5
51B
 10
482.007633
 20
481.441947
 30
0.0
 11
482.290868
 21
481.725183
 31
0.0
  0
LINE
  8
LC-006-005-----0
  6
CONTINUOUS
  5
51C
 10
481.72479
 20
481.441947
 30
0.0
 11
482.290868
 21
482.008025
 31
0.0
  0
LINE
  8
LC-006-005-----0
  6
CONTINUOUS
  5
51D
 10
481.441947
 20
481.441947
 30
0.0
 11
482.290868
 21
482.290868
 31
0.0
  0
LINE
  8
LC-006-005-----0
  6
CONTINUOUS
  5
51E
 10
481.159105
 20
481.441947
 30
0.0
 11
482.290868
 21
482.573711
 31
0.0
  0
LINE
  8
LC-006-005-----0
  6
CONTINUOUS
  5
51F
 10
480.876262
 20
481.441947
 30
0.0
 11
482.290868
 21
482.856554
 31
0.0
  0
LINE
  8
LC-006-005-----0
  6
CONTINUOUS
  5
520
 10
480.593419
 20
481.441947
 30
0.0
 11
482.290868
 21
483.139396
 31
0.0
  0
LINE
  8
LC-006-005-----0
  6
CONTINUOUS
  5
521
 10
480.310576
 20
481.441947
 30
0.0
 11
482.290868
 21
483.422239
 31
0.0
  0
LINE
  8
LC-006-005-----0
  6
CONTINUOUS
  5
522
 10
480.027734
 20
481.441947
 30
0.0
 11
482.290868
 21
483.705082
 31
0.0
  0
LINE
  8
LC-006-005-----0
  6
CONTINUOUS
  5
523
 10
479.744891
 20
481.441947
 30
0.0
 11
482.290868
 21
483.987924
 31
0.0
  0
LINE
  8
LC-006-005-----0
  6
CONTINUOUS
  5
524
 10
479.462048
 20
481.441947
 30
0.0
 11
482.290868
 21
484.270767
 31
0.0
  0
LINE
  8
LC-006-005-----0
  6
CONTINUOUS
  5
525
 10
479.179206
 20
481.441947
 30
0.0
 11
482.290868
 21
484.55361
 31
0.0
  0
LINE
  8
LC-006-005-----0
  6
CONTINUOUS
  5
526
 10
478.896363
 20
481.441947
 30
0.0
 11
482.290868
 21
484.836453
 31
0.0
  0
LINE
  8
LC-006-005-----0
  6
CONTINUOUS
  5
527
 10
478.61352
 20
481.441947
 30
0.0
 11
482.11352
 21
484.941947
 31
0.0
  0
LINE
  8
LC-006-005-----0
  6
CONTINUOUS
  5
528
 10
478.330677
 20
481.441947
 30
0.0
 11
481.830677
 21
484.941947
 31
0.0
  0
LINE
  8
LC-006-005-----0
  6
CONTINUOUS
  5
529
 10
478.047835
 20
481.441947
 30
0.0
 11
481.547835
 21
484.941947
 31
0.0
  0
LINE
  8
LC-006-005-----0
  6
CONTINUOUS
  5
52A
 10
477.764992
 20
481.441947
 30
0.0
 11
481.264992
 21
484.941947
 31
0.0
  0
LINE
  8
LC-006-005-----0
  6
CONTINUOUS
  5
52B
 10
477.482149
 20
481.441947
 30
0.0
 11
480.982149
 21
484.941947
 31
0.0
  0
LINE
  8
LC-006-005-----0
  6
CONTINUOUS
  5
52C
 10
477.199307
 20
481.441947
 30
0.0
 11
480.699307
 21
484.941947
 31
0.0
  0
LINE
  8
LC-006-005-----0
  6
CONTINUOUS
  5
52D
 10
476.916464
 20
481.441947
 30
0.0
 11
480.416464
 21
484.941947
 31
0.0
  0
LINE
  8
LC-006-005-----0
  6
CONTINUOUS
  5
52E
 10
476.633621
 20
481.441947
 30
0.0
 11
480.133621
 21
484.941947
 31
0.0
  0
LINE
  8
LC-006-005-----0
  6
CONTINUOUS
  5
52F
 10
476.350779
 20
481.441947
 30
0.0
 11
479.850779
 21
484.941947
 31
0.0
  0
LINE
  8
LC-006-005-----0
  6
CONTINUOUS
  5
530
 10
476.067936
 20
481.441947
 30
0.0
 11
479.567936
 21
484.941947
 31
0.0
  0
LINE
  8
LC-006-005-----0
  6
CONTINUOUS
  5
531
 10
475.785093
 20
481.441947
 30
0.0
 11
479.285093
 21
484.941947
 31
0.0
  0
LINE
  8
LC-006-005-----0
  6
CONTINUOUS
  5
532
 10
475.50225
 20
481.441947
 30
0.0
 11
479.00225
 21
484.941947
 31
0.0
  0
LINE
  8
LC-006-005-----0
  6
CONTINUOUS
  5
533
 10
475.219408
 20
481.441947
 30
0.0
 11
478.719408
 21
484.941947
 31
0.0
  0
LINE
  8
LC-006-005-----0
  6
CONTINUOUS
  5
534
 10
474.936565
 20
481.441947
 30
0.0
 11
478.436565
 21
484.941947
 31
0.0
  0
LINE
  8
LC-006-005-----0
  6
CONTINUOUS
  5
535
 10
474.653722
 20
481.441947
 30
0.0
 11
478.153722
 21
484.941947
 31
0.0
  0
LINE
  8
LC-006-005-----0
  6
CONTINUOUS
  5
536
 10
474.37088
 20
481.441947
 30
0.0
 11
477.87088
 21
484.941947
 31
0.0
  0
LINE
  8
LC-006-005-----0
  6
CONTINUOUS
  5
537
 10
474.088037
 20
481.441947
 30
0.0
 11
477.588037
 21
484.941947
 31
0.0
  0
LINE
  8
LC-006-005-----0
  6
CONTINUOUS
  5
538
 10
473.805194
 20
481.441947
 30
0.0
 11
477.305194
 21
484.941947
 31
0.0
  0
LINE
  8
LC-006-005-----0
  6
CONTINUOUS
  5
539
 10
473.522351
 20
481.441947
 30
0.0
 11
477.022351
 21
484.941947
 31
0.0
  0
LINE
  8
LC-006-005-----0
  6
CONTINUOUS
  5
53A
 10
473.239509
 20
481.441947
 30
0.0
 11
476.739509
 21
484.941947
 31
0.0
  0
LINE
  8
LC-006-005-----0
  6
CONTINUOUS
  5
53B
 10
472.956666
 20
481.441947
 30
0.0
 11
476.456666
 21
484.941947
 31
0.0
  0
LINE
  8
LC-006-005-----0
  6
CONTINUOUS
  5
53C
 10
472.673823
 20
481.441947
 30
0.0
 11
476.173823
 21
484.941947
 31
0.0
  0
LINE
  8
LC-006-005-----0
  6
CONTINUOUS
  5
53D
 10
472.390981
 20
481.441947
 30
0.0
 11
475.890981
 21
484.941947
 31
0.0
  0
LINE
  8
LC-006-005-----0
  6
CONTINUOUS
  5
53E
 10
472.290868
 20
481.624678
 30
0.0
 11
475.608138
 21
484.941947
 31
0.0
  0
LINE
  8
LC-006-005-----0
  6
CONTINUOUS
  5
53F
 10
472.290868
 20
481.90752
 30
0.0
 11
475.325295
 21
484.941947
 31
0.0
  0
LINE
  8
LC-006-005-----0
  6
CONTINUOUS
  5
540
 10
472.290868
 20
482.190363
 30
0.0
 11
475.042452
 21
484.941947
 31
0.0
  0
LINE
  8
LC-006-005-----0
  6
CONTINUOUS
  5
541
 10
472.290868
 20
482.473206
 30
0.0
 11
474.75961
 21
484.941947
 31
0.0
  0
LINE
  8
LC-006-005-----0
  6
CONTINUOUS
  5
542
 10
472.290868
 20
482.756049
 30
0.0
 11
474.476767
 21
484.941947
 31
0.0
  0
LINE
  8
LC-006-005-----0
  6
CONTINUOUS
  5
543
 10
472.290868
 20
483.038891
 30
0.0
 11
474.193924
 21
484.941947
 31
0.0
  0
LINE
  8
LC-006-005-----0
  6
CONTINUOUS
  5
544
 10
472.290868
 20
483.321734
 30
0.0
 11
473.911082
 21
484.941947
 31
0.0
  0
LINE
  8
LC-006-005-----0
  6
CONTINUOUS
  5
545
 10
472.290868
 20
483.604577
 30
0.0
 11
473.288168
 21
484.601876
 31
0.0
  0
LINE
  8
LC-006-005-----0
  6
CONTINUOUS
  5
546
 10
472.290868
 20
483.887419
 30
0.0
 11
472.76745
 21
484.364001
 31
0.0
  0
LINE
  8
LC-006-005-----0
  6
CONTINUOUS
  5
547
 10
472.290868
 20
484.170262
 30
0.0
 11
472.394551
 21
484.273945
 31
0.0
  0
ENDBLK
  8
0
  5
548
  0
BLOCK
  8
0
  5
54A
  2
*X38
 70
    65
 10
452.290868
 20
481.441947
 30
0.0
  3
*X38
  0
LINE
  8
LC-006-005-----0
  6
CONTINUOUS
  5
54B
 10
462.208643
 20
481.441947
 30
0.0
 11
462.290868
 21
481.524173
 31
0.0
  0
LINE
  8
LC-006-005-----0
  6
CONTINUOUS
  5
54C
 10
461.9258
 20
481.441947
 30
0.0
 11
462.290868
 21
481.807015
 31
0.0
  0
LINE
  8
LC-006-005-----0
  6
CONTINUOUS
  5
54D
 10
461.642957
 20
481.441947
 30
0.0
 11
462.290868
 21
482.089858
 31
0.0
  0
LINE
  8
LC-006-005-----0
  6
CONTINUOUS
  5
54E
 10
461.360115
 20
481.441947
 30
0.0
 11
462.290868
 21
482.372701
 31
0.0
  0
LINE
  8
LC-006-005-----0
  6
CONTINUOUS
  5
54F
 10
461.077272
 20
481.441947
 30
0.0
 11
462.290868
 21
482.655543
 31
0.0
  0
LINE
  8
LC-006-005-----0
  6
CONTINUOUS
  5
550
 10
460.794429
 20
481.441947
 30
0.0
 11
462.290868
 21
482.938386
 31
0.0
  0
LINE
  8
LC-006-005-----0
  6
CONTINUOUS
  5
551
 10
460.511587
 20
481.441947
 30
0.0
 11
462.290868
 21
483.221229
 31
0.0
  0
LINE
  8
LC-006-005-----0
  6
CONTINUOUS
  5
552
 10
460.228744
 20
481.441947
 30
0.0
 11
462.290868
 21
483.504072
 31
0.0
  0
LINE
  8
LC-006-005-----0
  6
CONTINUOUS
  5
553
 10
459.945901
 20
481.441947
 30
0.0
 11
462.290868
 21
483.786914
 31
0.0
  0
LINE
  8
LC-006-005-----0
  6
CONTINUOUS
  5
554
 10
459.663058
 20
481.441947
 30
0.0
 11
462.290868
 21
484.069757
 31
0.0
  0
LINE
  8
LC-006-005-----0
  6
CONTINUOUS
  5
555
 10
459.380216
 20
481.441947
 30
0.0
 11
462.290868
 21
484.3526
 31
0.0
  0
LINE
  8
LC-006-005-----0
  6
CONTINUOUS
  5
556
 10
459.097373
 20
481.441947
 30
0.0
 11
462.290868
 21
484.635442
 31
0.0
  0
LINE
  8
LC-006-005-----0
  6
CONTINUOUS
  5
557
 10
458.81453
 20
481.441947
 30
0.0
 11
462.290868
 21
484.918285
 31
0.0
  0
LINE
  8
LC-006-005-----0
  6
CONTINUOUS
  5
558
 10
458.531688
 20
481.441947
 30
0.0
 11
462.031688
 21
484.941947
 31
0.0
  0
LINE
  8
LC-006-005-----0
  6
CONTINUOUS
  5
559
 10
458.248845
 20
481.441947
 30
0.0
 11
461.748845
 21
484.941947
 31
0.0
  0
LINE
  8
LC-006-005-----0
  6
CONTINUOUS
  5
55A
 10
457.966002
 20
481.441947
 30
0.0
 11
461.466002
 21
484.941947
 31
0.0
  0
LINE
  8
LC-006-005-----0
  6
CONTINUOUS
  5
55B
 10
457.683159
 20
481.441947
 30
0.0
 11
461.183159
 21
484.941947
 31
0.0
  0
LINE
  8
LC-006-005-----0
  6
CONTINUOUS
  5
55C
 10
457.41389
 20
481.455521
 30
0.0
 11
460.900317
 21
484.941947
 31
0.0
  0
LINE
  8
LC-006-005-----0
  6
CONTINUOUS
  5
55D
 10
457.173444
 20
481.497918
 30
0.0
 11
460.617474
 21
484.941947
 31
0.0
  0
LINE
  8
LC-006-005-----0
  6
CONTINUOUS
  5
55E
 10
456.932999
 20
481.540315
 30
0.0
 11
460.334631
 21
484.941947
 31
0.0
  0
LINE
  8
LC-006-005-----0
  6
CONTINUOUS
  5
55F
 10
456.692553
 20
481.582712
 30
0.0
 11
460.051789
 21
484.941947
 31
0.0
  0
LINE
  8
LC-006-005-----0
  6
CONTINUOUS
  5
560
 10
456.452107
 20
481.625109
 30
0.0
 11
459.768946
 21
484.941947
 31
0.0
  0
LINE
  8
LC-006-005-----0
  6
CONTINUOUS
  5
561
 10
456.211662
 20
481.667506
 30
0.0
 11
459.486103
 21
484.941947
 31
0.0
  0
LINE
  8
LC-006-005-----0
  6
CONTINUOUS
  5
562
 10
455.971216
 20
481.709903
 30
0.0
 11
459.20326
 21
484.941947
 31
0.0
  0
LINE
  8
LC-006-005-----0
  6
CONTINUOUS
  5
563
 10
455.73077
 20
481.7523
 30
0.0
 11
458.920418
 21
484.941947
 31
0.0
  0
LINE
  8
LC-006-005-----0
  6
CONTINUOUS
  5
564
 10
455.490325
 20
481.794697
 30
0.0
 11
458.637575
 21
484.941947
 31
0.0
  0
LINE
  8
LC-006-005-----0
  6
CONTINUOUS
  5
565
 10
455.249879
 20
481.837094
 30
0.0
 11
458.354732
 21
484.941947
 31
0.0
  0
LINE
  8
LC-006-005-----0
  6
CONTINUOUS
  5
566
 10
455.009434
 20
481.879491
 30
0.0
 11
458.07189
 21
484.941947
 31
0.0
  0
LINE
  8
LC-006-005-----0
  6
CONTINUOUS
  5
567
 10
454.768988
 20
481.921888
 30
0.0
 11
457.790251
 21
484.943151
 31
0.0
  0
LINE
  8
LC-006-005-----0
  6
CONTINUOUS
  5
568
 10
454.528542
 20
481.964285
 30
0.0
 11
457.549805
 21
484.985548
 31
0.0
  0
LINE
  8
LC-006-005-----0
  6
CONTINUOUS
  5
569
 10
454.288097
 20
482.006682
 30
0.0
 11
457.30936
 21
485.027945
 31
0.0
  0
LINE
  8
LC-006-005-----0
  6
CONTINUOUS
  5
56A
 10
454.047651
 20
482.049079
 30
0.0
 11
457.068914
 21
485.070342
 31
0.0
  0
LINE
  8
LC-006-005-----0
  6
CONTINUOUS
  5
56B
 10
453.807205
 20
482.091476
 30
0.0
 11
456.828468
 21
485.112739
 31
0.0
  0
LINE
  8
LC-006-005-----0
  6
CONTINUOUS
  5
56C
 10
453.56676
 20
482.133874
 30
0.0
 11
456.588023
 21
485.155137
 31
0.0
  0
LINE
  8
LC-006-005-----0
  6
CONTINUOUS
  5
56D
 10
453.326314
 20
482.176271
 30
0.0
 11
456.347577
 21
485.197534
 31
0.0
  0
LINE
  8
LC-006-005-----0
  6
CONTINUOUS
  5
56E
 10
453.085868
 20
482.218668
 30
0.0
 11
456.107131
 21
485.239931
 31
0.0
  0
LINE
  8
LC-006-005-----0
  6
CONTINUOUS
  5
56F
 10
452.845423
 20
482.261065
 30
0.0
 11
455.866686
 21
485.282328
 31
0.0
  0
LINE
  8
LC-006-005-----0
  6
CONTINUOUS
  5
570
 10
452.604977
 20
482.303462
 30
0.0
 11
455.62624
 21
485.324725
 31
0.0
  0
LINE
  8
LC-006-005-----0
  6
CONTINUOUS
  5
571
 10
452.364531
 20
482.345859
 30
0.0
 11
455.385794
 21
485.367122
 31
0.0
  0
LINE
  8
LC-006-005-----0
  6
CONTINUOUS
  5
572
 10
452.290868
 20
482.555038
 30
0.0
 11
455.145349
 21
485.409519
 31
0.0
  0
LINE
  8
LC-006-005-----0
  6
CONTINUOUS
  5
573
 10
452.290868
 20
482.837881
 30
0.0
 11
454.904903
 21
485.451916
 31
0.0
  0
LINE
  8
LC-006-005-----0
  6
CONTINUOUS
  5
574
 10
452.290868
 20
483.120724
 30
0.0
 11
454.664457
 21
485.494313
 31
0.0
  0
LINE
  8
LC-006-005-----0
  6
CONTINUOUS
  5
575
 10
452.290868
 20
483.403567
 30
0.0
 11
454.424012
 21
485.53671
 31
0.0
  0
LINE
  8
LC-006-005-----0
  6
CONTINUOUS
  5
576
 10
452.290868
 20
483.686409
 30
0.0
 11
454.183566
 21
485.579107
 31
0.0
  0
LINE
  8
LC-006-005-----0
  6
CONTINUOUS
  5
577
 10
452.290868
 20
483.969252
 30
0.0
 11
453.94312
 21
485.621504
 31
0.0
  0
LINE
  8
LC-006-005-----0
  6
CONTINUOUS
  5
578
 10
452.290868
 20
484.252095
 30
0.0
 11
453.702675
 21
485.663901
 31
0.0
  0
LINE
  8
LC-006-005-----0
  6
CONTINUOUS
  5
579
 10
452.290868
 20
484.534937
 30
0.0
 11
453.462229
 21
485.706298
 31
0.0
  0
LINE
  8
LC-006-005-----0
  6
CONTINUOUS
  5
57A
 10
452.290868
 20
484.81778
 30
0.0
 11
453.221783
 21
485.748695
 31
0.0
  0
LINE
  8
LC-006-005-----0
  6
CONTINUOUS
  5
57B
 10
452.290868
 20
485.100623
 30
0.0
 11
452.981338
 21
485.791092
 31
0.0
  0
LINE
  8
LC-006-005-----0
  6
CONTINUOUS
  5
57C
 10
452.290868
 20
485.383466
 30
0.0
 11
452.740892
 21
485.833489
 31
0.0
  0
LINE
  8
LC-006-005-----0
  6
CONTINUOUS
  5
57D
 10
452.290868
 20
485.666308
 30
0.0
 11
452.500446
 21
485.875886
 31
0.0
  0
ENDBLK
  8
0
  5
57E
  0
BLOCK
  8
0
  5
580
  2
*X39
 70
    65
 10
432.290868
 20
484.122117
 30
0.0
  3
*X39
  0
LINE
  8
LC-006-005-----0
  6
CONTINUOUS
  5
581
 10
442.265814
 20
484.126535
 30
0.0
 11
442.290868
 21
484.15159
 31
0.0
  0
LINE
  8
LC-006-005-----0
  6
CONTINUOUS
  5
582
 10
442.025368
 20
484.168932
 30
0.0
 11
442.290868
 21
484.434432
 31
0.0
  0
LINE
  8
LC-006-005-----0
  6
CONTINUOUS
  5
583
 10
441.784922
 20
484.211329
 30
0.0
 11
442.290868
 21
484.717275
 31
0.0
  0
LINE
  8
LC-006-005-----0
  6
CONTINUOUS
  5
584
 10
441.544477
 20
484.253726
 30
0.0
 11
442.290868
 21
485.000118
 31
0.0
  0
LINE
  8
LC-006-005-----0
  6
CONTINUOUS
  5
585
 10
441.304031
 20
484.296123
 30
0.0
 11
442.290868
 21
485.28296
 31
0.0
  0
LINE
  8
LC-006-005-----0
  6
CONTINUOUS
  5
586
 10
441.063585
 20
484.33852
 30
0.0
 11
442.290868
 21
485.565803
 31
0.0
  0
LINE
  8
LC-006-005-----0
  6
CONTINUOUS
  5
587
 10
440.82314
 20
484.380918
 30
0.0
 11
442.290868
 21
485.848646
 31
0.0
  0
LINE
  8
LC-006-005-----0
  6
CONTINUOUS
  5
588
 10
440.582694
 20
484.423315
 30
0.0
 11
442.290868
 21
486.131489
 31
0.0
  0
LINE
  8
LC-006-005-----0
  6
CONTINUOUS
  5
589
 10
440.342249
 20
484.465712
 30
0.0
 11
442.290868
 21
486.414331
 31
0.0
  0
LINE
  8
LC-006-005-----0
  6
CONTINUOUS
  5
58A
 10
440.101803
 20
484.508109
 30
0.0
 11
442.290868
 21
486.697174
 31
0.0
  0
LINE
  8
LC-006-005-----0
  6
CONTINUOUS
  5
58B
 10
439.861357
 20
484.550506
 30
0.0
 11
442.290868
 21
486.980017
 31
0.0
  0
LINE
  8
LC-006-005-----0
  6
CONTINUOUS
  5
58C
 10
439.620912
 20
484.592903
 30
0.0
 11
442.290868
 21
487.262859
 31
0.0
  0
LINE
  8
LC-006-005-----0
  6
CONTINUOUS
  5
58D
 10
439.380466
 20
484.6353
 30
0.0
 11
442.290868
 21
487.545702
 31
0.0
  0
LINE
  8
LC-006-005-----0
  6
CONTINUOUS
  5
58E
 10
439.14002
 20
484.677697
 30
0.0
 11
442.161283
 21
487.69896
 31
0.0
  0
LINE
  8
LC-006-005-----0
  6
CONTINUOUS
  5
58F
 10
438.899575
 20
484.720094
 30
0.0
 11
441.920838
 21
487.741357
 31
0.0
  0
LINE
  8
LC-006-005-----0
  6
CONTINUOUS
  5
590
 10
438.659129
 20
484.762491
 30
0.0
 11
441.680392
 21
487.783754
 31
0.0
  0
LINE
  8
LC-006-005-----0
  6
CONTINUOUS
  5
591
 10
438.418683
 20
484.804888
 30
0.0
 11
441.439946
 21
487.826151
 31
0.0
  0
LINE
  8
LC-006-005-----0
  6
CONTINUOUS
  5
592
 10
438.178238
 20
484.847285
 30
0.0
 11
441.199501
 21
487.868548
 31
0.0
  0
LINE
  8
LC-006-005-----0
  6
CONTINUOUS
  5
593
 10
437.937792
 20
484.889682
 30
0.0
 11
440.959055
 21
487.910945
 31
0.0
  0
LINE
  8
LC-006-005-----0
  6
CONTINUOUS
  5
594
 10
437.697346
 20
484.932079
 30
0.0
 11
440.718609
 21
487.953342
 31
0.0
  0
LINE
  8
LC-006-005-----0
  6
CONTINUOUS
  5
595
 10
437.456901
 20
484.974476
 30
0.0
 11
440.478164
 21
487.995739
 31
0.0
  0
LINE
  8
LC-006-005-----0
  6
CONTINUOUS
  5
596
 10
437.216455
 20
485.016873
 30
0.0
 11
440.237718
 21
488.038136
 31
0.0
  0
LINE
  8
LC-006-005-----0
  6
CONTINUOUS
  5
597
 10
436.976009
 20
485.05927
 30
0.0
 11
439.997272
 21
488.080533
 31
0.0
  0
LINE
  8
LC-006-005-----0
  6
CONTINUOUS
  5
598
 10
436.735564
 20
485.101668
 30
0.0
 11
439.756827
 21
488.12293
 31
0.0
  0
LINE
  8
LC-006-005-----0
  6
CONTINUOUS
  5
599
 10
436.495118
 20
485.144065
 30
0.0
 11
439.516381
 21
488.165328
 31
0.0
  0
LINE
  8
LC-006-005-----0
  6
CONTINUOUS
  5
59A
 10
436.254672
 20
485.186462
 30
0.0
 11
439.275935
 21
488.207725
 31
0.0
  0
LINE
  8
LC-006-005-----0
  6
CONTINUOUS
  5
59B
 10
436.014227
 20
485.228859
 30
0.0
 11
439.03549
 21
488.250122
 31
0.0
  0
LINE
  8
LC-006-005-----0
  6
CONTINUOUS
  5
59C
 10
435.773781
 20
485.271256
 30
0.0
 11
438.795044
 21
488.292519
 31
0.0
  0
LINE
  8
LC-006-005-----0
  6
CONTINUOUS
  5
59D
 10
435.533335
 20
485.313653
 30
0.0
 11
438.554598
 21
488.334916
 31
0.0
  0
LINE
  8
LC-006-005-----0
  6
CONTINUOUS
  5
59E
 10
435.29289
 20
485.35605
 30
0.0
 11
438.314153
 21
488.377313
 31
0.0
  0
LINE
  8
LC-006-005-----0
  6
CONTINUOUS
  5
59F
 10
435.052444
 20
485.398447
 30
0.0
 11
438.073707
 21
488.41971
 31
0.0
  0
LINE
  8
LC-006-005-----0
  6
CONTINUOUS
  5
5A0
 10
434.811998
 20
485.440844
 30
0.0
 11
437.833261
 21
488.462107
 31
0.0
  0
LINE
  8
LC-006-005-----0
  6
CONTINUOUS
  5
5A1
 10
434.571553
 20
485.483241
 30
0.0
 11
437.592816
 21
488.504504
 31
0.0
  0
LINE
  8
LC-006-005-----0
  6
CONTINUOUS
  5
5A2
 10
434.331107
 20
485.525638
 30
0.0
 11
437.35237
 21
488.546901
 31
0.0
  0
LINE
  8
LC-006-005-----0
  6
CONTINUOUS
  5
5A3
 10
434.090661
 20
485.568035
 30
0.0
 11
437.111924
 21
488.589298
 31
0.0
  0
LINE
  8
LC-006-005-----0
  6
CONTINUOUS
  5
5A4
 10
433.850216
 20
485.610432
 30
0.0
 11
436.871479
 21
488.631695
 31
0.0
  0
LINE
  8
LC-006-005-----0
  6
CONTINUOUS
  5
5A5
 10
433.60977
 20
485.652829
 30
0.0
 11
436.631033
 21
488.674092
 31
0.0
  0
LINE
  8
LC-006-005-----0
  6
CONTINUOUS
  5
5A6
 10
433.369324
 20
485.695226
 30
0.0
 11
436.390587
 21
488.716489
 31
0.0
  0
LINE
  8
LC-006-005-----0
  6
CONTINUOUS
  5
5A7
 10
433.128879
 20
485.737623
 30
0.0
 11
436.150142
 21
488.758886
 31
0.0
  0
LINE
  8
LC-006-005-----0
  6
CONTINUOUS
  5
5A8
 10
432.888433
 20
485.78002
 30
0.0
 11
435.909696
 21
488.801283
 31
0.0
  0
LINE
  8
LC-006-005-----0
  6
CONTINUOUS
  5
5A9
 10
432.647988
 20
485.822417
 30
0.0
 11
435.66925
 21
488.84368
 31
0.0
  0
LINE
  8
LC-006-005-----0
  6
CONTINUOUS
  5
5AA
 10
432.407542
 20
485.864815
 30
0.0
 11
435.428805
 21
488.886077
 31
0.0
  0
LINE
  8
LC-006-005-----0
  6
CONTINUOUS
  5
5AB
 10
432.290868
 20
486.030984
 30
0.0
 11
435.188359
 21
488.928475
 31
0.0
  0
LINE
  8
LC-006-005-----0
  6
CONTINUOUS
  5
5AC
 10
432.290868
 20
486.313826
 30
0.0
 11
434.947914
 21
488.970872
 31
0.0
  0
LINE
  8
LC-006-005-----0
  6
CONTINUOUS
  5
5AD
 10
432.290868
 20
486.596669
 30
0.0
 11
434.707468
 21
489.013269
 31
0.0
  0
LINE
  8
LC-006-005-----0
  6
CONTINUOUS
  5
5AE
 10
432.290868
 20
486.879512
 30
0.0
 11
434.467022
 21
489.055666
 31
0.0
  0
LINE
  8
LC-006-005-----0
  6
CONTINUOUS
  5
5AF
 10
432.290868
 20
487.162354
 30
0.0
 11
434.226577
 21
489.098063
 31
0.0
  0
LINE
  8
LC-006-005-----0
  6
CONTINUOUS
  5
5B0
 10
432.290868
 20
487.445197
 30
0.0
 11
433.986131
 21
489.14046
 31
0.0
  0
LINE
  8
LC-006-005-----0
  6
CONTINUOUS
  5
5B1
 10
432.290868
 20
487.72804
 30
0.0
 11
433.745685
 21
489.182857
 31
0.0
  0
LINE
  8
LC-006-005-----0
  6
CONTINUOUS
  5
5B2
 10
432.290868
 20
488.010883
 30
0.0
 11
433.50524
 21
489.225254
 31
0.0
  0
LINE
  8
LC-006-005-----0
  6
CONTINUOUS
  5
5B3
 10
432.290868
 20
488.293725
 30
0.0
 11
433.264794
 21
489.267651
 31
0.0
  0
LINE
  8
LC-006-005-----0
  6
CONTINUOUS
  5
5B4
 10
432.290868
 20
488.576568
 30
0.0
 11
433.024348
 21
489.310048
 31
0.0
  0
LINE
  8
LC-006-005-----0
  6
CONTINUOUS
  5
5B5
 10
432.290868
 20
488.859411
 30
0.0
 11
432.783903
 21
489.352445
 31
0.0
  0
LINE
  8
LC-006-005-----0
  6
CONTINUOUS
  5
5B6
 10
432.290868
 20
489.142253
 30
0.0
 11
432.543457
 21
489.394842
 31
0.0
  0
LINE
  8
LC-006-005-----0
  6
CONTINUOUS
  5
5B7
 10
432.290868
 20
489.425096
 30
0.0
 11
432.303011
 21
489.437239
 31
0.0
  0
ENDBLK
  8
0
  5
5B8
  0
BLOCK
  8
0
  5
5BA
  2
*X40
 70
    65
 10
412.290868
 20
487.648657
 30
0.0
  3
*X40
  0
LINE
  8
LC-006-005-----0
  6
CONTINUOUS
  5
5BB
 10
422.068379
 20
487.687888
 30
0.0
 11
422.290868
 21
487.910377
 31
0.0
  0
LINE
  8
LC-006-005-----0
  6
CONTINUOUS
  5
5BC
 10
421.827933
 20
487.730285
 30
0.0
 11
422.290868
 21
488.19322
 31
0.0
  0
LINE
  8
LC-006-005-----0
  6
CONTINUOUS
  5
5BD
 10
421.587487
 20
487.772682
 30
0.0
 11
422.290868
 21
488.476063
 31
0.0
  0
LINE
  8
LC-006-005-----0
  6
CONTINUOUS
  5
5BE
 10
421.347042
 20
487.815079
 30
0.0
 11
422.290868
 21
488.758906
 31
0.0
  0
LINE
  8
LC-006-005-----0
  6
CONTINUOUS
  5
5BF
 10
421.106596
 20
487.857476
 30
0.0
 11
422.290868
 21
489.041748
 31
0.0
  0
LINE
  8
LC-006-005-----0
  6
CONTINUOUS
  5
5C0
 10
420.86615
 20
487.899873
 30
0.0
 11
422.290868
 21
489.324591
 31
0.0
  0
LINE
  8
LC-006-005-----0
  6
CONTINUOUS
  5
5C1
 10
420.625705
 20
487.94227
 30
0.0
 11
422.290868
 21
489.607434
 31
0.0
  0
LINE
  8
LC-006-005-----0
  6
CONTINUOUS
  5
5C2
 10
420.385259
 20
487.984667
 30
0.0
 11
422.290868
 21
489.890276
 31
0.0
  0
LINE
  8
LC-006-005-----0
  6
CONTINUOUS
  5
5C3
 10
420.144813
 20
488.027064
 30
0.0
 11
422.290868
 21
490.173119
 31
0.0
  0
LINE
  8
LC-006-005-----0
  6
CONTINUOUS
  5
5C4
 10
419.904368
 20
488.069461
 30
0.0
 11
422.290868
 21
490.455962
 31
0.0
  0
LINE
  8
LC-006-005-----0
  6
CONTINUOUS
  5
5C5
 10
419.621832
 20
488.069769
 30
0.0
 11
422.290868
 21
490.738805
 31
0.0
  0
LINE
  8
LC-006-005-----0
  6
CONTINUOUS
  5
5C6
 10
419.338989
 20
488.069769
 30
0.0
 11
422.290868
 21
491.021647
 31
0.0
  0
LINE
  8
LC-006-005-----0
  6
CONTINUOUS
  5
5C7
 10
419.056147
 20
488.069769
 30
0.0
 11
422.204294
 21
491.217916
 31
0.0
  0
LINE
  8
LC-006-005-----0
  6
CONTINUOUS
  5
5C8
 10
418.773304
 20
488.069769
 30
0.0
 11
421.963848
 21
491.260313
 31
0.0
  0
LINE
  8
LC-006-005-----0
  6
CONTINUOUS
  5
5C9
 10
418.490461
 20
488.069769
 30
0.0
 11
421.723402
 21
491.30271
 31
0.0
  0
LINE
  8
LC-006-005-----0
  6
CONTINUOUS
  5
5CA
 10
418.207619
 20
488.069769
 30
0.0
 11
421.482957
 21
491.345107
 31
0.0
  0
LINE
  8
LC-006-005-----0
  6
CONTINUOUS
  5
5CB
 10
417.924776
 20
488.069769
 30
0.0
 11
421.242511
 21
491.387504
 31
0.0
  0
LINE
  8
LC-006-005-----0
  6
CONTINUOUS
  5
5CC
 10
417.641933
 20
488.069769
 30
0.0
 11
421.002065
 21
491.429901
 31
0.0
  0
LINE
  8
LC-006-005-----0
  6
CONTINUOUS
  5
5CD
 10
417.35909
 20
488.069769
 30
0.0
 11
420.76162
 21
491.472298
 31
0.0
  0
LINE
  8
LC-006-005-----0
  6
CONTINUOUS
  5
5CE
 10
417.076248
 20
488.069769
 30
0.0
 11
420.521174
 21
491.514695
 31
0.0
  0
LINE
  8
LC-006-005-----0
  6
CONTINUOUS
  5
5CF
 10
416.793405
 20
488.069769
 30
0.0
 11
420.280729
 21
491.557092
 31
0.0
  0
LINE
  8
LC-006-005-----0
  6
CONTINUOUS
  5
5D0
 10
416.510562
 20
488.069769
 30
0.0
 11
420.010562
 21
491.569769
 31
0.0
  0
LINE
  8
LC-006-005-----0
  6
CONTINUOUS
  5
5D1
 10
416.22772
 20
488.069769
 30
0.0
 11
419.72772
 21
491.569769
 31
0.0
  0
LINE
  8
LC-006-005-----0
  6
CONTINUOUS
  5
5D2
 10
415.944877
 20
488.069769
 30
0.0
 11
419.444877
 21
491.569769
 31
0.0
  0
LINE
  8
LC-006-005-----0
  6
CONTINUOUS
  5
5D3
 10
415.662034
 20
488.069769
 30
0.0
 11
419.162034
 21
491.569769
 31
0.0
  0
LINE
  8
LC-006-005-----0
  6
CONTINUOUS
  5
5D4
 10
415.379191
 20
488.069769
 30
0.0
 11
418.879191
 21
491.569769
 31
0.0
  0
LINE
  8
LC-006-005-----0
  6
CONTINUOUS
  5
5D5
 10
415.096349
 20
488.069769
 30
0.0
 11
418.596349
 21
491.569769
 31
0.0
  0
LINE
  8
LC-006-005-----0
  6
CONTINUOUS
  5
5D6
 10
414.813506
 20
488.069769
 30
0.0
 11
418.313506
 21
491.569769
 31
0.0
  0
LINE
  8
LC-006-005-----0
  6
CONTINUOUS
  5
5D7
 10
414.530663
 20
488.069769
 30
0.0
 11
418.030663
 21
491.569769
 31
0.0
  0
LINE
  8
LC-006-005-----0
  6
CONTINUOUS
  5
5D8
 10
414.247821
 20
488.069769
 30
0.0
 11
417.747821
 21
491.569769
 31
0.0
  0
LINE
  8
LC-006-005-----0
  6
CONTINUOUS
  5
5D9
 10
413.964978
 20
488.069769
 30
0.0
 11
417.464978
 21
491.569769
 31
0.0
  0
LINE
  8
LC-006-005-----0
  6
CONTINUOUS
  5
5DA
 10
413.682135
 20
488.069769
 30
0.0
 11
417.182135
 21
491.569769
 31
0.0
  0
LINE
  8
LC-006-005-----0
  6
CONTINUOUS
  5
5DB
 10
413.399292
 20
488.069769
 30
0.0
 11
416.899292
 21
491.569769
 31
0.0
  0
LINE
  8
LC-006-005-----0
  6
CONTINUOUS
  5
5DC
 10
413.11645
 20
488.069769
 30
0.0
 11
416.61645
 21
491.569769
 31
0.0
  0
LINE
  8
LC-006-005-----0
  6
CONTINUOUS
  5
5DD
 10
412.833607
 20
488.069769
 30
0.0
 11
416.333607
 21
491.569769
 31
0.0
  0
LINE
  8
LC-006-005-----0
  6
CONTINUOUS
  5
5DE
 10
412.550764
 20
488.069769
 30
0.0
 11
416.050764
 21
491.569769
 31
0.0
  0
LINE
  8
LC-006-005-----0
  6
CONTINUOUS
  5
5DF
 10
412.290868
 20
488.092715
 30
0.0
 11
415.767922
 21
491.569769
 31
0.0
  0
LINE
  8
LC-006-005-----0
  6
CONTINUOUS
  5
5E0
 10
412.290868
 20
488.375558
 30
0.0
 11
415.485079
 21
491.569769
 31
0.0
  0
LINE
  8
LC-006-005-----0
  6
CONTINUOUS
  5
5E1
 10
412.290868
 20
488.658401
 30
0.0
 11
415.202236
 21
491.569769
 31
0.0
  0
LINE
  8
LC-006-005-----0
  6
CONTINUOUS
  5
5E2
 10
412.290868
 20
488.941243
 30
0.0
 11
414.919393
 21
491.569769
 31
0.0
  0
LINE
  8
LC-006-005-----0
  6
CONTINUOUS
  5
5E3
 10
412.290868
 20
489.224086
 30
0.0
 11
414.636551
 21
491.569769
 31
0.0
  0
LINE
  8
LC-006-005-----0
  6
CONTINUOUS
  5
5E4
 10
412.290868
 20
489.506929
 30
0.0
 11
414.353708
 21
491.569769
 31
0.0
  0
LINE
  8
LC-006-005-----0
  6
CONTINUOUS
  5
5E5
 10
412.290868
 20
489.789771
 30
0.0
 11
414.070865
 21
491.569769
 31
0.0
  0
LINE
  8
LC-006-005-----0
  6
CONTINUOUS
  5
5E6
 10
412.290868
 20
490.072614
 30
0.0
 11
413.788023
 21
491.569769
 31
0.0
  0
LINE
  8
LC-006-005-----0
  6
CONTINUOUS
  5
5E7
 10
412.290868
 20
490.355457
 30
0.0
 11
413.50518
 21
491.569769
 31
0.0
  0
LINE
  8
LC-006-005-----0
  6
CONTINUOUS
  5
5E8
 10
412.290868
 20
490.6383
 30
0.0
 11
413.222337
 21
491.569769
 31
0.0
  0
LINE
  8
LC-006-005-----0
  6
CONTINUOUS
  5
5E9
 10
412.290868
 20
490.921142
 30
0.0
 11
412.939494
 21
491.569769
 31
0.0
  0
LINE
  8
LC-006-005-----0
  6
CONTINUOUS
  5
5EA
 10
412.290868
 20
491.203985
 30
0.0
 11
412.656652
 21
491.569769
 31
0.0
  0
LINE
  8
LC-006-005-----0
  6
CONTINUOUS
  5
5EB
 10
412.290868
 20
491.486828
 30
0.0
 11
412.373809
 21
491.569769
 31
0.0
  0
ENDBLK
  8
0
  5
5EC
  0
BLOCK
  8
0
  5
5EE
  2
*X41
 70
    65
 10
392.290868
 20
488.069769
 30
0.0
  3
*X41
  0
LINE
  8
LC-006-005-----0
  6
CONTINUOUS
  5
5EF
 10
402.085584
 20
488.069769
 30
0.0
 11
402.290868
 21
488.275053
 31
0.0
  0
LINE
  8
LC-006-005-----0
  6
CONTINUOUS
  5
5F0
 10
401.802741
 20
488.069769
 30
0.0
 11
402.290868
 21
488.557896
 31
0.0
  0
LINE
  8
LC-006-005-----0
  6
CONTINUOUS
  5
5F1
 10
401.519898
 20
488.069769
 30
0.0
 11
402.290868
 21
488.840738
 31
0.0
  0
LINE
  8
LC-006-005-----0
  6
CONTINUOUS
  5
5F2
 10
401.237056
 20
488.069769
 30
0.0
 11
402.290868
 21
489.123581
 31
0.0
  0
LINE
  8
LC-006-005-----0
  6
CONTINUOUS
  5
5F3
 10
400.954213
 20
488.069769
 30
0.0
 11
402.290868
 21
489.406424
 31
0.0
  0
LINE
  8
LC-006-005-----0
  6
CONTINUOUS
  5
5F4
 10
400.67137
 20
488.069769
 30
0.0
 11
402.290868
 21
489.689266
 31
0.0
  0
LINE
  8
LC-006-005-----0
  6
CONTINUOUS
  5
5F5
 10
400.388528
 20
488.069769
 30
0.0
 11
402.290868
 21
489.972109
 31
0.0
  0
LINE
  8
LC-006-005-----0
  6
CONTINUOUS
  5
5F6
 10
400.105685
 20
488.069769
 30
0.0
 11
402.290868
 21
490.254952
 31
0.0
  0
LINE
  8
LC-006-005-----0
  6
CONTINUOUS
  5
5F7
 10
399.822842
 20
488.069769
 30
0.0
 11
402.290868
 21
490.537794
 31
0.0
  0
LINE
  8
LC-006-005-----0
  6
CONTINUOUS
  5
5F8
 10
399.54
 20
488.069769
 30
0.0
 11
402.290868
 21
490.820637
 31
0.0
  0
LINE
  8
LC-006-005-----0
  6
CONTINUOUS
  5
5F9
 10
399.257157
 20
488.069769
 30
0.0
 11
402.290868
 21
491.10348
 31
0.0
  0
LINE
  8
LC-006-005-----0
  6
CONTINUOUS
  5
5FA
 10
398.974314
 20
488.069769
 30
0.0
 11
402.290868
 21
491.386323
 31
0.0
  0
LINE
  8
LC-006-005-----0
  6
CONTINUOUS
  5
5FB
 10
398.691471
 20
488.069769
 30
0.0
 11
402.191471
 21
491.569769
 31
0.0
  0
LINE
  8
LC-006-005-----0
  6
CONTINUOUS
  5
5FC
 10
398.408629
 20
488.069769
 30
0.0
 11
401.908629
 21
491.569769
 31
0.0
  0
LINE
  8
LC-006-005-----0
  6
CONTINUOUS
  5
5FD
 10
398.125786
 20
488.069769
 30
0.0
 11
401.625786
 21
491.569769
 31
0.0
  0
LINE
  8
LC-006-005-----0
  6
CONTINUOUS
  5
5FE
 10
397.842943
 20
488.069769
 30
0.0
 11
401.342943
 21
491.569769
 31
0.0
  0
LINE
  8
LC-006-005-----0
  6
CONTINUOUS
  5
5FF
 10
397.560101
 20
488.069769
 30
0.0
 11
401.060101
 21
491.569769
 31
0.0
  0
LINE
  8
LC-006-005-----0
  6
CONTINUOUS
  5
600
 10
397.277258
 20
488.069769
 30
0.0
 11
400.777258
 21
491.569769
 31
0.0
  0
LINE
  8
LC-006-005-----0
  6
CONTINUOUS
  5
601
 10
396.994415
 20
488.069769
 30
0.0
 11
400.494415
 21
491.569769
 31
0.0
  0
LINE
  8
LC-006-005-----0
  6
CONTINUOUS
  5
602
 10
396.711572
 20
488.069769
 30
0.0
 11
400.211572
 21
491.569769
 31
0.0
  0
LINE
  8
LC-006-005-----0
  6
CONTINUOUS
  5
603
 10
396.42873
 20
488.069769
 30
0.0
 11
399.92873
 21
491.569769
 31
0.0
  0
LINE
  8
LC-006-005-----0
  6
CONTINUOUS
  5
604
 10
396.145887
 20
488.069769
 30
0.0
 11
399.645887
 21
491.569769
 31
0.0
  0
LINE
  8
LC-006-005-----0
  6
CONTINUOUS
  5
605
 10
395.863044
 20
488.069769
 30
0.0
 11
399.363044
 21
491.569769
 31
0.0
  0
LINE
  8
LC-006-005-----0
  6
CONTINUOUS
  5
606
 10
395.580202
 20
488.069769
 30
0.0
 11
399.080202
 21
491.569769
 31
0.0
  0
LINE
  8
LC-006-005-----0
  6
CONTINUOUS
  5
607
 10
395.297359
 20
488.069769
 30
0.0
 11
398.797359
 21
491.569769
 31
0.0
  0
LINE
  8
LC-006-005-----0
  6
CONTINUOUS
  5
608
 10
395.014516
 20
488.069769
 30
0.0
 11
398.514516
 21
491.569769
 31
0.0
  0
LINE
  8
LC-006-005-----0
  6
CONTINUOUS
  5
609
 10
394.731673
 20
488.069769
 30
0.0
 11
398.231673
 21
491.569769
 31
0.0
  0
LINE
  8
LC-006-005-----0
  6
CONTINUOUS
  5
60A
 10
394.448831
 20
488.069769
 30
0.0
 11
397.948831
 21
491.569769
 31
0.0
  0
LINE
  8
LC-006-005-----0
  6
CONTINUOUS
  5
60B
 10
394.165988
 20
488.069769
 30
0.0
 11
397.665988
 21
491.569769
 31
0.0
  0
LINE
  8
LC-006-005-----0
  6
CONTINUOUS
  5
60C
 10
393.883145
 20
488.069769
 30
0.0
 11
397.383145
 21
491.569769
 31
0.0
  0
LINE
  8
LC-006-005-----0
  6
CONTINUOUS
  5
60D
 10
393.600303
 20
488.069769
 30
0.0
 11
397.100303
 21
491.569769
 31
0.0
  0
LINE
  8
LC-006-005-----0
  6
CONTINUOUS
  5
60E
 10
393.31746
 20
488.069769
 30
0.0
 11
396.81746
 21
491.569769
 31
0.0
  0
LINE
  8
LC-006-005-----0
  6
CONTINUOUS
  5
60F
 10
393.034617
 20
488.069769
 30
0.0
 11
396.534617
 21
491.569769
 31
0.0
  0
LINE
  8
LC-006-005-----0
  6
CONTINUOUS
  5
610
 10
392.751774
 20
488.069769
 30
0.0
 11
396.251774
 21
491.569769
 31
0.0
  0
LINE
  8
LC-006-005-----0
  6
CONTINUOUS
  5
611
 10
392.468932
 20
488.069769
 30
0.0
 11
395.968932
 21
491.569769
 31
0.0
  0
LINE
  8
LC-006-005-----0
  6
CONTINUOUS
  5
612
 10
392.290868
 20
488.174548
 30
0.0
 11
395.686089
 21
491.569769
 31
0.0
  0
LINE
  8
LC-006-005-----0
  6
CONTINUOUS
  5
613
 10
392.290868
 20
488.45739
 30
0.0
 11
395.403246
 21
491.569769
 31
0.0
  0
LINE
  8
LC-006-005-----0
  6
CONTINUOUS
  5
614
 10
392.290868
 20
488.740233
 30
0.0
 11
395.120404
 21
491.569769
 31
0.0
  0
LINE
  8
LC-006-005-----0
  6
CONTINUOUS
  5
615
 10
392.290868
 20
489.023076
 30
0.0
 11
394.837561
 21
491.569769
 31
0.0
  0
LINE
  8
LC-006-005-----0
  6
CONTINUOUS
  5
616
 10
392.290868
 20
489.305919
 30
0.0
 11
394.554718
 21
491.569769
 31
0.0
  0
LINE
  8
LC-006-005-----0
  6
CONTINUOUS
  5
617
 10
392.290868
 20
489.588761
 30
0.0
 11
394.271875
 21
491.569769
 31
0.0
  0
LINE
  8
LC-006-005-----0
  6
CONTINUOUS
  5
618
 10
392.290868
 20
489.871604
 30
0.0
 11
393.989033
 21
491.569769
 31
0.0
  0
LINE
  8
LC-006-005-----0
  6
CONTINUOUS
  5
619
 10
392.290868
 20
490.154447
 30
0.0
 11
393.70619
 21
491.569769
 31
0.0
  0
LINE
  8
LC-006-005-----0
  6
CONTINUOUS
  5
61A
 10
392.290868
 20
490.437289
 30
0.0
 11
393.423347
 21
491.569769
 31
0.0
  0
LINE
  8
LC-006-005-----0
  6
CONTINUOUS
  5
61B
 10
392.290868
 20
490.720132
 30
0.0
 11
393.140505
 21
491.569769
 31
0.0
  0
LINE
  8
LC-006-005-----0
  6
CONTINUOUS
  5
61C
 10
392.290868
 20
491.002975
 30
0.0
 11
392.857662
 21
491.569769
 31
0.0
  0
LINE
  8
LC-006-005-----0
  6
CONTINUOUS
  5
61D
 10
392.290868
 20
491.285818
 30
0.0
 11
392.574819
 21
491.569769
 31
0.0
  0
LINE
  8
LC-006-005-----0
  6
CONTINUOUS
  5
61E
 10
392.290868
 20
491.56866
 30
0.0
 11
392.291976
 21
491.569769
 31
0.0
  0
ENDBLK
  8
0
  5
61F
  0
BLOCK
  8
0
  5
621
  2
*D42
 70
    65
 10
0.0
 20
0.0
 30
0.0
  3
*D42
  0
LINE
  8
LC-003-003-MTH-0
  6
CONTINUOUS
  5
622
 10
760.283761
 20
483.646035
 30
0.0
 11
850.8
 21
483.646035
 31
0.0
  0
LINE
  8
LC-003-003-MTH-0
  6
CONTINUOUS
  5
623
 10
718.760011
 20
602.56443
 30
0.0
 11
850.8
 21
602.56443
 31
0.0
  0
LINE
  8
LC-004-003-MTG-0
  6
CONTINUOUS
  5
624
 10
840.0
 20
483.646035
 30
0.0
 11
840.0
 21
602.56443
 31
0.0
  0
LINE
  8
LC-002-003-----0
  6
CONTINUOUS
  5
625
 10
837.650529
 20
501.492042
 30
0.0
 11
840.0
 21
483.646035
 31
0.0
  0
LINE
  8
LC-002-003-----0
  6
CONTINUOUS
  5
626
 10
840.0
 20
483.646035
 30
0.0
 11
842.349471
 21
501.492042
 31
0.0
  0
LINE
  8
LC-002-003-----0
  6
CONTINUOUS
  5
627
 10
842.349471
 20
501.492042
 30
0.0
 11
837.650529
 21
501.492042
 31
0.0
  0
LINE
  8
LC-002-003-----0
  6
CONTINUOUS
  5
628
 10
838.261391
 20
501.53208
 30
0.0
 11
840.0
 21
488.326035
 31
0.0
  0
LINE
  8
LC-002-003-----0
  6
CONTINUOUS
  5
629
 10
840.0
 20
488.326035
 30
0.0
 11
841.738609
 21
501.53208
 31
0.0
  0
LINE
  8
LC-002-003-----0
  6
CONTINUOUS
  5
62A
 10
838.872254
 20
501.572118
 30
0.0
 11
840.0
 21
493.006035
 31
0.0
  0
LINE
  8
LC-002-003-----0
  6
CONTINUOUS
  5
62B
 10
840.0
 20
493.006035
 30
0.0
 11
841.127746
 21
501.572118
 31
0.0
  0
LINE
  8
LC-002-003-----0
  6
CONTINUOUS
  5
62C
 10
839.483116
 20
501.612156
 30
0.0
 11
840.0
 21
497.686035
 31
0.0
  0
LINE
  8
LC-002-003-----0
  6
CONTINUOUS
  5
62D
 10
840.0
 20
497.686035
 30
0.0
 11
840.516884
 21
501.612156
 31
0.0
  0
LINE
  8
LC-002-003-----0
  6
CONTINUOUS
  5
62E
 10
842.349471
 20
584.718422
 30
0.0
 11
840.0
 21
602.56443
 31
0.0
  0
LINE
  8
LC-002-003-----0
  6
CONTINUOUS
  5
62F
 10
840.0
 20
602.56443
 30
0.0
 11
837.650529
 21
584.718422
 31
0.0
  0
LINE
  8
LC-002-003-----0
  6
CONTINUOUS
  5
630
 10
837.650529
 20
584.718422
 30
0.0
 11
842.349471
 21
584.718422
 31
0.0
  0
LINE
  8
LC-002-003-----0
  6
CONTINUOUS
  5
631
 10
841.738609
 20
584.678384
 30
0.0
 11
840.0
 21
597.88443
 31
0.0
  0
LINE
  8
LC-002-003-----0
  6
CONTINUOUS
  5
632
 10
840.0
 20
597.88443
 30
0.0
 11
838.261391
 21
584.678384
 31
0.0
  0
LINE
  8
LC-002-003-----0
  6
CONTINUOUS
  5
633
 10
841.127746
 20
584.638346
 30
0.0
 11
840.0
 21
593.20443
 31
0.0
  0
LINE
  8
LC-002-003-----0
  6
CONTINUOUS
  5
634
 10
840.0
 20
593.20443
 30
0.0
 11
838.872254
 21
584.638346
 31
0.0
  0
LINE
  8
LC-002-003-----0
  6
CONTINUOUS
  5
635
 10
840.516884
 20
584.598308
 30
0.0
 11
840.0
 21
588.52443
 31
0.0
  0
LINE
  8
LC-002-003-----0
  6
CONTINUOUS
  5
636
 10
840.0
 20
588.52443
 30
0.0
 11
839.483116
 21
584.598308
 31
0.0
  0
TEXT
  8
LC-002-003-----0
  6
CONTINUOUS
 62
     6
  5
637
 10
829.568001
 20
504.124887
 30
0.0
 40
18.0
  1
42-130
 50
90.0
 51
15.0
  7
LC-TXTSTYLE-150-400-0-0-D0
 72
     1
 11
829.568001
 21
545.900478
 31
0.0
  0
ENDBLK
  8
0
  5
638
  0
BLOCK
  8
0
  5
63A
  2
*D43
 70
    65
 10
0.0
 20
0.0
 30
0.0
  3
*D43
  0
LINE
  8
LC-003-003-MTH-0
  6
CONTINUOUS
  5
63B
 10
681.940349
 20
290.441947
 30
0.0
 11
850.8
 21
290.441947
 31
0.0
  0
LINE
  8
LC-003-003-MTH-0
  6
CONTINUOUS
  5
63C
 10
760.283761
 20
483.646035
 30
0.0
 11
850.8
 21
483.646035
 31
0.0
  0
LINE
  8
LC-004-003-MTG-0
  6
CONTINUOUS
  5
63D
 10
840.0
 20
290.441947
 30
0.0
 11
840.0
 21
483.646035
 31
0.0
  0
LINE
  8
LC-002-003-----0
  6
CONTINUOUS
  5
63E
 10
837.650529
 20
308.287955
 30
0.0
 11
840.0
 21
290.441947
 31
0.0
  0
LINE
  8
LC-002-003-----0
  6
CONTINUOUS
  5
63F
 10
840.0
 20
290.441947
 30
0.0
 11
842.349471
 21
308.287955
 31
0.0
  0
LINE
  8
LC-002-003-----0
  6
CONTINUOUS
  5
640
 10
842.349471
 20
308.287955
 30
0.0
 11
837.650529
 21
308.287955
 31
0.0
  0
LINE
  8
LC-002-003-----0
  6
CONTINUOUS
  5
641
 10
838.261391
 20
308.327993
 30
0.0
 11
840.0
 21
295.121947
 31
0.0
  0
LINE
  8
LC-002-003-----0
  6
CONTINUOUS
  5
642
 10
840.0
 20
295.121947
 30
0.0
 11
841.738609
 21
308.327993
 31
0.0
  0
LINE
  8
LC-002-003-----0
  6
CONTINUOUS
  5
643
 10
838.872254
 20
308.368031
 30
0.0
 11
840.0
 21
299.801947
 31
0.0
  0
LINE
  8
LC-002-003-----0
  6
CONTINUOUS
  5
644
 10
840.0
 20
299.801947
 30
0.0
 11
841.127746
 21
308.368031
 31
0.0
  0
LINE
  8
LC-002-003-----0
  6
CONTINUOUS
  5
645
 10
839.483116
 20
308.408069
 30
0.0
 11
840.0
 21
304.481947
 31
0.0
  0
LINE
  8
LC-002-003-----0
  6
CONTINUOUS
  5
646
 10
840.0
 20
304.481947
 30
0.0
 11
840.516884
 21
308.408069
 31
0.0
  0
LINE
  8
LC-002-003-----0
  6
CONTINUOUS
  5
647
 10
842.349471
 20
465.800027
 30
0.0
 11
840.0
 21
483.646035
 31
0.0
  0
LINE
  8
LC-002-003-----0
  6
CONTINUOUS
  5
648
 10
840.0
 20
483.646035
 30
0.0
 11
837.650529
 21
465.800027
 31
0.0
  0
LINE
  8
LC-002-003-----0
  6
CONTINUOUS
  5
649
 10
837.650529
 20
465.800027
 30
0.0
 11
842.349471
 21
465.800027
 31
0.0
  0
LINE
  8
LC-002-003-----0
  6
CONTINUOUS
  5
64A
 10
841.738609
 20
465.759989
 30
0.0
 11
840.0
 21
478.966035
 31
0.0
  0
LINE
  8
LC-002-003-----0
  6
CONTINUOUS
  5
64B
 10
840.0
 20
478.966035
 30
0.0
 11
838.261391
 21
465.759989
 31
0.0
  0
LINE
  8
LC-002-003-----0
  6
CONTINUOUS
  5
64C
 10
841.127746
 20
465.719951
 30
0.0
 11
840.0
 21
474.286035
 31
0.0
  0
LINE
  8
LC-002-003-----0
  6
CONTINUOUS
  5
64D
 10
840.0
 20
474.286035
 30
0.0
 11
838.872254
 21
465.719951
 31
0.0
  0
LINE
  8
LC-002-003-----0
  6
CONTINUOUS
  5
64E
 10
840.516884
 20
465.679913
 30
0.0
 11
840.0
 21
469.606035
 31
0.0
  0
LINE
  8
LC-002-003-----0
  6
CONTINUOUS
  5
64F
 10
840.0
 20
469.606035
 30
0.0
 11
839.483116
 21
465.679913
 31
0.0
  0
TEXT
  8
LC-002-003-----0
  6
CONTINUOUS
 62
     6
  5
650
 10
829.568001
 20
370.705378
 30
0.0
 40
18.0
  1
197
 50
90.0
 51
15.0
  7
LC-TXTSTYLE-150-400-0-0-D0
 72
     1
 11
829.568001
 21
389.839237
 31
0.0
  0
ENDBLK
  8
0
  5
651
  0
BLOCK
  8
0
  5
653
  2
*D44
 70
    65
 10
0.0
 20
0.0
 30
0.0
  3
*D44
  0
LINE
  8
LC-003-003-MTH-0
  6
CONTINUOUS
  5
654
 10
656.07799
 20
228.441947
 30
0.0
 11
850.8
 21
228.441947
 31
0.0
  0
LINE
  8
LC-003-003-MTH-0
  6
CONTINUOUS
  5
655
 10
681.940349
 20
290.441947
 30
0.0
 11
850.8
 21
290.441947
 31
0.0
  0
LINE
  8
LC-004-003-MTG-0
  6
CONTINUOUS
  5
656
 10
840.0
 20
228.441947
 30
0.0
 11
840.0
 21
290.441947
 31
0.0
  0
LINE
  8
LC-002-003-----0
  6
CONTINUOUS
  5
657
 10
837.650529
 20
246.287955
 30
0.0
 11
840.0
 21
228.441947
 31
0.0
  0
LINE
  8
LC-002-003-----0
  6
CONTINUOUS
  5
658
 10
840.0
 20
228.441947
 30
0.0
 11
842.349471
 21
246.287955
 31
0.0
  0
LINE
  8
LC-002-003-----0
  6
CONTINUOUS
  5
659
 10
842.349471
 20
246.287955
 30
0.0
 11
837.650529
 21
246.287955
 31
0.0
  0
LINE
  8
LC-002-003-----0
  6
CONTINUOUS
  5
65A
 10
838.261391
 20
246.327993
 30
0.0
 11
840.0
 21
233.121947
 31
0.0
  0
LINE
  8
LC-002-003-----0
  6
CONTINUOUS
  5
65B
 10
840.0
 20
233.121947
 30
0.0
 11
841.738609
 21
246.327993
 31
0.0
  0
LINE
  8
LC-002-003-----0
  6
CONTINUOUS
  5
65C
 10
838.872254
 20
246.368031
 30
0.0
 11
840.0
 21
237.801947
 31
0.0
  0
LINE
  8
LC-002-003-----0
  6
CONTINUOUS
  5
65D
 10
840.0
 20
237.801947
 30
0.0
 11
841.127746
 21
246.368031
 31
0.0
  0
LINE
  8
LC-002-003-----0
  6
CONTINUOUS
  5
65E
 10
839.483116
 20
246.408069
 30
0.0
 11
840.0
 21
242.481947
 31
0.0
  0
LINE
  8
LC-002-003-----0
  6
CONTINUOUS
  5
65F
 10
840.0
 20
242.481947
 30
0.0
 11
840.516884
 21
246.408069
 31
0.0
  0
LINE
  8
LC-002-003-----0
  6
CONTINUOUS
  5
660
 10
842.349471
 20
272.59594
 30
0.0
 11
840.0
 21
290.441947
 31
0.0
  0
LINE
  8
LC-002-003-----0
  6
CONTINUOUS
  5
661
 10
840.0
 20
290.441947
 30
0.0
 11
837.650529
 21
272.59594
 31
0.0
  0
LINE
  8
LC-002-003-----0
  6
CONTINUOUS
  5
662
 10
837.650529
 20
272.59594
 30
0.0
 11
842.349471
 21
272.59594
 31
0.0
  0
LINE
  8
LC-002-003-----0
  6
CONTINUOUS
  5
663
 10
841.738609
 20
272.555902
 30
0.0
 11
840.0
 21
285.761947
 31
0.0
  0
LINE
  8
LC-002-003-----0
  6
CONTINUOUS
  5
664
 10
840.0
 20
285.761947
 30
0.0
 11
838.261391
 21
272.555902
 31
0.0
  0
LINE
  8
LC-002-003-----0
  6
CONTINUOUS
  5
665
 10
841.127746
 20
272.515864
 30
0.0
 11
840.0
 21
281.081947
 31
0.0
  0
LINE
  8
LC-002-003-----0
  6
CONTINUOUS
  5
666
 10
840.0
 20
281.081947
 30
0.0
 11
838.872254
 21
272.515864
 31
0.0
  0
LINE
  8
LC-002-003-----0
  6
CONTINUOUS
  5
667
 10
840.516884
 20
272.475826
 30
0.0
 11
840.0
 21
276.401947
 31
0.0
  0
LINE
  8
LC-002-003-----0
  6
CONTINUOUS
  5
668
 10
840.0
 20
276.401947
 30
0.0
 11
839.483116
 21
272.475826
 31
0.0
  0
TEXT
  8
LC-002-003-----0
  6
CONTINUOUS
 62
     6
  5
669
 10
829.568001
 20
250.374201
 30
0.0
 40
18.0
  1
62
 50
90.0
 51
15.0
  7
LC-TXTSTYLE-150-400-0-0-D0
 72
     1
 11
829.568001
 21
262.237193
 31
0.0
  0
ENDBLK
  8
0
  5
66A
  0
BLOCK
  8
0
  5
66C
  2
BLK2
 70
    64
 10
0.0
 20
0.0
 30
0.0
  3
BLK2
  0
ENDBLK
  8
0
  5
66D
  0
BLOCK
  8
0
  5
66F
  2
*X46
 70
    65
 10
697.28602
 20
582.56443
 30
0.0
  3
*X46
  0
LINE
  8
LC-006-005-----0
  6
CONTINUOUS
  5
670
 10
713.552766
 20
596.008993
 30
0.0
 11
706.997329
 21
602.56443
 31
0.0
  0
LINE
  8
LC-006-005-----0
  6
CONTINUOUS
  5
671
 10
713.411916
 20
593.321416
 30
0.0
 11
704.168902
 21
602.56443
 31
0.0
  0
LINE
  8
LC-006-005-----0
  6
CONTINUOUS
  5
672
 10
713.130216
 20
587.946261
 30
0.0
 11
698.624588
 21
602.45189
 31
0.0
  0
LINE
  8
LC-006-005-----0
  6
CONTINUOUS
  5
673
 10
712.989366
 20
585.258684
 30
0.0
 11
697.319454
 21
600.928596
 31
0.0
  0
LINE
  8
LC-006-005-----0
  6
CONTINUOUS
  5
674
 10
710.026766
 20
582.56443
 30
0.0
 11
697.573994
 21
595.017202
 31
0.0
  0
LINE
  8
LC-006-005-----0
  6
CONTINUOUS
  5
675
 10
707.198339
 20
582.56443
 30
0.0
 11
697.730423
 21
592.032346
 31
0.0
  0
LINE
  8
LC-006-005-----0
  6
CONTINUOUS
  5
676
 10
701.541485
 20
582.56443
 30
0.0
 11
698.043283
 21
586.062632
 31
0.0
  0
ENDBLK
  8
0
  5
677
  0
BLOCK
  8
0
  5
679
  2
*X47
 70
    65
 10
537.281502
 20
568.56443
 30
0.0
  3
*X47
  0
LINE
  8
LC-006-005-----0
  6
CONTINUOUS
  5
67A
 10
667.112168
 20
597.194757
 30
0.0
 11
661.742495
 21
602.56443
 31
0.0
  0
LINE
  8
LC-006-005-----0
  6
CONTINUOUS
  5
67B
 10
666.971318
 20
594.507179
 30
0.0
 11
658.914068
 21
602.56443
 31
0.0
  0
LINE
  8
LC-006-005-----0
  6
CONTINUOUS
  5
67C
 10
666.689618
 20
589.132025
 30
0.0
 11
653.257214
 21
602.56443
 31
0.0
  0
LINE
  8
LC-006-005-----0
  6
CONTINUOUS
  5
67D
 10
666.548768
 20
586.444448
 30
0.0
 11
650.428787
 21
602.56443
 31
0.0
  0
LINE
  8
LC-006-005-----0
  6
CONTINUOUS
  5
67E
 10
664.749066
 20
582.587296
 30
0.0
 11
644.771932
 21
602.56443
 31
0.0
  0
LINE
  8
LC-006-005-----0
  6
CONTINUOUS
  5
67F
 10
663.930038
 20
580.577897
 30
0.0
 11
641.943505
 21
602.56443
 31
0.0
  0
LINE
  8
LC-006-005-----0
  6
CONTINUOUS
  5
680
 10
659.334213
 20
579.516867
 30
0.0
 11
636.286651
 21
602.56443
 31
0.0
  0
LINE
  8
LC-006-005-----0
  6
CONTINUOUS
  5
681
 10
657.036301
 20
578.986353
 30
0.0
 11
633.458224
 21
602.56443
 31
0.0
  0
LINE
  8
LC-006-005-----0
  6
CONTINUOUS
  5
682
 10
652.440476
 20
577.925323
 30
0.0
 11
627.80137
 21
602.56443
 31
0.0
  0
LINE
  8
LC-006-005-----0
  6
CONTINUOUS
  5
683
 10
650.142564
 20
577.394808
 30
0.0
 11
624.972943
 21
602.56443
 31
0.0
  0
LINE
  8
LC-006-005-----0
  6
CONTINUOUS
  5
684
 10
645.54674
 20
576.333778
 30
0.0
 11
619.316088
 21
602.56443
 31
0.0
  0
LINE
  8
LC-006-005-----0
  6
CONTINUOUS
  5
685
 10
643.248827
 20
575.803263
 30
0.0
 11
616.487661
 21
602.56443
 31
0.0
  0
LINE
  8
LC-006-005-----0
  6
CONTINUOUS
  5
686
 10
638.653003
 20
574.742234
 30
0.0
 11
610.830807
 21
602.56443
 31
0.0
  0
LINE
  8
LC-006-005-----0
  6
CONTINUOUS
  5
687
 10
636.35509
 20
574.211719
 30
0.0
 11
608.00238
 21
602.56443
 31
0.0
  0
LINE
  8
LC-006-005-----0
  6
CONTINUOUS
  5
688
 10
631.759266
 20
573.150689
 30
0.0
 11
602.345526
 21
602.56443
 31
0.0
  0
LINE
  8
LC-006-005-----0
  6
CONTINUOUS
  5
689
 10
629.461354
 20
572.620174
 30
0.0
 11
599.517098
 21
602.56443
 31
0.0
  0
LINE
  8
LC-006-005-----0
  6
CONTINUOUS
  5
68A
 10
624.865529
 20
571.559145
 30
0.0
 11
593.860244
 21
602.56443
 31
0.0
  0
LINE
  8
LC-006-005-----0
  6
CONTINUOUS
  5
68B
 10
622.567617
 20
571.02863
 30
0.0
 11
591.031817
 21
602.56443
 31
0.0
  0
LINE
  8
LC-006-005-----0
  6
CONTINUOUS
  5
68C
 10
617.971792
 20
569.9676
 30
0.0
 11
585.374963
 21
602.56443
 31
0.0
  0
LINE
  8
LC-006-005-----0
  6
CONTINUOUS
  5
68D
 10
615.67388
 20
569.437085
 30
0.0
 11
582.546536
 21
602.56443
 31
0.0
  0
LINE
  8
LC-006-005-----0
  6
CONTINUOUS
  5
68E
 10
610.889681
 20
568.56443
 30
0.0
 11
576.889681
 21
602.56443
 31
0.0
  0
LINE
  8
LC-006-005-----0
  6
CONTINUOUS
  5
68F
 10
608.061254
 20
568.56443
 30
0.0
 11
574.061254
 21
602.56443
 31
0.0
  0
LINE
  8
LC-006-005-----0
  6
CONTINUOUS
  5
690
 10
602.4044
 20
568.56443
 30
0.0
 11
568.4044
 21
602.56443
 31
0.0
  0
LINE
  8
LC-006-005-----0
  6
CONTINUOUS
  5
691
 10
599.575973
 20
568.56443
 30
0.0
 11
565.575973
 21
602.56443
 31
0.0
  0
LINE
  8
LC-006-005-----0
  6
CONTINUOUS
  5
692
 10
593.919119
 20
568.56443
 30
0.0
 11
559.919119
 21
602.56443
 31
0.0
  0
LINE
  8
LC-006-005-----0
  6
CONTINUOUS
  5
693
 10
590.613396
 20
569.041725
 30
0.0
 11
557.090692
 21
602.56443
 31
0.0
  0
LINE
  8
LC-006-005-----0
  6
CONTINUOUS
  5
694
 10
583.25854
 20
570.739727
 30
0.0
 11
551.433837
 21
602.56443
 31
0.0
  0
LINE
  8
LC-006-005-----0
  6
CONTINUOUS
  5
695
 10
579.581111
 20
571.588728
 30
0.0
 11
548.60541
 21
602.56443
 31
0.0
  0
LINE
  8
LC-006-005-----0
  6
CONTINUOUS
  5
696
 10
572.226255
 20
573.286731
 30
0.0
 11
542.948556
 21
602.56443
 31
0.0
  0
LINE
  8
LC-006-005-----0
  6
CONTINUOUS
  5
697
 10
568.548826
 20
574.135732
 30
0.0
 11
540.120129
 21
602.56443
 31
0.0
  0
LINE
  8
LC-006-005-----0
  6
CONTINUOUS
  5
698
 10
561.193969
 20
575.833735
 30
0.0
 11
537.323859
 21
599.703845
 31
0.0
  0
LINE
  8
LC-006-005-----0
  6
CONTINUOUS
  5
699
 10
557.516541
 20
576.682736
 30
0.0
 11
537.480289
 21
596.718988
 31
0.0
  0
LINE
  8
LC-006-005-----0
  6
CONTINUOUS
  5
69A
 10
550.161684
 20
578.380738
 30
0.0
 11
537.793148
 21
590.749275
 31
0.0
  0
LINE
  8
LC-006-005-----0
  6
CONTINUOUS
  5
69B
 10
546.484256
 20
579.22974
 30
0.0
 11
537.949578
 21
587.764418
 31
0.0
  0
ENDBLK
  8
0
  5
69C
  0
BLOCK
  8
0
  5
69E
  2
*X48
 70
    65
 10
490.78602
 20
582.56443
 30
0.0
  3
*X48
  0
LINE
  8
LC-006-005-----0
  6
CONTINUOUS
  5
69F
 10
503.110655
 20
597.147496
 30
0.0
 11
497.693722
 21
602.56443
 31
0.0
  0
LINE
  8
LC-006-005-----0
  6
CONTINUOUS
  5
6A0
 10
502.969805
 20
594.459919
 30
0.0
 11
494.865295
 21
602.56443
 31
0.0
  0
LINE
  8
LC-006-005-----0
  6
CONTINUOUS
  5
6A1
 10
502.688105
 20
589.084765
 30
0.0
 11
490.823429
 21
600.949441
 31
0.0
  0
LINE
  8
LC-006-005-----0
  6
CONTINUOUS
  5
6A2
 10
502.547255
 20
586.397188
 30
0.0
 11
490.916191
 21
598.028252
 31
0.0
  0
LINE
  8
LC-006-005-----0
  6
CONTINUOUS
  5
6A3
 10
500.70645
 20
582.581139
 30
0.0
 11
491.229051
 21
592.058538
 31
0.0
  0
LINE
  8
LC-006-005-----0
  6
CONTINUOUS
  5
6A4
 10
497.894732
 20
582.56443
 30
0.0
 11
491.38548
 21
589.073681
 31
0.0
  0
ENDBLK
  8
0
  5
6A5
  0
BLOCK
  8
0
  5
6A7
  2
*D49
 70
    65
 10
0.0
 20
0.0
 30
0.0
  3
*D49
  0
LINE
  8
LC-003-003-MTH-0
  6
CONTINUOUS
  5
6A8
 10
490.788761
 20
600.459758
 30
0.0
 11
490.763147
 21
655.030427
 31
0.0
  0
LINE
  8
LC-003-003-MTH-0
  6
CONTINUOUS
  5
6A9
 10
713.788761
 20
600.56443
 30
0.0
 11
713.763147
 21
655.135099
 31
0.0
  0
LINE
  8
LC-004-003-MTG-0
  6
CONTINUOUS
  5
6AA
 10
490.768216
 20
644.230428
 30
0.0
 11
713.768216
 21
644.3351
 31
0.0
  0
LINE
  8
LC-002-003-----0
  6
CONTINUOUS
  5
6AB
 10
508.613119
 20
646.588276
 30
0.0
 11
490.768216
 21
644.230428
 31
0.0
  0
LINE
  8
LC-002-003-----0
  6
CONTINUOUS
  5
6AC
 10
490.768216
 20
644.230428
 30
0.0
 11
508.615325
 21
641.889333
 31
0.0
  0
LINE
  8
LC-002-003-----0
  6
CONTINUOUS
  5
6AD
 10
508.615325
 20
641.889333
 30
0.0
 11
508.613119
 21
646.588276
 31
0.0
  0
LINE
  8
LC-002-003-----0
  6
CONTINUOUS
  5
6AE
 10
508.653444
 20
645.977432
 30
0.0
 11
495.448216
 21
644.232625
 31
0.0
  0
LINE
  8
LC-002-003-----0
  6
CONTINUOUS
  5
6AF
 10
495.448216
 20
644.232625
 30
0.0
 11
508.655076
 21
642.500215
 31
0.0
  0
LINE
  8
LC-002-003-----0
  6
CONTINUOUS
  5
6B0
 10
508.693769
 20
645.366588
 30
0.0
 11
500.128215
 21
644.234822
 31
0.0
  0
LINE
  8
LC-002-003-----0
  6
CONTINUOUS
  5
6B1
 10
500.128215
 20
644.234822
 30
0.0
 11
508.694827
 21
643.111096
 31
0.0
  0
LINE
  8
LC-002-003-----0
  6
CONTINUOUS
  5
6B2
 10
508.734093
 20
644.755745
 30
0.0
 11
504.808215
 21
644.237018
 31
0.0
  0
LINE
  8
LC-002-003-----0
  6
CONTINUOUS
  5
6B3
 10
504.808215
 20
644.237018
 30
0.0
 11
508.734579
 21
643.721977
 31
0.0
  0
LINE
  8
LC-002-003-----0
  6
CONTINUOUS
  5
6B4
 10
695.923314
 20
641.977252
 30
0.0
 11
713.768216
 21
644.3351
 31
0.0
  0
LINE
  8
LC-002-003-----0
  6
CONTINUOUS
  5
6B5
 10
713.768216
 20
644.3351
 30
0.0
 11
695.921108
 21
646.676195
 31
0.0
  0
LINE
  8
LC-002-003-----0
  6
CONTINUOUS
  5
6B6
 10
695.921108
 20
646.676195
 30
0.0
 11
695.923314
 21
641.977252
 31
0.0
  0
LINE
  8
LC-002-003-----0
  6
CONTINUOUS
  5
6B7
 10
695.882989
 20
642.588096
 30
0.0
 11
709.088217
 21
644.332903
 31
0.0
  0
LINE
  8
LC-002-003-----0
  6
CONTINUOUS
  5
6B8
 10
709.088217
 20
644.332903
 30
0.0
 11
695.881357
 21
646.065313
 31
0.0
  0
LINE
  8
LC-002-003-----0
  6
CONTINUOUS
  5
6B9
 10
695.842664
 20
643.19894
 30
0.0
 11
704.408217
 21
644.330707
 31
0.0
  0
LINE
  8
LC-002-003-----0
  6
CONTINUOUS
  5
6BA
 10
704.408217
 20
644.330707
 30
0.0
 11
695.841605
 21
645.454432
 31
0.0
  0
LINE
  8
LC-002-003-----0
  6
CONTINUOUS
  5
6BB
 10
695.802339
 20
643.809783
 30
0.0
 11
699.728218
 21
644.32851
 31
0.0
  0
LINE
  8
LC-002-003-----0
  6
CONTINUOUS
  5
6BC
 10
699.728218
 20
644.32851
 30
0.0
 11
695.801854
 21
644.843551
 31
0.0
  0
TEXT
  8
LC-002-003-----0
  6
CONTINUOUS
 62
     6
  5
6BD
 10
585.929604
 20
654.714763
 30
0.0
 40
18.0
  1
226
 51
15.0
  7
LC-TXTSTYLE-150-400-0-0-D0
 72
     1
 11
605.063462
 21
654.714763
 31
0.0
  0
ENDBLK
  8
0
  5
6BE
  0
ENDSEC
  0
SECTION
  2
ENTITIES
  0
VIEWPORT
  8
LC-000
  5
958
 67
     1
 68
     1
 10
594.0
 20
420.0
 30
0.0
 40
1188.0
 41
840.0
 69
     1
1001
ACAD
1000
MVIEW
1002
{
1070
    16
1010
0.0
1020
0.0
1030
0.0
1010
0.0
1020
0.0
1030
1.0
1040
0.0
1040
840.0
1040
594.0
1040
420.0
1040
50.0
1040
0.0
1040
0.0
1070
     0
1070
   100
1070
     1
1070
     1
1070
     0
1070
     0
1070
     0
1070
     0
1040
0.0
1040
0.0
1040
0.0
1040
1.0
1040
1.0
1040
0.0
1040
0.0
1070
     0
1002
{
1002
}
1002
}
  0
VIEWPORT
  8
0
  5
959
 67
     1
 68
     1
 10
0.0
 20
0.0
 30
0.0
 40
0.0
 41
0.0
 69
     1
1001
ACAD
1000
MVIEW
1002
{
1070
    16
1010
0.0
1020
0.0
1030
0.0
1010
0.0
1020
0.0
1030
1.0
1040
0.0
1040
840.0
1040
0.0
1040
0.0
1040
50.0
1040
0.0
1040
0.0
1070
     0
1070
   100
1070
     0
1070
     1
1070
     0
1070
     0
1070
     0
1070
     0
1040
0.0
1040
0.0
1040
0.0
1040
0.5
1040
0.5
1040
0.5
1040
0.5
1070
     0
1002
{
1002
}
1002
}
  0
DIMENSION
  8
0
  5
6BF
  2
*D0
 10
602.283761
 20
144.0
 30
0.0
 11
602.283761
 21
144.0
 31
0.0
  1
%%c166
 13
519.163072
 23
296.441947
 33
0.0
 14
685.404451
 24
296.441947
 34
0.0
  3
LC-DIM-L-0090-02-02
  0
DIMENSION
  8
0
  5
6C0
  2
*D1
 10
400.0
 20
618.24
 30
0.0
 11
400.0
 21
618.24
 31
0.0
  1
23
 13
485.807511
 23
602.56443
 33
0.0
 14
483.837511
 24
579.90943
 34
0.0
 50
90.0
  3
LC-DIM-L-0090-02-02
  0
INSERT
  8
0
  5
6C1
  2
*X2
 10
503.783761
 20
463.129896
 30
0.0
  0
INSERT
  8
0
  5
6C2
  2
*X3
 10
481.867511
 20
459.441947
 30
0.0
  0
INSERT
  8
0
  5
6C3
  2
*X4
 10
693.396261
 20
459.441947
 30
0.0
  0
INSERT
  8
0
  5
6C4
  2
*X5
 10
505.283761
 20
570.474179
 30
0.0
  0
INSERT
  8
0
  5
6C5
  2
*X6
 10
529.539859
 20
522.799753
 30
0.0
  0
INSERT
  8
0
  5
6C6
  2
*X7
 10
589.283761
 20
520.908479
 30
0.0
  0
INSERT
  8
0
  5
6C7
  2
*X8
 10
602.283761
 20
520.908479
 30
0.0
  0
INSERT
  8
0
  5
6C8
  2
*X9
 10
619.283761
 20
522.799753
 30
0.0
  0
INSERT
  8
0
  5
6C9
  2
*X10
 10
674.413265
 20
570.474179
 30
0.0
  0
DIMENSION
  8
0
  5
6CA
  2
*D11
 10
606.359508
 20
680.0
 30
0.0
 11
606.359508
 21
680.0
 31
0.0
  1
240
 13
482.360011
 23
600.59443
 33
0.0
 14
722.207511
 24
600.59443
 34
0.0
  3
LC-DIM-L-0090-02-02
  0
INSERT
  8
0
  5
6CB
  2
*X12
 10
696.283761
 20
463.129896
 30
0.0
  0
INSERT
  8
0
  5
6CC
  2
*X13
 10
666.583256
 20
576.816161
 30
0.0
  0
INSERT
  8
0
  5
6CE
  2
BLK1
 10
0.0
 20
0.0
 30
0.0
  0
INSERT
  8
0
  5
6CF
  2
*X15
 10
444.283761
 20
228.441947
 30
0.0
  0
INSERT
  8
0
  5
6D0
  2
*X16
 10
513.283761
 20
316.67747
 30
0.0
  0
INSERT
  8
0
  5
6D1
  2
*X17
 10
587.405882
 20
377.515389
 30
0.0
  0
INSERT
  8
0
  5
6D2
  2
*X18
 10
591.633636
 20
390.617261
 30
0.0
  0
INSERT
  8
0
  5
6D3
  2
*X19
 10
587.405882
 20
398.619254
 30
0.0
  0
INSERT
  8
0
  5
6D4
  2
*X20
 10
602.283761
 20
314.817645
 30
0.0
  0
INSERT
  8
0
  5
6D5
  2
*X21
 10
602.283761
 20
314.52072
 30
0.0
  0
INSERT
  8
0
  5
6D6
  2
*X22
 10
516.283761
 20
414.589293
 30
0.0
  0
INSERT
  8
0
  5
6D7
  2
*X23
 10
684.283761
 20
414.589293
 30
0.0
  0
INSERT
  8
0
  5
6D8
  2
*X24
 10
602.283761
 20
407.614189
 30
0.0
  0
INSERT
  8
0
  5
6D9
  2
*X25
 10
653.283761
 20
228.441947
 30
0.0
  0
DIMENSION
  8
0
  5
6DA
  2
*D26
 10
602.283761
 20
180.0
 30
0.0
 11
602.283761
 21
180.0
 31
0.0
  1
DN100
 13
547.283761
 23
232.941947
 33
0.0
 14
657.283761
 24
232.941947
 34
0.0
  3
LC-DIM-L-0090-02-02
  0
DIMENSION
  8
0
  5
6DB
  2
*D27
 10
602.283761
 20
108.0
 30
0.0
 11
602.283761
 21
108.0
 31
0.0
  1
%%c<>
 13
508.283761
 23
427.141947
 33
0.0
 14
696.283761
 24
427.141947
 34
0.0
  3
LC-DIM-L-0090-02-02
  0
DIMENSION
  8
0
  5
6DC
  2
*D28
 10
602.283761
 20
72.0
 30
0.0
 11
602.283761
 21
72.0
 31
0.0
  1
%%c<>
 13
499.783761
 23
459.441947
 33
0.0
 14
704.783761
 24
459.441947
 34
0.0
  3
LC-DIM-L-0090-02-02
  0
DIMENSION
  8
0
  5
6DD
  2
*D29
 10
597.516943
 20
720.0
 30
0.0
 11
597.516943
 21
720.0
 31
0.0
  1
%%c315
 13
444.283761
 23
483.646035
 33
0.0
 14
760.283761
 24
483.646035
 34
0.0
  3
LC-DIM-L-0090-02-02
  0
INSERT
  8
0
  5
6DE
  2
*X30
 10
702.276655
 20
481.441947
 30
0.0
  0
INSERT
  8
0
  5
6DF
  2
*X31
 10
722.276655
 20
481.441947
 30
0.0
  0
INSERT
  8
0
  5
6E0
  2
*X32
 10
742.276655
 20
481.441947
 30
0.0
  0
INSERT
  8
0
  5
6E1
  2
*X33
 10
762.276655
 20
484.122117
 30
0.0
  0
INSERT
  8
0
  5
6E2
  2
*X34
 10
782.276655
 20
487.648657
 30
0.0
  0
INSERT
  8
0
  5
6E3
  2
*X35
 10
802.276655
 20
488.069769
 30
0.0
  0
INSERT
  8
0
  5
6E4
  2
*X36
 10
492.290868
 20
481.441947
 30
0.0
  0
INSERT
  8
0
  5
6E5
  2
*X37
 10
469.495846
 20
481.441947
 30
0.0
  0
INSERT
  8
0
  5
6E6
  2
*X38
 10
452.290868
 20
481.441947
 30
0.0
  0
INSERT
  8
0
  5
6E7
  2
*X39
 10
432.290868
 20
484.122117
 30
0.0
  0
INSERT
  8
0
  5
6E8
  2
*X40
 10
412.290868
 20
487.648657
 30
0.0
  0
INSERT
  8
0
  5
6E9
  2
*X41
 10
392.290868
 20
488.069769
 30
0.0
  0
DIMENSION
  8
0
  5
6EA
  2
*D42
 10
840.0
 20
543.105232
 30
0.0
 11
840.0
 21
543.105232
 31
0.0
  1
42-130
 13
718.760011
 23
602.56443
 33
0.0
 14
760.283761
 24
483.646035
 34
0.0
 50
90.0
  3
LC-DIM-L-0090-02-02
  0
DIMENSION
  8
0
  5
6EB
  2
*D43
 10
840.0
 20
387.043991
 30
0.0
 11
840.0
 21
387.043991
 31
0.0
  1
197
 13
760.283761
 23
483.646035
 33
0.0
 14
681.940349
 24
290.441947
 34
0.0
 50
90.0
  3
LC-DIM-L-0090-02-02
  0
DIMENSION
  8
0
  5
6EC
  2
*D44
 10
840.0
 20
259.441947
 30
0.0
 11
840.0
 21
259.441947
 31
0.0
 13
681.940349
 23
290.441947
 33
0.0
 14
656.07799
 24
228.441947
 34
0.0
 50
90.0
  3
LC-DIM-L-0090-02-02
  0
INSERT
  8
0
  5
6EE
  2
BLK2
 10
0.0
 20
0.0
 30
0.0
  0
INSERT
  8
0
  5
6EF
  2
*X46
 10
697.28602
 20
582.56443
 30
0.0
  0
INSERT
  8
0
  5
6F0
  2
*X47
 10
537.281502
 20
568.56443
 30
0.0
  0
INSERT
  8
0
  5
6F1
  2
*X48
 10
490.78602
 20
582.56443
 30
0.0
  0
DIMENSION
  8
0
  5
6F2
  2
*D49
 10
602.268216
 20
644.282764
 30
0.0
 11
602.268216
 21
644.282764
 31
0.0
 70
     1
  1
226
 13
490.788761
 23
600.459758
 33
0.0
 14
713.788761
 24
600.56443
 34
0.0
  3
LC-DIM-L-0090-02-02
  0
LINE
  8
LC-001-002-----0
  6
CONTINUOUS
  5
6F4
 10
567.683476
 20
666.531527
 30
0.0
 11
567.683476
 21
651.531527
 31
0.0
  0
LINE
  8
LC-001-002-----0
  6
CONTINUOUS
  5
6F5
 10
552.683476
 20
666.531527
 30
0.0
 11
567.683476
 21
666.531527
 31
0.0
  0
LINE
  8
LC-001-002-----0
  6
CONTINUOUS
  5
6F6
 10
567.683476
 20
706.531527
 30
0.0
 11
567.683476
 21
691.531527
 31
0.0
  0
LINE
  8
LC-001-002-----0
  6
CONTINUOUS
  5
6F7
 10
552.683476
 20
706.531527
 30
0.0
 11
567.683476
 21
706.531527
 31
0.0
  0
LINE
  8
LC-001-002-----0
  6
CONTINUOUS
  5
6F8
 10
552.683476
 20
691.531527
 30
0.0
 11
567.683476
 21
691.531527
 31
0.0
  0
LINE
  8
LC-001-002-----0
  6
CONTINUOUS
  5
6F9
 10
552.683476
 20
706.531527
 30
0.0
 11
552.683476
 21
691.531527
 31
0.0
  0
LINE
  8
LC-001-002-----0
  6
CONTINUOUS
 62
     1
  5
6FA
 10
506.783761
 20
561.39893
 30
0.0
 11
510.835502
 21
561.39893
 31
0.0
  0
LINE
  8
LC-001-002-----0
  6
CONTINUOUS
 62
     1
  5
6FB
 10
696.283761
 20
467.45752
 30
0.0
 11
696.283761
 21
465.379896
 31
0.0
  0
LINE
  8
LC-001-002-----0
  6
CONTINUOUS
 62
     1
  5
6FC
 10
505.283761
 20
580.908479
 30
0.0
 11
540.120027
 21
580.908479
 31
0.0
  0
LINE
  8
LC-001-002-----0
  6
CONTINUOUS
 62
     1
  5
6FD
 10
529.647996
 20
578.776885
 30
0.0
 11
548.445786
 21
578.776885
 31
0.0
  0
LINE
  8
LC-001-002-----0
  6
CONTINUOUS
 62
     1
  5
6FE
 10
505.283761
 20
580.908479
 30
0.0
 11
529.647996
 21
578.776885
 31
0.0
  0
LINE
  8
LC-001-002-----0
  6
CONTINUOUS
 62
     1
  5
6FF
 10
487.777511
 20
582.86443
 30
0.0
 11
502.552511
 21
582.86443
 31
0.0
  0
LINE
  8
LC-001-002-----0
  6
CONTINUOUS
 62
     1
  5
700
 10
508.314761
 20
556.95893
 30
0.0
 11
508.314761
 21
553.146905
 31
0.0
  0
ARC
  8
LC-005-002-RND-0
  6
CONTINUOUS
  5
702
 10
507.329761
 20
556.95893
 30
0.0
 40
0.985
 50
0.0
 51
90.0
  0
ARC
  8
LC-005-002-RND-0
  6
CONTINUOUS
  5
703
 10
502.552511
 20
581.87943
 30
0.0
 40
0.985
 50
0.0
 51
90.0
  0
LINE
  8
LC-001-002-----0
  6
CONTINUOUS
 62
     1
  5
704
 10
503.537511
 20
581.87943
 30
0.0
 11
503.537511
 21
561.88393
 31
0.0
  0
LINE
  8
LC-001-002-----0
  6
CONTINUOUS
 62
     1
  5
705
 10
504.522511
 20
541.524958
 30
0.0
 11
504.522511
 21
539.062458
 31
0.0
  0
LINE
  8
LC-001-002-----0
  6
CONTINUOUS
 62
     1
  5
706
 10
503.291261
 20
557.94393
 30
0.0
 11
507.329761
 21
557.94393
 31
0.0
  0
ARC
  8
LC-005-002-RND-0
  6
CONTINUOUS
  5
707
 10
503.291261
 20
560.40643
 30
0.0
 40
2.4625
 50
180.0
 51
270.0
  0
ARC
  8
LC-005-002-RND-0
  6
CONTINUOUS
  5
708
 10
504.522511
 20
561.88393
 30
0.0
 40
0.985
 50
180.0
 51
270.0
  0
LINE
  8
LC-001-002-----0
  6
CONTINUOUS
 62
     1
  5
709
 10
508.314761
 20
547.14051
 30
0.0
 11
508.314761
 21
543.296905
 31
0.0
  0
LINE
  8
LC-001-002-----0
  6
CONTINUOUS
 62
     1
  5
70A
 10
500.828761
 20
577.44693
 30
0.0
 11
500.828761
 21
560.40643
 31
0.0
  0
ARC
  8
LC-005-002-RND-0
  6
CONTINUOUS
  5
70B
 10
498.366261
 20
577.44693
 30
0.0
 40
2.4625
 50
0.0
 51
90.0
  0
ARC
  8
LC-005-002-RND-0
  6
CONTINUOUS
  5
70C
 10
483.837511
 20
581.38693
 30
0.0
 40
1.4775
 50
90.0
 51
180.0
  0
ARC
  8
LC-005-002-RND-0
  6
CONTINUOUS
  5
70D
 10
507.329761
 20
547.14051
 30
0.0
 40
0.985
 50
0.0
 51
75.0
  0
ARC
  8
LC-005-002-RND-0
  6
CONTINUOUS
  5
70E
 10
507.329761
 20
553.146905
 30
0.0
 40
0.985
 50
285.0
 51
0.0
  0
LINE
  8
LC-001-002-----0
  6
CONTINUOUS
 62
     1
  5
70F
 10
484.822511
 20
598.13193
 30
0.0
 11
484.822511
 21
582.86443
 31
0.0
  0
LINE
  8
LC-001-002-----0
  6
CONTINUOUS
 62
     1
  5
710
 10
483.837511
 20
579.90943
 30
0.0
 11
498.366261
 21
579.90943
 31
0.0
  0
LINE
  8
LC-001-002-----0
  6
CONTINUOUS
 62
     1
  5
711
 10
508.314761
 20
533.446905
 30
0.0
 11
508.314761
 21
537.29051
 31
0.0
  0
LINE
  8
LC-001-002-----0
  6
CONTINUOUS
 62
     1
  5
712
 10
504.522511
 20
531.674958
 30
0.0
 11
507.584698
 21
532.495468
 31
0.0
  0
LINE
  8
LC-001-002-----0
  6
CONTINUOUS
 62
     1
  5
713
 10
504.522511
 20
529.212458
 30
0.0
 11
504.522511
 21
531.674958
 31
0.0
  0
LINE
  8
LC-001-002-----0
  6
CONTINUOUS
 62
     1
  5
714
 10
504.522511
 20
529.212458
 30
0.0
 11
507.584698
 21
528.391947
 31
0.0
  0
ARC
  8
LC-005-002-RND-0
  6
CONTINUOUS
  5
715
 10
507.329761
 20
527.44051
 30
0.0
 40
0.985
 50
0.0
 51
75.0
  0
ARC
  8
LC-005-002-RND-0
  6
CONTINUOUS
  5
716
 10
507.329761
 20
533.446905
 30
0.0
 40
0.985
 50
285.0
 51
0.0
  0
LINE
  8
LC-001-002-----0
  6
CONTINUOUS
 62
     1
  5
717
 10
508.314761
 20
523.596905
 30
0.0
 11
508.314761
 21
527.44051
 31
0.0
  0
ARC
  8
LC-005-002-RND-0
  6
CONTINUOUS
  5
718
 10
507.329761
 20
523.596905
 30
0.0
 40
0.985
 50
285.0
 51
0.0
  0
LINE
  8
LC-001-002-----0
  6
CONTINUOUS
 62
     1
  5
719
 10
504.522511
 20
521.824958
 30
0.0
 11
507.584698
 21
522.645468
 31
0.0
  0
LINE
  8
LC-001-002-----0
  6
CONTINUOUS
 62
     1
  5
71A
 10
504.522511
 20
519.362458
 30
0.0
 11
504.522511
 21
521.824958
 31
0.0
  0
LINE
  8
LC-001-002-----0
  6
CONTINUOUS
 62
     1
  5
71B
 10
504.522511
 20
551.374958
 30
0.0
 11
507.584698
 21
552.195468
 31
0.0
  0
LINE
  8
LC-001-002-----0
  6
CONTINUOUS
 62
     1
  5
71C
 10
504.522511
 20
519.362458
 30
0.0
 11
507.584698
 21
518.541947
 31
0.0
  0
ARC
  8
LC-005-002-RND-0
  6
CONTINUOUS
  5
71D
 10
507.329761
 20
543.296905
 30
0.0
 40
0.985
 50
285.0
 51
0.0
  0
ARC
  8
LC-005-002-RND-0
  6
CONTINUOUS
  5
71E
 10
507.329761
 20
537.29051
 30
0.0
 40
0.985
 50
0.0
 51
75.0
  0
LINE
  8
LC-001-002-----0
  6
CONTINUOUS
 62
     1
  5
71F
 10
504.522511
 20
548.912458
 30
0.0
 11
507.584698
 21
548.091947
 31
0.0
  0
ARC
  8
LC-005-002-RND-0
  6
CONTINUOUS
  5
720
 10
507.329761
 20
517.59051
 30
0.0
 40
0.985
 50
0.0
 51
75.0
  0
LINE
  8
LC-001-002-----0
  6
CONTINUOUS
 62
     1
  5
721
 10
504.522511
 20
541.524958
 30
0.0
 11
507.584698
 21
542.345468
 31
0.0
  0
LINE
  8
LC-001-002-----0
  6
CONTINUOUS
 62
     1
  5
722
 10
504.522511
 20
539.062458
 30
0.0
 11
507.584698
 21
538.241947
 31
0.0
  0
LINE
  8
LC-001-002-----0
  6
CONTINUOUS
 62
     1
  5
723
 10
508.314761
 20
513.746905
 30
0.0
 11
508.314761
 21
517.59051
 31
0.0
  0
ARC
  8
LC-005-002-RND-0
  6
CONTINUOUS
  5
724
 10
507.329761
 20
513.746905
 30
0.0
 40
0.985
 50
285.0
 51
0.0
  0
LINE
  8
LC-001-002-----0
  6
CONTINUOUS
 62
     1
  5
725
 10
504.522511
 20
511.974958
 30
0.0
 11
507.584698
 21
512.795468
 31
0.0
  0
LINE
  8
LC-001-002-----0
  6
CONTINUOUS
 62
     1
  5
726
 10
504.522511
 20
509.512458
 30
0.0
 11
504.522511
 21
511.974958
 31
0.0
  0
LINE
  8
LC-001-002-----0
  6
CONTINUOUS
 62
     1
  5
727
 10
504.522511
 20
509.512458
 30
0.0
 11
507.584698
 21
508.691947
 31
0.0
  0
LINE
  8
LC-001-002-----0
  6
CONTINUOUS
 62
     1
  5
728
 10
511.171261
 20
558.92893
 30
0.0
 11
511.171261
 21
459.441947
 31
0.0
  0
ARC
  8
LC-005-002-RND-0
  6
CONTINUOUS
  5
729
 10
507.329761
 20
507.74051
 30
0.0
 40
0.985
 50
0.0
 51
75.0
  0
LINE
  8
LC-001-002-----0
  6
CONTINUOUS
 62
     1
  5
72A
 10
508.314761
 20
503.896905
 30
0.0
 11
508.314761
 21
507.74051
 31
0.0
  0
ARC
  8
LC-005-002-RND-0
  6
CONTINUOUS
  5
72B
 10
509.201261
 20
558.92893
 30
0.0
 40
1.97
 50
0.0
 51
90.0
  0
ARC
  8
LC-005-002-RND-0
  6
CONTINUOUS
  5
72C
 10
507.329761
 20
503.896905
 30
0.0
 40
0.985
 50
285.0
 51
0.0
  0
LINE
  8
LC-001-002-----0
  6
CONTINUOUS
 62
     1
  5
72D
 10
504.522511
 20
502.124958
 30
0.0
 11
507.584698
 21
502.945468
 31
0.0
  0
LINE
  8
LC-001-002-----0
  6
CONTINUOUS
 62
     1
  5
72E
 10
504.522511
 20
502.124958
 30
0.0
 11
504.522511
 21
499.662458
 31
0.0
  0
LINE
  8
LC-001-002-----0
  6
CONTINUOUS
 62
     1
  5
72F
 10
504.522511
 20
499.662458
 30
0.0
 11
507.584698
 21
498.841947
 31
0.0
  0
ARC
  8
LC-005-002-RND-0
  6
CONTINUOUS
  5
730
 10
507.329761
 20
497.89051
 30
0.0
 40
0.985
 50
0.0
 51
75.0
  0
LINE
  8
LC-001-002-----0
  6
CONTINUOUS
 62
     1
  5
731
 10
508.314761
 20
497.89051
 30
0.0
 11
508.314761
 21
494.046905
 31
0.0
  0
ARC
  8
LC-005-002-RND-0
  6
CONTINUOUS
  5
732
 10
507.329761
 20
494.046905
 30
0.0
 40
0.985
 50
285.0
 51
0.0
  0
LINE
  8
LC-001-002-----0
  6
CONTINUOUS
 62
     1
  5
733
 10
504.522511
 20
492.274958
 30
0.0
 11
507.584698
 21
493.095468
 31
0.0
  0
LINE
  8
LC-001-002-----0
  6
CONTINUOUS
 62
     1
  5
734
 10
504.522511
 20
492.274958
 30
0.0
 11
504.522511
 21
489.812458
 31
0.0
  0
LINE
  8
LC-001-002-----0
  6
CONTINUOUS
 62
     1
  5
735
 10
504.522511
 20
489.812458
 30
0.0
 11
507.584698
 21
488.991947
 31
0.0
  0
ARC
  8
LC-005-002-RND-0
  6
CONTINUOUS
  5
736
 10
507.329761
 20
488.04051
 30
0.0
 40
0.985
 50
0.0
 51
75.0
  0
LINE
  8
LC-001-002-----0
  6
CONTINUOUS
 62
     1
  5
737
 10
508.314761
 20
488.04051
 30
0.0
 11
508.314761
 21
484.196905
 31
0.0
  0
LINE
  8
LC-001-002-----0
  6
CONTINUOUS
 62
     1
  5
738
 10
716.790011
 20
582.86443
 30
0.0
 11
702.015011
 21
582.86443
 31
0.0
  0
LINE
  8
LC-001-002-----0
  6
CONTINUOUS
 62
     1
  5
739
 10
696.252761
 20
556.95893
 30
0.0
 11
696.252761
 21
553.146905
 31
0.0
  0
ARC
  8
LC-005-002-RND-0
  6
CONTINUOUS
  5
73A
 10
697.237761
 20
556.95893
 30
0.0
 40
0.985
 50
90.0
 51
180.0
  0
ARC
  8
LC-005-002-RND-0
  6
CONTINUOUS
  5
73B
 10
702.015011
 20
581.87943
 30
0.0
 40
0.985
 50
90.0
 51
180.0
  0
LINE
  8
LC-001-002-----0
  6
CONTINUOUS
 62
     1
  5
73C
 10
701.030011
 20
581.87943
 30
0.0
 11
701.030011
 21
561.88393
 31
0.0
  0
LINE
  8
LC-001-002-----0
  6
CONTINUOUS
 62
     1
  5
73D
 10
700.045011
 20
541.524958
 30
0.0
 11
700.045011
 21
539.062458
 31
0.0
  0
LINE
  8
LC-001-002-----0
  6
CONTINUOUS
 62
     1
  5
73E
 10
701.276261
 20
557.94393
 30
0.0
 11
697.237761
 21
557.94393
 31
0.0
  0
ARC
  8
LC-005-002-RND-0
  6
CONTINUOUS
  5
73F
 10
701.276261
 20
560.40643
 30
0.0
 40
2.4625
 50
270.0
 51
0.0
  0
ARC
  8
LC-005-002-RND-0
  6
CONTINUOUS
  5
740
 10
700.045011
 20
561.88393
 30
0.0
 40
0.985
 50
270.0
 51
0.0
  0
LINE
  8
LC-001-002-----0
  6
CONTINUOUS
 62
     1
  5
741
 10
696.252761
 20
547.14051
 30
0.0
 11
696.252761
 21
543.296905
 31
0.0
  0
LINE
  8
LC-001-002-----0
  6
CONTINUOUS
 62
     1
  5
742
 10
703.738761
 20
577.44693
 30
0.0
 11
703.738761
 21
560.40643
 31
0.0
  0
ARC
  8
LC-005-002-RND-0
  6
CONTINUOUS
  5
743
 10
706.201261
 20
577.44693
 30
0.0
 40
2.4625
 50
90.0
 51
180.0
  0
LINE
  8
LC-001-002-----0
  6
CONTINUOUS
 62
     1
  5
744
 10
504.522511
 20
551.374958
 30
0.0
 11
504.522511
 21
548.912458
 31
0.0
  0
ARC
  8
LC-005-002-RND-0
  6
CONTINUOUS
  5
745
 10
720.730011
 20
581.38693
 30
0.0
 40
1.4775
 50
0.0
 51
90.0
  0
ARC
  8
LC-005-002-RND-0
  6
CONTINUOUS
  5
746
 10
697.237761
 20
547.14051
 30
0.0
 40
0.985
 50
105.0
 51
180.0
  0
ARC
  8
LC-005-002-RND-0
  6
CONTINUOUS
  5
747
 10
697.237761
 20
553.146905
 30
0.0
 40
0.985
 50
180.0
 51
255.0
  0
LINE
  8
LC-001-002-----0
  6
CONTINUOUS
 62
     1
  5
748
 10
719.745011
 20
598.13193
 30
0.0
 11
719.745011
 21
582.86443
 31
0.0
  0
LINE
  8
LC-001-002-----0
  6
CONTINUOUS
 62
     1
  5
749
 10
720.730011
 20
579.90943
 30
0.0
 11
706.201261
 21
579.90943
 31
0.0
  0
LINE
  8
LC-001-002-----0
  6
CONTINUOUS
 62
     1
  5
74A
 10
696.252761
 20
533.446905
 30
0.0
 11
696.252761
 21
537.29051
 31
0.0
  0
LINE
  8
LC-001-002-----0
  6
CONTINUOUS
 62
     1
  5
74B
 10
700.045011
 20
531.674958
 30
0.0
 11
696.982825
 21
532.495468
 31
0.0
  0
LINE
  8
LC-001-002-----0
  6
CONTINUOUS
 62
     1
  5
74C
 10
700.045011
 20
529.212458
 30
0.0
 11
700.045011
 21
531.674958
 31
0.0
  0
LINE
  8
LC-001-002-----0
  6
CONTINUOUS
 62
     1
  5
74D
 10
700.045011
 20
529.212458
 30
0.0
 11
696.982825
 21
528.391947
 31
0.0
  0
ARC
  8
LC-005-002-RND-0
  6
CONTINUOUS
  5
74E
 10
697.237761
 20
527.44051
 30
0.0
 40
0.985
 50
105.0
 51
180.0
  0
ARC
  8
LC-005-002-RND-0
  6
CONTINUOUS
  5
74F
 10
697.237761
 20
533.446905
 30
0.0
 40
0.985
 50
180.0
 51
255.0
  0
LINE
  8
LC-001-002-----0
  6
CONTINUOUS
 62
     1
  5
750
 10
696.252761
 20
523.596905
 30
0.0
 11
696.252761
 21
527.44051
 31
0.0
  0
ARC
  8
LC-005-002-RND-0
  6
CONTINUOUS
  5
751
 10
697.237761
 20
523.596905
 30
0.0
 40
0.985
 50
180.0
 51
255.0
  0
LINE
  8
LC-001-002-----0
  6
CONTINUOUS
 62
     1
  5
752
 10
700.045011
 20
521.824958
 30
0.0
 11
696.982825
 21
522.645468
 31
0.0
  0
LINE
  8
LC-001-002-----0
  6
CONTINUOUS
 62
     1
  5
753
 10
700.045011
 20
519.362458
 30
0.0
 11
700.045011
 21
521.824958
 31
0.0
  0
LINE
  8
LC-001-002-----0
  6
CONTINUOUS
 62
     1
  5
754
 10
700.045011
 20
551.374958
 30
0.0
 11
696.982825
 21
552.195468
 31
0.0
  0
LINE
  8
LC-001-002-----0
  6
CONTINUOUS
 62
     1
  5
755
 10
700.045011
 20
519.362458
 30
0.0
 11
696.982825
 21
518.541947
 31
0.0
  0
ARC
  8
LC-005-002-RND-0
  6
CONTINUOUS
  5
756
 10
697.237761
 20
543.296905
 30
0.0
 40
0.985
 50
180.0
 51
255.0
  0
ARC
  8
LC-005-002-RND-0
  6
CONTINUOUS
  5
757
 10
697.237761
 20
537.29051
 30
0.0
 40
0.985
 50
105.0
 51
180.0
  0
LINE
  8
LC-001-002-----0
  6
CONTINUOUS
 62
     1
  5
758
 10
700.045011
 20
548.912458
 30
0.0
 11
696.982825
 21
548.091947
 31
0.0
  0
ARC
  8
LC-005-002-RND-0
  6
CONTINUOUS
  5
759
 10
697.237761
 20
517.59051
 30
0.0
 40
0.985
 50
105.0
 51
180.0
  0
LINE
  8
LC-001-002-----0
  6
CONTINUOUS
 62
     1
  5
75A
 10
700.045011
 20
541.524958
 30
0.0
 11
696.982825
 21
542.345468
 31
0.0
  0
LINE
  8
LC-001-002-----0
  6
CONTINUOUS
 62
     1
  5
75B
 10
700.045011
 20
539.062458
 30
0.0
 11
696.982825
 21
538.241947
 31
0.0
  0
LINE
  8
LC-001-002-----0
  6
CONTINUOUS
 62
     1
  5
75C
 10
696.252761
 20
513.746905
 30
0.0
 11
696.252761
 21
517.59051
 31
0.0
  0
ARC
  8
LC-005-002-RND-0
  6
CONTINUOUS
  5
75D
 10
697.237761
 20
513.746905
 30
0.0
 40
0.985
 50
180.0
 51
255.0
  0
LINE
  8
LC-001-002-----0
  6
CONTINUOUS
 62
     1
  5
75E
 10
700.045011
 20
511.974958
 30
0.0
 11
696.982825
 21
512.795468
 31
0.0
  0
LINE
  8
LC-001-002-----0
  6
CONTINUOUS
 62
     1
  5
75F
 10
700.045011
 20
509.512458
 30
0.0
 11
700.045011
 21
511.974958
 31
0.0
  0
LINE
  8
LC-001-002-----0
  6
CONTINUOUS
 62
     1
  5
760
 10
700.045011
 20
509.512458
 30
0.0
 11
696.982825
 21
508.691947
 31
0.0
  0
LINE
  8
LC-001-002-----0
  6
CONTINUOUS
 62
     1
  5
761
 10
693.396261
 20
558.92893
 30
0.0
 11
693.396261
 21
459.441947
 31
0.0
  0
ARC
  8
LC-005-002-RND-0
  6
CONTINUOUS
  5
762
 10
697.237761
 20
507.74051
 30
0.0
 40
0.985
 50
105.0
 51
180.0
  0
LINE
  8
LC-001-002-----0
  6
CONTINUOUS
 62
     1
  5
763
 10
696.252761
 20
503.896905
 30
0.0
 11
696.252761
 21
507.74051
 31
0.0
  0
ARC
  8
LC-005-002-RND-0
  6
CONTINUOUS
  5
764
 10
695.366261
 20
558.92893
 30
0.0
 40
1.97
 50
90.0
 51
180.0
  0
ARC
  8
LC-005-002-RND-0
  6
CONTINUOUS
  5
765
 10
697.237761
 20
503.896905
 30
0.0
 40
0.985
 50
180.0
 51
255.0
  0
LINE
  8
LC-001-002-----0
  6
CONTINUOUS
 62
     1
  5
766
 10
700.045011
 20
502.124958
 30
0.0
 11
696.982825
 21
502.945468
 31
0.0
  0
LINE
  8
LC-001-002-----0
  6
CONTINUOUS
 62
     1
  5
767
 10
700.045011
 20
502.124958
 30
0.0
 11
700.045011
 21
499.662458
 31
0.0
  0
LINE
  8
LC-001-002-----0
  6
CONTINUOUS
 62
     1
  5
768
 10
700.045011
 20
499.662458
 30
0.0
 11
696.982825
 21
498.841947
 31
0.0
  0
ARC
  8
LC-005-002-RND-0
  6
CONTINUOUS
  5
769
 10
697.237761
 20
497.89051
 30
0.0
 40
0.985
 50
105.0
 51
180.0
  0
LINE
  8
LC-001-002-----0
  6
CONTINUOUS
 62
     1
  5
76A
 10
696.252761
 20
497.89051
 30
0.0
 11
696.252761
 21
494.046905
 31
0.0
  0
ARC
  8
LC-005-002-RND-0
  6
CONTINUOUS
  5
76B
 10
697.237761
 20
494.046905
 30
0.0
 40
0.985
 50
180.0
 51
255.0
  0
LINE
  8
LC-001-002-----0
  6
CONTINUOUS
 62
     1
  5
76C
 10
487.777511
 20
600.59443
 30
0.0
 11
487.777511
 21
582.86443
 31
0.0
  0
LINE
  8
LC-001-002-----0
  6
CONTINUOUS
 62
     1
  5
76D
 10
482.360011
 20
600.59443
 30
0.0
 11
482.360011
 21
599.60943
 31
0.0
  0
ARC
  8
LC-005-002-RND-0
  6
CONTINUOUS
  5
76E
 10
484.330011
 20
600.59443
 30
0.0
 40
1.97
 50
90.0
 51
180.0
  0
LINE
  8
LC-001-002-----0
  6
CONTINUOUS
 62
     1
  5
76F
 10
700.045011
 20
492.274958
 30
0.0
 11
696.982825
 21
493.095468
 31
0.0
  0
LINE
  8
LC-001-002-----0
  6
CONTINUOUS
 62
     1
  5
770
 10
700.045011
 20
492.274958
 30
0.0
 11
700.045011
 21
489.812458
 31
0.0
  0
LINE
  8
LC-001-002-----0
  6
CONTINUOUS
 62
     1
  5
771
 10
700.045011
 20
489.812458
 30
0.0
 11
696.982825
 21
488.991947
 31
0.0
  0
ARC
  8
LC-005-002-RND-0
  6
CONTINUOUS
  5
772
 10
697.237761
 20
488.04051
 30
0.0
 40
0.985
 50
105.0
 51
180.0
  0
LINE
  8
LC-001-002-----0
  6
CONTINUOUS
 62
     1
  5
773
 10
696.252761
 20
488.04051
 30
0.0
 11
696.252761
 21
484.196905
 31
0.0
  0
LINE
  8
LC-001-002-----0
  6
CONTINUOUS
 62
     1
  5
774
 10
700.045011
 20
551.374958
 30
0.0
 11
700.045011
 21
548.912458
 31
0.0
  0
LINE
  8
LC-001-002-----0
  6
CONTINUOUS
 62
     1
  5
775
 10
716.790011
 20
600.59443
 30
0.0
 11
716.790011
 21
582.86443
 31
0.0
  0
LINE
  8
LC-001-002-----0
  6
CONTINUOUS
 62
     1
  5
776
 10
722.207511
 20
600.59443
 30
0.0
 11
722.207511
 21
599.60943
 31
0.0
  0
ARC
  8
LC-005-002-RND-0
  6
CONTINUOUS
  5
777
 10
720.237511
 20
600.59443
 30
0.0
 40
1.97
 50
0.0
 51
90.0
  0
LINE
  8
LC-001-002-----0
  6
CONTINUOUS
 62
     1
  5
778
 10
700.045011
 20
482.424958
 30
0.0
 11
696.982825
 21
483.245468
 31
0.0
  0
LINE
  8
LC-001-002-----0
  6
CONTINUOUS
 62
     1
  5
779
 10
700.045011
 20
560.89893
 30
0.0
 11
695.366261
 21
560.89893
 31
0.0
  0
ARC
  8
LC-005-002-RND-0
  6
CONTINUOUS
  5
77A
 10
718.760011
 20
600.59443
 30
0.0
 40
1.97
 50
90.0
 51
180.0
  0
LINE
  8
LC-001-002-----0
  6
CONTINUOUS
 62
     1
  5
77B
 10
504.522511
 20
482.424958
 30
0.0
 11
507.584698
 21
483.245468
 31
0.0
  0
LINE
  8
LC-001-002-----0
  6
CONTINUOUS
 62
     1
  5
77C
 10
720.237511
 20
602.56443
 30
0.0
 11
718.760011
 21
602.56443
 31
0.0
  0
ARC
  8
LC-005-002-RND-0
  6
CONTINUOUS
  5
77D
 10
721.222511
 20
598.13193
 30
0.0
 40
1.4775
 50
90.0
 51
180.0
  0
LINE
  8
LC-001-002-----0
  6
CONTINUOUS
 62
     1
  5
77E
 10
700.045011
 20
479.962458
 30
0.0
 11
700.045011
 21
482.424958
 31
0.0
  0
LINE
  8
LC-001-002-----0
  6
CONTINUOUS
 62
     1
  5
77F
 10
504.522511
 20
560.89893
 30
0.0
 11
509.201261
 21
560.89893
 31
0.0
  0
ARC
  8
LC-005-002-RND-0
  6
CONTINUOUS
  5
780
 10
720.730011
 20
581.38693
 30
0.0
 40
1.4775
 50
270.0
 51
0.0
  0
ARC
  8
LC-005-002-RND-0
  6
CONTINUOUS
  5
781
 10
485.807511
 20
600.59443
 30
0.0
 40
1.97
 50
0.0
 51
90.0
  0
LINE
  8
LC-001-002-----0
  6
CONTINUOUS
 62
     1
  5
782
 10
484.330011
 20
602.56443
 30
0.0
 11
485.807511
 21
602.56443
 31
0.0
  0
ARC
  8
LC-005-002-RND-0
  6
CONTINUOUS
  5
783
 10
483.345011
 20
598.13193
 30
0.0
 40
1.4775
 50
0.0
 51
90.0
  0
LINE
  8
LC-001-002-----0
  6
CONTINUOUS
 62
     1
  5
784
 10
504.522511
 20
479.962458
 30
0.0
 11
504.522511
 21
482.424958
 31
0.0
  0
ARC
  8
LC-005-002-RND-0
  6
CONTINUOUS
  5
785
 10
483.837511
 20
581.38693
 30
0.0
 40
1.4775
 50
180.0
 51
270.0
  0
LINE
  8
LC-001-002-----0
  6
CONTINUOUS
 62
     1
  5
786
 10
504.522511
 20
479.962458
 30
0.0
 11
507.584698
 21
479.141947
 31
0.0
  0
ARC
  8
LC-005-002-RND-0
  6
CONTINUOUS
  5
787
 10
507.329761
 20
478.19051
 30
0.0
 40
0.985
 50
0.0
 51
75.0
  0
LINE
  8
LC-001-002-----0
  6
CONTINUOUS
 62
     1
  5
788
 10
483.837511
 20
582.86443
 30
0.0
 11
484.822511
 21
582.86443
 31
0.0
  0
LINE
  8
LC-001-002-----0
  6
CONTINUOUS
 62
     1
  5
789
 10
482.360011
 20
599.60943
 30
0.0
 11
483.345011
 21
599.60943
 31
0.0
  0
LINE
  8
LC-001-002-----0
  6
CONTINUOUS
 62
     1
  5
78A
 10
508.314761
 20
474.346905
 30
0.0
 11
508.314761
 21
478.19051
 31
0.0
  0
ARC
  8
LC-005-002-RND-0
  6
CONTINUOUS
  5
78B
 10
507.329761
 20
484.196905
 30
0.0
 40
0.985
 50
285.0
 51
0.0
  0
LINE
  8
LC-001-002-----0
  6
CONTINUOUS
 62
     1
  5
78C
 10
504.522511
 20
472.574958
 30
0.0
 11
507.584698
 21
473.395468
 31
0.0
  0
LINE
  8
LC-001-002-----0
  6
CONTINUOUS
 62
     1
  5
78D
 10
504.522511
 20
470.112458
 30
0.0
 11
504.522511
 21
472.574958
 31
0.0
  0
LINE
  8
LC-001-002-----0
  6
CONTINUOUS
 62
     1
  5
78E
 10
508.314761
 20
464.496905
 30
0.0
 11
508.314761
 21
468.34051
 31
0.0
  0
ARC
  8
LC-005-002-RND-0
  6
CONTINUOUS
  5
78F
 10
507.329761
 20
468.34051
 30
0.0
 40
0.985
 50
0.0
 51
75.0
  0
ARC
  8
LC-005-002-RND-0
  6
CONTINUOUS
  5
790
 10
507.329761
 20
468.34051
 30
0.0
 40
0.985
 50
0.0
 51
75.0
  0
ARC
  8
LC-005-002-RND-0
  6
CONTINUOUS
  5
791
 10
507.329761
 20
474.346905
 30
0.0
 40
0.985
 50
285.0
 51
0.0
  0
LINE
  8
LC-001-002-----0
  6
CONTINUOUS
 62
     1
  5
792
 10
700.045011
 20
479.962458
 30
0.0
 11
696.982825
 21
479.141947
 31
0.0
  0
LINE
  8
LC-001-002-----0
  6
CONTINUOUS
 62
     1
  5
793
 10
507.584698
 20
469.291947
 30
0.0
 11
504.522511
 21
470.112458
 31
0.0
  0
ARC
  8
LC-005-002-RND-0
  6
CONTINUOUS
  5
794
 10
507.329761
 20
464.496905
 30
0.0
 40
0.985
 50
285.0
 51
0.0
  0
LINE
  8
LC-001-002-----0
  6
CONTINUOUS
 62
     1
  5
795
 10
504.522511
 20
462.724958
 30
0.0
 11
504.522511
 21
460.262458
 31
0.0
  0
LINE
  8
LC-001-002-----0
  6
CONTINUOUS
 62
     1
  5
796
 10
504.522511
 20
460.262458
 30
0.0
 11
507.584698
 21
459.441947
 31
0.0
  0
LINE
  8
LC-001-002-----0
  6
CONTINUOUS
 62
     1
  5
797
 10
720.730011
 20
582.86443
 30
0.0
 11
719.745011
 21
582.86443
 31
0.0
  0
ARC
  8
LC-005-002-RND-0
  6
CONTINUOUS
  5
798
 10
697.237761
 20
478.19051
 30
0.0
 40
0.985
 50
105.0
 51
180.0
  0
LINE
  8
LC-001-002-----0
  6
CONTINUOUS
 62
     1
  5
799
 10
722.207511
 20
599.60943
 30
0.0
 11
721.222511
 21
599.60943
 31
0.0
  0
LINE
  8
LC-001-002-----0
  6
CONTINUOUS
 62
     1
  5
79A
 10
696.252761
 20
474.346905
 30
0.0
 11
696.252761
 21
478.19051
 31
0.0
  0
LINE
  8
LC-001-002-----0
  6
CONTINUOUS
 62
     1
  5
79B
 10
700.045011
 20
472.574958
 30
0.0
 11
696.982825
 21
473.395468
 31
0.0
  0
ARC
  8
LC-005-002-RND-0
  6
CONTINUOUS
  5
79C
 10
697.237761
 20
484.196905
 30
0.0
 40
0.985
 50
180.0
 51
255.0
  0
LINE
  8
LC-001-002-----0
  6
CONTINUOUS
 62
     1
  5
79D
 10
700.045011
 20
470.112458
 30
0.0
 11
700.045011
 21
472.574958
 31
0.0
  0
LINE
  8
LC-001-002-----0
  6
CONTINUOUS
 62
     1
  5
79E
 10
700.045011
 20
470.112458
 30
0.0
 11
696.982825
 21
469.291947
 31
0.0
  0
LINE
  8
LC-001-002-----0
  6
CONTINUOUS
 62
     1
  5
79F
 10
700.045011
 20
462.724958
 30
0.0
 11
696.982825
 21
463.545468
 31
0.0
  0
ARC
  8
LC-005-002-RND-0
  6
CONTINUOUS
  5
7A0
 10
697.237761
 20
468.34051
 30
0.0
 40
0.985
 50
105.0
 51
180.0
  0
LINE
  8
LC-001-002-----0
  6
CONTINUOUS
 62
     1
  5
7A1
 10
700.045011
 20
462.724958
 30
0.0
 11
700.045011
 21
460.262458
 31
0.0
  0
ARC
  8
LC-005-002-RND-0
  6
CONTINUOUS
  5
7A2
 10
697.237761
 20
468.34051
 30
0.0
 40
0.985
 50
105.0
 51
180.0
  0
ARC
  8
LC-005-002-RND-0
  6
CONTINUOUS
  5
7A3
 10
697.237761
 20
474.346905
 30
0.0
 40
0.985
 50
180.0
 51
255.0
  0
ARC
  8
LC-005-002-RND-0
  6
CONTINUOUS
  5
7A4
 10
697.237761
 20
464.496905
 30
0.0
 40
0.985
 50
180.0
 51
255.0
  0
LINE
  8
LC-001-002-----0
  6
CONTINUOUS
 62
     1
  5
7A5
 10
532.279127
 20
535.408479
 30
0.0
 11
532.279127
 21
535.474179
 31
0.0
  0
LINE
  8
LC-001-002-----0
  6
CONTINUOUS
 62
     1
  5
7A6
 10
700.045011
 20
460.262458
 30
0.0
 11
696.982825
 21
459.441947
 31
0.0
  0
LINE
  8
LC-001-002-----0
  6
CONTINUOUS
 62
     1
  5
7A7
 10
505.283761
 20
580.908479
 30
0.0
 11
505.283761
 21
562.89893
 31
0.0
  0
LINE
  8
LC-001-002-----0
  6
CONTINUOUS
 62
     1
  5
7A8
 10
503.783761
 20
467.45752
 30
0.0
 11
503.783761
 21
465.379896
 31
0.0
  0
LINE
  8
LC-001-002-----0
  6
CONTINUOUS
 62
     1
  5
7A9
 10
505.283761
 20
578.39893
 30
0.0
 11
527.283761
 21
576.474179
 31
0.0
  0
LINE
  8
LC-001-002-----0
  6
CONTINUOUS
 62
     1
  5
7AA
 10
516.283761
 20
577.436554
 30
0.0
 11
512.284391
 21
562.510701
 31
0.0
  0
ARC
  8
LC-005-002-RND-0
  6
CONTINUOUS
  5
7AB
 10
507.329761
 20
468.34051
 30
0.0
 40
0.985
 50
0.0
 51
75.0
  0
ARC
  8
LC-005-002-RND-0
  6
CONTINUOUS
  5
7AC
 10
510.835502
 20
562.89893
 30
0.0
 40
1.5
 50
270.0
 51
345.0
  0
ARC
  8
LC-005-002-RND-0
  6
CONTINUOUS
  5
7AD
 10
506.783761
 20
562.89893
 30
0.0
 40
1.5
 50
180.0
 51
270.0
  0
LINE
  8
LC-001-002-----0
  6
CONTINUOUS
 62
     1
  5
7AE
 10
505.283761
 20
580.908479
 30
0.0
 11
505.283761
 21
562.89893
 31
0.0
  0
LINE
  8
LC-001-002-----0
  6
CONTINUOUS
 62
     1
  5
7AF
 10
527.283761
 20
576.474179
 30
0.0
 11
529.621122
 21
538.141461
 31
0.0
  0
LINE
  8
LC-001-002-----0
  6
CONTINUOUS
 62
     1
  5
7B0
 10
529.647996
 20
578.776885
 30
0.0
 11
532.044502
 21
539.474179
 31
0.0
  0
LINE
  8
LC-001-002-----0
  6
CONTINUOUS
 62
     1
  5
7B1
 10
529.539859
 20
539.474179
 30
0.0
 11
532.044502
 21
539.474179
 31
0.0
  0
LINE
  8
LC-001-002-----0
  6
CONTINUOUS
 62
     1
  5
7B2
 10
532.288405
 20
535.474179
 30
0.0
 11
529.621122
 21
538.141461
 31
0.0
  0
LINE
  8
LC-001-002-----0
  6
CONTINUOUS
 62
     1
  5
7B3
 10
532.044502
 20
539.474179
 30
0.0
 11
534.711785
 21
536.806897
 31
0.0
  0
LINE
  8
LC-001-002-----0
  6
CONTINUOUS
 62
     1
  5
7B4
 10
534.711785
 20
536.806897
 30
0.0
 11
534.81561
 21
535.104166
 31
0.0
  0
ARC
  8
LC-005-002-RND-0
  6
CONTINUOUS
  5
7B5
 10
539.80634
 20
535.408479
 30
0.0
 40
5.0
 50
183.489325
 51
263.635301
  0
ARC
  8
LC-005-002-RND-0
  6
CONTINUOUS
  5
7B6
 10
539.779127
 20
535.408479
 30
0.0
 40
7.5
 50
180.0
 51
263.651867
  0
LINE
  8
LC-001-002-----0
  6
CONTINUOUS
 62
     1
  5
7B7
 10
539.252057
 20
530.439297
 30
0.0
 11
602.283761
 21
523.408479
 31
0.0
  0
LINE
  8
LC-001-002-----0
  6
CONTINUOUS
 62
     1
  5
7B8
 10
538.949857
 20
527.954466
 30
0.0
 11
602.283761
 21
520.908479
 31
0.0
  0
LINE
  8
LC-001-002-----0
  6
CONTINUOUS
 62
     1
  5
7B9
 10
585.283761
 20
525.30473
 30
0.0
 11
585.283761
 21
522.799753
 31
0.0
  0
LINE
  8
LC-001-002-----0
  6
CONTINUOUS
 62
     1
  5
7BA
 10
589.283761
 20
524.858553
 30
0.0
 11
589.283761
 21
522.354748
 31
0.0
  0
LINE
  8
LC-001-002-----0
  6
CONTINUOUS
 62
     1
  5
7BB
 10
534.283761
 20
570.474179
 30
0.0
 11
536.174005
 21
539.474179
 31
0.0
  0
LINE
  8
LC-001-002-----0
  6
CONTINUOUS
 62
     1
  5
7BC
 10
527.649615
 20
570.474179
 30
0.0
 11
530.154258
 21
570.474179
 31
0.0
  0
LINE
  8
LC-001-002-----0
  6
CONTINUOUS
 62
     1
  5
7BD
 10
542.283761
 20
570.474179
 30
0.0
 11
542.283761
 21
539.474179
 31
0.0
  0
LINE
  8
LC-001-002-----0
  6
CONTINUOUS
 62
     1
  5
7BE
 10
541.283761
 20
570.474179
 30
0.0
 11
541.283761
 21
539.474179
 31
0.0
  0
LINE
  8
LC-001-002-----0
  6
CONTINUOUS
 62
     1
  5
7BF
 10
536.174005
 20
539.474179
 30
0.0
 11
542.283761
 21
539.474179
 31
0.0
  0
LINE
  8
LC-001-002-----0
  6
CONTINUOUS
 62
     1
  5
7C0
 10
551.283761
 20
539.474179
 30
0.0
 11
561.283761
 21
539.474179
 31
0.0
  0
LINE
  8
LC-001-002-----0
  6
CONTINUOUS
 62
     1
  5
7C1
 10
551.283761
 20
570.474179
 30
0.0
 11
551.283761
 21
539.474179
 31
0.0
  0
LINE
  8
LC-001-002-----0
  6
CONTINUOUS
 62
     1
  5
7C2
 10
559.783761
 20
570.474179
 30
0.0
 11
559.783761
 21
539.474179
 31
0.0
  0
LINE
  8
LC-001-002-----0
  6
CONTINUOUS
 62
     1
  5
7C3
 10
561.283761
 20
570.474179
 30
0.0
 11
561.283761
 21
539.474179
 31
0.0
  0
LINE
  8
LC-001-002-----0
  6
CONTINUOUS
 62
     1
  5
7C4
 10
551.283761
 20
570.474179
 30
0.0
 11
561.283761
 21
570.474179
 31
0.0
  0
LINE
  8
LC-001-002-----0
  6
CONTINUOUS
 62
     1
  5
7C5
 10
571.283761
 20
570.474179
 30
0.0
 11
571.283761
 21
539.474179
 31
0.0
  0
LINE
  8
LC-001-002-----0
  6
CONTINUOUS
 62
     1
  5
7C6
 10
571.283761
 20
570.474179
 30
0.0
 11
583.283761
 21
570.474179
 31
0.0
  0
LINE
  8
LC-001-002-----0
  6
CONTINUOUS
 62
     1
  5
7C7
 10
581.283761
 20
570.474179
 30
0.0
 11
581.283761
 21
539.474179
 31
0.0
  0
LINE
  8
LC-001-002-----0
  6
CONTINUOUS
 62
     1
  5
7C8
 10
583.283761
 20
570.474179
 30
0.0
 11
583.283761
 21
539.474179
 31
0.0
  0
LINE
  8
LC-001-002-----0
  6
CONTINUOUS
 62
     1
  5
7C9
 10
571.283761
 20
539.474179
 30
0.0
 11
583.283761
 21
539.474179
 31
0.0
  0
LINE
  8
LC-001-002-----0
  6
CONTINUOUS
 62
     1
  5
7CA
 10
595.283761
 20
570.474179
 30
0.0
 11
595.283761
 21
539.474179
 31
0.0
  0
LINE
  8
LC-001-002-----0
  6
CONTINUOUS
 62
     1
  5
7CB
 10
595.283761
 20
539.474179
 30
0.0
 11
602.283761
 21
539.474179
 31
0.0
  0
LINE
  8
LC-001-002-----0
  6
CONTINUOUS
 62
     1
  5
7CC
 10
595.283761
 20
570.474179
 30
0.0
 11
602.283761
 21
570.474179
 31
0.0
  0
LINE
  8
LC-001-002-----0
  6
CONTINUOUS
 62
     1
  5
7CD
 10
534.283761
 20
570.474179
 30
0.0
 11
542.283761
 21
570.474179
 31
0.0
  0
LINE
  8
LC-001-002-----0
  6
CONTINUOUS
 62
     1
  5
7CE
 10
665.617666
 20
527.954466
 30
0.0
 11
602.283761
 21
520.908479
 31
0.0
  0
LINE
  8
LC-001-002-----0
  6
CONTINUOUS
 62
     1
  5
7CF
 10
665.315466
 20
530.439297
 30
0.0
 11
602.283761
 21
523.408479
 31
0.0
  0
LINE
  8
LC-001-002-----0
  6
CONTINUOUS
 62
     1
  5
7D0
 10
615.283761
 20
524.858553
 30
0.0
 11
615.283761
 21
522.354748
 31
0.0
  0
LINE
  8
LC-001-002-----0
  6
CONTINUOUS
 62
     1
  5
7D1
 10
619.283761
 20
525.30473
 30
0.0
 11
619.283761
 21
522.799753
 31
0.0
  0
ARC
  8
LC-005-002-RND-0
  6
CONTINUOUS
  5
7D2
 10
664.788396
 20
535.408479
 30
0.0
 40
7.5
 50
276.348133
 51
0.0
  0
ARC
  8
LC-005-002-RND-0
  6
CONTINUOUS
  5
7D3
 10
664.761182
 20
535.408479
 30
0.0
 40
5.0
 50
276.364699
 51
356.510675
  0
LINE
  8
LC-001-002-----0
  6
CONTINUOUS
 62
     1
  5
7D4
 10
672.288396
 20
535.483457
 30
0.0
 11
674.946401
 21
538.141461
 31
0.0
  0
LINE
  8
LC-001-002-----0
  6
CONTINUOUS
 62
     1
  5
7D5
 10
672.523021
 20
539.474179
 30
0.0
 11
669.855738
 21
536.806897
 31
0.0
  0
LINE
  8
LC-001-002-----0
  6
CONTINUOUS
 62
     1
  5
7D6
 10
669.855738
 20
536.806897
 30
0.0
 11
669.751913
 21
535.104166
 31
0.0
  0
LINE
  8
LC-001-002-----0
  6
CONTINUOUS
 62
     1
  5
7D7
 10
677.283761
 20
576.474179
 30
0.0
 11
674.946401
 21
538.141461
 31
0.0
  0
LINE
  8
LC-001-002-----0
  6
CONTINUOUS
 62
     1
  5
7D8
 10
674.919527
 20
578.776885
 30
0.0
 11
672.523021
 21
539.474179
 31
0.0
  0
LINE
  8
LC-001-002-----0
  6
CONTINUOUS
 62
     1
  5
7D9
 10
675.027664
 20
539.474179
 30
0.0
 11
672.523021
 21
539.474179
 31
0.0
  0
LINE
  8
LC-001-002-----0
  6
CONTINUOUS
 62
     1
  5
7DA
 10
676.917908
 20
570.474179
 30
0.0
 11
674.413265
 21
570.474179
 31
0.0
  0
LINE
  8
LC-001-002-----0
  6
CONTINUOUS
 62
     1
  5
7DB
 10
699.283761
 20
580.908479
 30
0.0
 11
676.725501
 21
580.908479
 31
0.0
  0
LINE
  8
LC-001-002-----0
  6
CONTINUOUS
 62
     1
  5
7DC
 10
699.283761
 20
580.908479
 30
0.0
 11
674.919527
 21
578.776885
 31
0.0
  0
LINE
  8
LC-001-002-----0
  6
CONTINUOUS
 62
     1
  5
7DD
 10
699.283761
 20
578.39893
 30
0.0
 11
677.283761
 21
576.474179
 31
0.0
  0
LINE
  8
LC-001-002-----0
  6
CONTINUOUS
 62
     1
  5
7DE
 10
699.283761
 20
580.908479
 30
0.0
 11
699.283761
 21
562.89893
 31
0.0
  0
LINE
  8
LC-001-002-----0
  6
CONTINUOUS
 62
     1
  5
7DF
 10
688.283761
 20
577.436554
 30
0.0
 11
692.283132
 21
562.510701
 31
0.0
  0
ARC
  8
LC-005-002-RND-0
  6
CONTINUOUS
  5
7E0
 10
693.73202
 20
562.89893
 30
0.0
 40
1.5
 50
195.0
 51
270.0
  0
LINE
  8
LC-001-002-----0
  6
CONTINUOUS
 62
     1
  5
7E1
 10
697.783761
 20
561.39893
 30
0.0
 11
693.73202
 21
561.39893
 31
0.0
  0
ARC
  8
LC-005-002-RND-0
  6
CONTINUOUS
  5
7E2
 10
697.783761
 20
562.89893
 30
0.0
 40
1.5
 50
270.0
 51
0.0
  0
LINE
  8
LC-001-002-----0
  6
CONTINUOUS
 62
     1
  5
7E3
 10
670.283761
 20
570.474179
 30
0.0
 11
662.283761
 21
570.474179
 31
0.0
  0
LINE
  8
LC-001-002-----0
  6
CONTINUOUS
 62
     1
  5
7E4
 10
670.283761
 20
570.474179
 30
0.0
 11
668.393518
 21
539.474179
 31
0.0
  0
LINE
  8
LC-001-002-----0
  6
CONTINUOUS
 62
     1
  5
7E5
 10
663.283761
 20
570.474179
 30
0.0
 11
663.283761
 21
539.474179
 31
0.0
  0
LINE
  8
LC-001-002-----0
  6
CONTINUOUS
 62
     1
  5
7E6
 10
662.283761
 20
570.474179
 30
0.0
 11
662.283761
 21
539.474179
 31
0.0
  0
LINE
  8
LC-001-002-----0
  6
CONTINUOUS
 62
     1
  5
7E7
 10
668.393518
 20
539.474179
 30
0.0
 11
662.283761
 21
539.474179
 31
0.0
  0
LINE
  8
LC-001-002-----0
  6
CONTINUOUS
 62
     1
  5
7E8
 10
653.283761
 20
570.474179
 30
0.0
 11
653.283761
 21
539.474179
 31
0.0
  0
LINE
  8
LC-001-002-----0
  6
CONTINUOUS
 62
     1
  5
7E9
 10
653.283761
 20
539.474179
 30
0.0
 11
643.283761
 21
539.474179
 31
0.0
  0
LINE
  8
LC-001-002-----0
  6
CONTINUOUS
 62
     1
  5
7EA
 10
644.783761
 20
570.474179
 30
0.0
 11
644.783761
 21
539.474179
 31
0.0
  0
LINE
  8
LC-001-002-----0
  6
CONTINUOUS
 62
     1
  5
7EB
 10
643.283761
 20
570.474179
 30
0.0
 11
643.283761
 21
539.474179
 31
0.0
  0
LINE
  8
LC-001-002-----0
  6
CONTINUOUS
 62
     1
  5
7EC
 10
653.283761
 20
570.474179
 30
0.0
 11
643.283761
 21
570.474179
 31
0.0
  0
LINE
  8
LC-001-002-----0
  6
CONTINUOUS
 62
     1
  5
7ED
 10
633.283761
 20
570.474179
 30
0.0
 11
633.283761
 21
539.474179
 31
0.0
  0
LINE
  8
LC-001-002-----0
  6
CONTINUOUS
 62
     1
  5
7EE
 10
633.283761
 20
570.474179
 30
0.0
 11
625.555531
 21
570.474179
 31
0.0
  0
LINE
  8
LC-001-002-----0
  6
CONTINUOUS
 62
     1
  5
7EF
 10
623.283761
 20
570.134661
 30
0.0
 11
623.283761
 21
539.474179
 31
0.0
  0
LINE
  8
LC-001-002-----0
  6
CONTINUOUS
 62
     1
  5
7F0
 10
621.283761
 20
569.835759
 30
0.0
 11
621.283761
 21
539.474179
 31
0.0
  0
LINE
  8
LC-001-002-----0
  6
CONTINUOUS
 62
     1
  5
7F1
 10
633.283761
 20
539.474179
 30
0.0
 11
621.283761
 21
539.474179
 31
0.0
  0
LINE
  8
LC-001-002-----0
  6
CONTINUOUS
 62
     1
  5
7F2
 10
609.283761
 20
539.474179
 30
0.0
 11
602.283761
 21
539.474179
 31
0.0
  0
LINE
  8
LC-001-002-----0
  6
CONTINUOUS
 62
     1
  5
7F3
 10
609.283761
 20
570.474179
 30
0.0
 11
609.283761
 21
539.474179
 31
0.0
  0
LINE
  8
LC-001-002-----0
  6
CONTINUOUS
 62
     1
  5
7F4
 10
609.283761
 20
570.474179
 30
0.0
 11
602.283761
 21
570.474179
 31
0.0
  0
LINE
  8
LC-001-002-----0
  6
CONTINUOUS
 62
     1
  5
7F5
 10
672.288396
 20
535.408479
 30
0.0
 11
672.288396
 21
535.483457
 31
0.0
  0
LINE
  8
LC-001-002-----0
  6
CONTINUOUS
 62
     1
  5
7F6
 10
504.522511
 20
462.724958
 30
0.0
 11
507.584698
 21
463.545468
 31
0.0
  0
LINE
  8
LC-001-002-----0
  6
CONTINUOUS
 62
     1
  5
7F7
 10
508.283761
 20
467.45752
 30
0.0
 11
508.283761
 21
465.379896
 31
0.0
  0
ARC
  8
LC-001-002-----0
  6
CONTINUOUS
 62
     1
  5
7F8
 10
506.033761
 20
467.45752
 30
0.0
 40
2.25
 50
0.0
 51
180.0
  0
ARC
  8
LC-001-002-----0
  6
CONTINUOUS
 62
     1
  5
7F9
 10
506.033761
 20
465.379896
 30
0.0
 40
2.25
 50
180.0
 51
0.0
  0
ARC
  8
LC-001-002-----0
  6
CONTINUOUS
 62
     1
  5
7FA
 10
698.533761
 20
467.45752
 30
0.0
 40
2.25
 50
0.0
 51
180.0
  0
ARC
  8
LC-001-002-----0
  6
CONTINUOUS
 62
     1
  5
7FB
 10
698.533761
 20
465.379896
 30
0.0
 40
2.25
 50
180.0
 51
0.0
  0
LINE
  8
LC-001-002-----0
  6
CONTINUOUS
 62
     1
  5
7FC
 10
696.252761
 20
464.496905
 30
0.0
 11
696.252761
 21
468.34051
 31
0.0
  0
LINE
  8
LC-001-002-----0
  6
CONTINUOUS
 62
     1
  5
7FD
 10
668.608439
 20
580.908479
 30
0.0
 11
664.447496
 21
580.908479
 31
0.0
  0
ARC
  8
LC-001-002-----0
  6
CONTINUOUS
 62
     1
  5
7FE
 10
614.807732
 20
570.86791
 30
0.0
 40
2.0
 50
245.607736
 51
320.392264
  0
ARC
  8
LC-001-002-----0
  6
CONTINUOUS
 62
     1
  5
7FF
 10
614.807732
 20
570.86791
 30
0.0
 40
4.0
 50
215.160583
 51
338.862692
  0
ARC
  8
LC-001-002-----0
  6
CONTINUOUS
 62
     1
  5
800
 10
614.807732
 20
570.86791
 30
0.0
 40
4.5
 50
210.789434
 51
342.424023
  0
LINE
  8
LC-001-002-----0
  6
CONTINUOUS
 62
     1
  5
801
 10
614.807732
 20
568.86791
 30
0.0
 11
673.473767
 21
577.635607
 31
0.0
  0
LINE
  8
LC-001-002-----0
  6
CONTINUOUS
 62
     1
  5
802
 10
534.711785
 20
536.806897
 30
0.0
 11
669.855738
 21
536.806897
 31
0.0
  0
LINE
  8
LC-001-002-----0
  6
CONTINUOUS
 62
     1
  5
803
 10
674.000875
 20
580.72549
 30
0.0
 11
676.473414
 21
581.095014
 31
0.0
  0
LINE
  8
LC-001-002-----0
  6
CONTINUOUS
 62
     1
  5
804
 10
674.296493
 20
578.747458
 30
0.0
 11
676.769033
 21
579.116982
 31
0.0
  0
LINE
  8
LC-001-002-----0
  6
CONTINUOUS
 62
     1
  5
805
 10
674.000875
 20
580.72549
 30
0.0
 11
672.889023
 21
581.548217
 31
0.0
  0
LINE
  8
LC-001-002-----0
  6
CONTINUOUS
 62
     1
  5
806
 10
674.296493
 20
578.747458
 30
0.0
 11
673.473767
 21
577.635607
 31
0.0
  0
LINE
  8
LC-001-002-----0
  6
CONTINUOUS
 62
     1
  5
807
 10
666.878874
 20
577.638888
 30
0.0
 11
666.583256
 21
579.61692
 31
0.0
  0
LINE
  8
LC-001-002-----0
  6
CONTINUOUS
 62
     1
  5
808
 10
666.583256
 20
579.61692
 30
0.0
 11
667.405982
 21
580.728771
 31
0.0
  0
LINE
  8
LC-001-002-----0
  6
CONTINUOUS
 62
     1
  5
809
 10
666.878874
 20
577.638888
 30
0.0
 11
667.990726
 21
576.816161
 31
0.0
  0
LINE
  8
LC-001-002-----0
  6
CONTINUOUS
 62
     1
  5
80A
 10
676.473414
 20
581.095014
 30
0.0
 11
677.61024
 21
580.253807
 31
0.0
  0
LINE
  8
LC-001-002-----0
  6
CONTINUOUS
 62
     1
  5
80B
 10
676.769033
 20
579.116982
 30
0.0
 11
677.61024
 21
580.253807
 31
0.0
  0
LINE
  8
LC-001-002-----0
  6
DASHDOT
  5
80D
 10
602.283761
 20
602.56443
 30
0.0
 11
602.283761
 21
228.441947
 31
0.0
  0
LINE
  8
LC-001-002-----0
  6
CONTINUOUS
 62
     1
  5
80E
 10
488.783761
 20
484.941947
 30
0.0
 11
496.224574
 21
484.941947
 31
0.0
  0
LINE
  8
LC-001-002-----0
  6
CONTINUOUS
 62
     1
  5
80F
 10
484.383761
 20
485.941947
 30
0.0
 11
476.301138
 21
485.941947
 31
0.0
  0
LINE
  8
LC-001-002-----0
  6
CONTINUOUS
 62
     1
  5
810
 10
720.183761
 20
485.941947
 30
0.0
 11
728.266385
 21
485.941947
 31
0.0
  0
LINE
  8
LC-001-002-----0
  6
CONTINUOUS
 62
     1
  5
811
 10
419.19552
 20
488.069769
 30
0.0
 11
382.577052
 21
488.069769
 31
0.0
  0
LINE
  8
LC-001-002-----0
  6
CONTINUOUS
 62
     1
  5
812
 10
696.783761
 20
455.441947
 30
0.0
 11
692.283761
 21
455.441947
 31
0.0
  0
ARC
  8
LC-005-002-RND-0
  6
CONTINUOUS
  5
813
 10
696.783761
 20
459.441947
 30
0.0
 40
4.0
 50
270.0
 51
0.0
  0
LINE
  8
LC-001-002-----0
  6
CONTINUOUS
 62
     1
  5
814
 10
700.783761
 20
459.441947
 30
0.0
 11
700.783761
 21
484.941947
 31
0.0
  0
LINE
  8
LC-001-002-----0
  6
CONTINUOUS
 62
     1
  5
815
 10
519.163072
 20
296.441947
 30
0.0
 11
522.627173
 21
290.441947
 31
0.0
  0
LINE
  8
LC-001-002-----0
  6
CONTINUOUS
 62
     1
  5
816
 10
717.483761
 20
490.741947
 30
0.0
 11
713.983761
 21
490.741947
 31
0.0
  0
LINE
  8
LC-001-002-----0
  6
CONTINUOUS
 62
     1
  5
817
 10
487.083761
 20
490.741947
 30
0.0
 11
490.583761
 21
490.741947
 31
0.0
  0
LINE
  8
LC-001-002-----0
  6
CONTINUOUS
 62
     1
  5
818
 10
481.376655
 20
465.934841
 30
0.0
 11
485.876655
 21
461.434841
 31
0.0
  0
LINE
  8
LC-001-002-----0
  6
CONTINUOUS
 62
     1
  5
819
 10
523.098971
 20
297.62477
 30
0.0
 11
524.936574
 21
294.441947
 31
0.0
  0
LINE
  8
LC-001-002-----0
  6
CONTINUOUS
 62
     1
  5
81A
 10
492.083761
 20
477.141947
 30
0.0
 11
492.083761
 21
466.641947
 31
0.0
  0
LINE
  8
LC-001-002-----0
  6
CONTINUOUS
 62
     1
  5
81B
 10
612.276974
 20
317.961677
 30
0.0
 11
612.831352
 21
314.817645
 31
0.0
  0
LINE
  8
LC-001-002-----0
  6
CONTINUOUS
 62
     1
  5
81C
 10
503.783761
 20
459.441947
 30
0.0
 11
602.283761
 21
459.441947
 31
0.0
  0
LINE
  8
LC-001-002-----0
  6
CONTINUOUS
 62
     1
  5
81D
 10
696.982825
 20
459.441947
 30
0.0
 11
602.283761
 21
459.441947
 31
0.0
  0
LINE
  8
LC-001-002-----0
  6
CONTINUOUS
 62
     1
  5
81E
 10
723.190868
 20
465.934841
 30
0.0
 11
718.690868
 21
461.434841
 31
0.0
  0
LINE
  8
LC-001-002-----0
  6
CONTINUOUS
 62
     1
  5
81F
 10
712.483761
 20
477.141947
 30
0.0
 11
712.483761
 21
466.641947
 31
0.0
  0
LINE
  8
LC-001-002-----0
  6
CONTINUOUS
 62
     1
  5
820
 10
700.783761
 20
459.441947
 30
0.0
 11
692.283761
 21
459.441947
 31
0.0
  0
LINE
  8
LC-001-002-----0
  6
CONTINUOUS
 62
     1
  5
821
 10
715.783761
 20
486.741947
 30
0.0
 11
715.783761
 21
467.170374
 31
0.0
  0
LINE
  8
LC-001-002-----0
  6
CONTINUOUS
 62
     1
  5
822
 10
548.489533
 20
228.441947
 30
0.0
 11
656.07799
 21
228.441947
 31
0.0
  0
LINE
  8
LC-001-002-----0
  6
CONTINUOUS
 62
     1
  5
823
 10
547.283761
 20
290.441947
 30
0.0
 11
547.283761
 21
232.941947
 31
0.0
  0
LINE
  8
LC-001-002-----0
  6
CONTINUOUS
 62
     1
  5
824
 10
522.627173
 20
290.441947
 30
0.0
 11
547.283761
 21
290.441947
 31
0.0
  0
LINE
  8
LC-001-002-----0
  6
CONTINUOUS
 62
     1
  5
825
 10
551.283761
 20
294.441947
 30
0.0
 11
551.283761
 21
228.441947
 31
0.0
  0
LINE
  8
LC-001-002-----0
  6
CONTINUOUS
 62
     1
  5
826
 10
488.783761
 20
486.741947
 30
0.0
 11
488.783761
 21
467.170374
 31
0.0
  0
LINE
  8
LC-001-002-----0
  6
CONTINUOUS
 62
     1
  5
827
 10
547.283761
 20
232.941947
 30
0.0
 11
548.489533
 21
228.441947
 31
0.0
  0
ARC
  8
LC-005-002-RND-0
  6
CONTINUOUS
  5
828
 10
724.483761
 20
477.141947
 30
0.0
 40
1.0
 50
90.0
 51
180.0
  0
LINE
  8
LC-001-002-----0
  6
CONTINUOUS
 62
     1
  5
829
 10
519.163072
 20
296.441947
 30
0.0
 11
512.283761
 21
410.441947
 31
0.0
  0
LINE
  8
LC-001-002-----0
  6
CONTINUOUS
 62
     1
  5
82A
 10
523.098971
 20
297.62477
 30
0.0
 11
516.291011
 21
410.442385
 31
0.0
  0
ARC
  8
LC-005-002-RND-0
  6
CONTINUOUS
  5
82B
 10
480.083761
 20
477.141947
 30
0.0
 40
1.0
 50
0.0
 51
90.0
  0
LINE
  8
LC-001-002-----0
  6
CONTINUOUS
 62
     1
  5
82C
 10
512.283761
 20
420.441947
 30
0.0
 11
512.283761
 21
410.441947
 31
0.0
  0
LINE
  8
LC-001-002-----0
  6
CONTINUOUS
 62
     1
  5
82D
 10
516.283761
 20
424.441947
 30
0.0
 11
516.283761
 21
410.441947
 31
0.0
  0
LINE
  8
LC-001-002-----0
  6
CONTINUOUS
 62
     1
  5
82E
 10
522.783761
 20
422.941947
 30
0.0
 11
522.783761
 21
412.07293
 31
0.0
  0
LINE
  8
LC-001-002-----0
  6
CONTINUOUS
 62
     1
  5
82F
 10
519.783761
 20
411.941947
 30
0.0
 11
525.284351
 21
349.069915
 31
0.0
  0
LINE
  8
LC-001-002-----0
  6
CONTINUOUS
 62
     1
  5
830
 10
522.783761
 20
412.07293
 30
0.0
 11
528.272936
 21
349.331382
 31
0.0
  0
LINE
  8
LC-001-002-----0
  6
CONTINUOUS
 62
     1
  5
831
 10
605.811809
 20
406.120213
 30
0.0
 11
605.959823
 21
406.110128
 31
0.0
  0
ARC
  8
LC-001-002-----0
  6
CONTINUOUS
 62
     1
  5
832
 10
597.91135
 20
409.852866
 30
0.0
 40
8.333581
 50
295.240372
 51
330.42979
  0
ARC
  8
LC-005-002-RND-0
  6
CONTINUOUS
  5
833
 10
550.189219
 20
351.248809
 30
0.0
 40
25.0
 50
185.0
 51
260.0
  0
ARC
  8
LC-005-002-RND-0
  6
CONTINUOUS
  5
834
 10
550.189219
 20
351.248809
 30
0.0
 40
22.0
 50
185.0
 51
260.0
  0
LINE
  8
LC-001-002-----0
  6
CONTINUOUS
 62
     1
  5
835
 10
545.848015
 20
326.628615
 30
0.0
 11
612.831352
 21
314.817645
 31
0.0
  0
LINE
  8
LC-001-002-----0
  6
CONTINUOUS
 62
     1
  5
836
 10
546.368959
 20
329.583038
 30
0.0
 11
612.276974
 21
317.961677
 31
0.0
  0
LINE
  8
LC-001-002-----0
  6
CONTINUOUS
 62
     1
  5
837
 10
613.391421
 20
314.52072
 30
0.0
 11
597.763085
 21
403.153418
 31
0.0
  0
ARC
  8
LC-005-002-RND-0
  6
CONTINUOUS
  5
838
 10
602.525681
 20
400.617261
 30
0.0
 40
10.0
 50
93.0
 51
170.0
  0
LINE
  8
LC-001-002-----0
  6
CONTINUOUS
 62
     1
  5
839
 10
591.633636
 20
396.433105
 30
0.0
 11
592.677604
 21
402.353742
 31
0.0
  0
ARC
  8
LC-005-002-RND-0
  6
CONTINUOUS
  5
83A
 10
602.525681
 20
400.617261
 30
0.0
 40
7.0
 50
93.0
 51
170.0
  0
LINE
  8
LC-001-002-----0
  6
CONTINUOUS
 62
     1
  5
83B
 10
595.106837
 20
398.854299
 30
0.0
 11
595.632027
 21
401.832798
 31
0.0
  0
LINE
  8
LC-001-002-----0
  6
CONTINUOUS
 62
     1
  5
83C
 10
591.645524
 20
396.431009
 30
0.0
 11
599.182769
 21
395.101989
 31
0.0
  0
ARC
  8
LC-001-002-----0
  6
CONTINUOUS
 62
     1
  5
83D
 10
597.30599
 20
408.519362
 30
0.0
 40
9.900108
 50
297.751064
 51
340.960298
  0
ARC
  8
LC-001-002-----0
  6
CONTINUOUS
 62
     1
  5
83E
 10
597.91135
 20
409.852866
 30
0.0
 40
8.333581
 50
254.215261
 51
270.960321
  0
ARC
  8
LC-001-002-----0
  6
CONTINUOUS
 62
     1
  5
83F
 10
597.30599
 20
408.519362
 30
0.0
 40
9.900108
 50
257.247905
 51
277.211487
  0
ARC
  8
LC-001-002-----0
  6
DASHED
  5
840
 10
597.30599
 20
408.519362
 30
0.0
 40
9.900108
 50
277.211487
 51
297.751064
  0
CIRCLE
  8
LC-001-002-----0
  6
CONTINUOUS
 62
     1
  5
841
 10
599.486499
 20
403.457302
 30
0.0
 40
1.75
  0
LINE
  8
LC-001-002-----0
  6
DASHDOT
  5
842
 10
597.796129
 20
403.004369
 30
0.0
 11
601.176869
 21
403.910235
 31
0.0
  0
LINE
  8
LC-001-002-----0
  6
DASHDOT
  5
843
 10
599.033566
 20
405.147672
 30
0.0
 11
599.939432
 21
401.766932
 31
0.0
  0
LINE
  8
LC-001-002-----0
  6
CONTINUOUS
 62
     1
  5
844
 10
595.106837
 20
398.854299
 30
0.0
 11
598.630697
 21
398.232947
 31
0.0
  0
LINE
  8
LC-001-002-----0
  6
CONTINUOUS
 62
     1
  5
845
 10
653.283761
 20
294.441947
 30
0.0
 11
653.283761
 21
228.441947
 31
0.0
  0
LINE
  8
LC-001-002-----0
  6
CONTINUOUS
 62
     1
  5
846
 10
657.283761
 20
290.441947
 30
0.0
 11
657.283761
 21
232.941947
 31
0.0
  0
LINE
  8
LC-001-002-----0
  6
CONTINUOUS
 62
     1
  5
847
 10
657.283761
 20
232.941947
 30
0.0
 11
656.07799
 21
228.441947
 31
0.0
  0
LINE
  8
LC-001-002-----0
  6
CONTINUOUS
 62
     1
  5
848
 10
657.283761
 20
290.441947
 30
0.0
 11
681.940349
 21
290.441947
 31
0.0
  0
LINE
  8
LC-001-002-----0
  6
CONTINUOUS
 62
     1
  5
849
 10
524.936574
 20
294.441947
 30
0.0
 11
679.630948
 21
294.441947
 31
0.0
  0
LINE
  8
LC-001-002-----0
  6
CONTINUOUS
 62
     1
  5
84A
 10
484.383761
 20
486.741947
 30
0.0
 11
484.383761
 21
467.170374
 31
0.0
  0
LINE
  8
LC-001-002-----0
  6
CONTINUOUS
 62
     1
  5
84B
 10
685.404451
 20
296.441947
 30
0.0
 11
692.283761
 21
410.441947
 31
0.0
  0
LINE
  8
LC-001-002-----0
  6
CONTINUOUS
 62
     1
  5
84C
 10
681.468552
 20
297.62477
 30
0.0
 11
688.291025
 21
410.682888
 31
0.0
  0
ARC
  8
LC-005-002-RND-0
  6
CONTINUOUS
  5
84D
 10
482.083761
 20
466.641947
 30
0.0
 40
1.0
 50
180.0
 51
225.0
  0
LINE
  8
LC-001-002-----0
  6
CONTINUOUS
 62
     1
  5
84E
 10
616.838248
 20
315.128488
 30
0.0
 11
601.209912
 21
403.761186
 31
0.0
  0
ARC
  8
LC-005-002-RND-0
  6
CONTINUOUS
  5
84F
 10
605.894456
 20
405.362982
 30
0.0
 40
0.75
 50
339.820923
 51
85.0
  0
LINE
  8
LC-001-002-----0
  6
CONTINUOUS
 62
     1
  5
850
 10
613.391421
 20
314.52072
 30
0.0
 11
616.838248
 21
315.128488
 31
0.0
  0
LINE
  8
LC-001-002-----0
  6
CONTINUOUS
 62
     1
  5
851
 10
484.383761
 20
467.170374
 30
0.0
 11
486.583761
 21
464.970374
 31
0.0
  0
LINE
  8
LC-001-002-----0
  6
CONTINUOUS
 62
     1
  5
852
 10
480.083761
 20
478.141947
 30
0.0
 11
479.158258
 21
478.141947
 31
0.0
  0
ARC
  8
LC-005-002-RND-0
  6
CONTINUOUS
  5
853
 10
486.583761
 20
462.141947
 30
0.0
 40
1.0
 50
225.0
 51
315.0
  0
LINE
  8
LC-001-002-----0
  6
CONTINUOUS
 62
     1
  5
854
 10
488.783761
 20
467.170374
 30
0.0
 11
486.583761
 21
464.970374
 31
0.0
  0
LINE
  8
LC-001-002-----0
  6
CONTINUOUS
 62
     1
  5
855
 10
477.663966
 20
476.772681
 30
0.0
 11
477.378625
 21
473.511214
 31
0.0
  0
LINE
  8
LC-001-002-----0
  6
DASHDOT
  5
856
 10
717.983761
 20
490.741947
 30
0.0
 11
717.983761
 21
461.141947
 31
0.0
  0
ARC
  8
LC-005-002-RND-0
  6
CONTINUOUS
  5
857
 10
493.083761
 20
477.141947
 30
0.0
 40
1.0
 50
90.0
 51
180.0
  0
ARC
  8
LC-005-002-RND-0
  6
CONTINUOUS
  5
858
 10
507.783761
 20
459.441947
 30
0.0
 40
4.0
 50
180.0
 51
270.0
  0
ARC
  8
LC-005-002-RND-0
  6
CONTINUOUS
  5
859
 10
507.783761
 20
459.441947
 30
0.0
 40
8.0
 50
180.0
 51
273.583322
  0
LINE
  8
LC-001-002-----0
  6
CONTINUOUS
 62
     1
  5
85A
 10
507.783761
 20
455.441947
 30
0.0
 11
512.283761
 21
455.441947
 31
0.0
  0
LINE
  8
LC-001-002-----0
  6
CONTINUOUS
 62
     1
  5
85B
 10
508.283761
 20
451.457588
 30
0.0
 11
508.283761
 21
424.441947
 31
0.0
  0
LINE
  8
LC-001-002-----0
  6
CONTINUOUS
 62
     1
  5
85C
 10
512.283761
 20
459.441947
 30
0.0
 11
512.283761
 21
424.441947
 31
0.0
  0
LINE
  8
LC-001-002-----0
  6
CONTINUOUS
 62
     1
  5
85D
 10
512.283761
 20
424.441947
 30
0.0
 11
516.283761
 21
424.441947
 31
0.0
  0
ARC
  8
LC-005-002-RND-0
  6
CONTINUOUS
  5
85E
 10
512.283761
 20
424.441947
 30
0.0
 40
4.0
 50
180.0
 51
270.0
  0
LINE
  8
LC-001-002-----0
  6
CONTINUOUS
 62
     1
  5
85F
 10
514.783761
 20
427.941947
 30
0.0
 11
671.658084
 21
427.941947
 31
0.0
  0
ARC
  8
LC-005-002-RND-0
  6
CONTINUOUS
  5
860
 10
514.783761
 20
426.441947
 30
0.0
 40
1.5
 50
90.0
 51
180.0
  0
ARC
  8
LC-005-002-RND-0
  6
CONTINUOUS
  5
861
 10
514.783761
 20
426.441947
 30
0.0
 40
1.5
 50
180.0
 51
270.0
  0
LINE
  8
LC-001-002-----0
  6
CONTINUOUS
 62
     1
  5
862
 10
514.783761
 20
424.941947
 30
0.0
 11
517.033761
 21
424.941947
 31
0.0
  0
LINE
  8
LC-001-002-----0
  6
CONTINUOUS
 62
     1
  5
863
 10
517.033761
 20
424.941947
 30
0.0
 11
517.033761
 21
420.51501
 31
0.0
  0
LINE
  8
LC-001-002-----0
  6
CONTINUOUS
 62
     1
  5
864
 10
520.283761
 20
419.941947
 30
0.0
 11
517.033761
 21
420.51501
 31
0.0
  0
LINE
  8
LC-001-002-----0
  6
CONTINUOUS
 62
     1
  5
865
 10
520.283761
 20
419.941947
 30
0.0
 11
520.283761
 21
414.941947
 31
0.0
  0
LINE
  8
LC-001-002-----0
  6
CONTINUOUS
 62
     1
  5
866
 10
520.283761
 20
414.941947
 30
0.0
 11
517.033761
 21
414.368885
 31
0.0
  0
LINE
  8
LC-001-002-----0
  6
CONTINUOUS
 62
     1
  5
867
 10
517.033761
 20
414.368885
 30
0.0
 11
517.033761
 21
411.941947
 31
0.0
  0
LINE
  8
LC-001-002-----0
  6
CONTINUOUS
 62
     1
  5
868
 10
517.033761
 20
411.941947
 30
0.0
 11
519.783761
 21
411.941947
 31
0.0
  0
ARC
  8
LC-001-002-----0
  6
CONTINUOUS
 62
     1
  5
869
 10
518.283761
 20
416.589293
 30
0.0
 40
2.0
 50
180.0
 51
0.0
  0
ARC
  8
LC-001-002-----0
  6
CONTINUOUS
 62
     1
  5
86A
 10
518.283761
 20
418.294601
 30
0.0
 40
2.0
 50
0.0
 51
180.0
  0
LINE
  8
LC-001-002-----0
  6
CONTINUOUS
 62
     1
  5
86B
 10
522.783761
 20
422.941947
 30
0.0
 11
517.783761
 21
427.941947
 31
0.0
  0
ARC
  8
LC-005-002-RND-0
  6
CONTINUOUS
  5
86C
 10
479.158258
 20
476.641947
 30
0.0
 40
1.5
 50
90.0
 51
175.0
  0
LINE
  8
LC-001-002-----0
  6
CONTINUOUS
 62
     1
  5
86D
 10
475.884333
 20
472.141947
 30
0.0
 11
466.68319
 21
472.141947
 31
0.0
  0
LINE
  8
LC-001-002-----0
  6
CONTINUOUS
 62
     1
  5
86E
 10
522.783761
 20
422.941947
 30
0.0
 11
660.624143
 21
422.941947
 31
0.0
  0
ARC
  8
LC-005-002-RND-0
  6
CONTINUOUS
  5
86F
 10
463.409265
 20
476.641947
 30
0.0
 40
1.5
 50
5.0
 51
90.0
  0
LINE
  8
LC-001-002-----0
  6
CONTINUOUS
 62
     1
  5
870
 10
684.940769
 20
411.946059
 30
0.0
 11
602.15933
 21
407.607667
 31
0.0
  0
LINE
  8
LC-001-002-----0
  6
CONTINUOUS
 62
     1
  5
871
 10
681.783761
 20
414.784724
 30
0.0
 11
602.002322
 21
410.603556
 31
0.0
  0
LINE
  8
LC-001-002-----0
  6
CONTINUOUS
 62
     1
  5
872
 10
681.783761
 20
422.941947
 30
0.0
 11
681.783761
 21
414.784724
 31
0.0
  0
LINE
  8
LC-001-002-----0
  6
CONTINUOUS
 62
     1
  5
873
 10
660.624143
 20
422.941947
 30
0.0
 11
681.783761
 21
422.941947
 31
0.0
  0
LINE
  8
LC-001-002-----0
  6
CONTINUOUS
 62
     1
  5
874
 10
671.658084
 20
427.941947
 30
0.0
 11
682.783761
 21
427.941947
 31
0.0
  0
LINE
  8
LC-001-002-----0
  6
CONTINUOUS
 62
     1
  5
875
 10
681.783761
 20
422.941947
 30
0.0
 11
686.783761
 21
427.941947
 31
0.0
  0
LINE
  8
LC-001-002-----0
  6
CONTINUOUS
 62
     1
  5
876
 10
689.783761
 20
427.941947
 30
0.0
 11
682.783761
 21
427.941947
 31
0.0
  0
ARC
  8
LC-005-002-RND-0
  6
CONTINUOUS
  5
877
 10
689.783761
 20
426.441947
 30
0.0
 40
1.5
 50
0.0
 51
90.0
  0
ARC
  8
LC-005-002-RND-0
  6
CONTINUOUS
  5
878
 10
689.783761
 20
426.441947
 30
0.0
 40
1.5
 50
270.0
 51
0.0
  0
LINE
  8
LC-001-002-----0
  6
CONTINUOUS
 62
     1
  5
879
 10
687.533761
 20
424.941947
 30
0.0
 11
689.783761
 21
424.941947
 31
0.0
  0
LINE
  8
LC-001-002-----0
  6
CONTINUOUS
 62
     1
  5
87A
 10
687.533761
 20
424.941947
 30
0.0
 11
687.533761
 21
420.51501
 31
0.0
  0
LINE
  8
LC-001-002-----0
  6
CONTINUOUS
 62
     1
  5
87B
 10
684.283761
 20
419.941947
 30
0.0
 11
687.533761
 21
420.51501
 31
0.0
  0
LINE
  8
LC-001-002-----0
  6
CONTINUOUS
 62
     1
  5
87C
 10
684.283761
 20
419.941947
 30
0.0
 11
684.283761
 21
414.941947
 31
0.0
  0
LINE
  8
LC-001-002-----0
  6
CONTINUOUS
 62
     1
  5
87D
 10
684.283761
 20
414.941947
 30
0.0
 11
687.533761
 21
414.368885
 31
0.0
  0
LINE
  8
LC-001-002-----0
  6
CONTINUOUS
 62
     1
  5
87E
 10
687.533761
 20
414.368885
 30
0.0
 11
687.533761
 21
411.941947
 31
0.0
  0
LINE
  8
LC-001-002-----0
  6
CONTINUOUS
 62
     1
  5
87F
 10
687.533761
 20
411.941947
 30
0.0
 11
684.862319
 21
411.941947
 31
0.0
  0
ARC
  8
LC-001-002-----0
  6
CONTINUOUS
 62
     1
  5
880
 10
686.283761
 20
418.294601
 30
0.0
 40
2.0
 50
0.0
 51
180.0
  0
ARC
  8
LC-001-002-----0
  6
CONTINUOUS
 62
     1
  5
881
 10
686.283761
 20
416.589293
 30
0.0
 40
2.0
 50
180.0
 51
0.0
  0
LINE
  8
LC-001-002-----0
  6
CONTINUOUS
 62
     1
  5
882
 10
720.183761
 20
486.741947
 30
0.0
 11
720.183761
 21
467.170374
 31
0.0
  0
ARC
  8
LC-005-002-RND-0
  6
CONTINUOUS
  5
883
 10
722.483761
 20
466.641947
 30
0.0
 40
1.0
 50
315.0
 51
0.0
  0
LINE
  8
LC-001-002-----0
  6
CONTINUOUS
 62
     1
  5
884
 10
720.183761
 20
467.170374
 30
0.0
 11
717.983761
 21
464.970374
 31
0.0
  0
LINE
  8
LC-001-002-----0
  6
CONTINUOUS
 62
     1
  5
885
 10
724.483761
 20
478.141947
 30
0.0
 11
725.409265
 21
478.141947
 31
0.0
  0
ARC
  8
LC-005-002-RND-0
  6
CONTINUOUS
  5
886
 10
717.983761
 20
462.141947
 30
0.0
 40
1.0
 50
225.0
 51
315.0
  0
LINE
  8
LC-001-002-----0
  6
CONTINUOUS
 62
     1
  5
887
 10
715.783761
 20
467.170374
 30
0.0
 11
717.983761
 21
464.970374
 31
0.0
  0
LINE
  8
LC-001-002-----0
  6
CONTINUOUS
 62
     1
  5
888
 10
726.903557
 20
476.772681
 30
0.0
 11
727.188898
 21
473.511214
 31
0.0
  0
ARC
  8
LC-005-002-RND-0
  6
CONTINUOUS
  5
889
 10
711.483761
 20
477.141947
 30
0.0
 40
1.0
 50
0.0
 51
90.0
  0
LINE
  8
LC-001-002-----0
  6
CONTINUOUS
 62
     1
  5
88A
 10
692.283761
 20
459.441947
 30
0.0
 11
692.283761
 21
424.441947
 31
0.0
  0
LINE
  8
LC-001-002-----0
  6
CONTINUOUS
 62
     1
  5
88B
 10
696.283761
 20
451.457588
 30
0.0
 11
696.283761
 21
424.441947
 31
0.0
  0
ARC
  8
LC-005-002-RND-0
  6
CONTINUOUS
  5
88C
 10
696.783761
 20
459.441947
 30
0.0
 40
8.0
 50
266.416678
 51
0.0
  0
ARC
  8
LC-005-002-RND-0
  6
CONTINUOUS
  5
88D
 10
692.283761
 20
424.441947
 30
0.0
 40
4.0
 50
270.0
 51
0.0
  0
LINE
  8
LC-001-002-----0
  6
CONTINUOUS
 62
     1
  5
88E
 10
692.283761
 20
424.441947
 30
0.0
 11
688.283761
 21
424.441947
 31
0.0
  0
LINE
  8
LC-001-002-----0
  6
CONTINUOUS
 62
     1
  5
88F
 10
692.283761
 20
420.441947
 30
0.0
 11
692.283761
 21
410.441947
 31
0.0
  0
LINE
  8
LC-001-002-----0
  6
CONTINUOUS
 62
     1
  5
890
 10
688.283761
 20
424.441947
 30
0.0
 11
688.283761
 21
410.441947
 31
0.0
  0
ARC
  8
LC-005-002-RND-0
  6
CONTINUOUS
  5
891
 10
725.409265
 20
476.641947
 30
0.0
 40
1.5
 50
5.0
 51
90.0
  0
LINE
  8
LC-001-002-----0
  6
CONTINUOUS
 62
     1
  5
892
 10
728.68319
 20
472.141947
 30
0.0
 11
737.884333
 21
472.141947
 31
0.0
  0
ARC
  8
LC-005-002-RND-0
  6
CONTINUOUS
  5
893
 10
741.158258
 20
476.641947
 30
0.0
 40
1.5
 50
90.0
 51
175.0
  0
LINE
  8
LC-001-002-----0
  6
CONTINUOUS
 62
     1
  5
894
 10
444.283761
 20
480.257871
 30
0.0
 11
444.283761
 21
483.646035
 31
0.0
  0
LINE
  8
LC-001-002-----0
  6
CONTINUOUS
 62
     1
  5
895
 10
503.783761
 20
459.441947
 30
0.0
 11
503.783761
 21
484.941947
 31
0.0
  0
LINE
  8
LC-001-002-----0
  6
CONTINUOUS
 62
     1
  5
896
 10
760.283761
 20
480.257871
 30
0.0
 11
760.283761
 21
483.646035
 31
0.0
  0
LINE
  8
LC-001-002-----0
  6
DASHDOT
  5
897
 10
733.283761
 20
489.134719
 30
0.0
 11
733.283761
 21
474.370966
 31
0.0
  0
LINE
  8
LC-001-002-----0
  6
CONTINUOUS
 62
     1
  5
898
 10
729.783761
 20
475.941947
 30
0.0
 11
736.783761
 21
475.941947
 31
0.0
  0
LINE
  8
LC-001-002-----0
  6
CONTINUOUS
 62
     1
  5
899
 10
736.783761
 20
481.441947
 30
0.0
 11
736.783761
 21
475.941947
 31
0.0
  0
LINE
  8
LC-001-002-----0
  6
CONTINUOUS
 62
     1
  5
89A
 10
729.783761
 20
481.441947
 30
0.0
 11
729.783761
 21
475.941947
 31
0.0
  0
LINE
  8
LC-001-002-----0
  6
CONTINUOUS
 62
     1
  5
89B
 10
747.783761
 20
481.441947
 30
0.0
 11
720.183761
 21
481.441947
 31
0.0
  0
LINE
  8
LC-001-002-----0
  6
CONTINUOUS
 62
     1
  5
89C
 10
748.283761
 20
478.141947
 30
0.0
 11
741.158258
 21
478.141947
 31
0.0
  0
LINE
  8
LC-001-002-----0
  6
CONTINUOUS
 62
     1
  5
89D
 10
747.783761
 20
481.441947
 30
0.0
 11
785.372003
 21
488.069769
 31
0.0
  0
ARC
  8
LC-005-002-RND-0
  6
CONTINUOUS
  5
89E
 10
737.884333
 20
473.641947
 30
0.0
 40
1.5
 50
270.0
 51
355.0
  0
LINE
  8
LC-001-002-----0
  6
CONTINUOUS
 62
     1
  5
89F
 10
723.483761
 20
477.141947
 30
0.0
 11
723.483761
 21
466.641947
 31
0.0
  0
LINE
  8
LC-001-002-----0
  6
CONTINUOUS
 62
     1
  5
8A0
 10
739.663966
 20
476.772681
 30
0.0
 11
739.378625
 21
473.511214
 31
0.0
  0
ARC
  8
LC-005-002-RND-0
  6
CONTINUOUS
  5
8A1
 10
713.483761
 20
466.641947
 30
0.0
 40
1.0
 50
180.0
 51
225.0
  0
ARC
  8
LC-005-002-RND-0
  6
CONTINUOUS
  5
8A2
 10
728.68319
 20
473.641947
 30
0.0
 40
1.5
 50
185.0
 51
270.0
  0
LINE
  8
LC-001-002-----0
  6
CONTINUOUS
 62
     1
  5
8A3
 10
685.404451
 20
296.441947
 30
0.0
 11
681.940349
 21
290.441947
 31
0.0
  0
LINE
  8
LC-001-002-----0
  6
CONTINUOUS
 62
     1
  5
8A4
 10
681.468552
 20
297.62477
 30
0.0
 11
679.630948
 21
294.441947
 31
0.0
  0
LINE
  8
LC-001-002-----0
  6
DASHDOT
  5
8A5
 10
471.283761
 20
489.134719
 30
0.0
 11
471.283761
 21
474.370966
 31
0.0
  0
LINE
  8
LC-001-002-----0
  6
CONTINUOUS
 62
     1
  5
8A6
 10
474.783761
 20
475.941947
 30
0.0
 11
467.783761
 21
475.941947
 31
0.0
  0
LINE
  8
LC-001-002-----0
  6
CONTINUOUS
 62
     1
  5
8A7
 10
467.783761
 20
481.441947
 30
0.0
 11
467.783761
 21
475.941947
 31
0.0
  0
LINE
  8
LC-001-002-----0
  6
CONTINUOUS
 62
     1
  5
8A8
 10
474.783761
 20
481.441947
 30
0.0
 11
474.783761
 21
475.941947
 31
0.0
  0
LINE
  8
LC-001-002-----0
  6
CONTINUOUS
 62
     1
  5
8A9
 10
456.783761
 20
481.441947
 30
0.0
 11
484.383761
 21
481.441947
 31
0.0
  0
LINE
  8
LC-001-002-----0
  6
CONTINUOUS
 62
     1
  5
8AA
 10
712.776655
 20
465.934841
 30
0.0
 11
717.276655
 21
461.434841
 31
0.0
  0
LINE
  8
LC-001-002-----0
  6
CONTINUOUS
 62
     1
  5
8AB
 10
456.283761
 20
478.141947
 30
0.0
 11
463.409265
 21
478.141947
 31
0.0
  0
LINE
  8
LC-001-002-----0
  6
CONTINUOUS
 62
     1
  5
8AC
 10
456.783761
 20
481.441947
 30
0.0
 11
419.19552
 21
488.069769
 31
0.0
  0
ARC
  8
LC-005-002-RND-0
  6
CONTINUOUS
  5
8AD
 10
466.68319
 20
473.641947
 30
0.0
 40
1.5
 50
185.0
 51
270.0
  0
LINE
  8
LC-001-002-----0
  6
CONTINUOUS
 62
     1
  5
8AE
 10
481.083761
 20
477.141947
 30
0.0
 11
481.083761
 21
466.641947
 31
0.0
  0
LINE
  8
LC-001-002-----0
  6
CONTINUOUS
 62
     1
  5
8AF
 10
464.903557
 20
476.772681
 30
0.0
 11
465.188898
 21
473.511214
 31
0.0
  0
ARC
  8
LC-005-002-RND-0
  6
CONTINUOUS
  5
8B0
 10
491.083761
 20
466.641947
 30
0.0
 40
1.0
 50
315.0
 51
0.0
  0
ARC
  8
LC-005-002-RND-0
  6
CONTINUOUS
  5
8B1
 10
475.884333
 20
473.641947
 30
0.0
 40
1.5
 50
270.0
 51
355.0
  0
LINE
  8
LC-001-002-----0
  6
CONTINUOUS
 62
     1
  5
8B2
 10
491.790868
 20
465.934841
 30
0.0
 11
487.290868
 21
461.434841
 31
0.0
  0
LINE
  8
LC-001-002-----0
  6
CONTINUOUS
 62
     1
  5
8B3
 10
493.083761
 20
478.141947
 30
0.0
 11
498.283761
 21
478.141947
 31
0.0
  0
LINE
  8
LC-001-002-----0
  6
CONTINUOUS
 62
     1
  5
8B4
 10
711.483761
 20
478.141947
 30
0.0
 11
706.283761
 21
478.141947
 31
0.0
  0
ARC
  8
LC-005-002-RND-0
  6
CONTINUOUS
  5
8B5
 10
498.283761
 20
476.641947
 30
0.0
 40
1.5
 50
0.0
 51
90.0
  0
LINE
  8
LC-001-002-----0
  6
CONTINUOUS
 62
     1
  5
8B6
 10
499.783761
 20
476.641947
 30
0.0
 11
499.783761
 21
459.441947
 31
0.0
  0
LINE
  8
LC-001-002-----0
  6
CONTINUOUS
 62
     1
  5
8B7
 10
457.089972
 20
484.941947
 30
0.0
 11
419.50173
 21
491.569769
 31
0.0
  0
LINE
  8
LC-001-002-----0
  6
CONTINUOUS
 62
     1
  5
8B8
 10
419.50173
 20
491.569769
 30
0.0
 11
382.577052
 21
491.569769
 31
0.0
  0
LINE
  8
LC-001-002-----0
  6
CONTINUOUS
 62
     1
  5
8B9
 10
495.962686
 20
486.741947
 30
0.0
 11
476.596978
 21
486.741947
 31
0.0
  0
ARC
  8
LC-001-002-----0
  6
CONTINUOUS
 62
     1
  5
8BA
 10
475.096978
 20
484.741947
 30
0.0
 40
2.5
 50
53.130102
 51
139.364835
  0
LINE
  8
LC-001-002-----0
  6
CONTINUOUS
 62
     1
  5
8BB
 10
502.283761
 20
485.741947
 30
0.0
 11
500.332086
 21
485.741947
 31
0.0
  0
ARC
  8
LC-001-002-----0
  6
CONTINUOUS
 62
     1
  5
8BC
 10
500.332086
 20
485.941947
 30
0.0
 40
0.2
 50
212.089799
 51
270.0
  0
ARC
  8
LC-001-002-----0
  6
CONTINUOUS
 62
     1
  5
8BD
 10
497.620998
 20
484.241947
 30
0.0
 40
3.0
 50
32.089951
 51
123.557272
  0
ARC
  8
LC-005-002-RND-0
  6
CONTINUOUS
  5
8BE
 10
706.283761
 20
476.641947
 30
0.0
 40
1.5
 50
90.0
 51
180.0
  0
LINE
  8
LC-001-002-----0
  6
CONTINUOUS
 62
     1
  5
8BF
 10
457.089972
 20
484.941947
 30
0.0
 11
484.383761
 21
484.941947
 31
0.0
  0
ARC
  8
LC-001-002-----0
  6
CONTINUOUS
 62
     1
  5
8C0
 10
497.620998
 20
484.241947
 30
0.0
 40
2.2
 50
32.089951
 51
129.40055
  0
LINE
  8
LC-001-002-----0
  6
CONTINUOUS
 62
     1
  5
8C1
 10
704.783761
 20
476.641947
 30
0.0
 11
704.783761
 21
459.441947
 31
0.0
  0
ARC
  8
LC-001-002-----0
  6
CONTINUOUS
 62
     1
  5
8C2
 10
497.620998
 20
484.241947
 30
0.0
 40
2.2
 50
26.3878
 51
32.08995
  0
ARC
  8
LC-001-002-----0
  6
CONTINUOUS
 62
     1
  5
8C3
 10
500.039675
 20
485.441947
 30
0.0
 40
0.5
 50
206.387648
 51
270.0
  0
LINE
  8
LC-001-002-----0
  6
CONTINUOUS
 62
     1
  5
8C4
 10
747.477551
 20
484.941947
 30
0.0
 11
720.183761
 21
484.941947
 31
0.0
  0
LINE
  8
LC-001-002-----0
  6
CONTINUOUS
 62
     1
  5
8C5
 10
747.477551
 20
484.941947
 30
0.0
 11
785.065793
 21
491.569769
 31
0.0
  0
LINE
  8
LC-001-002-----0
  6
CONTINUOUS
 62
     1
  5
8C6
 10
785.065793
 20
491.569769
 30
0.0
 11
821.990471
 21
491.569769
 31
0.0
  0
LINE
  8
LC-001-002-----0
  6
CONTINUOUS
 62
     1
  5
8C7
 10
785.372003
 20
488.069769
 30
0.0
 11
821.990471
 21
488.069769
 31
0.0
  0
ARC
  8
LC-001-002-----0
  6
CONTINUOUS
 62
     1
  5
8C8
 10
471.288739
 20
486.741947
 30
0.0
 40
2.5
 50
220.635165
 51
319.2158
  0
ARC
  8
LC-001-002-----0
  6
CONTINUOUS
 62
     1
  5
8C9
 10
471.288739
 20
486.741947
 30
0.0
 40
1.7
 50
220.635165
 51
324.768438
  0
LINE
  8
LC-001-002-----0
  6
CONTINUOUS
 62
     1
  5
8CA
 10
465.051867
 20
485.741947
 30
0.0
 11
463.283761
 21
485.741947
 31
0.0
  0
ARC
  8
LC-001-002-----0
  6
CONTINUOUS
 62
     1
  5
8CB
 10
465.051867
 20
485.941947
 30
0.0
 40
0.2
 50
270.0
 51
333.612258
  0
ARC
  8
LC-001-002-----0
  6
CONTINUOUS
 62
     1
  5
8CC
 10
467.470545
 20
484.741947
 30
0.0
 40
2.5
 50
40.635165
 51
153.6122
  0
LINE
  8
LC-001-002-----0
  6
CONTINUOUS
 62
     1
  5
8CD
 10
463.283761
 20
485.741947
 30
0.0
 11
463.283761
 21
484.941947
 31
0.0
  0
LINE
  8
LC-001-002-----0
  6
CONTINUOUS
 62
     1
  5
8CE
 10
502.283761
 20
485.741947
 30
0.0
 11
502.283761
 21
484.941947
 31
0.0
  0
LINE
  8
LC-001-002-----0
  6
CONTINUOUS
 62
     1
  5
8CF
 10
492.583761
 20
488.741947
 30
0.0
 11
492.583761
 21
486.741947
 31
0.0
  0
ARC
  8
LC-005-002-RND-0
  6
CONTINUOUS
  5
8D0
 10
490.583761
 20
488.741947
 30
0.0
 40
2.0
 50
0.0
 51
90.0
  0
ARC
  8
LC-005-002-RND-0
  6
CONTINUOUS
  5
8D1
 10
482.583761
 20
488.741947
 30
0.0
 40
2.0
 50
90.0
 51
180.0
  0
LINE
  8
LC-001-002-----0
  6
CONTINUOUS
 62
     1
  5
8D2
 10
487.083761
 20
490.741947
 30
0.0
 11
487.083761
 21
488.741947
 31
0.0
  0
LINE
  8
LC-001-002-----0
  6
CONTINUOUS
 62
     1
  5
8D3
 10
486.083761
 20
490.741947
 30
0.0
 11
486.083761
 21
488.741947
 31
0.0
  0
LINE
  8
LC-001-002-----0
  6
CONTINUOUS
 62
     1
  5
8D4
 10
486.083761
 20
488.741947
 30
0.0
 11
487.083761
 21
488.741947
 31
0.0
  0
LINE
  8
LC-001-002-----0
  6
CONTINUOUS
 62
     1
  5
8D5
 10
480.583761
 20
488.741947
 30
0.0
 11
480.583761
 21
486.741947
 31
0.0
  0
LINE
  8
LC-001-002-----0
  6
CONTINUOUS
 62
     1
  5
8D6
 10
482.583761
 20
490.741947
 30
0.0
 11
486.083761
 21
490.741947
 31
0.0
  0
LINE
  8
LC-001-002-----0
  6
CONTINUOUS
 62
     1
  5
8D7
 10
488.783761
 20
481.441947
 30
0.0
 11
503.783761
 21
481.441947
 31
0.0
  0
LINE
  8
LC-001-002-----0
  6
CONTINUOUS
 62
     1
  5
8D8
 10
488.783761
 20
484.941947
 30
0.0
 11
503.783761
 21
484.941947
 31
0.0
  0
LINE
  8
LC-001-002-----0
  6
CONTINUOUS
  5
8D9
 10
382.577052
 20
491.569769
 30
0.0
 11
382.52033
 21
491.249617
 31
0.0
  0
LINE
  8
LC-001-002-----0
  6
CONTINUOUS
  5
8DA
 10
382.52033
 20
491.249617
 30
0.0
 11
382.692369
 21
490.746648
 31
0.0
  0
LINE
  8
LC-001-002-----0
  6
CONTINUOUS
  5
8DB
 10
382.692369
 20
490.746648
 30
0.0
 11
382.403138
 21
490.360869
 31
0.0
  0
LINE
  8
LC-001-002-----0
  6
CONTINUOUS
  5
8DC
 10
382.403138
 20
490.360869
 30
0.0
 11
382.659556
 21
489.792273
 31
0.0
  0
LINE
  8
LC-001-002-----0
  6
CONTINUOUS
  5
8DD
 10
382.659556
 20
489.792273
 30
0.0
 11
382.435952
 21
489.340867
 31
0.0
  0
LINE
  8
LC-001-002-----0
  6
CONTINUOUS
  5
8DE
 10
382.435952
 20
489.340867
 30
0.0
 11
382.626742
 21
489.006653
 31
0.0
  0
LINE
  8
LC-001-002-----0
  6
CONTINUOUS
  5
8DF
 10
382.626742
 20
489.006653
 30
0.0
 11
382.468765
 21
488.489621
 31
0.0
  0
LINE
  8
LC-001-002-----0
  6
CONTINUOUS
  5
8E0
 10
382.468765
 20
488.489621
 30
0.0
 11
382.577052
 21
488.069769
 31
0.0
  0
LINE
  8
LC-001-002-----0
  6
CONTINUOUS
 62
     1
  5
8E1
 10
456.283761
 20
478.141947
 30
0.0
 11
444.283761
 21
480.257871
 31
0.0
  0
LINE
  8
LC-001-002-----0
  6
CONTINUOUS
 62
     1
  5
8E2
 10
708.604837
 20
486.741947
 30
0.0
 11
727.970545
 21
486.741947
 31
0.0
  0
ARC
  8
LC-001-002-----0
  6
CONTINUOUS
 62
     1
  5
8E3
 10
729.470545
 20
484.741947
 30
0.0
 40
2.5
 50
40.635165
 51
126.869898
  0
LINE
  8
LC-001-002-----0
  6
CONTINUOUS
 62
     1
  5
8E4
 10
702.283761
 20
485.741947
 30
0.0
 11
704.235436
 21
485.741947
 31
0.0
  0
ARC
  8
LC-001-002-----0
  6
CONTINUOUS
 62
     1
  5
8E5
 10
706.946525
 20
484.241947
 30
0.0
 40
3.0
 50
56.442728
 51
147.910049
  0
ARC
  8
LC-001-002-----0
  6
CONTINUOUS
 62
     1
  5
8E6
 10
706.946525
 20
484.241947
 30
0.0
 40
2.2
 50
50.59945
 51
147.910049
  0
ARC
  8
LC-001-002-----0
  6
CONTINUOUS
 62
     1
  5
8E7
 10
704.527847
 20
485.441947
 30
0.0
 40
0.5
 50
270.0
 51
333.612352
  0
ARC
  8
LC-001-002-----0
  6
CONTINUOUS
 62
     1
  5
8E8
 10
733.278784
 20
486.741947
 30
0.0
 40
2.5
 50
220.7842
 51
319.364835
  0
ARC
  8
LC-001-002-----0
  6
CONTINUOUS
 62
     1
  5
8E9
 10
733.278784
 20
486.741947
 30
0.0
 40
1.7
 50
215.231562
 51
319.364835
  0
LINE
  8
LC-001-002-----0
  6
CONTINUOUS
 62
     1
  5
8EA
 10
739.515655
 20
485.741947
 30
0.0
 11
741.283761
 21
485.741947
 31
0.0
  0
ARC
  8
LC-001-002-----0
  6
CONTINUOUS
 62
     1
  5
8EB
 10
739.515655
 20
485.941947
 30
0.0
 40
0.2
 50
206.387742
 51
270.0
  0
LINE
  8
LC-001-002-----0
  6
CONTINUOUS
 62
     1
  5
8EC
 10
747.283761
 20
478.141947
 30
0.0
 11
696.283761
 21
427.141947
 31
0.0
  0
ARC
  8
LC-001-002-----0
  6
CONTINUOUS
 62
     1
  5
8ED
 10
737.096978
 20
484.741947
 30
0.0
 40
2.5
 50
26.3878
 51
139.364835
  0
LINE
  8
LC-001-002-----0
  6
CONTINUOUS
 62
     1
  5
8EE
 10
741.283761
 20
485.741947
 30
0.0
 11
741.283761
 21
484.941947
 31
0.0
  0
LINE
  8
LC-001-002-----0
  6
CONTINUOUS
 62
     1
  5
8EF
 10
702.283761
 20
485.741947
 30
0.0
 11
702.283761
 21
484.941947
 31
0.0
  0
LINE
  8
LC-001-002-----0
  6
CONTINUOUS
 62
     1
  5
8F0
 10
711.983761
 20
488.741947
 30
0.0
 11
711.983761
 21
486.741947
 31
0.0
  0
ARC
  8
LC-005-002-RND-0
  6
CONTINUOUS
  5
8F1
 10
713.983761
 20
488.741947
 30
0.0
 40
2.0
 50
90.0
 51
180.0
  0
ARC
  8
LC-005-002-RND-0
  6
CONTINUOUS
  5
8F2
 10
721.983761
 20
488.741947
 30
0.0
 40
2.0
 50
0.0
 51
90.0
  0
LINE
  8
LC-001-002-----0
  6
CONTINUOUS
 62
     1
  5
8F3
 10
717.483761
 20
490.741947
 30
0.0
 11
717.483761
 21
488.741947
 31
0.0
  0
LINE
  8
LC-001-002-----0
  6
CONTINUOUS
 62
     1
  5
8F4
 10
718.483761
 20
490.741947
 30
0.0
 11
718.483761
 21
488.741947
 31
0.0
  0
LINE
  8
LC-001-002-----0
  6
CONTINUOUS
 62
     1
  5
8F5
 10
718.483761
 20
488.741947
 30
0.0
 11
717.483761
 21
488.741947
 31
0.0
  0
LINE
  8
LC-001-002-----0
  6
CONTINUOUS
 62
     1
  5
8F6
 10
723.983761
 20
488.741947
 30
0.0
 11
723.983761
 21
486.741947
 31
0.0
  0
LINE
  8
LC-001-002-----0
  6
CONTINUOUS
 62
     1
  5
8F7
 10
721.983761
 20
490.741947
 30
0.0
 11
718.483761
 21
490.741947
 31
0.0
  0
LINE
  8
LC-001-002-----0
  6
CONTINUOUS
 62
     1
  5
8F8
 10
715.783761
 20
481.441947
 30
0.0
 11
700.783761
 21
481.441947
 31
0.0
  0
LINE
  8
LC-001-002-----0
  6
CONTINUOUS
 62
     1
  5
8F9
 10
715.783761
 20
484.941947
 30
0.0
 11
700.783761
 21
484.941947
 31
0.0
  0
LINE
  8
LC-001-002-----0
  6
CONTINUOUS
  5
8FA
 10
821.990471
 20
491.569769
 30
0.0
 11
822.047193
 21
491.249617
 31
0.0
  0
LINE
  8
LC-001-002-----0
  6
CONTINUOUS
  5
8FB
 10
822.047193
 20
491.249617
 30
0.0
 11
821.875154
 21
490.746648
 31
0.0
  0
LINE
  8
LC-001-002-----0
  6
CONTINUOUS
  5
8FC
 10
821.875154
 20
490.746648
 30
0.0
 11
822.164384
 21
490.360869
 31
0.0
  0
LINE
  8
LC-001-002-----0
  6
CONTINUOUS
  5
8FD
 10
822.164384
 20
490.360869
 30
0.0
 11
821.907967
 21
489.792273
 31
0.0
  0
LINE
  8
LC-001-002-----0
  6
CONTINUOUS
  5
8FE
 10
821.907967
 20
489.792273
 30
0.0
 11
822.131571
 21
489.340867
 31
0.0
  0
LINE
  8
LC-001-002-----0
  6
CONTINUOUS
  5
8FF
 10
822.131571
 20
489.340867
 30
0.0
 11
821.940781
 21
489.006653
 31
0.0
  0
LINE
  8
LC-001-002-----0
  6
CONTINUOUS
  5
900
 10
821.940781
 20
489.006653
 30
0.0
 11
822.098757
 21
488.489621
 31
0.0
  0
LINE
  8
LC-001-002-----0
  6
CONTINUOUS
  5
901
 10
822.098757
 20
488.489621
 30
0.0
 11
821.990471
 21
488.069769
 31
0.0
  0
LINE
  8
LC-001-002-----0
  6
CONTINUOUS
 62
     1
  5
902
 10
748.283761
 20
478.141947
 30
0.0
 11
760.283761
 21
480.257871
 31
0.0
  0
ARC
  8
LC-001-002-----0
  6
CONTINUOUS
 62
     1
  5
903
 10
739.515655
 20
485.941947
 30
0.0
 40
1.0
 50
206.387742
 51
270.0
  0
ARC
  8
LC-001-002-----0
  6
CONTINUOUS
 62
     1
  5
904
 10
737.096978
 20
484.741947
 30
0.0
 40
1.7
 50
26.3878
 51
140.820449
  0
LINE
  8
LC-001-002-----0
  6
CONTINUOUS
 62
     1
  5
905
 10
721.233761
 20
485.941947
 30
0.0
 11
721.233761
 21
486.741947
 31
0.0
  0
LINE
  8
LC-001-002-----0
  6
CONTINUOUS
 62
     1
  5
906
 10
714.733761
 20
485.941947
 30
0.0
 11
714.733761
 21
486.741947
 31
0.0
  0
ARC
  8
LC-001-002-----0
  6
CONTINUOUS
 62
     1
  5
907
 10
729.470545
 20
484.741947
 30
0.0
 40
1.7
 50
39.179551
 51
135.099128
  0
LINE
  8
LC-001-002-----0
  6
CONTINUOUS
 62
     1
  5
908
 10
708.342949
 20
485.941947
 30
0.0
 11
715.783761
 21
485.941947
 31
0.0
  0
LINE
  8
LC-001-002-----0
  6
CONTINUOUS
 62
     1
  5
909
 10
735.199799
 20
486.370048
 30
0.0
 11
734.568866
 21
485.634839
 31
0.0
  0
LINE
  8
LC-001-002-----0
  6
CONTINUOUS
 62
     1
  5
90A
 10
735.806896
 20
485.849055
 30
0.0
 11
735.175963
 21
485.113847
 31
0.0
  0
LINE
  8
LC-001-002-----0
  6
CONTINUOUS
 62
     1
  5
90B
 10
731.367724
 20
486.370048
 30
0.0
 11
731.890178
 21
485.761247
 31
0.0
  0
ARC
  8
LC-001-002-----0
  6
CONTINUOUS
 62
     1
  5
90C
 10
465.051867
 20
485.941947
 30
0.0
 40
1.0
 50
270.0
 51
333.612258
  0
ARC
  8
LC-001-002-----0
  6
CONTINUOUS
 62
     1
  5
90D
 10
467.470545
 20
484.741947
 30
0.0
 40
1.7
 50
39.179551
 51
153.6122
  0
LINE
  8
LC-001-002-----0
  6
CONTINUOUS
 62
     1
  5
90E
 10
483.333761
 20
485.941947
 30
0.0
 11
483.333761
 21
486.741947
 31
0.0
  0
LINE
  8
LC-001-002-----0
  6
CONTINUOUS
 62
     1
  5
90F
 10
489.833761
 20
485.941947
 30
0.0
 11
489.833761
 21
486.741947
 31
0.0
  0
LINE
  8
LC-008-061-----0
  5
911
 10
486.583761
 20
490.741947
 30
0.0
 11
486.583761
 21
464.970374
 31
0.0
  0
LINE
  8
LC-001-002-----0
  6
CONTINUOUS
 62
     1
  5
912
 10
730.760627
 20
485.849055
 30
0.0
 11
731.39156
 21
485.113847
 31
0.0
  0
LINE
  8
LC-001-002-----0
  6
CONTINUOUS
 62
     1
  5
913
 10
512.283761
 20
455.441947
 30
0.0
 11
692.283761
 21
455.441947
 31
0.0
  0
ARC
  8
LC-001-002-----0
  6
CONTINUOUS
 62
     1
  5
914
 10
475.096978
 20
484.741947
 30
0.0
 40
1.7
 50
44.900872
 51
140.820449
  0
LINE
  8
LC-001-002-----0
  6
CONTINUOUS
 62
     1
  5
915
 10
496.224574
 20
485.941947
 30
0.0
 11
488.783761
 21
485.941947
 31
0.0
  0
LINE
  8
LC-001-002-----0
  6
CONTINUOUS
 62
     1
  5
916
 10
469.367724
 20
486.370048
 30
0.0
 11
469.998657
 21
485.634839
 31
0.0
  0
LINE
  8
LC-001-002-----0
  6
CONTINUOUS
 62
     1
  5
917
 10
468.760627
 20
485.849055
 30
0.0
 11
469.39156
 21
485.113847
 31
0.0
  0
LINE
  8
LC-001-002-----0
  6
CONTINUOUS
 62
     1
  5
918
 10
473.199799
 20
486.370048
 30
0.0
 11
472.677345
 21
485.761247
 31
0.0
  0
LINE
  8
LC-001-002-----0
  6
CONTINUOUS
 62
     1
  5
919
 10
473.806896
 20
485.849055
 30
0.0
 11
473.175963
 21
485.113847
 31
0.0
  0
LINE
  8
LC-001-002-----0
  6
CONTINUOUS
 62
     1
  5
91A
 10
457.283761
 20
478.141947
 30
0.0
 11
508.283761
 21
427.141947
 31
0.0
  0
LINE
  8
LC-001-002-----0
  6
CONTINUOUS
  5
91B
 10
552.683476
 20
651.531527
 30
0.0
 11
567.683476
 21
651.531527
 31
0.0
  0
LINE
  8
LC-001-002-----0
  6
CONTINUOUS
  5
91C
 10
552.683476
 20
666.531527
 30
0.0
 11
552.683476
 21
651.531527
 31
0.0
  0
LINE
  8
LC-001-002-----0
  6
CONTINUOUS
 62
     1
  5
91D
 10
702.276655
 20
484.941947
 30
0.0
 11
702.276655
 21
481.441947
 31
0.0
  0
ARC
  8
LC-001-002-----0
  6
CONTINUOUS
 62
     1
  5
91E
 10
605.836462
 20
405.326163
 30
0.0
 40
0.793611
 50
91.778322
 51
148.541823
  0
LINE
  8
LC-001-002-----0
  6
CONTINUOUS
 62
     1
  5
91F
 10
712.276655
 20
484.941947
 30
0.0
 11
712.276655
 21
481.441947
 31
0.0
  0
LINE
  8
LC-001-002-----0
  6
CONTINUOUS
 62
     1
  5
920
 10
722.276655
 20
484.941947
 30
0.0
 11
722.276655
 21
481.441947
 31
0.0
  0
LINE
  8
LC-001-002-----0
  6
CONTINUOUS
 62
     1
  5
921
 10
742.276655
 20
484.941947
 30
0.0
 11
742.276655
 21
481.441947
 31
0.0
  0
LINE
  8
LC-001-002-----0
  6
CONTINUOUS
 62
     1
  5
922
 10
752.276655
 20
485.912841
 30
0.0
 11
752.276655
 21
482.358848
 31
0.0
  0
LINE
  8
LC-001-002-----0
  6
CONTINUOUS
 62
     1
  5
923
 10
762.276655
 20
487.676111
 30
0.0
 11
762.276655
 21
484.122117
 31
0.0
  0
LINE
  8
LC-001-002-----0
  6
CONTINUOUS
 62
     1
  5
924
 10
772.276655
 20
489.43938
 30
0.0
 11
772.276655
 21
485.885387
 31
0.0
  0
LINE
  8
LC-001-002-----0
  6
CONTINUOUS
 62
     1
  5
925
 10
782.276655
 20
491.20265
 30
0.0
 11
782.276655
 21
487.648657
 31
0.0
  0
LINE
  8
LC-001-002-----0
  6
CONTINUOUS
 62
     1
  5
926
 10
792.276655
 20
491.569769
 30
0.0
 11
792.276655
 21
488.069769
 31
0.0
  0
LINE
  8
LC-001-002-----0
  6
CONTINUOUS
 62
     1
  5
927
 10
802.276655
 20
491.569769
 30
0.0
 11
802.276655
 21
488.069769
 31
0.0
  0
LINE
  8
LC-001-002-----0
  6
CONTINUOUS
 62
     1
  5
928
 10
812.276655
 20
491.569769
 30
0.0
 11
812.276655
 21
488.069769
 31
0.0
  0
LINE
  8
LC-001-002-----0
  6
CONTINUOUS
 62
     1
  5
929
 10
732.276655
 20
484.259416
 30
0.0
 11
732.276655
 21
481.441947
 31
0.0
  0
LINE
  8
LC-001-002-----0
  6
CONTINUOUS
 62
     1
  5
92A
 10
502.290868
 20
484.941947
 30
0.0
 11
502.290868
 21
481.441947
 31
0.0
  0
LINE
  8
LC-001-002-----0
  6
CONTINUOUS
 62
     1
  5
92B
 10
492.290868
 20
484.941947
 30
0.0
 11
492.290868
 21
481.441947
 31
0.0
  0
LINE
  8
LC-001-002-----0
  6
CONTINUOUS
 62
     1
  5
92C
 10
482.290868
 20
484.941947
 30
0.0
 11
482.290868
 21
481.441947
 31
0.0
  0
LINE
  8
LC-001-002-----0
  6
CONTINUOUS
 62
     1
  5
92D
 10
472.290868
 20
484.259416
 30
0.0
 11
472.290868
 21
481.441947
 31
0.0
  0
LINE
  8
LC-001-002-----0
  6
CONTINUOUS
 62
     1
  5
92E
 10
462.290868
 20
484.941947
 30
0.0
 11
462.290868
 21
481.441947
 31
0.0
  0
LINE
  8
LC-001-002-----0
  6
CONTINUOUS
 62
     1
  5
92F
 10
452.290868
 20
485.912841
 30
0.0
 11
452.290868
 21
482.358848
 31
0.0
  0
LINE
  8
LC-001-002-----0
  6
CONTINUOUS
 62
     1
  5
930
 10
442.290868
 20
487.676111
 30
0.0
 11
442.290868
 21
484.122117
 31
0.0
  0
LINE
  8
LC-001-002-----0
  6
CONTINUOUS
 62
     1
  5
931
 10
432.290868
 20
489.43938
 30
0.0
 11
432.290868
 21
485.885387
 31
0.0
  0
LINE
  8
LC-001-002-----0
  6
CONTINUOUS
 62
     1
  5
932
 10
422.290868
 20
491.20265
 30
0.0
 11
422.290868
 21
487.648657
 31
0.0
  0
LINE
  8
LC-001-002-----0
  6
CONTINUOUS
 62
     1
  5
933
 10
412.290868
 20
491.569769
 30
0.0
 11
412.290868
 21
488.069769
 31
0.0
  0
LINE
  8
LC-001-002-----0
  6
CONTINUOUS
 62
     1
  5
934
 10
402.290868
 20
491.569769
 30
0.0
 11
402.290868
 21
488.069769
 31
0.0
  0
LINE
  8
LC-001-002-----0
  6
CONTINUOUS
 62
     1
  5
935
 10
392.290868
 20
491.569769
 30
0.0
 11
392.290868
 21
488.069769
 31
0.0
  0
LINE
  8
LC-001-002-----0
  6
CONTINUOUS
 62
     1
  5
936
 10
602.287391
 20
568.56443
 30
0.0
 11
611.893993
 21
568.56443
 31
0.0
  0
LINE
  8
LC-001-002-----0
  6
CONTINUOUS
 62
     1
  5
937
 10
665.28602
 20
602.56443
 30
0.0
 11
539.281502
 21
602.56443
 31
0.0
  0
LINE
  8
LC-001-002-----0
  6
CONTINUOUS
 62
     1
  5
938
 10
592.680789
 20
568.56443
 30
0.0
 11
540.120027
 21
580.699038
 31
0.0
  0
LINE
  8
LC-001-002-----0
  6
CONTINUOUS
 62
     1
  5
939
 10
592.680789
 20
568.56443
 30
0.0
 11
602.287391
 21
568.56443
 31
0.0
  0
LINE
  8
LC-001-002-----0
  6
CONTINUOUS
 62
     1
  5
93A
 10
712.947496
 20
584.459758
 30
0.0
 11
713.78602
 21
600.459758
 31
0.0
  0
LINE
  8
LC-001-002-----0
  6
CONTINUOUS
 62
     1
  5
93B
 10
666.444755
 20
584.459758
 30
0.0
 11
667.28328
 21
600.459758
 31
0.0
  0
LINE
  8
LC-001-002-----0
  6
CONTINUOUS
 62
     1
  5
93C
 10
697.288761
 20
600.459758
 30
0.0
 11
698.127286
 21
584.459758
 31
0.0
  0
LINE
  8
LC-001-002-----0
  6
CONTINUOUS
 62
     1
  5
93D
 10
711.788761
 20
602.56443
 30
0.0
 11
665.28602
 21
602.56443
 31
0.0
  0
LINE
  8
LC-001-002-----0
  6
CONTINUOUS
 62
     1
  5
93E
 10
700.124545
 20
582.56443
 30
0.0
 11
710.950237
 21
582.56443
 31
0.0
  0
LINE
  8
LC-001-002-----0
  6
CONTINUOUS
 62
     1
  5
93F
 10
490.788761
 20
600.459758
 30
0.0
 11
491.627286
 21
584.459758
 31
0.0
  0
LINE
  8
LC-001-002-----0
  6
CONTINUOUS
 62
     1
  5
940
 10
539.281502
 20
602.56443
 30
0.0
 11
492.78602
 21
602.56443
 31
0.0
  0
LINE
  8
LC-001-002-----0
  6
CONTINUOUS
 62
     1
  5
941
 10
537.284243
 20
600.459758
 30
0.0
 11
538.122768
 21
584.459758
 31
0.0
  0
LINE
  8
LC-001-002-----0
  6
CONTINUOUS
 62
     1
  5
942
 10
502.445719
 20
584.459758
 30
0.0
 11
503.284243
 21
600.459758
 31
0.0
  0
LINE
  8
LC-010-100-D00-0
  6
CONTINUOUS
  5
944
 10
493.624545
 20
582.56443
 30
0.0
 11
500.44846
 21
582.56443
 31
0.0
  0
LINE
  8
LC-001-002-----0
  6
CONTINUOUS
 62
     1
  5
945
 10
500.44846
 20
582.56443
 30
0.0
 11
540.120027
 21
582.56443
 31
0.0
  0
LINE
  8
LC-001-002-----0
  6
CONTINUOUS
 62
     1
  5
946
 10
664.447496
 20
582.56443
 30
0.0
 11
700.124545
 21
582.56443
 31
0.0
  0
LINE
  8
LC-001-002-----0
  6
CONTINUOUS
 62
     1
  5
947
 10
664.447496
 20
582.56443
 30
0.0
 11
664.447496
 21
580.697362
 31
0.0
  0
LINE
  8
LC-001-002-----0
  6
CONTINUOUS
 62
     1
  5
948
 10
664.447496
 20
580.697362
 30
0.0
 11
611.893993
 21
568.56443
 31
0.0
  0
LINE
  8
LC-001-002-----0
  6
CONTINUOUS
 62
     1
  5
949
 10
540.120027
 20
582.56443
 30
0.0
 11
540.120027
 21
580.699038
 31
0.0
  0
ARC
  8
LC-001-002-----0
  6
CONTINUOUS
 62
     1
  5
94A
 10
711.788761
 20
600.56443
 30
0.0
 40
2.0
 50
357.0
 51
90.0
  0
ARC
  8
LC-001-002-----0
  6
CONTINUOUS
 62
     1
  5
94B
 10
710.950237
 20
584.56443
 30
0.0
 40
2.0
 50
270.0
 51
357.0
  0
ARC
  8
LC-001-002-----0
  6
CONTINUOUS
 62
     1
  5
94C
 10
665.28602
 20
600.56443
 30
0.0
 40
2.0
 50
357.0
 51
90.0
  0
ARC
  8
LC-001-002-----0
  6
CONTINUOUS
 62
     1
  5
94D
 10
664.447496
 20
584.56443
 30
0.0
 40
2.0
 50
270.0
 51
357.0
  0
ARC
  8
LC-001-002-----0
  6
CONTINUOUS
 62
     1
  5
94E
 10
699.28602
 20
600.56443
 30
0.0
 40
2.0
 50
90.0
 51
183.0
  0
ARC
  8
LC-001-002-----0
  6
CONTINUOUS
 62
     1
  5
94F
 10
700.124545
 20
584.56443
 30
0.0
 40
2.0
 50
183.0
 51
270.0
  0
ARC
  8
LC-001-002-----0
  6
CONTINUOUS
 62
     1
  5
950
 10
492.78602
 20
600.56443
 30
0.0
 40
2.0
 50
90.0
 51
183.0
  0
ARC
  8
LC-001-002-----0
  6
CONTINUOUS
 62
     1
  5
951
 10
493.624545
 20
584.56443
 30
0.0
 40
2.0
 50
183.0
 51
270.0
  0
ARC
  8
LC-001-002-----0
  6
CONTINUOUS
 62
     1
  5
952
 10
539.281502
 20
600.56443
 30
0.0
 40
2.0
 50
90.0
 51
183.0
  0
ARC
  8
LC-001-002-----0
  6
CONTINUOUS
 62
     1
  5
953
 10
540.120027
 20
584.56443
 30
0.0
 40
2.0
 50
183.0
 51
270.0
  0
ARC
  8
LC-001-002-----0
  6
CONTINUOUS
 62
     1
  5
954
 10
501.286984
 20
600.56443
 30
0.0
 40
2.0
 50
357.0
 51
90.0
  0
ARC
  8
LC-001-002-----0
  6
CONTINUOUS
 62
     1
  5
955
 10
500.44846
 20
584.56443
 30
0.0
 40
2.0
 50
270.0
 51
357.0
  0
LINE
  8
LC-001-002-----0
  6
CONTINUOUS
 62
     1
  5
956
 10
659.402618
 20
579.53266
 30
0.0
 11
672.889023
 21
581.548217
 31
0.0
  0
ENDSEC
  0
EOF
