  0
SECTION
  2
HEADER
  9
$ACADVER
  1
AC1015
  9
$ACADMAINTVER
 70
     6
  9
$DWGCODEPAGE
  3
ANSI_1252
  9
$INSBASE
 10
0.0
 20
0.0
 30
0.0
  9
$EXTMIN
 10
-209.760318
 20
-147.978432
 30
0.0
  9
$EXTMAX
 10
630.239682
 20
446.021568
 30
0.0
  9
$LIMMIN
 10
-209.760318
 20
-147.978432
  9
$LIMMAX
 10
630.239682
 20
446.021568
  9
$ORTHOMODE
 70
     0
  9
$REGENMODE
 70
     1
  9
$FILLMODE
 70
     1
  9
$QTEXTMODE
 70
     0
  9
$MIRRTEXT
 70
     1
  9
$LTSCALE
 40
2.0
  9
$ATTMODE
 70
     1
  9
$TEXTSIZE
 40
2.5
  9
$TRACEWID
 40
1.0
  9
$TEXTSTYLE
  7
Standard
  9
$CLAYER
  8
0
  9
$CELTYPE
  6
ByLayer
  9
$CECOLOR
 62
     7
  9
$CELTSCALE
 40
1.0
  9
$DISPSILH
 70
     0
  9
$DIMSCALE
 40
2.0
  9
$DIMASZ
 40
3.5
  9
$DIMEXO
 40
0.625
  9
$DIMDLI
 40
3.75
  9
$DIMRND
 40
0.0
  9
$DIMDLE
 40
0.0
  9
$DIMEXE
 40
1.25
  9
$DIMTP
 40
0.0
  9
$DIMTM
 40
0.0
  9
$DIMTXT
 40
3.5
  9
$DIMCEN
 40
2.5
  9
$DIMTSZ
 40
0.0
  9
$DIMTOL
 70
     0
  9
$DIMLIM
 70
     0
  9
$DIMTIH
 70
     0
  9
$DIMTOH
 70
     0
  9
$DIMSE1
 70
     0
  9
$DIMSE2
 70
     0
  9
$DIMTAD
 70
     1
  9
$DIMZIN
 70
     8
  9
$DIMBLK
  1

  9
$DIMASO
 70
     1
  9
$DIMSHO
 70
     1
  9
$DIMPOST
  1

  9
$DIMAPOST
  1

  9
$DIMALT
 70
     0
  9
$DIMALTD
 70
     3
  9
$DIMALTF
 40
0.03937
  9
$DIMLFAC
 40
1.0
  9
$DIMTOFL
 70
     1
  9
$DIMTVP
 40
0.0
  9
$DIMTIX
 70
     0
  9
$DIMSOXD
 70
     0
  9
$DIMSAH
 70
     0
  9
$DIMBLK1
  1

  9
$DIMBLK2
  1

  9
$DIMSTYLE
  2
ISO-25
  9
$DIMCLRD
 70
     0
  9
$DIMCLRE
 70
     0
  9
$DIMCLRT
 70
     0
  9
$DIMTFAC
 40
1.0
  9
$DIMGAP
 40
0.625
  9
$DIMJUST
 70
     0
  9
$DIMSD1
 70
     0
  9
$DIMSD2
 70
     0
  9
$DIMTOLJ
 70
     0
  9
$DIMTZIN
 70
     8
  9
$DIMALTZ
 70
     0
  9
$DIMALTTZ
 70
     0
  9
$DIMUPT
 70
     0
  9
$DIMDEC
 70
     2
  9
$DIMTDEC
 70
     2
  9
$DIMALTU
 70
     2
  9
$DIMALTTD
 70
     3
  9
$DIMTXSTY
  7
Standard
  9
$DIMAUNIT
 70
     0
  9
$DIMADEC
 70
     0
  9
$DIMALTRND
 40
0.0
  9
$DIMAZIN
 70
     0
  9
$DIMDSEP
 70
    44
  9
$DIMATFIT
 70
     3
  9
$DIMFRAC
 70
     0
  9
$DIMLDRBLK
  1

  9
$DIMLUNIT
 70
     2
  9
$DIMLWD
 70
    -2
  9
$DIMLWE
 70
    -2
  9
$DIMTMOVE
 70
     0
  9
$LUNITS
 70
     2
  9
$LUPREC
 70
     4
  9
$SKETCHINC
 40
1.0
  9
$FILLETRAD
 40
10.0
  9
$AUNITS
 70
     0
  9
$AUPREC
 70
     0
  9
$MENU
  1
.
  9
$ELEVATION
 40
0.0
  9
$PELEVATION
 40
0.0
  9
$THICKNESS
 40
0.0
  9
$LIMCHECK
 70
     0
  9
$CHAMFERA
 40
10.0
  9
$CHAMFERB
 40
10.0
  9
$CHAMFERC
 40
20.0
  9
$CHAMFERD
 40
0.0
  9
$SKPOLY
 70
     0
  9
$TDCREATE
 40
2456738.250314861
  9
$TDUCREATE
 40
2456738.208648195
  9
$TDUPDATE
 40
2456738.250314873
  9
$TDUUPDATE
 40
2456738.208648206
  9
$TDINDWG
 40
0.0000000116
  9
$TDUSRTIMER
 40
0.0000000116
  9
$USRTIMER
 70
     1
  9
$ANGBASE
 50
0.0
  9
$ANGDIR
 70
     0
  9
$PDMODE
 70
     0
  9
$PDSIZE
 40
0.0
  9
$PLINEWID
 40
0.0
  9
$SPLFRAME
 70
     0
  9
$SPLINETYPE
 70
     6
  9
$SPLINESEGS
 70
     8
  9
$HANDSEED
  5
3F1
  9
$SURFTAB1
 70
     6
  9
$SURFTAB2
 70
     6
  9
$SURFTYPE
 70
     6
  9
$SURFU
 70
     6
  9
$SURFV
 70
     6
  9
$UCSBASE
  2

  9
$UCSNAME
  2

  9
$UCSORG
 10
0.0
 20
0.0
 30
0.0
  9
$UCSXDIR
 10
1.0
 20
0.0
 30
0.0
  9
$UCSYDIR
 10
0.0
 20
1.0
 30
0.0
  9
$UCSORTHOREF
  2

  9
$UCSORTHOVIEW
 70
     0
  9
$UCSORGTOP
 10
0.0
 20
0.0
 30
0.0
  9
$UCSORGBOTTOM
 10
0.0
 20
0.0
 30
0.0
  9
$UCSORGLEFT
 10
0.0
 20
0.0
 30
0.0
  9
$UCSORGRIGHT
 10
0.0
 20
0.0
 30
0.0
  9
$UCSORGFRONT
 10
0.0
 20
0.0
 30
0.0
  9
$UCSORGBACK
 10
0.0
 20
0.0
 30
0.0
  9
$PUCSBASE
  2

  9
$PUCSNAME
  2

  9
$PUCSORG
 10
0.0
 20
0.0
 30
0.0
  9
$PUCSXDIR
 10
1.0
 20
0.0
 30
0.0
  9
$PUCSYDIR
 10
0.0
 20
1.0
 30
0.0
  9
$PUCSORTHOREF
  2

  9
$PUCSORTHOVIEW
 70
     0
  9
$PUCSORGTOP
 10
0.0
 20
0.0
 30
0.0
  9
$PUCSORGBOTTOM
 10
0.0
 20
0.0
 30
0.0
  9
$PUCSORGLEFT
 10
0.0
 20
0.0
 30
0.0
  9
$PUCSORGRIGHT
 10
0.0
 20
0.0
 30
0.0
  9
$PUCSORGFRONT
 10
0.0
 20
0.0
 30
0.0
  9
$PUCSORGBACK
 10
0.0
 20
0.0
 30
0.0
  9
$USERI1
 70
     0
  9
$USERI2
 70
     0
  9
$USERI3
 70
     0
  9
$USERI4
 70
     0
  9
$USERI5
 70
     0
  9
$USERR1
 40
0.0
  9
$USERR2
 40
0.0
  9
$USERR3
 40
0.0
  9
$USERR4
 40
0.0
  9
$USERR5
 40
0.0
  9
$WORLDVIEW
 70
     1
  9
$SHADEDGE
 70
     3
  9
$SHADEDIF
 70
    70
  9
$TILEMODE
 70
     1
  9
$MAXACTVP
 70
    64
  9
$PINSBASE
 10
0.0
 20
0.0
 30
0.0
  9
$PLIMCHECK
 70
     0
  9
$PEXTMIN
 10
-209.760318
 20
-147.978432
 30
0.0
  9
$PEXTMAX
 10
630.239682
 20
446.021568
 30
0.0
  9
$PLIMMIN
 10
-209.760318
 20
-147.978432
  9
$PLIMMAX
 10
630.239682
 20
446.021568
  9
$UNITMODE
 70
     0
  9
$VISRETAIN
 70
     1
  9
$PLINEGEN
 70
     0
  9
$PSLTSCALE
 70
     1
  9
$TREEDEPTH
 70
  3020
  9
$CMLSTYLE
  2
Standard
  9
$CMLJUST
 70
     0
  9
$CMLSCALE
 40
20.0
  9
$PROXYGRAPHICS
 70
     1
  9
$MEASUREMENT
 70
     1
  9
$CELWEIGHT
370
    -1
  9
$ENDCAPS
280
     0
  9
$JOINSTYLE
280
     0
  9
$LWDISPLAY
290
     0
  9
$INSUNITS
 70
     4
  9
$HYPERLINKBASE
  1

  9
$STYLESHEET
  1

  9
$XEDIT
290
     1
  9
$CEPSNTYPE
380
     0
  9
$PSTYLEMODE
290
     1
  9
$FINGERPRINTGUID
  2
{FAEB1C30-E019-11D5-929B-00C0DF256EC4}
  9
$VERSIONGUID
  2
{FAEB1C32-E019-11D5-929B-00C0DF256EC4}
  9
$EXTNAMES
290
     1
  9
$PSVPSCALE
 40
0.0
  9
$OLESTARTUP
290
     0
  0
ENDSEC
  0
SECTION
  2
CLASSES
  0
CLASS
  1
ACDBDICTIONARYWDFLT
  2
AcDbDictionaryWithDefault
  3
ObjectDBX Classes
 90
        0
280
     0
281
     0
  0
CLASS
  1
ACDBPLACEHOLDER
  2
AcDbPlaceHolder
  3
ObjectDBX Classes
 90
        0
280
     0
281
     0
  0
CLASS
  1
LAYOUT
  2
AcDbLayout
  3
ObjectDBX Classes
 90
        0
280
     0
281
     0
  0
ENDSEC
  0
SECTION
  2
TABLES
  0
TABLE
  2
VPORT
  5
8
330
0
100
AcDbSymbolTable
 70
     2
  0
VPORT
  5
29
330
8
100
AcDbSymbolTableRecord
100
AcDbViewportTableRecord
  2
*ACTIVE
 70
     0
 10
0.0
 20
0.0
 11
1.0
 21
1.0
 12
210.239682
 22
149.021568
 13
0.0
 23
0.0
 14
1.0
 24
1.0
 15
0.0
 25
0.0
 16
0.0
 26
0.0
 36
1.0
 17
0.0
 27
0.0
 37
0.0
 40
594.0
 41
1.414141
 42
50.0
 43
0.0
 44
0.0
 50
0.0
 51
0.0
 71
    16
 72
   100
 73
     1
 74
     0
 75
     0
 76
     0
 77
     0
 78
     0
281
     0
 65
     0
110
0.0
120
0.0
130
0.0
111
1.0
121
0.0
131
0.0
112
0.0
122
1.0
132
0.0
 79
     0
146
0.0
  0
ENDTAB
  0
TABLE
  2
LTYPE
  5
5
330
0
100
AcDbSymbolTable
 70
     3
  0
LTYPE
  5
14
330
5
100
AcDbSymbolTableRecord
100
AcDbLinetypeTableRecord
  2
ByBlock
 70
     0
  3

 72
    65
 73
     0
 40
0.0
  0
LTYPE
  5
15
330
5
100
AcDbSymbolTableRecord
100
AcDbLinetypeTableRecord
  2
ByLayer
 70
     0
  3

 72
    65
 73
     0
 40
0.0
  0
LTYPE
  5
16
330
5
100
AcDbSymbolTableRecord
100
AcDbLinetypeTableRecord
  2
Continuous
 70
     0
  3
Solid line
 72
    65
 73
     0
 40
0.0
  0
LTYPE
  5
2A
330
5
100
AcDbSymbolTableRecord
100
AcDbLinetypeTableRecord
  2
DASHED
 70
     0
  3
__ __ __ __ __
 72
    65
 73
     2
 40
6.25
 49
5.0
 74
     4
 75
     0
340
0
 46
1.0
 50
0.0
 44
0.0
 45
0.0
 49
-1.25
 74
     4
 75
     0
340
0
 46
1.0
 50
0.0
 44
0.0
 45
0.0
  0
LTYPE
  5
3DF
330
5
100
AcDbSymbolTableRecord
100
AcDbLinetypeTableRecord
  2
DASHDOT
 70
     0
  3
__ . __ . __ . __ . __
 72
    65
 73
     4
 40
7.5
 49
5.0
 74
     4
 75
     0
340
0
 46
1.0
 50
0.0
 44
0.0
 45
0.0
 49
-1.25
 74
     4
 75
     0
340
0
 46
1.0
 50
0.0
 44
0.0
 45
0.0
 49
0.0
 74
     4
 75
     0
340
0
 46
1.0
 50
0.0
 44
0.0
 45
0.0
 49
-1.25
 74
     4
 75
     0
340
0
 46
1.0
 50
0.0
 44
0.0
 45
0.0
  0
ENDTAB
  0
TABLE
  2
LAYER
  5
2
330
0
100
AcDbSymbolTable
 70
     8
  0
LAYER
  5
10
330
2
100
AcDbSymbolTableRecord
100
AcDbLayerTableRecord
  2
0
 70
     0
 62
     7
  6
Continuous
370
    -3
390
F
  0
LAYER
  5
2B
330
2
100
AcDbSymbolTableRecord
100
AcDbLayerTableRecord
  2
LC-INFO-1-2-mm-A3-0
 70
     1
 62
     7
  6
ByBlock
370
    -3
390
F
  0
LAYER
  5
2C
330
2
100
AcDbSymbolTableRecord
100
AcDbLayerTableRecord
  2
LC-CUT-HIDDEN
 70
     0
 62
     7
  6
DASHED
370
    -3
390
F
  0
LAYER
  5
2D
330
2
100
AcDbSymbolTableRecord
100
AcDbLayerTableRecord
  2
LC-VIEWPORT
 70
     0
 62
     7
  6
ByBlock
370
    -3
390
F
  0
LAYER
  5
2E
330
2
100
AcDbSymbolTableRecord
100
AcDbLayerTableRecord
  2
LC-3D-HIDDEN
 70
     0
 62
     9
  6
DASHED
370
    -3
390
F
  0
LAYER
  5
30
330
2
100
AcDbSymbolTableRecord
100
AcDbLayerTableRecord
  2
LC-001-100-D00-0
 70
     0
 62
     1
  6
ByBlock
370
    -3
390
F
  0
LAYER
  5
3C3
330
2
100
AcDbSymbolTableRecord
100
AcDbLayerTableRecord
  2
Defpoints
 70
     0
 62
     7
  6
Continuous
290
     0
370
    -3
390
F
  0
LAYER
  5
3E1
330
2
100
AcDbSymbolTableRecord
100
AcDbLayerTableRecord
  2
LC-002-003-----0
 70
     0
 62
     2
  6
ByBlock
370
    -3
390
F
  0
ENDTAB
  0
TABLE
  2
STYLE
  5
3
330
0
100
AcDbSymbolTable
 70
     3
  0
STYLE
  5
11
330
3
100
AcDbSymbolTableRecord
100
AcDbTextStyleTableRecord
  2
Standard
 70
     0
 40
0.0
 41
1.0
 50
0.0
 71
     0
 42
2.5
  3
txt
  4

  0
STYLE
  5
2F
330
3
100
AcDbSymbolTableRecord
100
AcDbTextStyleTableRecord
  2
LCTX15-400-0-0-Arial
 70
     0
 40
0.0
 41
0.8
 50
0.0
 71
     0
 42
3.5
  3

  4

1001
ACAD
1000
Arial
1071
 16777218
  0
STYLE
  5
3C0
330
3
100
AcDbSymbolTableRecord
100
AcDbTextStyleTableRecord
  2
LCTX15-400-0-0pDIN-Schrift
 70
     0
 40
2.5
 41
0.8
 50
15.0
 71
     0
 42
3.5
  3
STANDARD
  4

  0
ENDTAB
  0
TABLE
  2
VIEW
  5
6
330
0
100
AcDbSymbolTable
 70
     0
  0
ENDTAB
  0
TABLE
  2
UCS
  5
7
330
0
100
AcDbSymbolTable
 70
     0
  0
ENDTAB
  0
TABLE
  2
APPID
  5
9
330
0
100
AcDbSymbolTable
 70
     1
  0
APPID
  5
12
330
9
100
AcDbSymbolTableRecord
100
AcDbRegAppTableRecord
  2
ACAD
 70
     0
  0
ENDTAB
  0
TABLE
  2
DIMSTYLE
  5
A
330
0
100
AcDbSymbolTable
 70
     3
100
AcDbDimStyleTable
  0
DIMSTYLE
105
27
330
A
100
AcDbSymbolTableRecord
100
AcDbDimStyleTableRecord
  2
ISO-25
 70
     0
 41
2.5
 42
0.625
 43
3.75
 44
1.25
 73
     0
 74
     0
 77
     1
 78
     8
140
2.5
141
2.5
143
0.03937
147
0.625
171
     3
172
     1
271
     2
272
     2
274
     3
278
    44
283
     0
284
     8
340
11
  0
DIMSTYLE
105
3C1
102
{ACAD_REACTORS
330
3C2
330
3E2
102
}
330
A
100
AcDbSymbolTableRecord
100
AcDbDimStyleTableRecord
  2
LC-DIM-L-0140-02-02
 70
     0
 40
2.0
 41
14.0
 42
0.0
 43
7.5
 44
1.8
 73
     0
 74
     0
 77
     1
 78
     8
 79
     2
140
14.0
141
0.0
146
0.71
147
1.5
176
     2
177
     2
178
     2
179
     2
271
     2
278
    44
289
     1
340
3C0
  0
DIMSTYLE
105
3D1
102
{ACAD_REACTORS
330
3D2
102
}
330
A
100
AcDbSymbolTableRecord
100
AcDbDimStyleTableRecord
  2
LC-DIM-L-0140-00-02
 70
     0
 40
2.0
 41
14.0
 42
0.0
 43
7.5
 44
1.8
 73
     0
 74
     0
 77
     1
 78
     8
140
14.0
141
0.0
146
0.71
147
1.5
176
     2
177
     2
178
     2
271
     0
278
    44
289
     1
340
3C0
  0
ENDTAB
  0
TABLE
  2
BLOCK_RECORD
  5
1
330
0
100
AcDbSymbolTable
 70
    25
  0
BLOCK_RECORD
  5
1F
330
1
100
AcDbSymbolTableRecord
100
AcDbBlockTableRecord
  2
*Model_Space
340
22
  0
BLOCK_RECORD
  5
1B
330
1
100
AcDbSymbolTableRecord
100
AcDbBlockTableRecord
  2
*Paper_Space
340
1E
  0
BLOCK_RECORD
  5
23
330
1
100
AcDbSymbolTableRecord
100
AcDbBlockTableRecord
  2
*Paper_Space0
340
26
  0
BLOCK_RECORD
  5
4D
330
1
100
AcDbSymbolTableRecord
100
AcDbBlockTableRecord
  2
POLY1
340
0
102
{BLKREFS
331
78
102
}
  0
BLOCK_RECORD
  5
79
330
1
100
AcDbSymbolTableRecord
100
AcDbBlockTableRecord
  2
POLY2
340
0
102
{BLKREFS
331
9E
102
}
  0
BLOCK_RECORD
  5
A2
330
1
100
AcDbSymbolTableRecord
100
AcDbBlockTableRecord
  2
POLY3
340
0
102
{BLKREFS
331
B3
102
}
  0
BLOCK_RECORD
  5
BA
330
1
100
AcDbSymbolTableRecord
100
AcDbBlockTableRecord
  2
POLY4
340
0
102
{BLKREFS
331
CB
102
}
  0
BLOCK_RECORD
  5
D2
330
1
100
AcDbSymbolTableRecord
100
AcDbBlockTableRecord
  2
POLY5
340
0
102
{BLKREFS
331
E3
102
}
  0
BLOCK_RECORD
  5
E4
330
1
100
AcDbSymbolTableRecord
100
AcDbBlockTableRecord
  2
POLY6
340
0
102
{BLKREFS
331
F3
102
}
  0
BLOCK_RECORD
  5
F4
330
1
100
AcDbSymbolTableRecord
100
AcDbBlockTableRecord
  2
POLY7
340
0
102
{BLKREFS
331
103
102
}
  0
BLOCK_RECORD
  5
105
330
1
100
AcDbSymbolTableRecord
100
AcDbBlockTableRecord
  2
POLY8
340
0
102
{BLKREFS
331
112
102
}
  0
BLOCK_RECORD
  5
118
330
1
100
AcDbSymbolTableRecord
100
AcDbBlockTableRecord
  2
POLY9
340
0
102
{BLKREFS
331
123
102
}
  0
BLOCK_RECORD
  5
128
330
1
100
AcDbSymbolTableRecord
100
AcDbBlockTableRecord
  2
POLY10
340
0
102
{BLKREFS
331
133
102
}
  0
BLOCK_RECORD
  5
13A
330
1
100
AcDbSymbolTableRecord
100
AcDbBlockTableRecord
  2
POLY11
340
0
102
{BLKREFS
331
145
102
}
  0
BLOCK_RECORD
  5
1DA
330
1
100
AcDbSymbolTableRecord
100
AcDbBlockTableRecord
  2
POLY12
340
0
102
{BLKREFS
331
1F7
102
}
  0
BLOCK_RECORD
  5
27D
330
1
100
AcDbSymbolTableRecord
100
AcDbBlockTableRecord
  2
POLY13
340
0
102
{BLKREFS
331
2D4
102
}
  0
BLOCK_RECORD
  5
2DB
330
1
100
AcDbSymbolTableRecord
100
AcDbBlockTableRecord
  2
KLON1
340
0
102
{BLKREFS
331
2F2
102
}
  0
BLOCK_RECORD
  5
2F3
330
1
100
AcDbSymbolTableRecord
100
AcDbBlockTableRecord
  2
KLON2
340
0
102
{BLKREFS
331
30E
102
}
  0
BLOCK_RECORD
  5
30F
330
1
100
AcDbSymbolTableRecord
100
AcDbBlockTableRecord
  2
KLON3
340
0
102
{BLKREFS
331
357
102
}
  0
BLOCK_RECORD
  5
358
330
1
100
AcDbSymbolTableRecord
100
AcDbBlockTableRecord
  2
KLON4
340
0
102
{BLKREFS
331
38E
102
}
  0
BLOCK_RECORD
  5
38F
330
1
100
AcDbSymbolTableRecord
100
AcDbBlockTableRecord
  2
KLON5
340
0
102
{BLKREFS
331
39C
102
}
  0
BLOCK_RECORD
  5
39D
330
1
100
AcDbSymbolTableRecord
100
AcDbBlockTableRecord
  2
KLON6
340
0
102
{BLKREFS
331
3A9
102
}
  0
BLOCK_RECORD
  5
3AA
330
1
100
AcDbSymbolTableRecord
100
AcDbBlockTableRecord
  2
KLON7
340
0
102
{BLKREFS
331
3B4
102
}
  0
BLOCK_RECORD
  5
3B5
330
1
100
AcDbSymbolTableRecord
100
AcDbBlockTableRecord
  2
KLON8
340
0
102
{BLKREFS
331
3BF
102
}
  0
BLOCK_RECORD
  5
3C4
330
1
100
AcDbSymbolTableRecord
100
AcDbBlockTableRecord
  2
*D22
340
0
  0
BLOCK_RECORD
  5
3D3
330
1
100
AcDbSymbolTableRecord
100
AcDbBlockTableRecord
  2
*D23
340
0
  0
BLOCK_RECORD
  5
3E3
330
1
100
AcDbSymbolTableRecord
100
AcDbBlockTableRecord
  2
*D24
340
0
  0
ENDTAB
  0
ENDSEC
  0
SECTION
  2
BLOCKS
  0
BLOCK
  5
20
330
1F
100
AcDbEntity
  8
0
100
AcDbBlockBegin
  2
*Model_Space
 70
     0
 71
     0
 10
0.0
 20
0.0
 30
0.0
  3
*Model_Space
  1

  0
ENDBLK
  5
21
330
1F
100
AcDbEntity
  8
0
100
AcDbBlockEnd
  0
BLOCK
  5
1C
330
1B
100
AcDbEntity
 67
     1
  8
0
100
AcDbBlockBegin
  2
*Paper_Space
 70
     0
 71
     0
 10
0.0
 20
0.0
 30
0.0
  3
*Paper_Space
  1

  0
ENDBLK
  5
1D
330
1B
100
AcDbEntity
 67
     1
  8
0
100
AcDbBlockEnd
  0
BLOCK
  5
24
330
23
100
AcDbEntity
  8
0
100
AcDbBlockBegin
  2
*Paper_Space0
 70
     0
 71
     0
 10
0.0
 20
0.0
 30
0.0
  3
*Paper_Space0
  1

  0
ENDBLK
  5
25
330
23
100
AcDbEntity
  8
0
100
AcDbBlockEnd
  0
BLOCK
  5
4E
330
4D
100
AcDbEntity
  8
0
100
AcDbBlockBegin
  2
POLY1
 70
     0
 71
     0
 10
0.0
 20
0.0
 30
0.0
  3
POLY1
  1

  4
POLY1
  0
LINE
  5
50
330
4D
100
AcDbEntity
  8
LC-001-100-D00-0
 62
     7
370
    50
100
AcDbLine
 10
142.40487
 20
238.877049
 30
0.0
 11
142.40487
 21
238.877049
 31
0.0
  0
LINE
  5
51
330
4D
100
AcDbEntity
  8
LC-001-100-D00-0
 62
     7
370
    50
100
AcDbLine
 10
142.40487
 20
238.877049
 30
0.0
 11
142.40487
 21
238.855658
 31
0.0
  0
LINE
  5
52
330
4D
100
AcDbEntity
  8
LC-001-100-D00-0
 62
     7
370
    50
100
AcDbLine
 10
142.40487
 20
238.855658
 30
0.0
 11
142.40487
 21
238.855658
 31
0.0
  0
LINE
  5
53
330
4D
100
AcDbEntity
  8
LC-001-100-D00-0
 62
     7
370
    50
100
AcDbLine
 10
142.40487
 20
238.855658
 30
0.0
 11
142.40487
 21
238.812861
 31
0.0
  0
LINE
  5
54
330
4D
100
AcDbEntity
  8
LC-001-100-D00-0
 62
     7
370
    50
100
AcDbLine
 10
142.40487
 20
238.812861
 30
0.0
 11
142.40487
 21
238.812861
 31
0.0
  0
LINE
  5
55
330
4D
100
AcDbEntity
  8
LC-001-100-D00-0
 62
     7
370
    50
100
AcDbLine
 10
142.40487
 20
238.812861
 30
0.0
 11
142.40487
 21
238.450603
 31
0.0
  0
LINE
  5
56
330
4D
100
AcDbEntity
  8
LC-001-100-D00-0
 62
     7
370
    50
100
AcDbLine
 10
142.40487
 20
238.450603
 30
0.0
 11
142.40487
 21
238.450603
 31
0.0
  0
LINE
  5
57
330
4D
100
AcDbEntity
  8
LC-001-100-D00-0
 62
     7
370
    50
100
AcDbLine
 10
142.40487
 20
238.450603
 30
0.0
 11
142.40487
 21
237.839894
 31
0.0
  0
LINE
  5
58
330
4D
100
AcDbEntity
  8
LC-001-100-D00-0
 62
     7
370
    50
100
AcDbLine
 10
142.40487
 20
237.839894
 30
0.0
 11
142.40487
 21
237.839894
 31
0.0
  0
LINE
  5
59
330
4D
100
AcDbEntity
  8
LC-001-100-D00-0
 62
     7
370
    50
100
AcDbLine
 10
142.40487
 20
237.839894
 30
0.0
 11
142.40487
 21
236.908978
 31
0.0
  0
LINE
  5
5A
330
4D
100
AcDbEntity
  8
LC-001-100-D00-0
 62
     7
370
    50
100
AcDbLine
 10
142.40487
 20
236.908978
 30
0.0
 11
142.40487
 21
236.908978
 31
0.0
  0
LINE
  5
5B
330
4D
100
AcDbEntity
  8
LC-001-100-D00-0
 62
     7
370
    50
100
AcDbLine
 10
142.40487
 20
236.908978
 30
0.0
 11
142.40487
 21
235.679433
 31
0.0
  0
LINE
  5
5C
330
4D
100
AcDbEntity
  8
LC-001-100-D00-0
 62
     7
370
    50
100
AcDbLine
 10
142.40487
 20
235.679433
 30
0.0
 11
142.40487
 21
235.679433
 31
0.0
  0
LINE
  5
5D
330
4D
100
AcDbEntity
  8
LC-001-100-D00-0
 62
     7
370
    50
100
AcDbLine
 10
142.40487
 20
235.679433
 30
0.0
 11
142.40487
 21
234.116632
 31
0.0
  0
LINE
  5
5E
330
4D
100
AcDbEntity
  8
LC-001-100-D00-0
 62
     7
370
    50
100
AcDbLine
 10
142.40487
 20
234.116632
 30
0.0
 11
142.40487
 21
234.116632
 31
0.0
  0
LINE
  5
5F
330
4D
100
AcDbEntity
  8
LC-001-100-D00-0
 62
     7
370
    50
100
AcDbLine
 10
142.40487
 20
234.116632
 30
0.0
 11
142.40487
 21
232.249935
 31
0.0
  0
LINE
  5
60
330
4D
100
AcDbEntity
  8
LC-001-100-D00-0
 62
     7
370
    50
100
AcDbLine
 10
142.40487
 20
232.249935
 30
0.0
 11
142.40487
 21
232.249935
 31
0.0
  0
LINE
  5
61
330
4D
100
AcDbEntity
  8
LC-001-100-D00-0
 62
     7
370
    50
100
AcDbLine
 10
142.40487
 20
232.249935
 30
0.0
 11
142.40487
 21
230.065351
 31
0.0
  0
LINE
  5
62
330
4D
100
AcDbEntity
  8
LC-001-100-D00-0
 62
     7
370
    50
100
AcDbLine
 10
142.40487
 20
230.065351
 30
0.0
 11
142.40487
 21
230.065351
 31
0.0
  0
LINE
  5
63
330
4D
100
AcDbEntity
  8
LC-001-100-D00-0
 62
     7
370
    50
100
AcDbLine
 10
142.40487
 20
230.065351
 30
0.0
 11
142.40487
 21
227.608126
 31
0.0
  0
LINE
  5
64
330
4D
100
AcDbEntity
  8
LC-001-100-D00-0
 62
     7
370
    50
100
AcDbLine
 10
142.40487
 20
227.608126
 30
0.0
 11
142.40487
 21
227.608126
 31
0.0
  0
LINE
  5
65
330
4D
100
AcDbEntity
  8
LC-001-100-D00-0
 62
     7
370
    50
100
AcDbLine
 10
142.40487
 20
227.608126
 30
0.0
 11
142.40487
 21
224.894175
 31
0.0
  0
LINE
  5
66
330
4D
100
AcDbEntity
  8
LC-001-100-D00-0
 62
     7
370
    50
100
AcDbLine
 10
142.40487
 20
224.894175
 30
0.0
 11
142.40487
 21
224.894175
 31
0.0
  0
LINE
  5
67
330
4D
100
AcDbEntity
  8
LC-001-100-D00-0
 62
     7
370
    50
100
AcDbLine
 10
142.40487
 20
224.894175
 30
0.0
 11
142.40487
 21
221.973338
 31
0.0
  0
LINE
  5
68
330
4D
100
AcDbEntity
  8
LC-001-100-D00-0
 62
     7
370
    50
100
AcDbLine
 10
142.40487
 20
221.973338
 30
0.0
 11
142.40487
 21
221.973338
 31
0.0
  0
LINE
  5
69
330
4D
100
AcDbEntity
  8
LC-001-100-D00-0
 62
     7
370
    50
100
AcDbLine
 10
142.40487
 20
221.973338
 30
0.0
 11
142.40487
 21
218.894836
 31
0.0
  0
LINE
  5
6A
330
4D
100
AcDbEntity
  8
LC-001-100-D00-0
 62
     7
370
    50
100
AcDbLine
 10
142.40487
 20
218.894836
 30
0.0
 11
142.40487
 21
218.894836
 31
0.0
  0
LINE
  5
6B
330
4D
100
AcDbEntity
  8
LC-001-100-D00-0
 62
     7
370
    50
100
AcDbLine
 10
142.40487
 20
218.894836
 30
0.0
 11
142.40487
 21
215.698086
 31
0.0
  0
LINE
  5
6C
330
4D
100
AcDbEntity
  8
LC-001-100-D00-0
 62
     7
370
    50
100
AcDbLine
 10
142.40487
 20
215.698086
 30
0.0
 11
142.40487
 21
215.698086
 31
0.0
  0
LINE
  5
6D
330
4D
100
AcDbEntity
  8
LC-001-100-D00-0
 62
     7
370
    50
100
AcDbLine
 10
142.40487
 20
215.698086
 30
0.0
 11
142.40487
 21
212.460339
 31
0.0
  0
LINE
  5
6E
330
4D
100
AcDbEntity
  8
LC-001-100-D00-0
 62
     7
370
    50
100
AcDbLine
 10
142.40487
 20
212.460339
 30
0.0
 11
142.40487
 21
212.460339
 31
0.0
  0
LINE
  5
6F
330
4D
100
AcDbEntity
  8
LC-001-100-D00-0
 62
     7
370
    50
100
AcDbLine
 10
142.40487
 20
212.460339
 30
0.0
 11
142.40487
 21
209.197551
 31
0.0
  0
LINE
  5
70
330
4D
100
AcDbEntity
  8
LC-001-100-D00-0
 62
     7
370
    50
100
AcDbLine
 10
142.40487
 20
209.197551
 30
0.0
 11
142.40487
 21
209.197551
 31
0.0
  0
LINE
  5
71
330
4D
100
AcDbEntity
  8
LC-001-100-D00-0
 62
     7
370
    50
100
AcDbLine
 10
142.40487
 20
209.197551
 30
0.0
 11
142.40487
 21
206.004588
 31
0.0
  0
LINE
  5
72
330
4D
100
AcDbEntity
  8
LC-001-100-D00-0
 62
     7
370
    50
100
AcDbLine
 10
142.40487
 20
206.004588
 30
0.0
 11
142.40487
 21
206.004588
 31
0.0
  0
LINE
  5
73
330
4D
100
AcDbEntity
  8
LC-001-100-D00-0
 62
     7
370
    50
100
AcDbLine
 10
142.40487
 20
206.004588
 30
0.0
 11
142.40487
 21
202.864241
 31
0.0
  0
LINE
  5
74
330
4D
100
AcDbEntity
  8
LC-001-100-D00-0
 62
     7
370
    50
100
AcDbLine
 10
142.40487
 20
202.864241
 30
0.0
 11
142.40487
 21
202.864241
 31
0.0
  0
LINE
  5
75
330
4D
100
AcDbEntity
  8
LC-001-100-D00-0
 62
     7
370
    50
100
AcDbLine
 10
142.40487
 20
202.864241
 30
0.0
 11
142.40487
 21
200.833276
 31
0.0
  0
LINE
  5
76
330
4D
100
AcDbEntity
  8
LC-001-100-D00-0
 62
     7
370
    50
100
AcDbLine
 10
142.40487
 20
200.833276
 30
0.0
 11
142.40487
 21
200.833276
 31
0.0
  0
LINE
  5
77
330
4D
100
AcDbEntity
  8
LC-001-100-D00-0
 62
     7
370
    50
100
AcDbLine
 10
142.40487
 20
200.833276
 30
0.0
 11
142.40487
 21
199.81775
 31
0.0
  0
ENDBLK
  5
4F
330
4D
100
AcDbEntity
  8
0
100
AcDbBlockEnd
  0
BLOCK
  5
7A
330
79
100
AcDbEntity
  8
0
100
AcDbBlockBegin
  2
POLY2
 70
     0
 71
     0
 10
0.0
 20
0.0
 30
0.0
  3
POLY2
  1

  4
POLY2
  0
LINE
  5
7C
330
79
100
AcDbEntity
  8
LC-001-100-D00-0
 62
     7
370
    50
100
AcDbLine
 10
142.40487
 20
199.81775
 30
0.0
 11
142.40487
 21
199.81775
 31
0.0
  0
LINE
  5
7D
330
79
100
AcDbEntity
  8
LC-001-100-D00-0
 62
     7
370
    50
100
AcDbLine
 10
142.40487
 20
199.81775
 30
0.0
 11
142.40487
 21
198.810889
 31
0.0
  0
LINE
  5
7E
330
79
100
AcDbEntity
  8
LC-001-100-D00-0
 62
     7
370
    50
100
AcDbLine
 10
142.40487
 20
198.810889
 30
0.0
 11
142.40487
 21
198.810889
 31
0.0
  0
LINE
  5
7F
330
79
100
AcDbEntity
  8
LC-001-100-D00-0
 62
     7
370
    50
100
AcDbLine
 10
142.40487
 20
198.810889
 30
0.0
 11
142.40487
 21
196.797428
 31
0.0
  0
LINE
  5
80
330
79
100
AcDbEntity
  8
LC-001-100-D00-0
 62
     7
370
    50
100
AcDbLine
 10
142.40487
 20
196.797428
 30
0.0
 11
142.40487
 21
196.797428
 31
0.0
  0
LINE
  5
81
330
79
100
AcDbEntity
  8
LC-001-100-D00-0
 62
     7
370
    50
100
AcDbLine
 10
142.40487
 20
196.797428
 30
0.0
 11
142.40487
 21
193.801951
 31
0.0
  0
LINE
  5
82
330
79
100
AcDbEntity
  8
LC-001-100-D00-0
 62
     7
370
    50
100
AcDbLine
 10
142.40487
 20
193.801951
 30
0.0
 11
142.40487
 21
193.801951
 31
0.0
  0
LINE
  5
83
330
79
100
AcDbEntity
  8
LC-001-100-D00-0
 62
     7
370
    50
100
AcDbLine
 10
142.40487
 20
193.801951
 30
0.0
 11
142.40487
 21
190.845899
 31
0.0
  0
LINE
  5
84
330
79
100
AcDbEntity
  8
LC-001-100-D00-0
 62
     7
370
    50
100
AcDbLine
 10
142.40487
 20
190.845899
 30
0.0
 11
142.40487
 21
190.845899
 31
0.0
  0
LINE
  5
85
330
79
100
AcDbEntity
  8
LC-001-100-D00-0
 62
     7
370
    50
100
AcDbLine
 10
142.40487
 20
190.845899
 30
0.0
 11
142.40487
 21
187.930478
 31
0.0
  0
LINE
  5
86
330
79
100
AcDbEntity
  8
LC-001-100-D00-0
 62
     7
370
    50
100
AcDbLine
 10
142.40487
 20
187.930478
 30
0.0
 11
142.40487
 21
187.930478
 31
0.0
  0
LINE
  5
87
330
79
100
AcDbEntity
  8
LC-001-100-D00-0
 62
     7
370
    50
100
AcDbLine
 10
142.40487
 20
187.930478
 30
0.0
 11
142.40487
 21
185.144225
 31
0.0
  0
LINE
  5
88
330
79
100
AcDbEntity
  8
LC-001-100-D00-0
 62
     7
370
    50
100
AcDbLine
 10
142.40487
 20
185.144225
 30
0.0
 11
142.40487
 21
185.144225
 31
0.0
  0
LINE
  5
89
330
79
100
AcDbEntity
  8
LC-001-100-D00-0
 62
     7
370
    50
100
AcDbLine
 10
142.40487
 20
185.144225
 30
0.0
 11
142.40487
 21
182.508657
 31
0.0
  0
LINE
  5
8A
330
79
100
AcDbEntity
  8
LC-001-100-D00-0
 62
     7
370
    50
100
AcDbLine
 10
142.40487
 20
182.508657
 30
0.0
 11
142.40487
 21
182.508657
 31
0.0
  0
LINE
  5
8B
330
79
100
AcDbEntity
  8
LC-001-100-D00-0
 62
     7
370
    50
100
AcDbLine
 10
142.40487
 20
182.508657
 30
0.0
 11
142.40487
 21
180.090521
 31
0.0
  0
LINE
  5
8C
330
79
100
AcDbEntity
  8
LC-001-100-D00-0
 62
     7
370
    50
100
AcDbLine
 10
142.40487
 20
180.090521
 30
0.0
 11
142.40487
 21
180.090521
 31
0.0
  0
LINE
  5
8D
330
79
100
AcDbEntity
  8
LC-001-100-D00-0
 62
     7
370
    50
100
AcDbLine
 10
142.40487
 20
180.090521
 30
0.0
 11
142.40487
 21
177.92543
 31
0.0
  0
LINE
  5
8E
330
79
100
AcDbEntity
  8
LC-001-100-D00-0
 62
     7
370
    50
100
AcDbLine
 10
142.40487
 20
177.92543
 30
0.0
 11
142.40487
 21
177.92543
 31
0.0
  0
LINE
  5
8F
330
79
100
AcDbEntity
  8
LC-001-100-D00-0
 62
     7
370
    50
100
AcDbLine
 10
142.40487
 20
177.92543
 30
0.0
 11
142.40487
 21
176.049122
 31
0.0
  0
LINE
  5
90
330
79
100
AcDbEntity
  8
LC-001-100-D00-0
 62
     7
370
    50
100
AcDbLine
 10
142.40487
 20
176.049122
 30
0.0
 11
142.40487
 21
176.049122
 31
0.0
  0
LINE
  5
91
330
79
100
AcDbEntity
  8
LC-001-100-D00-0
 62
     7
370
    50
100
AcDbLine
 10
142.40487
 20
176.049122
 30
0.0
 11
142.40487
 21
174.496839
 31
0.0
  0
LINE
  5
92
330
79
100
AcDbEntity
  8
LC-001-100-D00-0
 62
     7
370
    50
100
AcDbLine
 10
142.40487
 20
174.496839
 30
0.0
 11
142.40487
 21
174.496839
 31
0.0
  0
LINE
  5
93
330
79
100
AcDbEntity
  8
LC-001-100-D00-0
 62
     7
370
    50
100
AcDbLine
 10
142.40487
 20
174.496839
 30
0.0
 11
142.40487
 21
173.273073
 31
0.0
  0
LINE
  5
94
330
79
100
AcDbEntity
  8
LC-001-100-D00-0
 62
     7
370
    50
100
AcDbLine
 10
142.40487
 20
173.273073
 30
0.0
 11
142.40487
 21
173.273073
 31
0.0
  0
LINE
  5
95
330
79
100
AcDbEntity
  8
LC-001-100-D00-0
 62
     7
370
    50
100
AcDbLine
 10
142.40487
 20
173.273073
 30
0.0
 11
142.40487
 21
172.471237
 31
0.0
  0
LINE
  5
96
330
79
100
AcDbEntity
  8
LC-001-100-D00-0
 62
     7
370
    50
100
AcDbLine
 10
142.40487
 20
172.471237
 30
0.0
 11
142.40487
 21
172.471237
 31
0.0
  0
LINE
  5
97
330
79
100
AcDbEntity
  8
LC-001-100-D00-0
 62
     7
370
    50
100
AcDbLine
 10
142.40487
 20
172.471237
 30
0.0
 11
142.40487
 21
171.988919
 31
0.0
  0
LINE
  5
98
330
79
100
AcDbEntity
  8
LC-001-100-D00-0
 62
     7
370
    50
100
AcDbLine
 10
142.40487
 20
171.988919
 30
0.0
 11
142.40487
 21
171.988919
 31
0.0
  0
LINE
  5
99
330
79
100
AcDbEntity
  8
LC-001-100-D00-0
 62
     7
370
    50
100
AcDbLine
 10
142.40487
 20
171.988919
 30
0.0
 11
142.40487
 21
171.725355
 31
0.0
  0
LINE
  5
9A
330
79
100
AcDbEntity
  8
LC-001-100-D00-0
 62
     7
370
    50
100
AcDbLine
 10
142.40487
 20
171.725355
 30
0.0
 11
142.40487
 21
171.725355
 31
0.0
  0
LINE
  5
9B
330
79
100
AcDbEntity
  8
LC-001-100-D00-0
 62
     7
370
    50
100
AcDbLine
 10
142.40487
 20
171.725355
 30
0.0
 11
142.40487
 21
171.693028
 31
0.0
  0
LINE
  5
9C
330
79
100
AcDbEntity
  8
LC-001-100-D00-0
 62
     7
370
    50
100
AcDbLine
 10
142.40487
 20
171.693028
 30
0.0
 11
142.40487
 21
171.693028
 31
0.0
  0
LINE
  5
9D
330
79
100
AcDbEntity
  8
LC-001-100-D00-0
 62
     7
370
    50
100
AcDbLine
 10
142.40487
 20
171.693028
 30
0.0
 11
142.40487
 21
171.676977
 31
0.0
  0
ENDBLK
  5
7B
330
79
100
AcDbEntity
  8
0
100
AcDbBlockEnd
  0
BLOCK
  5
A3
330
A2
100
AcDbEntity
  8
0
100
AcDbBlockBegin
  2
POLY3
 70
     0
 71
     0
 10
0.0
 20
0.0
 30
0.0
  3
POLY3
  1

  4
POLY3
  0
LINE
  5
A5
330
A2
100
AcDbEntity
  8
LC-001-100-D00-0
 62
     7
370
    50
100
AcDbLine
 10
142.90487
 20
169.673013
 30
0.0
 11
142.90487
 21
169.673013
 31
0.0
  0
LINE
  5
A6
330
A2
100
AcDbEntity
  8
LC-001-100-D00-0
 62
     7
370
    50
100
AcDbLine
 10
142.90487
 20
169.673013
 30
0.0
 11
142.848658
 21
169.678541
 31
0.0
  0
LINE
  5
A7
330
A2
100
AcDbEntity
  8
LC-001-100-D00-0
 62
     7
370
    50
100
AcDbLine
 10
142.848658
 20
169.678541
 30
0.0
 11
142.848658
 21
169.678541
 31
0.0
  0
LINE
  5
A8
330
A2
100
AcDbEntity
  8
LC-001-100-D00-0
 62
     7
370
    50
100
AcDbLine
 10
142.848658
 20
169.678541
 30
0.0
 11
142.736234
 21
169.689595
 31
0.0
  0
LINE
  5
A9
330
A2
100
AcDbEntity
  8
LC-001-100-D00-0
 62
     7
370
    50
100
AcDbLine
 10
142.736234
 20
169.689595
 30
0.0
 11
142.736234
 21
169.689595
 31
0.0
  0
LINE
  5
AA
330
A2
100
AcDbEntity
  8
LC-001-100-D00-0
 62
     7
370
    50
100
AcDbLine
 10
142.736234
 20
169.689595
 30
0.0
 11
142.586397
 21
169.7758
 31
0.0
  0
LINE
  5
AB
330
A2
100
AcDbEntity
  8
LC-001-100-D00-0
 62
     7
370
    50
100
AcDbLine
 10
142.586397
 20
169.7758
 30
0.0
 11
142.586397
 21
169.7758
 31
0.0
  0
LINE
  5
AC
330
A2
100
AcDbEntity
  8
LC-001-100-D00-0
 62
     7
370
    50
100
AcDbLine
 10
142.586397
 20
169.7758
 30
0.0
 11
142.473319
 21
169.902673
 31
0.0
  0
LINE
  5
AD
330
A2
100
AcDbEntity
  8
LC-001-100-D00-0
 62
     7
370
    50
100
AcDbLine
 10
142.473319
 20
169.902673
 30
0.0
 11
142.473319
 21
169.902673
 31
0.0
  0
LINE
  5
AE
330
A2
100
AcDbEntity
  8
LC-001-100-D00-0
 62
     7
370
    50
100
AcDbLine
 10
142.473319
 20
169.902673
 30
0.0
 11
142.413406
 21
170.043261
 31
0.0
  0
LINE
  5
AF
330
A2
100
AcDbEntity
  8
LC-001-100-D00-0
 62
     7
370
    50
100
AcDbLine
 10
142.413406
 20
170.043261
 30
0.0
 11
142.413406
 21
170.043261
 31
0.0
  0
LINE
  5
B0
330
A2
100
AcDbEntity
  8
LC-001-100-D00-0
 62
     7
370
    50
100
AcDbLine
 10
142.413406
 20
170.043261
 30
0.0
 11
142.407295
 21
170.136155
 31
0.0
  0
LINE
  5
B1
330
A2
100
AcDbEntity
  8
LC-001-100-D00-0
 62
     7
370
    50
100
AcDbLine
 10
142.407295
 20
170.136155
 30
0.0
 11
142.407295
 21
170.136155
 31
0.0
  0
LINE
  5
B2
330
A2
100
AcDbEntity
  8
LC-001-100-D00-0
 62
     7
370
    50
100
AcDbLine
 10
142.407295
 20
170.136155
 30
0.0
 11
142.40487
 21
170.173014
 31
0.0
  0
ENDBLK
  5
A4
330
A2
100
AcDbEntity
  8
0
100
AcDbBlockEnd
  0
BLOCK
  5
BB
330
BA
100
AcDbEntity
  8
0
100
AcDbBlockBegin
  2
POLY4
 70
     0
 71
     0
 10
0.0
 20
0.0
 30
0.0
  3
POLY4
  1

  4
POLY4
  0
LINE
  5
BD
330
BA
100
AcDbEntity
  8
LC-001-100-D00-0
 62
     7
370
    50
100
AcDbLine
 10
142.40487
 20
240.381012
 30
0.0
 11
142.40487
 21
240.381012
 31
0.0
  0
LINE
  5
BE
330
BA
100
AcDbEntity
  8
LC-001-100-D00-0
 62
     7
370
    50
100
AcDbLine
 10
142.40487
 20
240.381012
 30
0.0
 11
142.410397
 21
240.437225
 31
0.0
  0
LINE
  5
BF
330
BA
100
AcDbEntity
  8
LC-001-100-D00-0
 62
     7
370
    50
100
AcDbLine
 10
142.410397
 20
240.437225
 30
0.0
 11
142.410397
 21
240.437225
 31
0.0
  0
LINE
  5
C0
330
BA
100
AcDbEntity
  8
LC-001-100-D00-0
 62
     7
370
    50
100
AcDbLine
 10
142.410397
 20
240.437225
 30
0.0
 11
142.421452
 21
240.549649
 31
0.0
  0
LINE
  5
C1
330
BA
100
AcDbEntity
  8
LC-001-100-D00-0
 62
     7
370
    50
100
AcDbLine
 10
142.421452
 20
240.549649
 30
0.0
 11
142.421452
 21
240.549649
 31
0.0
  0
LINE
  5
C2
330
BA
100
AcDbEntity
  8
LC-001-100-D00-0
 62
     7
370
    50
100
AcDbLine
 10
142.421452
 20
240.549649
 30
0.0
 11
142.507656
 21
240.699486
 31
0.0
  0
LINE
  5
C3
330
BA
100
AcDbEntity
  8
LC-001-100-D00-0
 62
     7
370
    50
100
AcDbLine
 10
142.507656
 20
240.699486
 30
0.0
 11
142.507656
 21
240.699486
 31
0.0
  0
LINE
  5
C4
330
BA
100
AcDbEntity
  8
LC-001-100-D00-0
 62
     7
370
    50
100
AcDbLine
 10
142.507656
 20
240.699486
 30
0.0
 11
142.63453
 21
240.812562
 31
0.0
  0
LINE
  5
C5
330
BA
100
AcDbEntity
  8
LC-001-100-D00-0
 62
     7
370
    50
100
AcDbLine
 10
142.63453
 20
240.812562
 30
0.0
 11
142.63453
 21
240.812562
 31
0.0
  0
LINE
  5
C6
330
BA
100
AcDbEntity
  8
LC-001-100-D00-0
 62
     7
370
    50
100
AcDbLine
 10
142.63453
 20
240.812562
 30
0.0
 11
142.775116
 21
240.872477
 31
0.0
  0
LINE
  5
C7
330
BA
100
AcDbEntity
  8
LC-001-100-D00-0
 62
     7
370
    50
100
AcDbLine
 10
142.775116
 20
240.872477
 30
0.0
 11
142.775116
 21
240.872477
 31
0.0
  0
LINE
  5
C8
330
BA
100
AcDbEntity
  8
LC-001-100-D00-0
 62
     7
370
    50
100
AcDbLine
 10
142.775116
 20
240.872477
 30
0.0
 11
142.86801
 21
240.878589
 31
0.0
  0
LINE
  5
C9
330
BA
100
AcDbEntity
  8
LC-001-100-D00-0
 62
     7
370
    50
100
AcDbLine
 10
142.86801
 20
240.878589
 30
0.0
 11
142.86801
 21
240.878589
 31
0.0
  0
LINE
  5
CA
330
BA
100
AcDbEntity
  8
LC-001-100-D00-0
 62
     7
370
    50
100
AcDbLine
 10
142.86801
 20
240.878589
 30
0.0
 11
142.90487
 21
240.881013
 31
0.0
  0
ENDBLK
  5
BC
330
BA
100
AcDbEntity
  8
0
100
AcDbBlockEnd
  0
BLOCK
  5
D3
330
D2
100
AcDbEntity
  8
0
100
AcDbBlockBegin
  2
POLY5
 70
     0
 71
     0
 10
0.0
 20
0.0
 30
0.0
  3
POLY5
  1

  4
POLY5
  0
LINE
  5
D5
330
D2
100
AcDbEntity
  8
LC-001-100-D00-0
 62
     7
370
    50
100
AcDbLine
 10
142.40487
 20
164.991307
 30
0.0
 11
142.40487
 21
164.991307
 31
0.0
  0
LINE
  5
D6
330
D2
100
AcDbEntity
  8
LC-001-100-D00-0
 62
     7
370
    50
100
AcDbLine
 10
142.40487
 20
164.991307
 30
0.0
 11
142.410395
 21
164.979262
 31
0.0
  0
LINE
  5
D7
330
D2
100
AcDbEntity
  8
LC-001-100-D00-0
 62
     7
370
    50
100
AcDbLine
 10
142.410395
 20
164.979262
 30
0.0
 11
142.410395
 21
164.979262
 31
0.0
  0
LINE
  5
D8
330
D2
100
AcDbEntity
  8
LC-001-100-D00-0
 62
     7
370
    50
100
AcDbLine
 10
142.410395
 20
164.979262
 30
0.0
 11
142.421444
 21
164.955173
 31
0.0
  0
LINE
  5
D9
330
D2
100
AcDbEntity
  8
LC-001-100-D00-0
 62
     7
370
    50
100
AcDbLine
 10
142.421444
 20
164.955173
 30
0.0
 11
142.421444
 21
164.955173
 31
0.0
  0
LINE
  5
DA
330
D2
100
AcDbEntity
  8
LC-001-100-D00-0
 62
     7
370
    50
100
AcDbLine
 10
142.421444
 20
164.955173
 30
0.0
 11
142.507561
 21
164.9253
 31
0.0
  0
LINE
  5
DB
330
D2
100
AcDbEntity
  8
LC-001-100-D00-0
 62
     7
370
    50
100
AcDbLine
 10
142.507561
 20
164.9253
 30
0.0
 11
142.507561
 21
164.9253
 31
0.0
  0
LINE
  5
DC
330
D2
100
AcDbEntity
  8
LC-001-100-D00-0
 62
     7
370
    50
100
AcDbLine
 10
142.507561
 20
164.9253
 30
0.0
 11
142.633871
 21
164.90975
 31
0.0
  0
LINE
  5
DD
330
D2
100
AcDbEntity
  8
LC-001-100-D00-0
 62
     7
370
    50
100
AcDbLine
 10
142.633871
 20
164.90975
 30
0.0
 11
142.633871
 21
164.90975
 31
0.0
  0
LINE
  5
DE
330
D2
100
AcDbEntity
  8
LC-001-100-D00-0
 62
     7
370
    50
100
AcDbLine
 10
142.633871
 20
164.90975
 30
0.0
 11
142.760636
 21
164.913419
 31
0.0
  0
LINE
  5
DF
330
D2
100
AcDbEntity
  8
LC-001-100-D00-0
 62
     7
370
    50
100
AcDbLine
 10
142.760636
 20
164.913419
 30
0.0
 11
142.760636
 21
164.913419
 31
0.0
  0
LINE
  5
E0
330
D2
100
AcDbEntity
  8
LC-001-100-D00-0
 62
     7
370
    50
100
AcDbLine
 10
142.760636
 20
164.913419
 30
0.0
 11
142.838146
 21
164.924713
 31
0.0
  0
LINE
  5
E1
330
D2
100
AcDbEntity
  8
LC-001-100-D00-0
 62
     7
370
    50
100
AcDbLine
 10
142.838146
 20
164.924713
 30
0.0
 11
142.838146
 21
164.924713
 31
0.0
  0
LINE
  5
E2
330
D2
100
AcDbEntity
  8
LC-001-100-D00-0
 62
     7
370
    50
100
AcDbLine
 10
142.838146
 20
164.924713
 30
0.0
 11
142.861292
 21
164.928085
 31
0.0
  0
ENDBLK
  5
D4
330
D2
100
AcDbEntity
  8
0
100
AcDbBlockEnd
  0
BLOCK
  5
E5
330
E4
100
AcDbEntity
  8
0
100
AcDbBlockBegin
  2
POLY6
 70
     0
 71
     0
 10
0.0
 20
0.0
 30
0.0
  3
POLY6
  1

  4
POLY6
  0
LINE
  5
E7
330
E4
100
AcDbEntity
  8
LC-001-100-D00-0
 62
     7
370
    50
100
AcDbLine
 10
142.861292
 20
164.928085
 30
0.0
 11
142.861292
 21
164.928085
 31
0.0
  0
LINE
  5
E8
330
E4
100
AcDbEntity
  8
LC-001-100-D00-0
 62
     7
370
    50
100
AcDbLine
 10
142.861292
 20
164.928085
 30
0.0
 11
143.133796
 21
165.000045
 31
0.0
  0
LINE
  5
E9
330
E4
100
AcDbEntity
  8
LC-001-100-D00-0
 62
     7
370
    50
100
AcDbLine
 10
143.133796
 20
165.000045
 30
0.0
 11
143.133796
 21
165.000045
 31
0.0
  0
LINE
  5
EA
330
E4
100
AcDbEntity
  8
LC-001-100-D00-0
 62
     7
370
    50
100
AcDbLine
 10
143.133796
 20
165.000045
 30
0.0
 11
143.678813
 21
165.143966
 31
0.0
  0
LINE
  5
EB
330
E4
100
AcDbEntity
  8
LC-001-100-D00-0
 62
     7
370
    50
100
AcDbLine
 10
143.678813
 20
165.143966
 30
0.0
 11
143.678813
 21
165.143966
 31
0.0
  0
LINE
  5
EC
330
E4
100
AcDbEntity
  8
LC-001-100-D00-0
 62
     7
370
    50
100
AcDbLine
 10
143.678813
 20
165.143966
 30
0.0
 11
144.332678
 21
165.681362
 31
0.0
  0
LINE
  5
ED
330
E4
100
AcDbEntity
  8
LC-001-100-D00-0
 62
     7
370
    50
100
AcDbLine
 10
144.332678
 20
165.681362
 30
0.0
 11
144.332678
 21
165.681362
 31
0.0
  0
LINE
  5
EE
330
E4
100
AcDbEntity
  8
LC-001-100-D00-0
 62
     7
370
    50
100
AcDbLine
 10
144.332678
 20
165.681362
 30
0.0
 11
144.80755
 21
166.408563
 31
0.0
  0
LINE
  5
EF
330
E4
100
AcDbEntity
  8
LC-001-100-D00-0
 62
     7
370
    50
100
AcDbLine
 10
144.80755
 20
166.408563
 30
0.0
 11
144.80755
 21
166.408563
 31
0.0
  0
LINE
  5
F0
330
E4
100
AcDbEntity
  8
LC-001-100-D00-0
 62
     7
370
    50
100
AcDbLine
 10
144.80755
 20
166.408563
 30
0.0
 11
144.871474
 21
166.985403
 31
0.0
  0
LINE
  5
F1
330
E4
100
AcDbEntity
  8
LC-001-100-D00-0
 62
     7
370
    50
100
AcDbLine
 10
144.871474
 20
166.985403
 30
0.0
 11
144.871474
 21
166.985403
 31
0.0
  0
LINE
  5
F2
330
E4
100
AcDbEntity
  8
LC-001-100-D00-0
 62
     7
370
    50
100
AcDbLine
 10
144.871474
 20
166.985403
 30
0.0
 11
144.90487
 21
167.286764
 31
0.0
  0
ENDBLK
  5
E6
330
E4
100
AcDbEntity
  8
0
100
AcDbBlockEnd
  0
BLOCK
  5
F5
330
F4
100
AcDbEntity
  8
0
100
AcDbBlockBegin
  2
POLY7
 70
     0
 71
     0
 10
0.0
 20
0.0
 30
0.0
  3
POLY7
  1

  4
POLY7
  0
LINE
  5
F7
330
F4
100
AcDbEntity
  8
LC-001-100-D00-0
 62
     7
370
    50
100
AcDbLine
 10
142.624625
 20
240.79145
 30
0.0
 11
142.624625
 21
240.79145
 31
0.0
  0
LINE
  5
F8
330
F4
100
AcDbEntity
  8
LC-001-100-D00-0
 62
     7
370
    50
100
AcDbLine
 10
142.624625
 20
240.79145
 30
0.0
 11
142.602864
 21
240.786568
 31
0.0
  0
LINE
  5
F9
330
F4
100
AcDbEntity
  8
LC-001-100-D00-0
 62
     7
370
    50
100
AcDbLine
 10
142.602864
 20
240.786568
 30
0.0
 11
142.602864
 21
240.786568
 31
0.0
  0
LINE
  5
FA
330
F4
100
AcDbEntity
  8
LC-001-100-D00-0
 62
     7
370
    50
100
AcDbLine
 10
142.602864
 20
240.786568
 30
0.0
 11
142.533432
 21
240.770991
 31
0.0
  0
LINE
  5
FB
330
F4
100
AcDbEntity
  8
LC-001-100-D00-0
 62
     7
370
    50
100
AcDbLine
 10
142.533432
 20
240.770991
 30
0.0
 11
142.533432
 21
240.770991
 31
0.0
  0
LINE
  5
FC
330
F4
100
AcDbEntity
  8
LC-001-100-D00-0
 62
     7
370
    50
100
AcDbLine
 10
142.533432
 20
240.770991
 30
0.0
 11
142.454217
 21
240.712182
 31
0.0
  0
LINE
  5
FD
330
F4
100
AcDbEntity
  8
LC-001-100-D00-0
 62
     7
370
    50
100
AcDbLine
 10
142.454217
 20
240.712182
 30
0.0
 11
142.454217
 21
240.712182
 31
0.0
  0
LINE
  5
FE
330
F4
100
AcDbEntity
  8
LC-001-100-D00-0
 62
     7
370
    50
100
AcDbLine
 10
142.454217
 20
240.712182
 30
0.0
 11
142.409262
 21
240.646092
 31
0.0
  0
LINE
  5
FF
330
F4
100
AcDbEntity
  8
LC-001-100-D00-0
 62
     7
370
    50
100
AcDbLine
 10
142.409262
 20
240.646092
 30
0.0
 11
142.409262
 21
240.646092
 31
0.0
  0
LINE
  5
100
330
F4
100
AcDbEntity
  8
LC-001-100-D00-0
 62
     7
370
    50
100
AcDbLine
 10
142.409262
 20
240.646092
 30
0.0
 11
142.405881
 21
240.604913
 31
0.0
  0
LINE
  5
101
330
F4
100
AcDbEntity
  8
LC-001-100-D00-0
 62
     7
370
    50
100
AcDbLine
 10
142.405881
 20
240.604913
 30
0.0
 11
142.405881
 21
240.604913
 31
0.0
  0
LINE
  5
102
330
F4
100
AcDbEntity
  8
LC-001-100-D00-0
 62
     7
370
    50
100
AcDbLine
 10
142.405881
 20
240.604913
 30
0.0
 11
142.40487
 21
240.592594
 31
0.0
  0
ENDBLK
  5
F6
330
F4
100
AcDbEntity
  8
0
100
AcDbBlockEnd
  0
BLOCK
  5
106
330
105
100
AcDbEntity
  8
0
100
AcDbBlockBegin
  2
POLY8
 70
     0
 71
     0
 10
0.0
 20
0.0
 30
0.0
  3
POLY8
  1

  4
POLY8
  0
LINE
  5
108
330
105
100
AcDbEntity
  8
LC-001-100-D00-0
 62
     7
370
    50
100
AcDbLine
 10
147.03615
 20
164.843588
 30
0.0
 11
147.03615
 21
164.843588
 31
0.0
  0
LINE
  5
109
330
105
100
AcDbEntity
  8
LC-001-100-D00-0
 62
     7
370
    50
100
AcDbLine
 10
147.03615
 20
164.843588
 30
0.0
 11
147.037067
 21
164.844626
 31
0.0
  0
LINE
  5
10A
330
105
100
AcDbEntity
  8
LC-001-100-D00-0
 62
     7
370
    50
100
AcDbLine
 10
147.037067
 20
164.844626
 30
0.0
 11
147.037067
 21
164.844626
 31
0.0
  0
LINE
  5
10B
330
105
100
AcDbEntity
  8
LC-001-100-D00-0
 62
     7
370
    50
100
AcDbLine
 10
147.037067
 20
164.844626
 30
0.0
 11
147.428092
 21
165.287108
 31
0.0
  0
LINE
  5
10C
330
105
100
AcDbEntity
  8
LC-001-100-D00-0
 62
     7
370
    50
100
AcDbLine
 10
147.428092
 20
165.287108
 30
0.0
 11
147.428092
 21
165.287108
 31
0.0
  0
LINE
  5
10D
330
105
100
AcDbEntity
  8
LC-001-100-D00-0
 62
     7
370
    50
100
AcDbLine
 10
147.428092
 20
165.287108
 30
0.0
 11
147.704596
 21
166.254367
 31
0.0
  0
LINE
  5
10E
330
105
100
AcDbEntity
  8
LC-001-100-D00-0
 62
     7
370
    50
100
AcDbLine
 10
147.704596
 20
166.254367
 30
0.0
 11
147.704596
 21
166.254367
 31
0.0
  0
LINE
  5
10F
330
105
100
AcDbEntity
  8
LC-001-100-D00-0
 62
     7
370
    50
100
AcDbLine
 10
147.704596
 20
166.254367
 30
0.0
 11
147.777312
 21
167.182451
 31
0.0
  0
LINE
  5
110
330
105
100
AcDbEntity
  8
LC-001-100-D00-0
 62
     7
370
    50
100
AcDbLine
 10
147.777312
 20
167.182451
 30
0.0
 11
147.777312
 21
167.182451
 31
0.0
  0
LINE
  5
111
330
105
100
AcDbEntity
  8
LC-001-100-D00-0
 62
     7
370
    50
100
AcDbLine
 10
147.777312
 20
167.182451
 30
0.0
 11
147.80487
 21
167.534171
 31
0.0
  0
ENDBLK
  5
107
330
105
100
AcDbEntity
  8
0
100
AcDbBlockEnd
  0
BLOCK
  5
119
330
118
100
AcDbEntity
  8
0
100
AcDbBlockBegin
  2
POLY9
 70
     0
 71
     0
 10
0.0
 20
0.0
 30
0.0
  3
POLY9
  1

  4
POLY9
  0
LINE
  5
11B
330
118
100
AcDbEntity
  8
LC-001-100-D00-0
 62
     7
370
    50
100
AcDbLine
 10
147.40487
 20
240.573386
 30
0.0
 11
147.40487
 21
240.573386
 31
0.0
  0
LINE
  5
11C
330
118
100
AcDbEntity
  8
LC-001-100-D00-0
 62
     7
370
    50
100
AcDbLine
 10
147.40487
 20
240.573386
 30
0.0
 11
147.515397
 21
240.368001
 31
0.0
  0
LINE
  5
11D
330
118
100
AcDbEntity
  8
LC-001-100-D00-0
 62
     7
370
    50
100
AcDbLine
 10
147.515397
 20
240.368001
 30
0.0
 11
147.515397
 21
240.368001
 31
0.0
  0
LINE
  5
11E
330
118
100
AcDbEntity
  8
LC-001-100-D00-0
 62
     7
370
    50
100
AcDbLine
 10
147.515397
 20
240.368001
 30
0.0
 11
147.779046
 21
239.878078
 31
0.0
  0
LINE
  5
11F
330
118
100
AcDbEntity
  8
LC-001-100-D00-0
 62
     7
370
    50
100
AcDbLine
 10
147.779046
 20
239.878078
 30
0.0
 11
147.779046
 21
239.878078
 31
0.0
  0
LINE
  5
120
330
118
100
AcDbEntity
  8
LC-001-100-D00-0
 62
     7
370
    50
100
AcDbLine
 10
147.779046
 20
239.878078
 30
0.0
 11
147.795382
 21
239.337243
 31
0.0
  0
LINE
  5
121
330
118
100
AcDbEntity
  8
LC-001-100-D00-0
 62
     7
370
    50
100
AcDbLine
 10
147.795382
 20
239.337243
 30
0.0
 11
147.795382
 21
239.337243
 31
0.0
  0
LINE
  5
122
330
118
100
AcDbEntity
  8
LC-001-100-D00-0
 62
     7
370
    50
100
AcDbLine
 10
147.795382
 20
239.337243
 30
0.0
 11
147.80487
 21
239.023137
 31
0.0
  0
ENDBLK
  5
11A
330
118
100
AcDbEntity
  8
0
100
AcDbBlockEnd
  0
BLOCK
  5
129
330
128
100
AcDbEntity
  8
0
100
AcDbBlockBegin
  2
POLY10
 70
     0
 71
     0
 10
0.0
 20
0.0
 30
0.0
  3
POLY10
  1

  4
POLY10
  0
LINE
  5
12B
330
128
100
AcDbEntity
  8
LC-001-100-D00-0
 62
     7
370
    50
100
AcDbLine
 10
147.40487
 20
182.045056
 30
0.0
 11
147.40487
 21
182.045056
 31
0.0
  0
LINE
  5
12C
330
128
100
AcDbEntity
  8
LC-001-100-D00-0
 62
     7
370
    50
100
AcDbLine
 10
147.40487
 20
182.045056
 30
0.0
 11
147.515397
 21
182.172653
 31
0.0
  0
LINE
  5
12D
330
128
100
AcDbEntity
  8
LC-001-100-D00-0
 62
     7
370
    50
100
AcDbLine
 10
147.515397
 20
182.172653
 30
0.0
 11
147.515397
 21
182.172653
 31
0.0
  0
LINE
  5
12E
330
128
100
AcDbEntity
  8
LC-001-100-D00-0
 62
     7
370
    50
100
AcDbLine
 10
147.515397
 20
182.172653
 30
0.0
 11
147.779045
 21
182.477018
 31
0.0
  0
LINE
  5
12F
330
128
100
AcDbEntity
  8
LC-001-100-D00-0
 62
     7
370
    50
100
AcDbLine
 10
147.779045
 20
182.477018
 30
0.0
 11
147.779045
 21
182.477018
 31
0.0
  0
LINE
  5
130
330
128
100
AcDbEntity
  8
LC-001-100-D00-0
 62
     7
370
    50
100
AcDbLine
 10
147.779045
 20
182.477018
 30
0.0
 11
147.795382
 21
182.813014
 31
0.0
  0
LINE
  5
131
330
128
100
AcDbEntity
  8
LC-001-100-D00-0
 62
     7
370
    50
100
AcDbLine
 10
147.795382
 20
182.813014
 30
0.0
 11
147.795382
 21
182.813014
 31
0.0
  0
LINE
  5
132
330
128
100
AcDbEntity
  8
LC-001-100-D00-0
 62
     7
370
    50
100
AcDbLine
 10
147.795382
 20
182.813014
 30
0.0
 11
147.80487
 21
183.008154
 31
0.0
  0
ENDBLK
  5
12A
330
128
100
AcDbEntity
  8
0
100
AcDbBlockEnd
  0
BLOCK
  5
13B
330
13A
100
AcDbEntity
  8
0
100
AcDbBlockBegin
  2
POLY11
 70
     0
 71
     0
 10
0.0
 20
0.0
 30
0.0
  3
POLY11
  1

  4
POLY11
  0
LINE
  5
13D
330
13A
100
AcDbEntity
  8
LC-001-100-D00-0
 62
     7
370
    50
100
AcDbLine
 10
147.40487
 20
216.811017
 30
0.0
 11
147.40487
 21
216.811017
 31
0.0
  0
LINE
  5
13E
330
13A
100
AcDbEntity
  8
LC-001-100-D00-0
 62
     7
370
    50
100
AcDbLine
 10
147.40487
 20
216.811017
 30
0.0
 11
147.515397
 21
216.756011
 31
0.0
  0
LINE
  5
13F
330
13A
100
AcDbEntity
  8
LC-001-100-D00-0
 62
     7
370
    50
100
AcDbLine
 10
147.515397
 20
216.756011
 30
0.0
 11
147.515397
 21
216.756011
 31
0.0
  0
LINE
  5
140
330
13A
100
AcDbEntity
  8
LC-001-100-D00-0
 62
     7
370
    50
100
AcDbLine
 10
147.515397
 20
216.756011
 30
0.0
 11
147.779044
 21
216.624803
 31
0.0
  0
LINE
  5
141
330
13A
100
AcDbEntity
  8
LC-001-100-D00-0
 62
     7
370
    50
100
AcDbLine
 10
147.779044
 20
216.624803
 30
0.0
 11
147.779044
 21
216.624803
 31
0.0
  0
LINE
  5
142
330
13A
100
AcDbEntity
  8
LC-001-100-D00-0
 62
     7
370
    50
100
AcDbLine
 10
147.779044
 20
216.624803
 30
0.0
 11
147.795382
 21
216.47996
 31
0.0
  0
LINE
  5
143
330
13A
100
AcDbEntity
  8
LC-001-100-D00-0
 62
     7
370
    50
100
AcDbLine
 10
147.795382
 20
216.47996
 30
0.0
 11
147.795382
 21
216.47996
 31
0.0
  0
LINE
  5
144
330
13A
100
AcDbEntity
  8
LC-001-100-D00-0
 62
     7
370
    50
100
AcDbLine
 10
147.795382
 20
216.47996
 30
0.0
 11
147.80487
 21
216.395838
 31
0.0
  0
ENDBLK
  5
13C
330
13A
100
AcDbEntity
  8
0
100
AcDbBlockEnd
  0
BLOCK
  5
1DB
330
1DA
100
AcDbEntity
  8
0
100
AcDbBlockBegin
  2
POLY12
 70
     0
 71
     0
 10
0.0
 20
0.0
 30
0.0
  3
POLY12
  1

  4
POLY12
  0
LINE
  5
1DD
330
1DA
100
AcDbEntity
  8
LC-001-100-D00-0
 62
     7
370
    50
100
AcDbLine
 10
106.80487
 20
234.577013
 30
0.0
 11
106.80487
 21
234.577013
 31
0.0
  0
LINE
  5
1DE
330
1DA
100
AcDbEntity
  8
LC-001-100-D00-0
 62
     7
370
    50
100
AcDbLine
 10
106.80487
 20
234.577013
 30
0.0
 11
106.80487
 21
234.444959
 31
0.0
  0
LINE
  5
1DF
330
1DA
100
AcDbEntity
  8
LC-001-100-D00-0
 62
     7
370
    50
100
AcDbLine
 10
106.80487
 20
234.444959
 30
0.0
 11
106.80487
 21
234.444959
 31
0.0
  0
LINE
  5
1E0
330
1DA
100
AcDbEntity
  8
LC-001-100-D00-0
 62
     7
370
    50
100
AcDbLine
 10
106.80487
 20
234.444959
 30
0.0
 11
106.79192
 21
234.31511
 31
0.0
  0
LINE
  5
1E1
330
1DA
100
AcDbEntity
  8
LC-001-100-D00-0
 62
     7
370
    50
100
AcDbLine
 10
106.79192
 20
234.31511
 30
0.0
 11
106.79192
 21
234.31511
 31
0.0
  0
LINE
  5
1E2
330
1DA
100
AcDbEntity
  8
LC-001-100-D00-0
 62
     7
370
    50
100
AcDbLine
 10
106.79192
 20
234.31511
 30
0.0
 11
106.741178
 21
234.059643
 31
0.0
  0
LINE
  5
1E3
330
1DA
100
AcDbEntity
  8
LC-001-100-D00-0
 62
     7
370
    50
100
AcDbLine
 10
106.741178
 20
234.059643
 30
0.0
 11
106.741178
 21
234.059643
 31
0.0
  0
LINE
  5
1E4
330
1DA
100
AcDbEntity
  8
LC-001-100-D00-0
 62
     7
370
    50
100
AcDbLine
 10
106.741178
 20
234.059643
 30
0.0
 11
106.702772
 21
233.932704
 31
0.0
  0
LINE
  5
1E5
330
1DA
100
AcDbEntity
  8
LC-001-100-D00-0
 62
     7
370
    50
100
AcDbLine
 10
106.702772
 20
233.932704
 30
0.0
 11
106.702772
 21
233.932704
 31
0.0
  0
LINE
  5
1E6
330
1DA
100
AcDbEntity
  8
LC-001-100-D00-0
 62
     7
370
    50
100
AcDbLine
 10
106.702772
 20
233.932704
 30
0.0
 11
106.602494
 21
233.690609
 31
0.0
  0
LINE
  5
1E7
330
1DA
100
AcDbEntity
  8
LC-001-100-D00-0
 62
     7
370
    50
100
AcDbLine
 10
106.602494
 20
233.690609
 30
0.0
 11
106.602494
 21
233.690609
 31
0.0
  0
LINE
  5
1E8
330
1DA
100
AcDbEntity
  8
LC-001-100-D00-0
 62
     7
370
    50
100
AcDbLine
 10
106.602494
 20
233.690609
 30
0.0
 11
106.54113
 21
233.575782
 31
0.0
  0
LINE
  5
1E9
330
1DA
100
AcDbEntity
  8
LC-001-100-D00-0
 62
     7
370
    50
100
AcDbLine
 10
106.54113
 20
233.575782
 30
0.0
 11
106.54113
 21
233.575782
 31
0.0
  0
LINE
  5
1EA
330
1DA
100
AcDbEntity
  8
LC-001-100-D00-0
 62
     7
370
    50
100
AcDbLine
 10
106.54113
 20
233.575782
 30
0.0
 11
106.396154
 21
233.358458
 31
0.0
  0
LINE
  5
1EB
330
1DA
100
AcDbEntity
  8
LC-001-100-D00-0
 62
     7
370
    50
100
AcDbLine
 10
106.396154
 20
233.358458
 30
0.0
 11
106.396154
 21
233.358458
 31
0.0
  0
LINE
  5
1EC
330
1DA
100
AcDbEntity
  8
LC-001-100-D00-0
 62
     7
370
    50
100
AcDbLine
 10
106.396154
 20
233.358458
 30
0.0
 11
106.311764
 21
233.255547
 31
0.0
  0
LINE
  5
1ED
330
1DA
100
AcDbEntity
  8
LC-001-100-D00-0
 62
     7
370
    50
100
AcDbLine
 10
106.311764
 20
233.255547
 30
0.0
 11
106.311764
 21
233.255547
 31
0.0
  0
LINE
  5
1EE
330
1DA
100
AcDbEntity
  8
LC-001-100-D00-0
 62
     7
370
    50
100
AcDbLine
 10
106.311764
 20
233.255547
 30
0.0
 11
106.035239
 21
232.978823
 31
0.0
  0
LINE
  5
1EF
330
1DA
100
AcDbEntity
  8
LC-001-100-D00-0
 62
     7
370
    50
100
AcDbLine
 10
106.035239
 20
232.978823
 30
0.0
 11
106.035239
 21
232.978823
 31
0.0
  0
LINE
  5
1F0
330
1DA
100
AcDbEntity
  8
LC-001-100-D00-0
 62
     7
370
    50
100
AcDbLine
 10
106.035239
 20
232.978823
 30
0.0
 11
105.812328
 21
232.829782
 31
0.0
  0
LINE
  5
1F1
330
1DA
100
AcDbEntity
  8
LC-001-100-D00-0
 62
     7
370
    50
100
AcDbLine
 10
105.812328
 20
232.829782
 30
0.0
 11
105.812328
 21
232.829782
 31
0.0
  0
LINE
  5
1F2
330
1DA
100
AcDbEntity
  8
LC-001-100-D00-0
 62
     7
370
    50
100
AcDbLine
 10
105.812328
 20
232.829782
 30
0.0
 11
105.331419
 21
232.630084
 31
0.0
  0
LINE
  5
1F3
330
1DA
100
AcDbEntity
  8
LC-001-100-D00-0
 62
     7
370
    50
100
AcDbLine
 10
105.331419
 20
232.630084
 30
0.0
 11
105.331419
 21
232.630084
 31
0.0
  0
LINE
  5
1F4
330
1DA
100
AcDbEntity
  8
LC-001-100-D00-0
 62
     7
370
    50
100
AcDbLine
 10
105.331419
 20
232.630084
 30
0.0
 11
105.068979
 21
232.577013
 31
0.0
  0
LINE
  5
1F5
330
1DA
100
AcDbEntity
  8
LC-001-100-D00-0
 62
     7
370
    50
100
AcDbLine
 10
105.068979
 20
232.577013
 30
0.0
 11
105.068979
 21
232.577013
 31
0.0
  0
LINE
  5
1F6
330
1DA
100
AcDbEntity
  8
LC-001-100-D00-0
 62
     7
370
    50
100
AcDbLine
 10
105.068979
 20
232.577013
 30
0.0
 11
104.80487
 21
232.577013
 31
0.0
  0
ENDBLK
  5
1DC
330
1DA
100
AcDbEntity
  8
0
100
AcDbBlockEnd
  0
BLOCK
  5
27E
330
27D
100
AcDbEntity
  8
0
100
AcDbBlockBegin
  2
POLY13
 70
     0
 71
     0
 10
0.0
 20
0.0
 30
0.0
  3
POLY13
  1

  4
POLY13
  0
LINE
  5
280
330
27D
100
AcDbEntity
  8
LC-001-100-D00-0
 62
     7
370
    50
100
AcDbLine
 10
71.60487
 20
179.477013
 30
0.0
 11
71.60487
 21
179.477013
 31
0.0
  0
LINE
  5
281
330
27D
100
AcDbEntity
  8
LC-001-100-D00-0
 62
     7
370
    50
100
AcDbLine
 10
71.60487
 20
179.477013
 30
0.0
 11
71.60487
 21
179.478042
 31
0.0
  0
LINE
  5
282
330
27D
100
AcDbEntity
  8
LC-001-100-D00-0
 62
     7
370
    50
100
AcDbLine
 10
71.60487
 20
179.478042
 30
0.0
 11
71.60487
 21
179.478042
 31
0.0
  0
LINE
  5
283
330
27D
100
AcDbEntity
  8
LC-001-100-D00-0
 62
     7
370
    50
100
AcDbLine
 10
71.60487
 20
179.478042
 30
0.0
 11
71.60487
 21
179.480097
 31
0.0
  0
LINE
  5
284
330
27D
100
AcDbEntity
  8
LC-001-100-D00-0
 62
     7
370
    50
100
AcDbLine
 10
71.60487
 20
179.480097
 30
0.0
 11
71.60487
 21
179.480097
 31
0.0
  0
LINE
  5
285
330
27D
100
AcDbEntity
  8
LC-001-100-D00-0
 62
     7
370
    50
100
AcDbLine
 10
71.60487
 20
179.480097
 30
0.0
 11
71.60487
 21
179.49666
 31
0.0
  0
LINE
  5
286
330
27D
100
AcDbEntity
  8
LC-001-100-D00-0
 62
     7
370
    50
100
AcDbLine
 10
71.60487
 20
179.49666
 30
0.0
 11
71.60487
 21
179.49666
 31
0.0
  0
LINE
  5
287
330
27D
100
AcDbEntity
  8
LC-001-100-D00-0
 62
     7
370
    50
100
AcDbLine
 10
71.60487
 20
179.49666
 30
0.0
 11
71.60487
 21
179.523098
 31
0.0
  0
LINE
  5
288
330
27D
100
AcDbEntity
  8
LC-001-100-D00-0
 62
     7
370
    50
100
AcDbLine
 10
71.60487
 20
179.523098
 30
0.0
 11
71.60487
 21
179.523098
 31
0.0
  0
LINE
  5
289
330
27D
100
AcDbEntity
  8
LC-001-100-D00-0
 62
     7
370
    50
100
AcDbLine
 10
71.60487
 20
179.523098
 30
0.0
 11
71.60487
 21
179.560374
 31
0.0
  0
LINE
  5
28A
330
27D
100
AcDbEntity
  8
LC-001-100-D00-0
 62
     7
370
    50
100
AcDbLine
 10
71.60487
 20
179.560374
 30
0.0
 11
71.60487
 21
179.560374
 31
0.0
  0
LINE
  5
28B
330
27D
100
AcDbEntity
  8
LC-001-100-D00-0
 62
     7
370
    50
100
AcDbLine
 10
71.60487
 20
179.560374
 30
0.0
 11
71.60487
 21
179.60823
 31
0.0
  0
LINE
  5
28C
330
27D
100
AcDbEntity
  8
LC-001-100-D00-0
 62
     7
370
    50
100
AcDbLine
 10
71.60487
 20
179.60823
 30
0.0
 11
71.60487
 21
179.60823
 31
0.0
  0
LINE
  5
28D
330
27D
100
AcDbEntity
  8
LC-001-100-D00-0
 62
     7
370
    50
100
AcDbLine
 10
71.60487
 20
179.60823
 30
0.0
 11
71.60487
 21
179.666736
 31
0.0
  0
LINE
  5
28E
330
27D
100
AcDbEntity
  8
LC-001-100-D00-0
 62
     7
370
    50
100
AcDbLine
 10
71.60487
 20
179.666736
 30
0.0
 11
71.60487
 21
179.666736
 31
0.0
  0
LINE
  5
28F
330
27D
100
AcDbEntity
  8
LC-001-100-D00-0
 62
     7
370
    50
100
AcDbLine
 10
71.60487
 20
179.666736
 30
0.0
 11
71.60487
 21
179.735872
 31
0.0
  0
LINE
  5
290
330
27D
100
AcDbEntity
  8
LC-001-100-D00-0
 62
     7
370
    50
100
AcDbLine
 10
71.60487
 20
179.735872
 30
0.0
 11
71.60487
 21
179.735872
 31
0.0
  0
LINE
  5
291
330
27D
100
AcDbEntity
  8
LC-001-100-D00-0
 62
     7
370
    50
100
AcDbLine
 10
71.60487
 20
179.735872
 30
0.0
 11
71.60487
 21
179.815646
 31
0.0
  0
LINE
  5
292
330
27D
100
AcDbEntity
  8
LC-001-100-D00-0
 62
     7
370
    50
100
AcDbLine
 10
71.60487
 20
179.815646
 30
0.0
 11
71.60487
 21
179.815646
 31
0.0
  0
LINE
  5
293
330
27D
100
AcDbEntity
  8
LC-001-100-D00-0
 62
     7
370
    50
100
AcDbLine
 10
71.60487
 20
179.815646
 30
0.0
 11
71.60487
 21
180.019247
 31
0.0
  0
LINE
  5
294
330
27D
100
AcDbEntity
  8
LC-001-100-D00-0
 62
     7
370
    50
100
AcDbLine
 10
71.60487
 20
180.019247
 30
0.0
 11
71.60487
 21
180.019247
 31
0.0
  0
LINE
  5
295
330
27D
100
AcDbEntity
  8
LC-001-100-D00-0
 62
     7
370
    50
100
AcDbLine
 10
71.60487
 20
180.019247
 30
0.0
 11
71.60487
 21
180.442121
 31
0.0
  0
LINE
  5
296
330
27D
100
AcDbEntity
  8
LC-001-100-D00-0
 62
     7
370
    50
100
AcDbLine
 10
71.60487
 20
180.442121
 30
0.0
 11
71.60487
 21
180.442121
 31
0.0
  0
LINE
  5
297
330
27D
100
AcDbEntity
  8
LC-001-100-D00-0
 62
     7
370
    50
100
AcDbLine
 10
71.60487
 20
180.442121
 30
0.0
 11
71.60487
 21
181.262268
 31
0.0
  0
LINE
  5
298
330
27D
100
AcDbEntity
  8
LC-001-100-D00-0
 62
     7
370
    50
100
AcDbLine
 10
71.60487
 20
181.262268
 30
0.0
 11
71.60487
 21
181.262268
 31
0.0
  0
LINE
  5
299
330
27D
100
AcDbEntity
  8
LC-001-100-D00-0
 62
     7
370
    50
100
AcDbLine
 10
71.60487
 20
181.262268
 30
0.0
 11
71.60487
 21
182.329043
 31
0.0
  0
LINE
  5
29A
330
27D
100
AcDbEntity
  8
LC-001-100-D00-0
 62
     7
370
    50
100
AcDbLine
 10
71.60487
 20
182.329043
 30
0.0
 11
71.60487
 21
182.329043
 31
0.0
  0
LINE
  5
29B
330
27D
100
AcDbEntity
  8
LC-001-100-D00-0
 62
     7
370
    50
100
AcDbLine
 10
71.60487
 20
182.329043
 30
0.0
 11
71.60487
 21
183.655277
 31
0.0
  0
LINE
  5
29C
330
27D
100
AcDbEntity
  8
LC-001-100-D00-0
 62
     7
370
    50
100
AcDbLine
 10
71.60487
 20
183.655277
 30
0.0
 11
71.60487
 21
183.655277
 31
0.0
  0
LINE
  5
29D
330
27D
100
AcDbEntity
  8
LC-001-100-D00-0
 62
     7
370
    50
100
AcDbLine
 10
71.60487
 20
183.655277
 30
0.0
 11
71.60487
 21
185.215392
 31
0.0
  0
LINE
  5
29E
330
27D
100
AcDbEntity
  8
LC-001-100-D00-0
 62
     7
370
    50
100
AcDbLine
 10
71.60487
 20
185.215392
 30
0.0
 11
71.60487
 21
185.215392
 31
0.0
  0
LINE
  5
29F
330
27D
100
AcDbEntity
  8
LC-001-100-D00-0
 62
     7
370
    50
100
AcDbLine
 10
71.60487
 20
185.215392
 30
0.0
 11
71.60487
 21
187.001386
 31
0.0
  0
LINE
  5
2A0
330
27D
100
AcDbEntity
  8
LC-001-100-D00-0
 62
     7
370
    50
100
AcDbLine
 10
71.60487
 20
187.001386
 30
0.0
 11
71.60487
 21
187.001386
 31
0.0
  0
LINE
  5
2A1
330
27D
100
AcDbEntity
  8
LC-001-100-D00-0
 62
     7
370
    50
100
AcDbLine
 10
71.60487
 20
187.001386
 30
0.0
 11
71.60487
 21
188.98038
 31
0.0
  0
LINE
  5
2A2
330
27D
100
AcDbEntity
  8
LC-001-100-D00-0
 62
     7
370
    50
100
AcDbLine
 10
71.60487
 20
188.98038
 30
0.0
 11
71.60487
 21
188.98038
 31
0.0
  0
LINE
  5
2A3
330
27D
100
AcDbEntity
  8
LC-001-100-D00-0
 62
     7
370
    50
100
AcDbLine
 10
71.60487
 20
188.98038
 30
0.0
 11
71.60487
 21
191.119029
 31
0.0
  0
LINE
  5
2A4
330
27D
100
AcDbEntity
  8
LC-001-100-D00-0
 62
     7
370
    50
100
AcDbLine
 10
71.60487
 20
191.119029
 30
0.0
 11
71.60487
 21
191.119029
 31
0.0
  0
LINE
  5
2A5
330
27D
100
AcDbEntity
  8
LC-001-100-D00-0
 62
     7
370
    50
100
AcDbLine
 10
71.60487
 20
191.119029
 30
0.0
 11
71.60487
 21
193.388468
 31
0.0
  0
LINE
  5
2A6
330
27D
100
AcDbEntity
  8
LC-001-100-D00-0
 62
     7
370
    50
100
AcDbLine
 10
71.60487
 20
193.388468
 30
0.0
 11
71.60487
 21
193.388468
 31
0.0
  0
LINE
  5
2A7
330
27D
100
AcDbEntity
  8
LC-001-100-D00-0
 62
     7
370
    50
100
AcDbLine
 10
71.60487
 20
193.388468
 30
0.0
 11
71.60487
 21
195.732262
 31
0.0
  0
LINE
  5
2A8
330
27D
100
AcDbEntity
  8
LC-001-100-D00-0
 62
     7
370
    50
100
AcDbLine
 10
71.60487
 20
195.732262
 30
0.0
 11
71.60487
 21
195.732262
 31
0.0
  0
LINE
  5
2A9
330
27D
100
AcDbEntity
  8
LC-001-100-D00-0
 62
     7
370
    50
100
AcDbLine
 10
71.60487
 20
195.732262
 30
0.0
 11
71.60487
 21
198.13646
 31
0.0
  0
LINE
  5
2AA
330
27D
100
AcDbEntity
  8
LC-001-100-D00-0
 62
     7
370
    50
100
AcDbLine
 10
71.60487
 20
198.13646
 30
0.0
 11
71.60487
 21
198.13646
 31
0.0
  0
LINE
  5
2AB
330
27D
100
AcDbEntity
  8
LC-001-100-D00-0
 62
     7
370
    50
100
AcDbLine
 10
71.60487
 20
198.13646
 30
0.0
 11
71.60487
 21
201.293476
 31
0.0
  0
LINE
  5
2AC
330
27D
100
AcDbEntity
  8
LC-001-100-D00-0
 62
     7
370
    50
100
AcDbLine
 10
71.60487
 20
201.293476
 30
0.0
 11
71.60487
 21
201.293476
 31
0.0
  0
LINE
  5
2AD
330
27D
100
AcDbEntity
  8
LC-001-100-D00-0
 62
     7
370
    50
100
AcDbLine
 10
71.60487
 20
201.293476
 30
0.0
 11
71.60487
 21
205.277013
 31
0.0
  0
LINE
  5
2AE
330
27D
100
AcDbEntity
  8
LC-001-100-D00-0
 62
     7
370
    50
100
AcDbLine
 10
71.60487
 20
205.277013
 30
0.0
 11
71.60487
 21
205.277013
 31
0.0
  0
LINE
  5
2AF
330
27D
100
AcDbEntity
  8
LC-001-100-D00-0
 62
     7
370
    50
100
AcDbLine
 10
71.60487
 20
205.277013
 30
0.0
 11
71.60487
 21
209.260376
 31
0.0
  0
LINE
  5
2B0
330
27D
100
AcDbEntity
  8
LC-001-100-D00-0
 62
     7
370
    50
100
AcDbLine
 10
71.60487
 20
209.260376
 30
0.0
 11
71.60487
 21
209.260376
 31
0.0
  0
LINE
  5
2B1
330
27D
100
AcDbEntity
  8
LC-001-100-D00-0
 62
     7
370
    50
100
AcDbLine
 10
71.60487
 20
209.260376
 30
0.0
 11
71.60487
 21
212.417398
 31
0.0
  0
LINE
  5
2B2
330
27D
100
AcDbEntity
  8
LC-001-100-D00-0
 62
     7
370
    50
100
AcDbLine
 10
71.60487
 20
212.417398
 30
0.0
 11
71.60487
 21
212.417398
 31
0.0
  0
LINE
  5
2B3
330
27D
100
AcDbEntity
  8
LC-001-100-D00-0
 62
     7
370
    50
100
AcDbLine
 10
71.60487
 20
212.417398
 30
0.0
 11
71.60487
 21
214.82144
 31
0.0
  0
LINE
  5
2B4
330
27D
100
AcDbEntity
  8
LC-001-100-D00-0
 62
     7
370
    50
100
AcDbLine
 10
71.60487
 20
214.82144
 30
0.0
 11
71.60487
 21
214.82144
 31
0.0
  0
LINE
  5
2B5
330
27D
100
AcDbEntity
  8
LC-001-100-D00-0
 62
     7
370
    50
100
AcDbLine
 10
71.60487
 20
214.82144
 30
0.0
 11
71.60487
 21
217.165401
 31
0.0
  0
LINE
  5
2B6
330
27D
100
AcDbEntity
  8
LC-001-100-D00-0
 62
     7
370
    50
100
AcDbLine
 10
71.60487
 20
217.165401
 30
0.0
 11
71.60487
 21
217.165401
 31
0.0
  0
LINE
  5
2B7
330
27D
100
AcDbEntity
  8
LC-001-100-D00-0
 62
     7
370
    50
100
AcDbLine
 10
71.60487
 20
217.165401
 30
0.0
 11
71.60487
 21
219.434702
 31
0.0
  0
LINE
  5
2B8
330
27D
100
AcDbEntity
  8
LC-001-100-D00-0
 62
     7
370
    50
100
AcDbLine
 10
71.60487
 20
219.434702
 30
0.0
 11
71.60487
 21
219.434702
 31
0.0
  0
LINE
  5
2B9
330
27D
100
AcDbEntity
  8
LC-001-100-D00-0
 62
     7
370
    50
100
AcDbLine
 10
71.60487
 20
219.434702
 30
0.0
 11
71.60487
 21
221.573506
 31
0.0
  0
LINE
  5
2BA
330
27D
100
AcDbEntity
  8
LC-001-100-D00-0
 62
     7
370
    50
100
AcDbLine
 10
71.60487
 20
221.573506
 30
0.0
 11
71.60487
 21
221.573506
 31
0.0
  0
LINE
  5
2BB
330
27D
100
AcDbEntity
  8
LC-001-100-D00-0
 62
     7
370
    50
100
AcDbLine
 10
71.60487
 20
221.573506
 30
0.0
 11
71.60487
 21
223.552387
 31
0.0
  0
LINE
  5
2BC
330
27D
100
AcDbEntity
  8
LC-001-100-D00-0
 62
     7
370
    50
100
AcDbLine
 10
71.60487
 20
223.552387
 30
0.0
 11
71.60487
 21
223.552387
 31
0.0
  0
LINE
  5
2BD
330
27D
100
AcDbEntity
  8
LC-001-100-D00-0
 62
     7
370
    50
100
AcDbLine
 10
71.60487
 20
223.552387
 30
0.0
 11
71.60487
 21
225.338521
 31
0.0
  0
LINE
  5
2BE
330
27D
100
AcDbEntity
  8
LC-001-100-D00-0
 62
     7
370
    50
100
AcDbLine
 10
71.60487
 20
225.338521
 30
0.0
 11
71.60487
 21
225.338521
 31
0.0
  0
LINE
  5
2BF
330
27D
100
AcDbEntity
  8
LC-001-100-D00-0
 62
     7
370
    50
100
AcDbLine
 10
71.60487
 20
225.338521
 30
0.0
 11
71.60487
 21
226.898555
 31
0.0
  0
LINE
  5
2C0
330
27D
100
AcDbEntity
  8
LC-001-100-D00-0
 62
     7
370
    50
100
AcDbLine
 10
71.60487
 20
226.898555
 30
0.0
 11
71.60487
 21
226.898555
 31
0.0
  0
LINE
  5
2C1
330
27D
100
AcDbEntity
  8
LC-001-100-D00-0
 62
     7
370
    50
100
AcDbLine
 10
71.60487
 20
226.898555
 30
0.0
 11
71.60487
 21
228.224904
 31
0.0
  0
LINE
  5
2C2
330
27D
100
AcDbEntity
  8
LC-001-100-D00-0
 62
     7
370
    50
100
AcDbLine
 10
71.60487
 20
228.224904
 30
0.0
 11
71.60487
 21
228.224904
 31
0.0
  0
LINE
  5
2C3
330
27D
100
AcDbEntity
  8
LC-001-100-D00-0
 62
     7
370
    50
100
AcDbLine
 10
71.60487
 20
228.224904
 30
0.0
 11
71.60487
 21
229.291627
 31
0.0
  0
LINE
  5
2C4
330
27D
100
AcDbEntity
  8
LC-001-100-D00-0
 62
     7
370
    50
100
AcDbLine
 10
71.60487
 20
229.291627
 30
0.0
 11
71.60487
 21
229.291627
 31
0.0
  0
LINE
  5
2C5
330
27D
100
AcDbEntity
  8
LC-001-100-D00-0
 62
     7
370
    50
100
AcDbLine
 10
71.60487
 20
229.291627
 30
0.0
 11
71.60487
 21
230.111864
 31
0.0
  0
LINE
  5
2C6
330
27D
100
AcDbEntity
  8
LC-001-100-D00-0
 62
     7
370
    50
100
AcDbLine
 10
71.60487
 20
230.111864
 30
0.0
 11
71.60487
 21
230.111864
 31
0.0
  0
LINE
  5
2C7
330
27D
100
AcDbEntity
  8
LC-001-100-D00-0
 62
     7
370
    50
100
AcDbLine
 10
71.60487
 20
230.111864
 30
0.0
 11
71.60487
 21
230.56683
 31
0.0
  0
LINE
  5
2C8
330
27D
100
AcDbEntity
  8
LC-001-100-D00-0
 62
     7
370
    50
100
AcDbLine
 10
71.60487
 20
230.56683
 30
0.0
 11
71.60487
 21
230.56683
 31
0.0
  0
LINE
  5
2C9
330
27D
100
AcDbEntity
  8
LC-001-100-D00-0
 62
     7
370
    50
100
AcDbLine
 10
71.60487
 20
230.56683
 30
0.0
 11
71.60487
 21
230.806904
 31
0.0
  0
LINE
  5
2CA
330
27D
100
AcDbEntity
  8
LC-001-100-D00-0
 62
     7
370
    50
100
AcDbLine
 10
71.60487
 20
230.806904
 30
0.0
 11
71.60487
 21
230.806904
 31
0.0
  0
LINE
  5
2CB
330
27D
100
AcDbEntity
  8
LC-001-100-D00-0
 62
     7
370
    50
100
AcDbLine
 10
71.60487
 20
230.806904
 30
0.0
 11
71.60487
 21
230.927735
 31
0.0
  0
LINE
  5
2CC
330
27D
100
AcDbEntity
  8
LC-001-100-D00-0
 62
     7
370
    50
100
AcDbLine
 10
71.60487
 20
230.927735
 30
0.0
 11
71.60487
 21
230.927735
 31
0.0
  0
LINE
  5
2CD
330
27D
100
AcDbEntity
  8
LC-001-100-D00-0
 62
     7
370
    50
100
AcDbLine
 10
71.60487
 20
230.927735
 30
0.0
 11
71.60487
 21
231.013415
 31
0.0
  0
LINE
  5
2CE
330
27D
100
AcDbEntity
  8
LC-001-100-D00-0
 62
     7
370
    50
100
AcDbLine
 10
71.60487
 20
231.013415
 30
0.0
 11
71.60487
 21
231.013415
 31
0.0
  0
LINE
  5
2CF
330
27D
100
AcDbEntity
  8
LC-001-100-D00-0
 62
     7
370
    50
100
AcDbLine
 10
71.60487
 20
231.013415
 30
0.0
 11
71.60487
 21
231.067066
 31
0.0
  0
LINE
  5
2D0
330
27D
100
AcDbEntity
  8
LC-001-100-D00-0
 62
     7
370
    50
100
AcDbLine
 10
71.60487
 20
231.067066
 30
0.0
 11
71.60487
 21
231.067066
 31
0.0
  0
LINE
  5
2D1
330
27D
100
AcDbEntity
  8
LC-001-100-D00-0
 62
     7
370
    50
100
AcDbLine
 10
71.60487
 20
231.067066
 30
0.0
 11
71.60487
 21
231.073695
 31
0.0
  0
LINE
  5
2D2
330
27D
100
AcDbEntity
  8
LC-001-100-D00-0
 62
     7
370
    50
100
AcDbLine
 10
71.60487
 20
231.073695
 30
0.0
 11
71.60487
 21
231.073695
 31
0.0
  0
LINE
  5
2D3
330
27D
100
AcDbEntity
  8
LC-001-100-D00-0
 62
     7
370
    50
100
AcDbLine
 10
71.60487
 20
231.073695
 30
0.0
 11
71.60487
 21
231.077013
 31
0.0
  0
ENDBLK
  5
27F
330
27D
100
AcDbEntity
  8
0
100
AcDbBlockEnd
  0
BLOCK
  5
2DC
330
2DB
100
AcDbEntity
  8
0
100
AcDbBlockBegin
  2
KLON1
 70
     0
 71
     0
 10
0.0
 20
0.0
 30
0.0
  3
KLON1
  1

  4
KLON1
  0
LINE
  5
2DE
330
2DB
100
AcDbEntity
  8
LC-001-100-D00-0
 62
     7
370
    25
100
AcDbLine
 10
137.374448
 20
165.277013
 30
0.0
 11
134.802228
 21
167.849233
 31
0.0
  0
LINE
  5
2DF
330
2DB
100
AcDbEntity
  8
LC-001-100-D00-0
 62
     7
370
    25
100
AcDbLine
 10
134.286574
 20
163.87476
 30
0.0
 11
130.38432
 21
167.777013
 31
0.0
  0
LINE
  5
2E0
330
2DB
100
AcDbEntity
  8
LC-001-100-D00-0
 62
     7
370
    25
100
AcDbLine
 10
128.394192
 20
165.277013
 30
0.0
 11
125.894192
 21
167.777013
 31
0.0
  0
LINE
  5
2E1
330
2DB
100
AcDbEntity
  8
LC-001-100-D00-0
 62
     7
370
    25
100
AcDbLine
 10
123.904064
 20
165.277013
 30
0.0
 11
121.404064
 21
167.777013
 31
0.0
  0
LINE
  5
2E2
330
2DB
100
AcDbEntity
  8
LC-001-100-D00-0
 62
     7
370
    25
100
AcDbLine
 10
109.50487
 20
179.676207
 30
0.0
 11
108.254467
 21
180.92661
 31
0.0
  0
LINE
  5
2E3
330
2DB
100
AcDbEntity
  8
LC-001-100-D00-0
 62
     7
370
    25
100
AcDbLine
 10
119.413936
 20
165.277013
 30
0.0
 11
116.816682
 21
167.874267
 31
0.0
  0
LINE
  5
2E4
330
2DB
100
AcDbEntity
  8
LC-001-100-D00-0
 62
     7
370
    25
100
AcDbLine
 10
109.50487
 20
175.186079
 30
0.0
 11
104.713936
 21
179.977013
 31
0.0
  0
LINE
  5
2E5
330
2DB
100
AcDbEntity
  8
LC-001-100-D00-0
 62
     7
370
    25
100
AcDbLine
 10
114.923808
 20
165.277013
 30
0.0
 11
112.423808
 21
167.777013
 31
0.0
  0
LINE
  5
2E6
330
2DB
100
AcDbEntity
  8
LC-001-100-D00-0
 62
     7
370
    25
100
AcDbLine
 10
109.50487
 20
170.695951
 30
0.0
 11
100.223808
 21
179.977013
 31
0.0
  0
LINE
  5
2E7
330
2DB
100
AcDbEntity
  8
LC-001-100-D00-0
 62
     7
370
    25
100
AcDbLine
 10
110.43368
 20
165.277013
 30
0.0
 11
106.80487
 21
168.905823
 31
0.0
  0
LINE
  5
2E8
330
2DB
100
AcDbEntity
  8
LC-001-100-D00-0
 62
     7
370
    25
100
AcDbLine
 10
104.270407
 20
171.440287
 30
0.0
 11
95.73368
 21
179.977013
 31
0.0
  0
LINE
  5
2E9
330
2DB
100
AcDbEntity
  8
LC-001-100-D00-0
 62
     7
370
    25
100
AcDbLine
 10
93.64665
 20
177.573916
 30
0.0
 11
91.243552
 21
179.977013
 31
0.0
  0
LINE
  5
2EA
330
2DB
100
AcDbEntity
  8
LC-001-100-D00-0
 62
     7
370
    25
100
AcDbLine
 10
88.753424
 20
177.977013
 30
0.0
 11
86.753424
 21
179.977013
 31
0.0
  0
LINE
  5
2EB
330
2DB
100
AcDbEntity
  8
LC-001-100-D00-0
 62
     7
370
    25
100
AcDbLine
 10
84.263296
 20
177.977013
 30
0.0
 11
82.263296
 21
179.977013
 31
0.0
  0
LINE
  5
2EC
330
2DB
100
AcDbEntity
  8
LC-001-100-D00-0
 62
     7
370
    25
100
AcDbLine
 10
79.773167
 20
177.977013
 30
0.0
 11
77.773167
 21
179.977013
 31
0.0
  0
LINE
  5
2ED
330
2DB
100
AcDbEntity
  8
LC-001-100-D00-0
 62
     7
370
    25
100
AcDbLine
 10
75.283039
 20
177.977013
 30
0.0
 11
73.283039
 21
179.977013
 31
0.0
  0
LINE
  5
2EE
330
2DB
100
AcDbEntity
  8
LC-001-100-D00-0
 62
     7
370
    25
100
AcDbLine
 10
74.103939
 20
174.665986
 30
0.0
 11
71.60487
 21
177.165055
 31
0.0
  0
LINE
  5
2EF
330
2DB
100
AcDbEntity
  8
LC-001-100-D00-0
 62
     7
370
    25
100
AcDbLine
 10
71.552783
 20
172.727013
 30
0.0
 11
69.102783
 21
175.177013
 31
0.0
  0
LINE
  5
2F0
330
2DB
100
AcDbEntity
  8
LC-001-100-D00-0
 62
     7
370
    25
100
AcDbLine
 10
67.062655
 20
172.727013
 30
0.0
 11
64.612655
 21
175.177013
 31
0.0
  0
LINE
  5
2F1
330
2DB
100
AcDbEntity
  8
LC-001-100-D00-0
 62
     7
370
    25
100
AcDbLine
 10
60.555572
 20
174.743969
 30
0.0
 11
55.50487
 21
179.794671
 31
0.0
  0
ENDBLK
  5
2DD
330
2DB
100
AcDbEntity
  8
0
100
AcDbBlockEnd
  0
BLOCK
  5
2F4
330
2F3
100
AcDbEntity
  8
0
100
AcDbBlockBegin
  2
KLON2
 70
     0
 71
     0
 10
0.0
 20
0.0
 30
0.0
  3
KLON2
  1

  4
KLON2
  0
LINE
  5
2F6
330
2F3
100
AcDbEntity
  8
LC-001-100-D00-0
 62
     7
370
    25
100
AcDbLine
 10
136.206625
 20
242.777013
 30
0.0
 11
132.206625
 21
246.777013
 31
0.0
  0
LINE
  5
2F7
330
2F3
100
AcDbEntity
  8
LC-001-100-D00-0
 62
     7
370
    25
100
AcDbLine
 10
131.716497
 20
242.777013
 30
0.0
 11
129.216497
 21
245.277013
 31
0.0
  0
LINE
  5
2F8
330
2F3
100
AcDbEntity
  8
LC-001-100-D00-0
 62
     7
370
    25
100
AcDbLine
 10
127.226369
 20
242.777013
 30
0.0
 11
124.726369
 21
245.277013
 31
0.0
  0
LINE
  5
2F9
330
2F3
100
AcDbEntity
  8
LC-001-100-D00-0
 62
     7
370
    25
100
AcDbLine
 10
122.934654
 20
242.578601
 30
0.0
 11
122.793715
 21
242.719539
 31
0.0
  0
LINE
  5
2FA
330
2F3
100
AcDbEntity
  8
LC-001-100-D00-0
 62
     7
370
    25
100
AcDbLine
 10
122.736241
 20
242.777013
 30
0.0
 11
120.236241
 21
245.277013
 31
0.0
  0
LINE
  5
2FB
330
2F3
100
AcDbEntity
  8
LC-001-100-D00-0
 62
     7
370
    25
100
AcDbLine
 10
118.246113
 20
242.777013
 30
0.0
 11
115.746113
 21
245.277013
 31
0.0
  0
LINE
  5
2FC
330
2F3
100
AcDbEntity
  8
LC-001-100-D00-0
 62
     7
370
    25
100
AcDbLine
 10
113.755985
 20
242.777013
 30
0.0
 11
111.255985
 21
245.277013
 31
0.0
  0
LINE
  5
2FD
330
2F3
100
AcDbEntity
  8
LC-001-100-D00-0
 62
     7
370
    25
100
AcDbLine
 10
109.688429
 20
242.354442
 30
0.0
 11
107.664133
 21
244.378737
 31
0.0
  0
LINE
  5
2FE
330
2F3
100
AcDbEntity
  8
LC-001-100-D00-0
 62
     7
370
    25
100
AcDbLine
 10
109.50487
 20
238.047872
 30
0.0
 11
106.80487
 21
240.747872
 31
0.0
  0
LINE
  5
2FF
330
2F3
100
AcDbEntity
  8
LC-001-100-D00-0
 62
     7
370
    25
100
AcDbLine
 10
109.50487
 20
233.557744
 30
0.0
 11
106.80487
 21
236.257744
 31
0.0
  0
LINE
  5
300
330
2F3
100
AcDbEntity
  8
LC-001-100-D00-0
 62
     7
370
    25
100
AcDbLine
 10
109.50487
 20
229.067616
 30
0.0
 11
105.741959
 21
232.830527
 31
0.0
  0
LINE
  5
301
330
2F3
100
AcDbEntity
  8
LC-001-100-D00-0
 62
     7
370
    25
100
AcDbLine
 10
105.556253
 20
233.016233
 30
0.0
 11
105.400171
 21
233.172315
 31
0.0
  0
LINE
  5
302
330
2F3
100
AcDbEntity
  8
LC-001-100-D00-0
 62
     7
370
    25
100
AcDbLine
 10
103.505345
 20
230.577013
 30
0.0
 11
101.505345
 21
232.577013
 31
0.0
  0
LINE
  5
303
330
2F3
100
AcDbEntity
  8
LC-001-100-D00-0
 62
     7
370
    25
100
AcDbLine
 10
99.015216
 20
230.577013
 30
0.0
 11
97.015216
 21
232.577013
 31
0.0
  0
LINE
  5
304
330
2F3
100
AcDbEntity
  8
LC-001-100-D00-0
 62
     7
370
    25
100
AcDbLine
 10
94.525088
 20
230.577013
 30
0.0
 11
92.525088
 21
232.577013
 31
0.0
  0
LINE
  5
305
330
2F3
100
AcDbEntity
  8
LC-001-100-D00-0
 62
     7
370
    25
100
AcDbLine
 10
90.03496
 20
230.577013
 30
0.0
 11
88.03496
 21
232.577013
 31
0.0
  0
LINE
  5
306
330
2F3
100
AcDbEntity
  8
LC-001-100-D00-0
 62
     7
370
    25
100
AcDbLine
 10
85.544832
 20
230.577013
 30
0.0
 11
83.544832
 21
232.577013
 31
0.0
  0
LINE
  5
307
330
2F3
100
AcDbEntity
  8
LC-001-100-D00-0
 62
     7
370
    25
100
AcDbLine
 10
81.054704
 20
230.577013
 30
0.0
 11
79.054704
 21
232.577013
 31
0.0
  0
LINE
  5
308
330
2F3
100
AcDbEntity
  8
LC-001-100-D00-0
 62
     7
370
    25
100
AcDbLine
 10
76.564576
 20
230.577013
 30
0.0
 11
69.314576
 21
237.827013
 31
0.0
  0
LINE
  5
309
330
2F3
100
AcDbEntity
  8
LC-001-100-D00-0
 62
     7
370
    25
100
AcDbLine
 10
72.073461
 20
230.578001
 30
0.0
 11
71.605858
 21
231.045604
 31
0.0
  0
LINE
  5
30A
330
2F3
100
AcDbEntity
  8
LC-001-100-D00-0
 62
     7
370
    25
100
AcDbLine
 10
67.274448
 20
235.377013
 30
0.0
 11
64.824448
 21
237.827013
 31
0.0
  0
LINE
  5
30B
330
2F3
100
AcDbEntity
  8
LC-001-100-D00-0
 62
     7
370
    25
100
AcDbLine
 10
63.044908
 20
235.116426
 30
0.0
 11
61.531975
 21
236.629358
 31
0.0
  0
LINE
  5
30C
330
2F3
100
AcDbEntity
  8
LC-001-100-D00-0
 62
     7
370
    25
100
AcDbLine
 10
60.605559
 20
233.065646
 30
0.0
 11
59.090494
 21
234.580712
 31
0.0
  0
LINE
  5
30D
330
2F3
100
AcDbEntity
  8
LC-001-100-D00-0
 62
     7
370
    25
100
AcDbLine
 10
58.166211
 20
231.014866
 30
0.0
 11
56.604064
 21
232.577013
 31
0.0
  0
ENDBLK
  5
2F5
330
2F3
100
AcDbEntity
  8
0
100
AcDbBlockEnd
  0
BLOCK
  5
310
330
30F
100
AcDbEntity
  8
0
100
AcDbBlockBegin
  2
KLON3
 70
     0
 71
     0
 10
0.0
 20
0.0
 30
0.0
  3
KLON3
  1

  4
KLON3
  0
LINE
  5
312
330
30F
100
AcDbEntity
  8
LC-001-100-D00-0
 62
     7
370
    25
100
AcDbLine
 10
142.404522
 20
243.314308
 30
0.0
 11
140.442165
 21
245.276666
 31
0.0
  0
LINE
  5
313
330
30F
100
AcDbEntity
  8
LC-001-100-D00-0
 62
     7
370
    25
100
AcDbLine
 10
142.40487
 20
242.191429
 30
0.0
 11
139.319285
 21
245.277013
 31
0.0
  0
LINE
  5
314
330
30F
100
AcDbEntity
  8
LC-001-100-D00-0
 62
     7
370
    25
100
AcDbLine
 10
142.40487
 20
241.068897
 30
0.0
 11
138.40487
 21
245.068897
 31
0.0
  0
LINE
  5
315
330
30F
100
AcDbEntity
  8
LC-001-100-D00-0
 62
     7
370
    25
100
AcDbLine
 10
142.40487
 20
239.946365
 30
0.0
 11
138.40487
 21
243.946365
 31
0.0
  0
LINE
  5
316
330
30F
100
AcDbEntity
  8
LC-001-100-D00-0
 62
     7
370
    25
100
AcDbLine
 10
142.084108
 20
239.144594
 30
0.0
 11
138.40487
 21
242.823833
 31
0.0
  0
LINE
  5
317
330
30F
100
AcDbEntity
  8
LC-001-100-D00-0
 62
     7
370
    25
100
AcDbLine
 10
141.706357
 20
238.399814
 30
0.0
 11
137.329157
 21
242.777013
 31
0.0
  0
LINE
  5
318
330
30F
100
AcDbEntity
  8
LC-001-100-D00-0
 62
     7
370
    25
100
AcDbLine
 10
141.328606
 20
237.655033
 30
0.0
 11
136.206625
 21
242.777013
 31
0.0
  0
LINE
  5
319
330
30F
100
AcDbEntity
  8
LC-001-100-D00-0
 62
     7
370
    25
100
AcDbLine
 10
140.950854
 20
236.910252
 30
0.0
 11
138.342787
 21
239.518319
 31
0.0
  0
LINE
  5
31A
330
30F
100
AcDbEntity
  8
LC-001-100-D00-0
 62
     7
370
    25
100
AcDbLine
 10
138.146176
 20
239.714931
 30
0.0
 11
135.084093
 21
242.777013
 31
0.0
  0
LINE
  5
31B
330
30F
100
AcDbEntity
  8
LC-001-100-D00-0
 62
     7
370
    25
100
AcDbLine
 10
140.573103
 20
236.165471
 30
0.0
 11
138.40487
 21
238.333704
 31
0.0
  0
LINE
  5
31C
330
30F
100
AcDbEntity
  8
LC-001-100-D00-0
 62
     7
370
    25
100
AcDbLine
 10
137.12502
 20
239.613554
 30
0.0
 11
133.961561
 21
242.777013
 31
0.0
  0
LINE
  5
31D
330
30F
100
AcDbEntity
  8
LC-001-100-D00-0
 62
     7
370
    25
100
AcDbLine
 10
140.195352
 20
235.420691
 30
0.0
 11
138.40487
 21
237.211172
 31
0.0
  0
LINE
  5
31E
330
30F
100
AcDbEntity
  8
LC-001-100-D00-0
 62
     7
370
    25
100
AcDbLine
 10
136.705736
 20
238.910306
 30
0.0
 11
132.839029
 21
242.777013
 31
0.0
  0
LINE
  5
31F
330
30F
100
AcDbEntity
  8
LC-001-100-D00-0
 62
     7
370
    25
100
AcDbLine
 10
139.817601
 20
234.67591
 30
0.0
 11
138.40487
 21
236.08864
 31
0.0
  0
LINE
  5
320
330
30F
100
AcDbEntity
  8
LC-001-100-D00-0
 62
     7
370
    25
100
AcDbLine
 10
136.294861
 20
238.19865
 30
0.0
 11
131.716497
 21
242.777013
 31
0.0
  0
LINE
  5
321
330
30F
100
AcDbEntity
  8
LC-001-100-D00-0
 62
     7
370
    25
100
AcDbLine
 10
139.439849
 20
233.931129
 30
0.0
 11
138.40487
 21
234.966108
 31
0.0
  0
LINE
  5
322
330
30F
100
AcDbEntity
  8
LC-001-100-D00-0
 62
     7
370
    25
100
AcDbLine
 10
135.883986
 20
237.486993
 30
0.0
 11
130.593965
 21
242.777013
 31
0.0
  0
LINE
  5
323
330
30F
100
AcDbEntity
  8
LC-001-100-D00-0
 62
     7
370
    25
100
AcDbLine
 10
139.062098
 20
233.186348
 30
0.0
 11
138.40487
 21
233.843576
 31
0.0
  0
LINE
  5
324
330
30F
100
AcDbEntity
  8
LC-001-100-D00-0
 62
     7
370
    25
100
AcDbLine
 10
135.47311
 20
236.775336
 30
0.0
 11
129.471433
 21
242.777013
 31
0.0
  0
LINE
  5
325
330
30F
100
AcDbEntity
  8
LC-001-100-D00-0
 62
     7
370
    25
100
AcDbLine
 10
138.598809
 20
232.527105
 30
0.0
 11
138.404962
 21
232.720953
 31
0.0
  0
LINE
  5
326
330
30F
100
AcDbEntity
  8
LC-001-100-D00-0
 62
     7
370
    25
100
AcDbLine
 10
135.062235
 20
236.063679
 30
0.0
 11
132.672851
 21
238.453063
 31
0.0
  0
LINE
  5
327
330
30F
100
AcDbEntity
  8
LC-001-100-D00-0
 62
     7
370
    25
100
AcDbLine
 10
132.38092
 20
238.744995
 30
0.0
 11
128.348901
 21
242.777013
 31
0.0
  0
LINE
  5
328
330
30F
100
AcDbEntity
  8
LC-001-100-D00-0
 62
     7
370
    25
100
AcDbLine
 10
134.65136
 20
235.352023
 30
0.0
 11
132.70487
 21
237.298512
 31
0.0
  0
LINE
  5
329
330
30F
100
AcDbEntity
  8
LC-001-100-D00-0
 62
     7
370
    25
100
AcDbLine
 10
131.236946
 20
238.766436
 30
0.0
 11
127.226369
 21
242.777013
 31
0.0
  0
LINE
  5
32A
330
30F
100
AcDbEntity
  8
LC-001-100-D00-0
 62
     7
370
    25
100
AcDbLine
 10
134.240485
 20
234.640366
 30
0.0
 11
132.70487
 21
236.17598
 31
0.0
  0
LINE
  5
32B
330
30F
100
AcDbEntity
  8
LC-001-100-D00-0
 62
     7
370
    25
100
AcDbLine
 10
130.729132
 20
238.151718
 30
0.0
 11
126.103837
 21
242.777013
 31
0.0
  0
LINE
  5
32C
330
30F
100
AcDbEntity
  8
LC-001-100-D00-0
 62
     7
370
    25
100
AcDbLine
 10
133.829609
 20
233.928709
 30
0.0
 11
132.70487
 21
235.053448
 31
0.0
  0
LINE
  5
32D
330
30F
100
AcDbEntity
  8
LC-001-100-D00-0
 62
     7
370
    25
100
AcDbLine
 10
130.372151
 20
237.386168
 30
0.0
 11
124.981305
 21
242.777013
 31
0.0
  0
LINE
  5
32E
330
30F
100
AcDbEntity
  8
LC-001-100-D00-0
 62
     7
370
    25
100
AcDbLine
 10
133.418734
 20
233.217052
 30
0.0
 11
132.70487
 21
233.930916
 31
0.0
  0
LINE
  5
32F
330
30F
100
AcDbEntity
  8
LC-001-100-D00-0
 62
     7
370
    25
100
AcDbLine
 10
130.015169
 20
236.620618
 30
0.0
 11
123.858773
 21
242.777013
 31
0.0
  0
LINE
  5
330
330
30F
100
AcDbEntity
  8
LC-001-100-D00-0
 62
     7
370
    25
100
AcDbLine
 10
132.973937
 20
232.539317
 30
0.0
 11
132.70487
 21
232.808384
 31
0.0
  0
LINE
  5
331
330
30F
100
AcDbEntity
  8
LC-001-100-D00-0
 62
     7
370
    25
100
AcDbLine
 10
129.658187
 20
235.855068
 30
0.0
 11
122.736241
 21
242.777013
 31
0.0
  0
LINE
  5
332
330
30F
100
AcDbEntity
  8
LC-001-100-D00-0
 62
     7
370
    25
100
AcDbLine
 10
129.301205
 20
235.089517
 30
0.0
 11
126.70487
 21
237.685852
 31
0.0
  0
LINE
  5
333
330
30F
100
AcDbEntity
  8
LC-001-100-D00-0
 62
     7
370
    25
100
AcDbLine
 10
125.613709
 20
238.777013
 30
0.0
 11
121.613709
 21
242.777013
 31
0.0
  0
LINE
  5
334
330
30F
100
AcDbEntity
  8
LC-001-100-D00-0
 62
     7
370
    25
100
AcDbLine
 10
128.944223
 20
234.323967
 30
0.0
 11
126.70487
 21
236.56332
 31
0.0
  0
LINE
  5
335
330
30F
100
AcDbEntity
  8
LC-001-100-D00-0
 62
     7
370
    25
100
AcDbLine
 10
124.852312
 20
238.415878
 30
0.0
 11
120.491177
 21
242.777013
 31
0.0
  0
LINE
  5
336
330
30F
100
AcDbEntity
  8
LC-001-100-D00-0
 62
     7
370
    25
100
AcDbLine
 10
128.587241
 20
233.558417
 30
0.0
 11
126.70487
 21
235.440788
 31
0.0
  0
LINE
  5
337
330
30F
100
AcDbEntity
  8
LC-001-100-D00-0
 62
     7
370
    25
100
AcDbLine
 10
124.49533
 20
237.650328
 30
0.0
 11
119.368645
 21
242.777013
 31
0.0
  0
LINE
  5
338
330
30F
100
AcDbEntity
  8
LC-001-100-D00-0
 62
     7
370
    25
100
AcDbLine
 10
128.230259
 20
232.792867
 30
0.0
 11
126.70487
 21
234.318256
 31
0.0
  0
LINE
  5
339
330
30F
100
AcDbEntity
  8
LC-001-100-D00-0
 62
     7
370
    25
100
AcDbLine
 10
124.138349
 20
236.884778
 30
0.0
 11
118.246113
 21
242.777013
 31
0.0
  0
LINE
  5
33A
330
30F
100
AcDbEntity
  8
LC-001-100-D00-0
 62
     7
370
    25
100
AcDbLine
 10
127.873277
 20
232.027317
 30
0.0
 11
126.70487
 21
233.195724
 31
0.0
  0
LINE
  5
33B
330
30F
100
AcDbEntity
  8
LC-001-100-D00-0
 62
     7
370
    25
100
AcDbLine
 10
123.781367
 20
236.119228
 30
0.0
 11
117.123581
 21
242.777013
 31
0.0
  0
LINE
  5
33C
330
30F
100
AcDbEntity
  8
LC-001-100-D00-0
 62
     7
370
    25
100
AcDbLine
 10
127.441507
 20
231.336556
 30
0.0
 11
126.70487
 21
232.073192
 31
0.0
  0
LINE
  5
33D
330
30F
100
AcDbEntity
  8
LC-001-100-D00-0
 62
     7
370
    25
100
AcDbLine
 10
123.424385
 20
235.353677
 30
0.0
 11
120.70487
 21
238.073192
 31
0.0
  0
LINE
  5
33E
330
30F
100
AcDbEntity
  8
LC-001-100-D00-0
 62
     7
370
    25
100
AcDbLine
 10
120.001049
 20
238.777013
 30
0.0
 11
116.001049
 21
242.777013
 31
0.0
  0
LINE
  5
33F
330
30F
100
AcDbEntity
  8
LC-001-100-D00-0
 62
     7
370
    25
100
AcDbLine
 10
123.067403
 20
234.588127
 30
0.0
 11
120.70487
 21
236.95066
 31
0.0
  0
LINE
  5
340
330
30F
100
AcDbEntity
  8
LC-001-100-D00-0
 62
     7
370
    25
100
AcDbLine
 10
119.005875
 20
238.649656
 30
0.0
 11
114.878517
 21
242.777013
 31
0.0
  0
LINE
  5
341
330
30F
100
AcDbEntity
  8
LC-001-100-D00-0
 62
     7
370
    25
100
AcDbLine
 10
122.710421
 20
233.822577
 30
0.0
 11
120.70487
 21
235.828128
 31
0.0
  0
LINE
  5
342
330
30F
100
AcDbEntity
  8
LC-001-100-D00-0
 62
     7
370
    25
100
AcDbLine
 10
118.61851
 20
237.914488
 30
0.0
 11
113.755985
 21
242.777013
 31
0.0
  0
LINE
  5
343
330
30F
100
AcDbEntity
  8
LC-001-100-D00-0
 62
     7
370
    25
100
AcDbLine
 10
122.353439
 20
233.057027
 30
0.0
 11
120.70487
 21
234.705596
 31
0.0
  0
LINE
  5
344
330
30F
100
AcDbEntity
  8
LC-001-100-D00-0
 62
     7
370
    25
100
AcDbLine
 10
118.261528
 20
237.148938
 30
0.0
 11
112.633453
 21
242.777013
 31
0.0
  0
LINE
  5
345
330
30F
100
AcDbEntity
  8
LC-001-100-D00-0
 62
     7
370
    25
100
AcDbLine
 10
121.996457
 20
232.291477
 30
0.0
 11
120.70487
 21
233.583064
 31
0.0
  0
LINE
  5
346
330
30F
100
AcDbEntity
  8
LC-001-100-D00-0
 62
     7
370
    25
100
AcDbLine
 10
117.904547
 20
236.383388
 30
0.0
 11
111.699834
 21
242.5881
 31
0.0
  0
LINE
  5
347
330
30F
100
AcDbEntity
  8
LC-001-100-D00-0
 62
     7
370
    25
100
AcDbLine
 10
121.638068
 20
231.527334
 30
0.0
 11
120.70487
 21
232.460532
 31
0.0
  0
LINE
  5
348
330
30F
100
AcDbEntity
  8
LC-001-100-D00-0
 62
     7
370
    25
100
AcDbLine
 10
117.547565
 20
235.617838
 30
0.0
 11
114.637186
 21
238.528216
 31
0.0
  0
LINE
  5
349
330
30F
100
AcDbEntity
  8
LC-001-100-D00-0
 62
     7
370
    25
100
AcDbLine
 10
114.456073
 20
238.70933
 30
0.0
 11
110.814521
 21
242.350881
 31
0.0
  0
LINE
  5
34A
330
30F
100
AcDbEntity
  8
LC-001-100-D00-0
 62
     7
370
    25
100
AcDbLine
 10
117.190583
 20
234.852287
 30
0.0
 11
114.70487
 21
237.338
 31
0.0
  0
LINE
  5
34B
330
30F
100
AcDbEntity
  8
LC-001-100-D00-0
 62
     7
370
    25
100
AcDbLine
 10
113.265857
 20
238.777013
 30
0.0
 11
109.929208
 21
242.113662
 31
0.0
  0
LINE
  5
34C
330
30F
100
AcDbEntity
  8
LC-001-100-D00-0
 62
     7
370
    25
100
AcDbLine
 10
116.833601
 20
234.086737
 30
0.0
 11
114.70487
 21
236.215468
 31
0.0
  0
LINE
  5
34D
330
30F
100
AcDbEntity
  8
LC-001-100-D00-0
 62
     7
370
    25
100
AcDbLine
 10
112.315774
 20
238.604564
 30
0.0
 11
109.40487
 21
241.515468
 31
0.0
  0
LINE
  5
34E
330
30F
100
AcDbEntity
  8
LC-001-100-D00-0
 62
     7
370
    25
100
AcDbLine
 10
116.476619
 20
233.321187
 30
0.0
 11
114.70487
 21
235.092936
 31
0.0
  0
LINE
  5
34F
330
30F
100
AcDbEntity
  8
LC-001-100-D00-0
 62
     7
370
    25
100
AcDbLine
 10
111.898263
 20
237.899544
 30
0.0
 11
109.40487
 21
240.392936
 31
0.0
  0
LINE
  5
350
330
30F
100
AcDbEntity
  8
LC-001-100-D00-0
 62
     7
370
    25
100
AcDbLine
 10
116.119637
 20
232.555637
 30
0.0
 11
114.70487
 21
233.970404
 31
0.0
  0
LINE
  5
351
330
30F
100
AcDbEntity
  8
LC-001-100-D00-0
 62
     7
370
    25
100
AcDbLine
 10
111.487387
 20
237.187887
 30
0.0
 11
109.40487
 21
239.270404
 31
0.0
  0
LINE
  5
352
330
30F
100
AcDbEntity
  8
LC-001-100-D00-0
 62
     7
370
    25
100
AcDbLine
 10
115.762655
 20
231.790087
 30
0.0
 11
114.70487
 21
232.847872
 31
0.0
  0
LINE
  5
353
330
30F
100
AcDbEntity
  8
LC-001-100-D00-0
 62
     7
370
    25
100
AcDbLine
 10
111.076512
 20
236.47623
 30
0.0
 11
109.40487
 21
238.147872
 31
0.0
  0
LINE
  5
354
330
30F
100
AcDbEntity
  8
LC-001-100-D00-0
 62
     7
370
    25
100
AcDbLine
 10
115.150199
 20
231.280011
 30
0.0
 11
114.707868
 21
231.722342
 31
0.0
  0
LINE
  5
355
330
30F
100
AcDbEntity
  8
LC-001-100-D00-0
 62
     7
370
    25
100
AcDbLine
 10
110.602835
 20
235.827375
 30
0.0
 11
109.40487
 21
237.02534
 31
0.0
  0
LINE
  5
356
330
30F
100
AcDbEntity
  8
LC-001-100-D00-0
 62
     7
370
    25
100
AcDbLine
 10
109.530665
 20
235.777013
 30
0.0
 11
109.40487
 21
235.902808
 31
0.0
  0
ENDBLK
  5
311
330
30F
100
AcDbEntity
  8
0
100
AcDbBlockEnd
  0
BLOCK
  5
359
330
358
100
AcDbEntity
  8
0
100
AcDbBlockBegin
  2
KLON4
 70
     0
 71
     0
 10
0.0
 20
0.0
 30
0.0
  3
KLON4
  1

  4
KLON4
  0
LINE
  5
35B
330
358
100
AcDbEntity
  8
LC-001-100-D00-0
 62
     7
370
    25
100
AcDbLine
 10
139.379024
 20
176.742821
 30
0.0
 11
138.40487
 21
177.716976
 31
0.0
  0
LINE
  5
35C
330
358
100
AcDbEntity
  8
LC-001-100-D00-0
 62
     7
370
    25
100
AcDbLine
 10
140.534348
 20
174.464965
 30
0.0
 11
138.40487
 21
176.594444
 31
0.0
  0
LINE
  5
35D
330
358
100
AcDbEntity
  8
LC-001-100-D00-0
 62
     7
370
    25
100
AcDbLine
 10
141.689672
 20
172.18711
 30
0.0
 11
138.40487
 21
175.471912
 31
0.0
  0
LINE
  5
35E
330
358
100
AcDbEntity
  8
LC-001-100-D00-0
 62
     7
370
    25
100
AcDbLine
 10
142.40487
 20
170.34938
 30
0.0
 11
138.40487
 21
174.34938
 31
0.0
  0
LINE
  5
35F
330
358
100
AcDbEntity
  8
LC-001-100-D00-0
 62
     7
370
    25
100
AcDbLine
 10
142.40487
 20
169.226848
 30
0.0
 11
138.40487
 21
173.226848
 31
0.0
  0
LINE
  5
360
330
358
100
AcDbEntity
  8
LC-001-100-D00-0
 62
     7
370
    25
100
AcDbLine
 10
142.40487
 20
168.104316
 30
0.0
 11
138.40487
 21
172.104316
 31
0.0
  0
LINE
  5
361
330
358
100
AcDbEntity
  8
LC-001-100-D00-0
 62
     7
370
    25
100
AcDbLine
 10
133.755491
 20
176.753695
 30
0.0
 11
132.70487
 21
177.804316
 31
0.0
  0
LINE
  5
362
330
358
100
AcDbEntity
  8
LC-001-100-D00-0
 62
     7
370
    25
100
AcDbLine
 10
142.385723
 20
167.000931
 30
0.0
 11
138.345659
 21
171.040994
 31
0.0
  0
LINE
  5
363
330
358
100
AcDbEntity
  8
LC-001-100-D00-0
 62
     7
370
    25
100
AcDbLine
 10
135.288898
 20
174.097755
 30
0.0
 11
132.70487
 21
176.681784
 31
0.0
  0
LINE
  5
364
330
358
100
AcDbEntity
  8
LC-001-100-D00-0
 62
     7
370
    25
100
AcDbLine
 10
142.079915
 20
166.184207
 30
0.0
 11
137.487048
 21
170.777074
 31
0.0
  0
LINE
  5
365
330
358
100
AcDbEntity
  8
LC-001-100-D00-0
 62
     7
370
    25
100
AcDbLine
 10
136.822306
 20
171.441816
 30
0.0
 11
132.70487
 21
175.559252
 31
0.0
  0
LINE
  5
366
330
358
100
AcDbEntity
  8
LC-001-100-D00-0
 62
     7
370
    25
100
AcDbLine
 10
141.522895
 20
165.618695
 30
0.0
 11
132.70487
 21
174.43672
 31
0.0
  0
LINE
  5
367
330
358
100
AcDbEntity
  8
LC-001-100-D00-0
 62
     7
370
    25
100
AcDbLine
 10
140.717464
 20
165.301593
 30
0.0
 11
138.40487
 21
167.614188
 31
0.0
  0
LINE
  5
368
330
358
100
AcDbEntity
  8
LC-001-100-D00-0
 62
     7
370
    25
100
AcDbLine
 10
138.242044
 20
167.777013
 30
0.0
 11
132.70487
 21
173.314188
 31
0.0
  0
LINE
  5
369
330
358
100
AcDbEntity
  8
LC-001-100-D00-0
 62
     7
370
    25
100
AcDbLine
 10
128.20611
 20
177.812947
 30
0.0
 11
126.870393
 21
179.148665
 31
0.0
  0
LINE
  5
36A
330
358
100
AcDbEntity
  8
LC-001-100-D00-0
 62
     7
370
    25
100
AcDbLine
 10
139.619512
 20
165.277013
 30
0.0
 11
138.40487
 21
166.491656
 31
0.0
  0
LINE
  5
36B
330
358
100
AcDbEntity
  8
LC-001-100-D00-0
 62
     7
370
    25
100
AcDbLine
 10
137.119512
 20
167.777013
 30
0.0
 11
132.698579
 21
172.197947
 31
0.0
  0
LINE
  5
36C
330
358
100
AcDbEntity
  8
LC-001-100-D00-0
 62
     7
370
    25
100
AcDbLine
 10
129.18691
 20
175.709615
 30
0.0
 11
126.70487
 21
178.191656
 31
0.0
  0
LINE
  5
36D
330
358
100
AcDbEntity
  8
LC-001-100-D00-0
 62
     7
370
    25
100
AcDbLine
 10
138.49698
 20
165.277013
 30
0.0
 11
138.40487
 21
165.369124
 31
0.0
  0
LINE
  5
36E
330
358
100
AcDbEntity
  8
LC-001-100-D00-0
 62
     7
370
    25
100
AcDbLine
 10
135.99698
 20
167.777013
 30
0.0
 11
131.99698
 21
171.777013
 31
0.0
  0
LINE
  5
36F
330
358
100
AcDbEntity
  8
LC-001-100-D00-0
 62
     7
370
    25
100
AcDbLine
 10
130.16771
 20
173.606284
 30
0.0
 11
126.70487
 21
177.069124
 31
0.0
  0
LINE
  5
370
330
358
100
AcDbEntity
  8
LC-001-100-D00-0
 62
     7
370
    25
100
AcDbLine
 10
134.874448
 20
167.777013
 30
0.0
 11
126.70487
 21
175.946591
 31
0.0
  0
LINE
  5
371
330
358
100
AcDbEntity
  8
LC-001-100-D00-0
 62
     7
370
    25
100
AcDbLine
 10
133.751916
 20
167.777013
 30
0.0
 11
126.70487
 21
174.824059
 31
0.0
  0
LINE
  5
372
330
358
100
AcDbEntity
  8
LC-001-100-D00-0
 62
     7
370
    25
100
AcDbLine
 10
132.629384
 20
167.777013
 30
0.0
 11
126.70487
 21
173.701527
 31
0.0
  0
LINE
  5
373
330
358
100
AcDbEntity
  8
LC-001-100-D00-0
 62
     7
370
    25
100
AcDbLine
 10
121.867677
 20
178.538721
 30
0.0
 11
121.134378
 21
179.272019
 31
0.0
  0
LINE
  5
374
330
358
100
AcDbEntity
  8
LC-001-100-D00-0
 62
     7
370
    25
100
AcDbLine
 10
131.506852
 20
167.777013
 30
0.0
 11
126.70487
 21
172.578995
 31
0.0
  0
LINE
  5
375
330
358
100
AcDbEntity
  8
LC-001-100-D00-0
 62
     7
370
    25
100
AcDbLine
 10
122.848476
 20
176.435389
 30
0.0
 11
120.70487
 21
178.578995
 31
0.0
  0
LINE
  5
376
330
358
100
AcDbEntity
  8
LC-001-100-D00-0
 62
     7
370
    25
100
AcDbLine
 10
130.38432
 20
167.777013
 30
0.0
 11
126.359733
 21
171.8016
 31
0.0
  0
LINE
  5
377
330
358
100
AcDbEntity
  8
LC-001-100-D00-0
 62
     7
370
    25
100
AcDbLine
 10
123.829276
 20
174.332057
 30
0.0
 11
120.70487
 21
177.456463
 31
0.0
  0
LINE
  5
378
330
358
100
AcDbEntity
  8
LC-001-100-D00-0
 62
     7
370
    25
100
AcDbLine
 10
129.261788
 20
167.777013
 30
0.0
 11
125.254565
 21
171.784237
 31
0.0
  0
LINE
  5
379
330
358
100
AcDbEntity
  8
LC-001-100-D00-0
 62
     7
370
    25
100
AcDbLine
 10
124.810076
 20
172.228726
 30
0.0
 11
120.70487
 21
176.333931
 31
0.0
  0
LINE
  5
37A
330
358
100
AcDbEntity
  8
LC-001-100-D00-0
 62
     7
370
    25
100
AcDbLine
 10
128.139256
 20
167.777013
 30
0.0
 11
120.70487
 21
175.211399
 31
0.0
  0
LINE
  5
37B
330
358
100
AcDbEntity
  8
LC-001-100-D00-0
 62
     7
370
    25
100
AcDbLine
 10
127.016724
 20
167.777013
 30
0.0
 11
120.70487
 21
174.088867
 31
0.0
  0
LINE
  5
37C
330
358
100
AcDbEntity
  8
LC-001-100-D00-0
 62
     7
370
    25
100
AcDbLine
 10
125.894192
 20
167.777013
 30
0.0
 11
120.70487
 21
172.966335
 31
0.0
  0
LINE
  5
37D
330
358
100
AcDbEntity
  8
LC-001-100-D00-0
 62
     7
370
    25
100
AcDbLine
 10
116.510042
 20
177.161163
 30
0.0
 11
114.731931
 21
178.939274
 31
0.0
  0
LINE
  5
37E
330
358
100
AcDbEntity
  8
LC-001-100-D00-0
 62
     7
370
    25
100
AcDbLine
 10
124.77166
 20
167.777013
 30
0.0
 11
120.590238
 21
171.958436
 31
0.0
  0
LINE
  5
37F
330
358
100
AcDbEntity
  8
LC-001-100-D00-0
 62
     7
370
    25
100
AcDbLine
 10
117.490842
 20
175.057831
 30
0.0
 11
114.70487
 21
177.843803
 31
0.0
  0
LINE
  5
380
330
358
100
AcDbEntity
  8
LC-001-100-D00-0
 62
     7
370
    25
100
AcDbLine
 10
123.649128
 20
167.777013
 30
0.0
 11
119.649128
 21
171.777013
 31
0.0
  0
LINE
  5
381
330
358
100
AcDbEntity
  8
LC-001-100-D00-0
 62
     7
370
    25
100
AcDbLine
 10
118.471642
 20
172.9545
 30
0.0
 11
114.70487
 21
176.721271
 31
0.0
  0
LINE
  5
382
330
358
100
AcDbEntity
  8
LC-001-100-D00-0
 62
     7
370
    25
100
AcDbLine
 10
122.526596
 20
167.777013
 30
0.0
 11
114.70487
 21
175.598739
 31
0.0
  0
LINE
  5
383
330
358
100
AcDbEntity
  8
LC-001-100-D00-0
 62
     7
370
    25
100
AcDbLine
 10
121.404064
 20
167.777013
 30
0.0
 11
114.70487
 21
174.476207
 31
0.0
  0
LINE
  5
384
330
358
100
AcDbEntity
  8
LC-001-100-D00-0
 62
     7
370
    25
100
AcDbLine
 10
120.281532
 20
167.777013
 30
0.0
 11
114.70487
 21
173.353675
 31
0.0
  0
LINE
  5
385
330
358
100
AcDbEntity
  8
LC-001-100-D00-0
 62
     7
370
    25
100
AcDbLine
 10
119.159
 20
167.777013
 30
0.0
 11
114.702936
 21
172.233077
 31
0.0
  0
LINE
  5
386
330
358
100
AcDbEntity
  8
LC-001-100-D00-0
 62
     7
370
    25
100
AcDbLine
 10
118.036468
 20
167.777013
 30
0.0
 11
114.036468
 21
171.777013
 31
0.0
  0
LINE
  5
387
330
358
100
AcDbEntity
  8
LC-001-100-D00-0
 62
     7
370
    25
100
AcDbLine
 10
116.913936
 20
167.777013
 30
0.0
 11
112.913936
 21
171.777013
 31
0.0
  0
LINE
  5
388
330
358
100
AcDbEntity
  8
LC-001-100-D00-0
 62
     7
370
    25
100
AcDbLine
 10
111.709473
 20
172.981476
 30
0.0
 11
109.913936
 21
174.777013
 31
0.0
  0
LINE
  5
389
330
358
100
AcDbEntity
  8
LC-001-100-D00-0
 62
     7
370
    25
100
AcDbLine
 10
115.791404
 20
167.777013
 30
0.0
 11
109.40487
 21
174.163547
 31
0.0
  0
LINE
  5
38A
330
358
100
AcDbEntity
  8
LC-001-100-D00-0
 62
     7
370
    25
100
AcDbLine
 10
114.668872
 20
167.777013
 30
0.0
 11
109.40487
 21
173.041015
 31
0.0
  0
LINE
  5
38B
330
358
100
AcDbEntity
  8
LC-001-100-D00-0
 62
     7
370
    25
100
AcDbLine
 10
113.54634
 20
167.777013
 30
0.0
 11
109.40487
 21
171.918483
 31
0.0
  0
LINE
  5
38C
330
358
100
AcDbEntity
  8
LC-001-100-D00-0
 62
     7
370
    25
100
AcDbLine
 10
112.423808
 20
167.777013
 30
0.0
 11
109.40487
 21
170.795951
 31
0.0
  0
LINE
  5
38D
330
358
100
AcDbEntity
  8
LC-001-100-D00-0
 62
     7
370
    25
100
AcDbLine
 10
110.897332
 20
168.180957
 30
0.0
 11
109.40487
 21
169.673419
 31
0.0
  0
ENDBLK
  5
35A
330
358
100
AcDbEntity
  8
0
100
AcDbBlockEnd
  0
BLOCK
  5
390
330
38F
100
AcDbEntity
  8
0
100
AcDbBlockBegin
  2
KLON5
 70
     0
 71
     0
 10
0.0
 20
0.0
 30
0.0
  3
KLON5
  1

  4
KLON5
  0
LINE
  5
392
330
38F
100
AcDbEntity
  8
LC-001-100-D00-0
 62
     7
370
    25
100
AcDbLine
 10
66.6206
 20
235.489133
 30
0.0
 11
64.234187
 21
233.10272
 31
0.0
  0
LINE
  5
393
330
38F
100
AcDbEntity
  8
LC-001-100-D00-0
 62
     7
370
    25
100
AcDbLine
 10
67.765464
 20
235.511466
 30
0.0
 11
64.591351
 21
232.337353
 31
0.0
  0
LINE
  5
394
330
38F
100
AcDbEntity
  8
LC-001-100-D00-0
 62
     7
370
    25
100
AcDbLine
 10
68.873697
 20
235.497166
 30
0.0
 11
65.20767
 21
231.831139
 31
0.0
  0
LINE
  5
395
330
38F
100
AcDbEntity
  8
LC-001-100-D00-0
 62
     7
370
    25
100
AcDbLine
 10
69.981944
 20
235.482882
 30
0.0
 11
65.853229
 21
231.354166
 31
0.0
  0
LINE
  5
396
330
38F
100
AcDbEntity
  8
LC-001-100-D00-0
 62
     7
370
    25
100
AcDbLine
 10
70.676004
 20
235.05441
 30
0.0
 11
66.498788
 21
230.877193
 31
0.0
  0
LINE
  5
397
330
38F
100
AcDbEntity
  8
LC-001-100-D00-0
 62
     7
370
    25
100
AcDbLine
 10
71.298524
 20
234.554398
 30
0.0
 11
67.144347
 21
230.40022
 31
0.0
  0
LINE
  5
398
330
38F
100
AcDbEntity
  8
LC-001-100-D00-0
 62
     7
370
    25
100
AcDbLine
 10
71.60487
 20
233.738212
 30
0.0
 11
69.911909
 21
232.045251
 31
0.0
  0
LINE
  5
399
330
38F
100
AcDbEntity
  8
LC-001-100-D00-0
 62
     7
370
    25
100
AcDbLine
 10
68.799284
 20
230.932626
 30
0.0
 11
67.789906
 21
229.923247
 31
0.0
  0
LINE
  5
39A
330
38F
100
AcDbEntity
  8
LC-001-100-D00-0
 62
     7
370
    25
100
AcDbLine
 10
71.60487
 20
232.61568
 30
0.0
 11
70.826026
 21
231.836836
 31
0.0
  0
LINE
  5
39B
330
38F
100
AcDbEntity
  8
LC-001-100-D00-0
 62
     7
370
    25
100
AcDbLine
 10
69.155545
 20
230.166354
 30
0.0
 11
68.435465
 21
229.446274
 31
0.0
  0
ENDBLK
  5
391
330
38F
100
AcDbEntity
  8
0
100
AcDbBlockEnd
  0
BLOCK
  5
39E
330
39D
100
AcDbEntity
  8
0
100
AcDbBlockBegin
  2
KLON6
 70
     0
 71
     0
 10
0.0
 20
0.0
 30
0.0
  3
KLON6
  1

  4
KLON6
  0
LINE
  5
3A0
330
39D
100
AcDbEntity
  8
LC-001-100-D00-0
 62
     7
370
    25
100
AcDbLine
 10
68.168776
 20
180.910709
 30
0.0
 11
64.214456
 21
176.956389
 31
0.0
  0
LINE
  5
3A1
330
39D
100
AcDbEntity
  8
LC-001-100-D00-0
 62
     7
370
    25
100
AcDbLine
 10
69.320555
 20
180.939955
 30
0.0
 11
64.65603
 21
176.275431
 31
0.0
  0
LINE
  5
3A2
330
39D
100
AcDbEntity
  8
LC-001-100-D00-0
 62
     7
370
    25
100
AcDbLine
 10
68.649212
 20
179.146081
 30
0.0
 11
65.175836
 21
175.672705
 31
0.0
  0
LINE
  5
3A3
330
39D
100
AcDbEntity
  8
LC-001-100-D00-0
 62
     7
370
    25
100
AcDbLine
 10
69.064872
 20
178.439209
 30
0.0
 11
66.090107
 21
175.464444
 31
0.0
  0
LINE
  5
3A4
330
39D
100
AcDbEntity
  8
LC-001-100-D00-0
 62
     7
370
    25
100
AcDbLine
 10
70.358878
 20
178.610683
 30
0.0
 11
67.205086
 21
175.45689
 31
0.0
  0
LINE
  5
3A5
330
39D
100
AcDbEntity
  8
LC-001-100-D00-0
 62
     7
370
    25
100
AcDbLine
 10
71.475216
 20
178.604489
 30
0.0
 11
68.313333
 21
175.442606
 31
0.0
  0
LINE
  5
3A6
330
39D
100
AcDbEntity
  8
LC-001-100-D00-0
 62
     7
370
    25
100
AcDbLine
 10
71.60487
 20
177.611611
 30
0.0
 11
69.42158
 21
175.428321
 31
0.0
  0
LINE
  5
3A7
330
39D
100
AcDbEntity
  8
LC-001-100-D00-0
 62
     7
370
    25
100
AcDbLine
 10
71.60487
 20
176.489079
 30
0.0
 11
71.419446
 21
176.303655
 31
0.0
  0
LINE
  5
3A8
330
39D
100
AcDbEntity
  8
LC-001-100-D00-0
 62
     7
370
    25
100
AcDbLine
 10
71.395998
 20
176.280207
 30
0.0
 11
70.597353
 21
175.481562
 31
0.0
  0
ENDBLK
  5
39F
330
39D
100
AcDbEntity
  8
0
100
AcDbBlockEnd
  0
BLOCK
  5
3AB
330
3AA
100
AcDbEntity
  8
0
100
AcDbBlockBegin
  2
KLON7
 70
     0
 71
     0
 10
0.0
 20
0.0
 30
0.0
  3
KLON7
  1

  4
KLON7
  0
LINE
  5
3AD
330
3AA
100
AcDbEntity
  8
LC-001-100-D00-0
 62
     7
370
    25
100
AcDbLine
 10
147.40487
 20
168.716976
 30
0.0
 11
143.944832
 21
172.177013
 31
0.0
  0
LINE
  5
3AE
330
3AA
100
AcDbEntity
  8
LC-001-100-D00-0
 62
     7
370
    25
100
AcDbLine
 10
147.026346
 20
164.605372
 30
0.0
 11
144.90487
 21
166.726848
 31
0.0
  0
LINE
  5
3AF
330
3AA
100
AcDbEntity
  8
LC-001-100-D00-0
 62
     7
370
    25
100
AcDbLine
 10
144.938413
 20
162.203176
 30
0.0
 11
143.034096
 21
164.107494
 31
0.0
  0
LINE
  5
3B0
330
3AA
100
AcDbEntity
  8
LC-001-100-D00-0
 62
     7
370
    25
100
AcDbLine
 10
141.137698
 20
161.513763
 30
0.0
 11
138.624448
 21
164.027013
 31
0.0
  0
LINE
  5
3B1
330
3AA
100
AcDbEntity
  8
LC-001-100-D00-0
 62
     7
370
    25
100
AcDbLine
 10
136.64757
 20
161.513763
 30
0.0
 11
134.13432
 21
164.027013
 31
0.0
  0
LINE
  5
3B2
330
3AA
100
AcDbEntity
  8
LC-001-100-D00-0
 62
     7
370
    25
100
AcDbLine
 10
132.157442
 20
161.513763
 30
0.0
 11
128.694192
 21
164.977013
 31
0.0
  0
LINE
  5
3B3
330
3AA
100
AcDbEntity
  8
LC-001-100-D00-0
 62
     7
370
    25
100
AcDbLine
 10
127.667314
 20
161.513763
 30
0.0
 11
126.10487
 21
163.076207
 31
0.0
  0
ENDBLK
  5
3AC
330
3AA
100
AcDbEntity
  8
0
100
AcDbBlockEnd
  0
BLOCK
  5
3B6
330
3B5
100
AcDbEntity
  8
0
100
AcDbBlockBegin
  2
KLON8
 70
     0
 71
     0
 10
0.0
 20
0.0
 30
0.0
  3
KLON8
  1

  4
KLON8
  0
LINE
  5
3B8
330
3B5
100
AcDbEntity
  8
LC-001-100-D00-0
 62
     7
370
    25
100
AcDbLine
 10
147.272997
 20
245.181026
 30
0.0
 11
143.545632
 21
248.908391
 31
0.0
  0
LINE
  5
3B9
330
3B5
100
AcDbEntity
  8
LC-001-100-D00-0
 62
     7
370
    25
100
AcDbLine
 10
147.40487
 20
240.559025
 30
0.0
 11
144.90487
 21
243.059025
 31
0.0
  0
LINE
  5
3BA
330
3B5
100
AcDbEntity
  8
LC-001-100-D00-0
 62
     7
370
    25
100
AcDbLine
 10
141.436881
 20
246.527013
 30
0.0
 11
138.923631
 21
249.040263
 31
0.0
  0
LINE
  5
3BB
330
3B5
100
AcDbEntity
  8
LC-001-100-D00-0
 62
     7
370
    25
100
AcDbLine
 10
145.096753
 20
238.377013
 30
0.0
 11
142.748812
 21
240.724955
 31
0.0
  0
LINE
  5
3BC
330
3B5
100
AcDbEntity
  8
LC-001-100-D00-0
 62
     7
370
    25
100
AcDbLine
 10
136.946753
 20
246.527013
 30
0.0
 11
134.433503
 21
249.040263
 31
0.0
  0
LINE
  5
3BD
330
3B5
100
AcDbEntity
  8
LC-001-100-D00-0
 62
     7
370
    25
100
AcDbLine
 10
132.456625
 20
246.527013
 30
0.0
 11
129.943375
 21
249.040263
 31
0.0
  0
LINE
  5
3BE
330
3B5
100
AcDbEntity
  8
LC-001-100-D00-0
 62
     7
370
    25
100
AcDbLine
 10
128.902708
 20
245.590803
 30
0.0
 11
126.10487
 21
248.38864
 31
0.0
  0
ENDBLK
  5
3B7
330
3B5
100
AcDbEntity
  8
0
100
AcDbBlockEnd
  0
BLOCK
  5
3CF
330
3C4
100
AcDbEntity
  8
0
100
AcDbBlockBegin
  2
*D22
 70
     1
 71
     0
 10
0.0
 20
0.0
 30
0.0
  3
*D22
  1

  0
LINE
  5
3C5
330
3C4
100
AcDbEntity
  8
LC-001-100-D00-0
 62
     2
370
    -2
100
AcDbLine
 10
55.50487
 20
179.927013
 30
0.0
 11
35.067813
 21
179.927013
 31
0.0
  0
LINE
  5
3C6
330
3C4
100
AcDbEntity
  8
LC-001-100-D00-0
 62
     2
370
    -2
100
AcDbLine
 10
55.50487
 20
230.627013
 30
0.0
 11
35.067813
 21
230.627013
 31
0.0
  0
LINE
  5
3C7
330
3C4
100
AcDbEntity
  8
LC-001-100-D00-0
 62
     2
370
    -2
100
AcDbLine
 10
38.667813
 20
151.927013
 30
0.0
 11
38.667813
 21
123.927013
 31
0.0
  0
LINE
  5
3C8
330
3C4
100
AcDbEntity
  8
LC-001-100-D00-0
 62
     2
370
    -2
100
AcDbLine
 10
38.667813
 20
258.627013
 30
0.0
 11
38.667813
 21
282.970326
 31
0.0
  0
SOLID
  5
3C9
330
3C4
100
AcDbEntity
  8
LC-001-100-D00-0
 62
     2
100
AcDbTrace
 10
43.33448
 20
151.927013
 30
0.0
 11
34.001146
 21
151.927013
 31
0.0
 12
38.667813
 22
179.927013
 32
0.0
 13
38.667813
 23
179.927013
 33
0.0
  0
SOLID
  5
3CA
330
3C4
100
AcDbEntity
  8
LC-001-100-D00-0
 62
     2
100
AcDbTrace
 10
34.001146
 20
258.627013
 30
0.0
 11
43.33448
 21
258.627013
 31
0.0
 12
38.667813
 22
230.627013
 32
0.0
 13
38.667813
 23
230.627013
 33
0.0
  0
MTEXT
  5
3CB
330
3C4
100
AcDbEntity
  8
LC-001-100-D00-0
 62
     2
100
AcDbMText
 10
7.867813
 20
236.933568
 30
0.0
 40
28.0
 41
0.0
 71
     5
 72
     1
  1
\A1;DN50
  7
LCTX15-400-0-0pDIN-Schrift
 11
6.123031769111886E-17
 21
1.0
 31
0.0
 73
     1
 44
1.0
  0
POINT
  5
3CC
330
3C4
100
AcDbEntity
  8
Defpoints
 62
     0
100
AcDbPoint
 10
55.50487
 20
179.927013
 30
0.0
  0
POINT
  5
3CD
330
3C4
100
AcDbEntity
  8
Defpoints
 62
     0
100
AcDbPoint
 10
55.50487
 20
230.627013
 30
0.0
  0
POINT
  5
3CE
330
3C4
100
AcDbEntity
  8
Defpoints
 62
     0
100
AcDbPoint
 10
38.667813
 20
230.627013
 30
0.0
  0
ENDBLK
  5
3D0
330
3C4
100
AcDbEntity
  8
0
100
AcDbBlockEnd
  0
BLOCK
  5
3DD
330
3D3
100
AcDbEntity
  8
0
100
AcDbBlockBegin
  2
*D23
 70
     1
 71
     0
 10
0.0
 20
0.0
 30
0.0
  3
*D23
  1

  0
LINE
  5
3D4
330
3D3
100
AcDbEntity
  8
LC-001-100-D00-0
 62
     2
370
    -2
100
AcDbLine
 10
55.50487
 20
177.977013
 30
0.0
 11
55.50487
 21
103.841568
 31
0.0
  0
LINE
  5
3D5
330
3D3
100
AcDbEntity
  8
LC-001-100-D00-0
 62
     2
370
    -2
100
AcDbLine
 10
147.80487
 20
167.53417
 30
0.0
 11
147.80487
 21
103.841568
 31
0.0
  0
LINE
  5
3D6
330
3D3
100
AcDbEntity
  8
LC-001-100-D00-0
 62
     2
370
    -2
100
AcDbLine
 10
83.50487
 20
107.441568
 30
0.0
 11
119.80487
 21
107.441568
 31
0.0
  0
SOLID
  5
3D7
330
3D3
100
AcDbEntity
  8
LC-001-100-D00-0
 62
     2
100
AcDbTrace
 10
83.50487
 20
112.108235
 30
0.0
 11
83.50487
 21
102.774902
 31
0.0
 12
55.50487
 22
107.441568
 32
0.0
 13
55.50487
 23
107.441568
 33
0.0
  0
SOLID
  5
3D8
330
3D3
100
AcDbEntity
  8
LC-001-100-D00-0
 62
     2
100
AcDbTrace
 10
119.80487
 20
102.774902
 30
0.0
 11
119.80487
 21
112.108235
 31
0.0
 12
147.80487
 22
107.441568
 32
0.0
 13
147.80487
 23
107.441568
 33
0.0
  0
MTEXT
  5
3D9
330
3D3
100
AcDbEntity
  8
LC-001-100-D00-0
 62
     2
100
AcDbMText
 10
97.922015
 20
138.241568
 30
0.0
 40
28.0
 41
0.0
 71
     5
 72
     1
  1
\A1;92
  7
LCTX15-400-0-0pDIN-Schrift
 73
     1
 44
1.0
  0
POINT
  5
3DA
330
3D3
100
AcDbEntity
  8
Defpoints
 62
     0
100
AcDbPoint
 10
55.50487
 20
177.977013
 30
0.0
  0
POINT
  5
3DB
330
3D3
100
AcDbEntity
  8
Defpoints
 62
     0
100
AcDbPoint
 10
147.80487
 20
167.53417
 30
0.0
  0
POINT
  5
3DC
330
3D3
100
AcDbEntity
  8
Defpoints
 62
     0
100
AcDbPoint
 10
147.80487
 20
107.441568
 30
0.0
  0
ENDBLK
  5
3DE
330
3D3
100
AcDbEntity
  8
0
100
AcDbBlockEnd
  0
BLOCK
  5
3EF
330
3E3
100
AcDbEntity
  8
0
100
AcDbBlockBegin
  2
*D24
 70
     1
 71
     0
 10
0.0
 20
0.0
 30
0.0
  3
*D24
  1

  0
LINE
  5
3E4
330
3E3
100
AcDbEntity
  8
LC-002-003-----0
 62
     2
370
    -2
100
AcDbLine
 10
138.558361
 20
232.532496
 30
0.0
 11
197.920643
 21
232.532496
 31
0.0
  0
LINE
  5
3E5
330
3E3
100
AcDbEntity
  8
LC-002-003-----0
 62
     2
370
    -2
100
AcDbLine
 10
138.783239
 20
177.917482
 30
0.0
 11
197.920643
 21
177.917482
 31
0.0
  0
LINE
  5
3E6
330
3E3
100
AcDbEntity
  8
LC-002-003-----0
 62
     2
370
    -2
100
AcDbLine
 10
194.320643
 20
260.532496
 30
0.0
 11
194.320643
 21
288.532496
 31
0.0
  0
LINE
  5
3E7
330
3E3
100
AcDbEntity
  8
LC-002-003-----0
 62
     2
370
    -2
100
AcDbLine
 10
194.320643
 20
149.917482
 30
0.0
 11
194.320643
 21
121.917482
 31
0.0
  0
LINE
  5
3E8
330
3E3
100
AcDbEntity
  8
LC-002-003-----0
 62
     2
370
    -2
100
AcDbLine
 10
194.320643
 20
232.532496
 30
0.0
 11
194.320643
 21
177.917482
 31
0.0
  0
SOLID
  5
3E9
330
3E3
100
AcDbEntity
  8
LC-002-003-----0
 62
     2
100
AcDbTrace
 10
189.653976
 20
260.532496
 30
0.0
 11
198.987309
 21
260.532496
 31
0.0
 12
194.320643
 22
232.532496
 32
0.0
 13
194.320643
 23
232.532496
 33
0.0
  0
SOLID
  5
3EA
330
3E3
100
AcDbEntity
  8
LC-002-003-----0
 62
     2
100
AcDbTrace
 10
198.987309
 20
149.917482
 30
0.0
 11
189.653976
 21
149.917482
 31
0.0
 12
194.320643
 22
177.917482
 32
0.0
 13
194.320643
 23
177.917482
 33
0.0
  0
MTEXT
  5
3EB
330
3E3
100
AcDbEntity
  8
LC-002-003-----0
 62
     2
100
AcDbMText
 10
163.520643
 20
207.233568
 30
0.0
 40
28.0
 41
0.0
 71
     5
 72
     1
  1
\A1;DN50(SML)
  7
LCTX15-400-0-0pDIN-Schrift
 11
6.123031769111886E-17
 21
1.0
 31
0.0
 73
     1
 44
1.0
  0
POINT
  5
3EC
330
3E3
100
AcDbEntity
  8
Defpoints
 62
     0
100
AcDbPoint
 10
138.558361
 20
232.532496
 30
0.0
  0
POINT
  5
3ED
330
3E3
100
AcDbEntity
  8
Defpoints
 62
     0
100
AcDbPoint
 10
138.783239
 20
177.917482
 30
0.0
  0
POINT
  5
3EE
330
3E3
100
AcDbEntity
  8
Defpoints
 62
     0
100
AcDbPoint
 10
194.320643
 20
177.917482
 30
0.0
  0
ENDBLK
  5
3F0
330
3E3
100
AcDbEntity
  8
0
100
AcDbBlockEnd
  0
ENDSEC
  0
SECTION
  2
ENTITIES
  0
LINE
  5
31
330
1F
100
AcDbEntity
  8
LC-001-100-D00-0
 62
     7
370
    50
100
AcDbLine
 10
147.80487
 20
173.134151
 30
0.0
 11
147.40487
 21
173.20283
 31
0.0
  0
LINE
  5
32
330
1F
100
AcDbEntity
  8
LC-001-100-D00-0
 62
     7
370
    50
100
AcDbLine
 10
147.40487
 20
232.727653
 30
0.0
 11
147.80487
 21
232.787563
 31
0.0
  0
LINE
  5
33
330
1F
100
AcDbEntity
  8
LC-001-100-D00-0
 62
     7
370
    50
100
AcDbLine
 10
147.80487
 20
189.278322
 30
0.0
 11
147.40487
 21
189.315541
 31
0.0
  0
LINE
  5
34
330
1F
100
AcDbEntity
  8
LC-001-100-D00-0
 62
     7
370
    50
100
AcDbLine
 10
147.40487
 20
210.696618
 30
0.0
 11
147.80487
 21
210.712663
 31
0.0
  0
LINE
  5
35
330
1F
100
AcDbEntity
  8
LC-001-100-D00-0
 62
     7
370
    50
100
AcDbLine
 10
64.204873
 20
233.417255
 30
0.0
 11
64.204873
 21
177.136772
 31
0.0
  0
LINE
  5
36
330
1F
100
AcDbEntity
  8
LC-001-100-D00-0
 62
     7
370
    50
100
AcDbLine
 10
142.40487
 20
210.017544
 30
0.0
 11
142.40499
 21
210.017544
 31
0.0
  0
ARC
  5
37
330
1F
100
AcDbEntity
  8
LC-001-100-D00-0
 62
     7
370
    50
100
AcDbCircle
 10
142.40487
 20
166.513763
 30
0.0
 40
5.0
100
AcDbArc
 50
270.0
 51
0.0
  0
ARC
  5
38
330
1F
100
AcDbEntity
  8
LC-001-100-D00-0
 62
     7
370
    50
100
AcDbCircle
 10
142.40487
 20
244.040263
 30
0.0
 40
5.0
100
AcDbArc
 50
0.0
 51
90.0
  0
LINE
  5
39
330
1F
100
AcDbEntity
  8
LC-001-100-D00-0
 62
     7
370
    50
100
AcDbLine
 10
126.10487
 20
161.513763
 30
0.0
 11
142.40487
 21
161.513763
 31
0.0
  0
LINE
  5
3A
330
1F
100
AcDbEntity
  8
LC-001-100-D00-0
 62
     7
370
    50
100
AcDbLine
 10
142.40487
 20
249.040264
 30
0.0
 11
126.10487
 21
249.040264
 31
0.0
  0
ARC
  5
3B
330
1F
100
AcDbEntity
  8
LC-001-100-D00-0
 62
     7
370
    50
100
AcDbCircle
 10
130.150307
 20
246.027013
 30
0.0
 40
0.5000000000000284
100
AcDbArc
 50
90.0
 51
135.0
  0
ARC
  5
3C
330
1F
100
AcDbEntity
  8
LC-001-100-D00-0
 62
     7
370
    50
100
AcDbCircle
 10
130.150307
 20
164.527013
 30
0.0
 40
0.500000000000004
100
AcDbArc
 50
225.0
 51
270.0
  0
LINE
  5
3D
330
1F
100
AcDbEntity
  8
LC-001-100-D00-0
 62
     7
370
    50
100
AcDbLine
 10
142.40487
 20
246.527015
 30
0.0
 11
130.150307
 21
246.527015
 31
0.0
  0
LINE
  5
3E
330
1F
100
AcDbEntity
  8
LC-001-100-D00-0
 62
     7
370
    50
100
AcDbLine
 10
130.150307
 20
164.027012
 30
0.0
 11
142.40487
 21
164.027012
 31
0.0
  0
LINE
  5
3F
330
1F
100
AcDbEntity
  8
LC-001-100-D00-0
 62
     7
370
    50
100
AcDbLine
 10
127.591401
 20
245.577014
 30
0.0
 11
126.10487
 21
246.435261
 31
0.0
  0
LINE
  5
40
330
1F
100
AcDbEntity
  8
LC-001-100-D00-0
 62
     7
370
    50
100
AcDbLine
 10
127.591401
 20
245.577014
 30
0.0
 11
127.591401
 21
245.277013
 31
0.0
  0
LINE
  5
41
330
1F
100
AcDbEntity
  8
LC-001-100-D00-0
 62
     7
370
    50
100
AcDbLine
 10
127.591401
 20
165.277014
 30
0.0
 11
127.591401
 21
164.977013
 31
0.0
  0
LINE
  5
42
330
1F
100
AcDbEntity
  8
LC-001-100-D00-0
 62
     7
370
    50
100
AcDbLine
 10
126.10487
 20
164.118766
 30
0.0
 11
127.591401
 21
164.977013
 31
0.0
  0
LINE
  5
43
330
1F
100
AcDbEntity
  8
LC-001-100-D00-0
 62
     7
370
    50
100
AcDbLine
 10
126.10487
 20
164.118766
 30
0.0
 11
126.10487
 21
165.277014
 31
0.0
  0
LINE
  5
44
330
1F
100
AcDbEntity
  8
LC-001-100-D00-0
 62
     7
370
    50
100
AcDbLine
 10
126.10487
 20
245.277013
 30
0.0
 11
126.10487
 21
246.435261
 31
0.0
  0
LINE
  5
45
330
1F
100
AcDbEntity
  8
LC-001-100-D00-0
 62
     7
370
    50
100
AcDbLine
 10
129.139646
 20
164.830568
 30
0.0
 11
129.796753
 21
164.17346
 31
0.0
  0
LINE
  5
46
330
1F
100
AcDbEntity
  8
LC-001-100-D00-0
 62
     7
370
    50
100
AcDbLine
 10
129.796753
 20
246.380566
 30
0.0
 11
129.139646
 21
245.723459
 31
0.0
  0
ARC
  5
47
330
1F
100
AcDbEntity
  8
LC-001-100-D00-0
 62
     7
370
    50
100
AcDbCircle
 10
128.786093
 20
246.077013
 30
0.0
 40
0.5000000000000568
100
AcDbArc
 50
270.0
 51
315.0
  0
ARC
  5
48
330
1F
100
AcDbEntity
  8
LC-001-100-D00-0
 62
     7
370
    50
100
AcDbCircle
 10
128.786093
 20
164.477013
 30
0.0
 40
0.5000000000000442
100
AcDbArc
 50
45.0
 51
90.0
  0
LINE
  5
49
330
1F
100
AcDbEntity
  8
LC-001-100-D00-0
 62
     7
370
    50
100
AcDbLine
 10
128.786093
 20
245.577014
 30
0.0
 11
127.591401
 21
245.577014
 31
0.0
  0
LINE
  5
4A
330
1F
100
AcDbEntity
  8
LC-001-100-D00-0
 62
     7
370
    50
100
AcDbLine
 10
127.591401
 20
164.977013
 30
0.0
 11
128.786093
 21
164.977013
 31
0.0
  0
ARC
  5
4B
330
1F
100
AcDbEntity
  8
LC-001-100-D00-0
 62
     7
370
    50
100
AcDbCircle
 10
142.90487
 20
238.877013
 30
0.0
 40
0.5
100
AcDbArc
 50
180.0
 51
270.0
  0
ARC
  5
4C
330
1F
100
AcDbEntity
  8
LC-001-100-D00-0
 62
     7
370
    50
100
AcDbCircle
 10
142.90487
 20
171.677013
 30
0.0
 40
0.5
100
AcDbArc
 50
90.0
 51
180.0
  0
INSERT
  5
78
330
1F
100
AcDbEntity
  8
LC-001-100-D00-0
 62
     7
370
    50
100
AcDbBlockReference
  2
POLY1
 10
0.0
 20
0.0
 30
0.0
  0
INSERT
  5
9E
330
1F
100
AcDbEntity
  8
LC-001-100-D00-0
 62
     7
370
    50
100
AcDbBlockReference
  2
POLY2
 10
0.0
 20
0.0
 30
0.0
  0
LINE
  5
9F
330
1F
100
AcDbEntity
  8
LC-001-100-D00-0
 62
     7
370
    50
100
AcDbLine
 10
147.40487
 20
238.377015
 30
0.0
 11
142.90487
 21
238.377015
 31
0.0
  0
LINE
  5
A0
330
1F
100
AcDbEntity
  8
LC-001-100-D00-0
 62
     7
370
    50
100
AcDbLine
 10
142.90487
 20
172.177012
 30
0.0
 11
147.40487
 21
172.177012
 31
0.0
  0
LINE
  5
A1
330
1F
100
AcDbEntity
  8
LC-001-100-D00-0
 62
     7
370
    50
100
AcDbLine
 10
147.40487
 20
238.377015
 30
0.0
 11
147.40487
 21
172.177012
 31
0.0
  0
INSERT
  5
B3
330
1F
100
AcDbEntity
  8
LC-001-100-D00-0
 62
     7
370
    50
100
AcDbBlockReference
  2
POLY3
 10
0.0
 20
0.0
 30
0.0
  0
ARC
  5
B4
330
1F
100
AcDbEntity
  8
LC-001-100-D00-0
 62
     7
370
    50
100
AcDbCircle
 10
142.40487
 20
166.527013
 30
0.0
 40
2.5
100
AcDbArc
 50
270.0
 51
0.0
  0
LINE
  5
B5
330
1F
100
AcDbEntity
  8
LC-001-100-D00-0
 62
     7
370
    50
100
AcDbLine
 10
144.90487
 20
169.673013
 30
0.0
 11
144.90487
 21
166.526961
 31
0.0
  0
LINE
  5
B6
330
1F
100
AcDbEntity
  8
LC-001-100-D00-0
 62
     7
370
    50
100
AcDbLine
 10
142.90487
 20
169.673013
 30
0.0
 11
144.90487
 21
169.673013
 31
0.0
  0
LINE
  5
B7
330
1F
100
AcDbEntity
  8
LC-001-100-D00-0
 62
     7
370
    50
100
AcDbLine
 10
142.40487
 20
171.676977
 30
0.0
 11
142.40487
 21
170.172992
 31
0.0
  0
LINE
  5
B8
330
1F
100
AcDbEntity
  8
LC-001-100-D00-0
 62
     7
370
    50
100
AcDbLine
 10
147.40487
 20
166.513762
 30
0.0
 11
147.40487
 21
172.177012
 31
0.0
  0
LINE
  5
B9
330
1F
100
AcDbEntity
  8
LC-001-100-D00-0
 62
     7
370
    50
100
AcDbLine
 10
126.10487
 20
164.118766
 30
0.0
 11
126.10487
 21
161.513763
 31
0.0
  0
INSERT
  5
CB
330
1F
100
AcDbEntity
  8
LC-001-100-D00-0
 62
     7
370
    50
100
AcDbBlockReference
  2
POLY4
 10
0.0
 20
0.0
 30
0.0
  0
LINE
  5
CC
330
1F
100
AcDbEntity
  8
LC-001-100-D00-0
 62
     7
370
    50
100
AcDbLine
 10
144.90487
 20
240.881013
 30
0.0
 11
142.90487
 21
240.881013
 31
0.0
  0
LINE
  5
CD
330
1F
100
AcDbEntity
  8
LC-001-100-D00-0
 62
     7
370
    50
100
AcDbLine
 10
144.90487
 20
244.027066
 30
0.0
 11
144.90487
 21
240.881013
 31
0.0
  0
ARC
  5
CE
330
1F
100
AcDbEntity
  8
LC-001-100-D00-0
 62
     7
370
    50
100
AcDbCircle
 10
142.40487
 20
244.027013
 30
0.0
 40
2.5
100
AcDbArc
 50
0.0
 51
90.0
  0
LINE
  5
CF
330
1F
100
AcDbEntity
  8
LC-001-100-D00-0
 62
     7
370
    50
100
AcDbLine
 10
142.40487
 20
240.381035
 30
0.0
 11
142.40487
 21
238.877049
 31
0.0
  0
LINE
  5
D0
330
1F
100
AcDbEntity
  8
LC-001-100-D00-0
 62
     7
370
    50
100
AcDbLine
 10
147.40487
 20
238.377015
 30
0.0
 11
147.40487
 21
244.040265
 31
0.0
  0
LINE
  5
D1
330
1F
100
AcDbEntity
  8
LC-001-100-D00-0
 62
     7
370
    50
100
AcDbLine
 10
126.10487
 20
249.040264
 30
0.0
 11
126.10487
 21
246.435261
 31
0.0
  0
INSERT
  5
E3
330
1F
100
AcDbEntity
  8
LC-001-100-D00-0
 62
     7
370
    50
100
AcDbBlockReference
  2
POLY5
 10
0.0
 20
0.0
 30
0.0
  0
INSERT
  5
F3
330
1F
100
AcDbEntity
  8
LC-001-100-D00-0
 62
     7
370
    50
100
AcDbBlockReference
  2
POLY6
 10
0.0
 20
0.0
 30
0.0
  0
INSERT
  5
103
330
1F
100
AcDbEntity
  8
LC-001-100-D00-0
 62
     7
370
    50
100
AcDbBlockReference
  2
POLY7
 10
0.0
 20
0.0
 30
0.0
  0
LINE
  5
104
330
1F
100
AcDbEntity
  8
LC-001-100-D00-0
 62
     7
370
    50
100
AcDbLine
 10
147.80487
 20
167.534171
 30
0.0
 11
147.80487
 21
170.851412
 31
0.0
  0
INSERT
  5
112
330
1F
100
AcDbEntity
  8
LC-001-100-D00-0
 62
     7
370
    50
100
AcDbBlockReference
  2
POLY8
 10
0.0
 20
0.0
 30
0.0
  0
LINE
  5
113
330
1F
100
AcDbEntity
  8
LC-001-100-D00-0
 62
     7
370
    50
100
AcDbLine
 10
147.80487
 20
170.851412
 30
0.0
 11
147.80487
 21
172.621115
 31
0.0
  0
LINE
  5
114
330
1F
100
AcDbEntity
  8
LC-001-100-D00-0
 62
     7
370
    50
100
AcDbLine
 10
142.40487
 20
164.991307
 30
0.0
 11
142.40487
 21
167.277015
 31
0.0
  0
LINE
  5
115
330
1F
100
AcDbEntity
  8
LC-001-100-D00-0
 62
     7
370
    50
100
AcDbLine
 10
147.80487
 20
173.096566
 30
0.0
 11
147.80487
 21
172.621115
 31
0.0
  0
LINE
  5
116
330
1F
100
AcDbEntity
  8
LC-001-100-D00-0
 62
     7
370
    50
100
AcDbLine
 10
147.80487
 20
173.096566
 30
0.0
 11
147.80487
 21
173.134151
 31
0.0
  0
LINE
  5
117
330
1F
100
AcDbEntity
  8
LC-001-100-D00-0
 62
     7
370
    50
100
AcDbLine
 10
147.80487
 20
234.106724
 30
0.0
 11
147.80487
 21
236.129519
 31
0.0
  0
INSERT
  5
123
330
1F
100
AcDbEntity
  8
LC-001-100-D00-0
 62
     7
370
    50
100
AcDbBlockReference
  2
POLY9
 10
0.0
 20
0.0
 30
0.0
  0
LINE
  5
124
330
1F
100
AcDbEntity
  8
LC-001-100-D00-0
 62
     7
370
    50
100
AcDbLine
 10
147.80487
 20
239.023137
 30
0.0
 11
147.80487
 21
236.129519
 31
0.0
  0
LINE
  5
125
330
1F
100
AcDbEntity
  8
LC-001-100-D00-0
 62
     7
370
    50
100
AcDbLine
 10
147.80487
 20
234.106724
 30
0.0
 11
147.80487
 21
233.003813
 31
0.0
  0
LINE
  5
126
330
1F
100
AcDbEntity
  8
LC-001-100-D00-0
 62
     7
370
    50
100
AcDbLine
 10
147.80487
 20
232.787563
 30
0.0
 11
147.80487
 21
233.003813
 31
0.0
  0
LINE
  5
127
330
1F
100
AcDbEntity
  8
LC-001-100-D00-0
 62
     7
370
    50
100
AcDbLine
 10
147.80487
 20
184.805824
 30
0.0
 11
147.80487
 21
186.821398
 31
0.0
  0
INSERT
  5
133
330
1F
100
AcDbEntity
  8
LC-001-100-D00-0
 62
     7
370
    50
100
AcDbBlockReference
  2
POLY10
 10
0.0
 20
0.0
 30
0.0
  0
LINE
  5
134
330
1F
100
AcDbEntity
  8
LC-001-100-D00-0
 62
     7
370
    50
100
AcDbLine
 10
147.80487
 20
183.008154
 30
0.0
 11
147.80487
 21
184.805824
 31
0.0
  0
LINE
  5
135
330
1F
100
AcDbEntity
  8
LC-001-100-D00-0
 62
     7
370
    50
100
AcDbLine
 10
147.80487
 20
188.596698
 30
0.0
 11
147.80487
 21
186.821398
 31
0.0
  0
LINE
  5
136
330
1F
100
AcDbEntity
  8
LC-001-100-D00-0
 62
     7
370
    50
100
AcDbLine
 10
147.80487
 20
188.596698
 30
0.0
 11
147.80487
 21
189.278322
 31
0.0
  0
LINE
  5
137
330
1F
100
AcDbEntity
  8
LC-001-100-D00-0
 62
     7
370
    50
100
AcDbLine
 10
147.80487
 20
213.867933
 30
0.0
 11
147.80487
 21
211.832731
 31
0.0
  0
LINE
  5
138
330
1F
100
AcDbEntity
  8
LC-001-100-D00-0
 62
     7
370
    50
100
AcDbLine
 10
147.80487
 20
213.867933
 30
0.0
 11
147.80487
 21
215.620886
 31
0.0
  0
LINE
  5
139
330
1F
100
AcDbEntity
  8
LC-001-100-D00-0
 62
     7
370
    50
100
AcDbLine
 10
147.80487
 20
210.712663
 30
0.0
 11
147.80487
 21
211.832731
 31
0.0
  0
INSERT
  5
145
330
1F
100
AcDbEntity
  8
LC-001-100-D00-0
 62
     7
370
    50
100
AcDbBlockReference
  2
POLY11
 10
0.0
 20
0.0
 30
0.0
  0
LINE
  5
146
330
1F
100
AcDbEntity
  8
LC-001-100-D00-0
 62
     7
370
    50
100
AcDbLine
 10
147.80487
 20
216.395838
 30
0.0
 11
147.80487
 21
215.620886
 31
0.0
  0
ARC
  5
147
330
1F
100
AcDbEntity
  8
LC-001-100-D00-0
 62
     7
370
    50
100
AcDbCircle
 10
67.604885
 20
174.964424
 30
0.0
 40
0.1000032550063864
100
AcDbArc
 50
210.0
 51
330.002349
  0
ARC
  5
148
330
1F
100
AcDbEntity
  8
LC-001-100-D00-0
 62
     7
370
    50
100
AcDbCircle
 10
67.604885
 20
235.589603
 30
0.0
 40
0.1000032550061981
100
AcDbArc
 50
29.997651
 51
150.0
  0
ARC
  5
149
330
1F
100
AcDbEntity
  8
LC-001-100-D00-0
 62
     7
370
    50
100
AcDbCircle
 10
68.70487
 20
174.964444
 30
0.0
 40
0.1000000000135469
100
AcDbArc
 50
210.0
 51
330.0
  0
ARC
  5
14A
330
1F
100
AcDbEntity
  8
LC-001-100-D00-0
 62
     7
370
    50
100
AcDbCircle
 10
68.70487
 20
235.589583
 30
0.0
 40
0.100000000013456
100
AcDbArc
 50
30.0
 51
150.0
  0
ARC
  5
14B
330
1F
100
AcDbEntity
  8
LC-001-100-D00-0
 62
     7
370
    50
100
AcDbCircle
 10
69.80487
 20
174.964444
 30
0.0
 40
0.1000000000130393
100
AcDbArc
 50
210.0
 51
330.0
  0
ARC
  5
14C
330
1F
100
AcDbEntity
  8
LC-001-100-D00-0
 62
     7
370
    50
100
AcDbCircle
 10
69.80487
 20
235.589583
 30
0.0
 40
0.1000000000128841
100
AcDbArc
 50
30.0
 51
150.0
  0
LINE
  5
14D
330
1F
100
AcDbEntity
  8
LC-001-100-D00-0
 62
     7
370
    50
100
AcDbLine
 10
67.51828
 20
174.914422
 30
0.0
 11
67.200722
 21
175.464445
 31
0.0
  0
LINE
  5
14E
330
1F
100
AcDbEntity
  8
LC-001-100-D00-0
 62
     7
370
    50
100
AcDbLine
 10
67.200722
 20
235.089582
 30
0.0
 11
67.51828
 21
235.639605
 31
0.0
  0
LINE
  5
14F
330
1F
100
AcDbEntity
  8
LC-001-100-D00-0
 62
     7
370
    50
100
AcDbLine
 10
67.691492
 20
235.639601
 30
0.0
 11
68.009013
 21
235.089582
 31
0.0
  0
LINE
  5
150
330
1F
100
AcDbEntity
  8
LC-001-100-D00-0
 62
     7
370
    50
100
AcDbLine
 10
68.009013
 20
175.464445
 30
0.0
 11
67.691492
 21
174.914426
 31
0.0
  0
LINE
  5
151
330
1F
100
AcDbEntity
  8
LC-001-100-D00-0
 62
     7
370
    50
100
AcDbLine
 10
68.791473
 20
235.639582
 30
0.0
 11
69.109017
 21
235.089582
 31
0.0
  0
LINE
  5
152
330
1F
100
AcDbEntity
  8
LC-001-100-D00-0
 62
     7
370
    50
100
AcDbLine
 10
69.109017
 20
175.464445
 30
0.0
 11
68.791473
 21
174.914445
 31
0.0
  0
LINE
  5
153
330
1F
100
AcDbEntity
  8
LC-001-100-D00-0
 62
     7
370
    50
100
AcDbLine
 10
68.618269
 20
174.914445
 30
0.0
 11
68.300725
 21
175.464445
 31
0.0
  0
LINE
  5
154
330
1F
100
AcDbEntity
  8
LC-001-100-D00-0
 62
     7
370
    50
100
AcDbLine
 10
68.300725
 20
235.089582
 30
0.0
 11
68.618269
 21
235.639582
 31
0.0
  0
LINE
  5
155
330
1F
100
AcDbEntity
  8
LC-001-100-D00-0
 62
     7
370
    50
100
AcDbLine
 10
69.891469
 20
235.639582
 30
0.0
 11
70.209013
 21
235.089582
 31
0.0
  0
LINE
  5
156
330
1F
100
AcDbEntity
  8
LC-001-100-D00-0
 62
     7
370
    50
100
AcDbLine
 10
70.209013
 20
175.464445
 30
0.0
 11
69.891469
 21
174.914445
 31
0.0
  0
LINE
  5
157
330
1F
100
AcDbEntity
  8
LC-001-100-D00-0
 62
     7
370
    50
100
AcDbLine
 10
69.718266
 20
174.914445
 30
0.0
 11
69.400722
 21
175.464445
 31
0.0
  0
LINE
  5
158
330
1F
100
AcDbEntity
  8
LC-001-100-D00-0
 62
     7
370
    50
100
AcDbLine
 10
69.400722
 20
235.089582
 30
0.0
 11
69.718266
 21
235.639582
 31
0.0
  0
ARC
  5
159
330
1F
100
AcDbEntity
  8
LC-001-100-D00-0
 62
     7
370
    50
100
AcDbCircle
 10
66.50487
 20
175.064444
 30
0.0
 40
0.1000000000242843
100
AcDbArc
 50
210.0
 51
330.0
  0
ARC
  5
15A
330
1F
100
AcDbEntity
  8
LC-001-100-D00-0
 62
     7
370
    50
100
AcDbCircle
 10
66.50487
 20
235.489583
 30
0.0
 40
0.1000000000242284
100
AcDbArc
 50
30.0
 51
150.0
  0
LINE
  5
15B
330
1F
100
AcDbEntity
  8
LC-001-100-D00-0
 62
     7
370
    50
100
AcDbLine
 10
66.591473
 20
235.539582
 30
0.0
 11
66.851282
 21
235.089582
 31
0.0
  0
LINE
  5
15C
330
1F
100
AcDbEntity
  8
LC-001-100-D00-0
 62
     7
370
    50
100
AcDbLine
 10
66.851282
 20
175.464445
 30
0.0
 11
66.591473
 21
175.014444
 31
0.0
  0
LINE
  5
15D
330
1F
100
AcDbEntity
  8
LC-001-100-D00-0
 62
     7
370
    50
100
AcDbLine
 10
66.418269
 20
175.014444
 30
0.0
 11
66.15846
 21
175.464445
 31
0.0
  0
LINE
  5
15E
330
1F
100
AcDbEntity
  8
LC-001-100-D00-0
 62
     7
370
    50
100
AcDbLine
 10
66.15846
 20
235.089582
 30
0.0
 11
66.418269
 21
235.539582
 31
0.0
  0
LINE
  5
15F
330
1F
100
AcDbEntity
  8
LC-001-100-D00-0
 62
     7
370
    50
100
AcDbLine
 10
67.200722
 20
175.464445
 30
0.0
 11
66.851282
 21
175.464445
 31
0.0
  0
LINE
  5
160
330
1F
100
AcDbEntity
  8
LC-001-100-D00-0
 62
     7
370
    50
100
AcDbLine
 10
66.851282
 20
235.089582
 30
0.0
 11
67.200722
 21
235.089582
 31
0.0
  0
LINE
  5
161
330
1F
100
AcDbEntity
  8
LC-001-100-D00-0
 62
     7
370
    50
100
AcDbLine
 10
66.15846
 20
175.464445
 30
0.0
 11
65.786698
 21
175.464445
 31
0.0
  0
LINE
  5
162
330
1F
100
AcDbEntity
  8
LC-001-100-D00-0
 62
     7
370
    50
100
AcDbLine
 10
65.786698
 20
235.089582
 30
0.0
 11
66.15846
 21
235.089582
 31
0.0
  0
LINE
  5
163
330
1F
100
AcDbEntity
  8
LC-001-100-D00-0
 62
     7
370
    50
100
AcDbLine
 10
68.300725
 20
175.464445
 30
0.0
 11
68.009013
 21
175.464445
 31
0.0
  0
LINE
  5
164
330
1F
100
AcDbEntity
  8
LC-001-100-D00-0
 62
     7
370
    50
100
AcDbLine
 10
68.009013
 20
235.089582
 30
0.0
 11
68.300725
 21
235.089582
 31
0.0
  0
ARC
  5
165
330
1F
100
AcDbEntity
  8
LC-001-100-D00-0
 62
     7
370
    50
100
AcDbCircle
 10
65.786695
 20
176.464444
 30
0.0
 40
0.9999999999999468
100
AcDbArc
 50
200.0
 51
270.0
  0
ARC
  5
166
330
1F
100
AcDbEntity
  8
LC-001-100-D00-0
 62
     7
370
    50
100
AcDbCircle
 10
65.786695
 20
234.089583
 30
0.0
 40
1.0
100
AcDbArc
 50
90.0
 51
160.0
  0
LINE
  5
167
330
1F
100
AcDbEntity
  8
LC-001-100-D00-0
 62
     7
370
    50
100
AcDbLine
 10
70.413114
 20
175.464445
 30
0.0
 11
70.209013
 21
175.464445
 31
0.0
  0
LINE
  5
168
330
1F
100
AcDbEntity
  8
LC-001-100-D00-0
 62
     7
370
    50
100
AcDbLine
 10
70.209013
 20
235.089582
 30
0.0
 11
70.413114
 21
235.089582
 31
0.0
  0
LINE
  5
169
330
1F
100
AcDbEntity
  8
LC-001-100-D00-0
 62
     7
370
    50
100
AcDbLine
 10
69.400722
 20
175.464445
 30
0.0
 11
69.109017
 21
175.464445
 31
0.0
  0
LINE
  5
16A
330
1F
100
AcDbEntity
  8
LC-001-100-D00-0
 62
     7
370
    50
100
AcDbLine
 10
69.109017
 20
235.089582
 30
0.0
 11
69.400722
 21
235.089582
 31
0.0
  0
ARC
  5
16B
330
1F
100
AcDbEntity
  8
LC-001-100-D00-0
 62
     7
370
    50
100
AcDbCircle
 10
70.413116
 20
176.464444
 30
0.0
 40
1.0
100
AcDbArc
 50
270.0
 51
350.0
  0
ARC
  5
16C
330
1F
100
AcDbEntity
  8
LC-001-100-D00-0
 62
     7
370
    50
100
AcDbCircle
 10
70.413116
 20
234.089583
 30
0.0
 40
1.000000000000115
100
AcDbArc
 50
10.0
 51
90.0
  0
LINE
  5
16D
330
1F
100
AcDbEntity
  8
LC-001-100-D00-0
 62
     7
370
    50
100
AcDbLine
 10
64.847001
 20
176.122424
 30
0.0
 11
64.307512
 21
176.554666
 31
0.0
  0
LINE
  5
16E
330
1F
100
AcDbEntity
  8
LC-001-100-D00-0
 62
     7
370
    50
100
AcDbLine
 10
64.307512
 20
233.999361
 30
0.0
 11
64.847001
 21
234.431603
 31
0.0
  0
LINE
  5
16F
330
1F
100
AcDbEntity
  8
LC-001-100-D00-0
 62
     7
370
    50
100
AcDbLine
 10
71.397924
 20
234.263231
 30
0.0
 11
71.604872
 21
234.139583
 31
0.0
  0
LINE
  5
170
330
1F
100
AcDbEntity
  8
LC-001-100-D00-0
 62
     7
370
    50
100
AcDbLine
 10
71.604872
 20
176.414444
 30
0.0
 11
71.397924
 21
176.290796
 31
0.0
  0
ARC
  5
171
330
1F
100
AcDbEntity
  8
LC-001-100-D00-0
 62
     7
370
    50
100
AcDbCircle
 10
65.906836
 20
177.136772
 30
0.0
 40
1.70196608158215
100
AcDbArc
 50
120.0
 51
200.0
  0
ARC
  5
172
330
1F
100
AcDbEntity
  8
LC-001-100-D00-0
 62
     7
370
    50
100
AcDbCircle
 10
65.906836
 20
233.417255
 30
0.0
 40
1.701966081582052
100
AcDbArc
 50
160.0
 51
240.0
  0
ARC
  5
173
330
1F
100
AcDbEntity
  8
LC-001-100-D00-0
 62
     7
370
    50
100
AcDbCircle
 10
71.10487
 20
178.268567
 30
0.0
 40
0.5000000000000568
100
AcDbArc
 50
0.0
 51
100.0
  0
ARC
  5
174
330
1F
100
AcDbEntity
  8
LC-001-100-D00-0
 62
     7
370
    50
100
AcDbCircle
 10
71.10487
 20
232.28546
 30
0.0
 40
0.5000000000000245
100
AcDbArc
 50
260.0
 51
0.0
  0
ARC
  5
175
330
1F
100
AcDbEntity
  8
LC-001-100-D00-0
 62
     7
370
    50
100
AcDbCircle
 10
69.259646
 20
178.667382
 30
0.0
 40
0.3000000000000712
100
AcDbArc
 50
210.0
 51
280.0
  0
ARC
  5
176
330
1F
100
AcDbEntity
  8
LC-001-100-D00-0
 62
     7
370
    50
100
AcDbCircle
 10
69.259646
 20
231.886645
 30
0.0
 40
0.2999999999998089
100
AcDbArc
 50
80.0
 51
150.0
  0
LINE
  5
177
330
1F
100
AcDbEntity
  8
LC-001-100-D00-0
 62
     7
370
    50
100
AcDbLine
 10
71.018049
 20
231.793056
 30
0.0
 11
69.311739
 21
232.182086
 31
0.0
  0
LINE
  5
178
330
1F
100
AcDbEntity
  8
LC-001-100-D00-0
 62
     7
370
    50
100
AcDbLine
 10
69.311739
 20
178.371941
 30
0.0
 11
71.018049
 21
178.760971
 31
0.0
  0
LINE
  5
179
330
1F
100
AcDbEntity
  8
LC-001-100-D00-0
 62
     7
370
    50
100
AcDbLine
 10
68.679647
 20
179.071969
 30
0.0
 11
68.999836
 21
178.517381
 31
0.0
  0
LINE
  5
17A
330
1F
100
AcDbEntity
  8
LC-001-100-D00-0
 62
     7
370
    50
100
AcDbLine
 10
68.999836
 20
232.036645
 30
0.0
 11
68.679647
 21
231.482058
 31
0.0
  0
LINE
  5
17B
330
1F
100
AcDbEntity
  8
LC-001-100-D00-0
 62
     7
370
    50
100
AcDbLine
 10
68.630727
 20
229.302005
 30
0.0
 11
65.055856
 21
231.943308
 31
0.0
  0
LINE
  5
17C
330
1F
100
AcDbEntity
  8
LC-001-100-D00-0
 62
     7
370
    50
100
AcDbLine
 10
65.055856
 20
178.610719
 30
0.0
 11
68.630727
 21
181.252022
 31
0.0
  0
ARC
  5
17D
330
1F
100
AcDbEntity
  8
LC-001-100-D00-0
 62
     7
370
    50
100
AcDbCircle
 10
68.939455
 20
179.22197
 30
0.0
 40
0.2999999999998099
100
AcDbArc
 50
165.0
 51
210.0
  0
ARC
  5
17E
330
1F
100
AcDbEntity
  8
LC-001-100-D00-0
 62
     7
370
    50
100
AcDbCircle
 10
68.939455
 20
231.332057
 30
0.0
 40
0.2999999999998033
100
AcDbArc
 50
150.0
 51
195.0
  0
LINE
  5
17F
330
1F
100
AcDbEntity
  8
LC-001-100-D00-0
 62
     7
370
    50
100
AcDbLine
 10
68.649681
 20
231.254411
 30
0.0
 11
69.313736
 21
229.826099
 31
0.0
  0
LINE
  5
180
330
1F
100
AcDbEntity
  8
LC-001-100-D00-0
 62
     7
370
    50
100
AcDbLine
 10
69.313736
 20
180.727928
 30
0.0
 11
68.649681
 21
179.299616
 31
0.0
  0
ARC
  5
181
330
1F
100
AcDbEntity
  8
LC-001-100-D00-0
 62
     7
370
    50
100
AcDbCircle
 10
68.863689
 20
180.848518
 30
0.0
 40
0.465925826289199
100
AcDbArc
 50
345.0
 51
119.999999
  0
ARC
  5
182
330
1F
100
AcDbEntity
  8
LC-001-100-D00-0
 62
     7
370
    50
100
AcDbCircle
 10
68.863689
 20
229.705508
 30
0.0
 40
0.465925826289263
100
AcDbArc
 50
240.000001
 51
15.0
  0
LINE
  5
183
330
1F
100
AcDbEntity
  8
LC-001-100-D00-0
 62
     7
370
    50
100
AcDbLine
 10
71.604872
 20
234.139583
 30
0.0
 11
71.604872
 21
232.285459
 31
0.0
  0
LINE
  5
184
330
1F
100
AcDbEntity
  8
LC-001-100-D00-0
 62
     7
370
    50
100
AcDbLine
 10
71.604872
 20
178.268567
 30
0.0
 11
71.604872
 21
176.414444
 31
0.0
  0
ARC
  5
185
330
1F
100
AcDbEntity
  8
LC-001-100-D00-0
 62
     7
370
    50
100
AcDbCircle
 10
140.40487
 20
243.277013
 30
0.0
 40
2.0
100
AcDbArc
 50
0.0
 51
90.0
  0
ARC
  5
186
330
1F
100
AcDbEntity
  8
LC-001-100-D00-0
 62
     7
370
    50
100
AcDbCircle
 10
140.40487
 20
167.277013
 30
0.0
 40
2.0
100
AcDbArc
 50
270.0
 51
0.0
  0
LINE
  5
187
330
1F
100
AcDbEntity
  8
LC-001-100-D00-0
 62
     7
370
    50
100
AcDbLine
 10
138.40487
 20
245.277013
 30
0.0
 11
140.40487
 21
245.277013
 31
0.0
  0
LINE
  5
188
330
1F
100
AcDbEntity
  8
LC-001-100-D00-0
 62
     7
370
    50
100
AcDbLine
 10
140.40487
 20
165.277014
 30
0.0
 11
138.40487
 21
165.277014
 31
0.0
  0
LINE
  5
189
330
1F
100
AcDbEntity
  8
LC-001-100-D00-0
 62
     7
370
    50
100
AcDbLine
 10
112.404869
 20
242.777015
 30
0.0
 11
138.40487
 21
242.777015
 31
0.0
  0
LINE
  5
18A
330
1F
100
AcDbEntity
  8
LC-001-100-D00-0
 62
     7
370
    50
100
AcDbLine
 10
138.40487
 20
167.777012
 30
0.0
 11
112.404869
 21
167.777012
 31
0.0
  0
LINE
  5
18B
330
1F
100
AcDbEntity
  8
LC-001-100-D00-0
 62
     7
370
    50
100
AcDbLine
 10
112.404869
 20
167.777012
 30
0.0
 11
109.404871
 21
168.580863
 31
0.0
  0
LINE
  5
18C
330
1F
100
AcDbEntity
  8
LC-001-100-D00-0
 62
     7
370
    50
100
AcDbLine
 10
109.404871
 20
241.973164
 30
0.0
 11
112.404869
 21
242.777015
 31
0.0
  0
LINE
  5
18D
330
1F
100
AcDbEntity
  8
LC-001-100-D00-0
 62
     7
370
    50
100
AcDbLine
 10
138.783239
 20
177.917481
 30
0.0
 11
142.40487
 21
170.777014
 31
0.0
  0
LINE
  5
18E
330
1F
100
AcDbEntity
  8
LC-001-100-D00-0
 62
     7
370
    50
100
AcDbLine
 10
142.40487
 20
239.777013
 30
0.0
 11
138.783239
 21
232.636546
 31
0.0
  0
LINE
  5
18F
330
1F
100
AcDbEntity
  8
LC-001-100-D00-0
 62
     7
370
    50
100
AcDbLine
 10
137.90487
 20
239.777013
 30
0.0
 11
137.494805
 21
239.777013
 31
0.0
  0
LINE
  5
190
330
1F
100
AcDbEntity
  8
LC-001-100-D00-0
 62
     7
370
    50
100
AcDbLine
 10
137.494805
 20
170.777014
 30
0.0
 11
137.90487
 21
170.777014
 31
0.0
  0
ARC
  5
191
330
1F
100
AcDbEntity
  8
LC-001-100-D00-0
 62
     7
370
    50
100
AcDbCircle
 10
137.90487
 20
171.277013
 30
0.0
 40
0.5
100
AcDbArc
 50
270.0
 51
0.0
  0
ARC
  5
192
330
1F
100
AcDbEntity
  8
LC-001-100-D00-0
 62
     7
370
    50
100
AcDbCircle
 10
137.90487
 20
239.277013
 30
0.0
 40
0.5
100
AcDbArc
 50
0.0
 51
90.0
  0
ARC
  5
193
330
1F
100
AcDbEntity
  8
LC-001-100-D00-0
 62
     7
370
    50
100
AcDbCircle
 10
137.494805
 20
239.277013
 30
0.0
 40
0.5000000000000284
100
AcDbArc
 50
90.0
 51
150.0
  0
ARC
  5
194
330
1F
100
AcDbEntity
  8
LC-001-100-D00-0
 62
     7
370
    50
100
AcDbCircle
 10
137.494805
 20
171.277013
 30
0.0
 40
0.4999999999999918
100
AcDbArc
 50
210.0
 51
270.0
  0
LINE
  5
195
330
1F
100
AcDbEntity
  8
LC-001-100-D00-0
 62
     7
370
    50
100
AcDbLine
 10
133.078075
 20
177.927014
 30
0.0
 11
137.061792
 21
171.027015
 31
0.0
  0
LINE
  5
196
330
1F
100
AcDbEntity
  8
LC-001-100-D00-0
 62
     7
370
    50
100
AcDbLine
 10
137.061792
 20
239.527012
 30
0.0
 11
133.078075
 21
232.627013
 31
0.0
  0
ARC
  5
197
330
1F
100
AcDbEntity
  8
LC-001-100-D00-0
 62
     7
370
    50
100
AcDbCircle
 10
112.693545
 20
238.277013
 30
0.0
 40
0.5
100
AcDbArc
 50
90.0
 51
150.0
  0
ARC
  5
198
330
1F
100
AcDbEntity
  8
LC-001-100-D00-0
 62
     7
370
    50
100
AcDbCircle
 10
112.693545
 20
172.277013
 30
0.0
 40
0.5000000000000164
100
AcDbArc
 50
210.0
 51
270.0
  0
ARC
  5
199
330
1F
100
AcDbEntity
  8
LC-001-100-D00-0
 62
     7
370
    50
100
AcDbCircle
 10
120.20487
 20
172.277013
 30
0.0
 40
0.5
100
AcDbArc
 50
270.0
 51
0.0
  0
ARC
  5
19A
330
1F
100
AcDbEntity
  8
LC-001-100-D00-0
 62
     7
370
    50
100
AcDbCircle
 10
120.20487
 20
238.277013
 30
0.0
 40
0.5
100
AcDbArc
 50
0.0
 51
90.0
  0
ARC
  5
19B
330
1F
100
AcDbEntity
  8
LC-001-100-D00-0
 62
     7
370
    50
100
AcDbCircle
 10
119.339248
 20
238.277013
 30
0.0
 40
0.4999999999999716
100
AcDbArc
 50
90.0
 51
155.0
  0
ARC
  5
19C
330
1F
100
AcDbEntity
  8
LC-001-100-D00-0
 62
     7
370
    50
100
AcDbCircle
 10
119.339248
 20
172.277013
 30
0.0
 40
0.5000000000000067
100
AcDbArc
 50
205.0
 51
270.0
  0
ARC
  5
19D
330
1F
100
AcDbEntity
  8
LC-001-100-D00-0
 62
     7
370
    50
100
AcDbCircle
 10
114.20487
 20
172.277013
 30
0.0
 40
0.5
100
AcDbArc
 50
270.0
 51
0.0
  0
ARC
  5
19E
330
1F
100
AcDbEntity
  8
LC-001-100-D00-0
 62
     7
370
    50
100
AcDbCircle
 10
114.20487
 20
238.277013
 30
0.0
 40
0.5
100
AcDbArc
 50
0.0
 51
90.0
  0
ARC
  5
19F
330
1F
100
AcDbEntity
  8
LC-001-100-D00-0
 62
     7
370
    50
100
AcDbCircle
 10
125.339248
 20
238.277013
 30
0.0
 40
0.5000000000000284
100
AcDbArc
 50
90.0
 51
155.0
  0
ARC
  5
1A0
330
1F
100
AcDbEntity
  8
LC-001-100-D00-0
 62
     7
370
    50
100
AcDbCircle
 10
125.339248
 20
172.277013
 30
0.0
 40
0.5000000000000324
100
AcDbArc
 50
205.0
 51
270.0
  0
ARC
  5
1A1
330
1F
100
AcDbEntity
  8
LC-001-100-D00-0
 62
     7
370
    50
100
AcDbCircle
 10
126.20487
 20
172.277013
 30
0.0
 40
0.5
100
AcDbArc
 50
270.0
 51
0.0
  0
ARC
  5
1A2
330
1F
100
AcDbEntity
  8
LC-001-100-D00-0
 62
     7
370
    50
100
AcDbCircle
 10
126.20487
 20
238.277013
 30
0.0
 40
0.5
100
AcDbArc
 50
0.0
 51
90.0
  0
ARC
  5
1A3
330
1F
100
AcDbEntity
  8
LC-001-100-D00-0
 62
     7
370
    50
100
AcDbCircle
 10
131.339248
 20
238.277013
 30
0.0
 40
0.5000000000000284
100
AcDbArc
 50
90.0
 51
155.0
  0
ARC
  5
1A4
330
1F
100
AcDbEntity
  8
LC-001-100-D00-0
 62
     7
370
    50
100
AcDbCircle
 10
131.339248
 20
172.277013
 30
0.0
 40
0.5000000000000067
100
AcDbArc
 50
205.0
 51
270.0
  0
LINE
  5
1A5
330
1F
100
AcDbEntity
  8
LC-001-100-D00-0
 62
     7
370
    50
100
AcDbLine
 10
120.204869
 20
238.777014
 30
0.0
 11
119.339248
 21
238.777014
 31
0.0
  0
LINE
  5
1A6
330
1F
100
AcDbEntity
  8
LC-001-100-D00-0
 62
     7
370
    50
100
AcDbLine
 10
119.339248
 20
171.777013
 30
0.0
 11
120.204869
 21
171.777013
 31
0.0
  0
ARC
  5
1A7
330
1F
100
AcDbEntity
  8
LC-001-100-D00-0
 62
     7
370
    50
100
AcDbCircle
 10
132.20487
 20
172.277013
 30
0.0
 40
0.5
100
AcDbArc
 50
270.0
 51
0.0
  0
ARC
  5
1A8
330
1F
100
AcDbEntity
  8
LC-001-100-D00-0
 62
     7
370
    50
100
AcDbCircle
 10
132.20487
 20
238.277013
 30
0.0
 40
0.5
100
AcDbArc
 50
0.0
 51
90.0
  0
LINE
  5
1A9
330
1F
100
AcDbEntity
  8
LC-001-100-D00-0
 62
     7
370
    50
100
AcDbLine
 10
114.20487
 20
238.777014
 30
0.0
 11
112.693546
 21
238.777014
 31
0.0
  0
LINE
  5
1AA
330
1F
100
AcDbEntity
  8
LC-001-100-D00-0
 62
     7
370
    50
100
AcDbLine
 10
112.693546
 20
171.777013
 30
0.0
 11
114.20487
 21
171.777013
 31
0.0
  0
LINE
  5
1AB
330
1F
100
AcDbEntity
  8
LC-001-100-D00-0
 62
     7
370
    50
100
AcDbLine
 10
126.20487
 20
238.777014
 30
0.0
 11
125.339248
 21
238.777014
 31
0.0
  0
LINE
  5
1AC
330
1F
100
AcDbEntity
  8
LC-001-100-D00-0
 62
     7
370
    50
100
AcDbLine
 10
125.339248
 20
171.777013
 30
0.0
 11
126.20487
 21
171.777013
 31
0.0
  0
LINE
  5
1AD
330
1F
100
AcDbEntity
  8
LC-001-100-D00-0
 62
     7
370
    50
100
AcDbLine
 10
132.20487
 20
238.777014
 30
0.0
 11
131.339248
 21
238.777014
 31
0.0
  0
LINE
  5
1AE
330
1F
100
AcDbEntity
  8
LC-001-100-D00-0
 62
     7
370
    50
100
AcDbLine
 10
131.339248
 20
171.777013
 30
0.0
 11
132.20487
 21
171.777013
 31
0.0
  0
LINE
  5
1AF
330
1F
100
AcDbEntity
  8
LC-001-100-D00-0
 62
     7
370
    50
100
AcDbLine
 10
110.817156
 20
174.527013
 30
0.0
 11
112.260533
 21
172.027013
 31
0.0
  0
LINE
  5
1B0
330
1F
100
AcDbEntity
  8
LC-001-100-D00-0
 62
     7
370
    50
100
AcDbLine
 10
112.260533
 20
238.527014
 30
0.0
 11
110.817156
 21
236.027014
 31
0.0
  0
LINE
  5
1B1
330
1F
100
AcDbEntity
  8
LC-001-100-D00-0
 62
     7
370
    50
100
AcDbLine
 10
127.658024
 20
178.988323
 30
0.0
 11
130.886094
 21
172.065704
 31
0.0
  0
LINE
  5
1B2
330
1F
100
AcDbEntity
  8
LC-001-100-D00-0
 62
     7
370
    50
100
AcDbLine
 10
130.886094
 20
238.488323
 30
0.0
 11
127.658024
 21
231.565703
 31
0.0
  0
LINE
  5
1B3
330
1F
100
AcDbEntity
  8
LC-001-100-D00-0
 62
     7
370
    50
100
AcDbLine
 10
115.658024
 20
178.988323
 30
0.0
 11
118.886094
 21
172.065704
 31
0.0
  0
LINE
  5
1B4
330
1F
100
AcDbEntity
  8
LC-001-100-D00-0
 62
     7
370
    50
100
AcDbLine
 10
118.886094
 20
238.488323
 30
0.0
 11
115.658024
 21
231.565703
 31
0.0
  0
LINE
  5
1B5
330
1F
100
AcDbEntity
  8
LC-001-100-D00-0
 62
     7
370
    50
100
AcDbLine
 10
121.658023
 20
178.988323
 30
0.0
 11
124.886094
 21
172.065704
 31
0.0
  0
LINE
  5
1B6
330
1F
100
AcDbEntity
  8
LC-001-100-D00-0
 62
     7
370
    50
100
AcDbLine
 10
124.886094
 20
238.488323
 30
0.0
 11
121.658023
 21
231.565703
 31
0.0
  0
ARC
  5
1B7
330
1F
100
AcDbEntity
  8
LC-001-100-D00-0
 62
     7
370
    50
100
AcDbCircle
 10
110.384144
 20
174.277013
 30
0.0
 40
0.5000000000000449
100
AcDbArc
 50
30.0
 51
90.0
  0
ARC
  5
1B8
330
1F
100
AcDbEntity
  8
LC-001-100-D00-0
 62
     7
370
    50
100
AcDbCircle
 10
110.384144
 20
236.277013
 30
0.0
 40
0.5000000000000284
100
AcDbArc
 50
270.0
 51
330.0
  0
LINE
  5
1B9
330
1F
100
AcDbEntity
  8
LC-001-100-D00-0
 62
     7
370
    50
100
AcDbLine
 10
110.384143
 20
235.777014
 30
0.0
 11
109.404871
 21
235.777014
 31
0.0
  0
LINE
  5
1BA
330
1F
100
AcDbEntity
  8
LC-001-100-D00-0
 62
     7
370
    50
100
AcDbLine
 10
109.404871
 20
174.777013
 30
0.0
 11
110.384143
 21
174.777013
 31
0.0
  0
ARC
  5
1BB
330
1F
100
AcDbEntity
  8
LC-001-100-D00-0
 62
     7
370
    50
100
AcDbCircle
 10
132.90487
 20
232.727013
 30
0.0
 40
0.2000000000000455
100
AcDbArc
 50
180.0
 51
330.0
  0
ARC
  5
1BC
330
1F
100
AcDbEntity
  8
LC-001-100-D00-0
 62
     7
370
    50
100
AcDbCircle
 10
132.90487
 20
177.827013
 30
0.0
 40
0.1999999999999983
100
AcDbArc
 50
30.0
 51
180.0
  0
LINE
  5
1BD
330
1F
100
AcDbEntity
  8
LC-001-100-D00-0
 62
     7
370
    50
100
AcDbLine
 10
132.70487
 20
232.727014
 30
0.0
 11
132.70487
 21
177.827013
 31
0.0
  0
ARC
  5
1BE
330
1F
100
AcDbEntity
  8
LC-001-100-D00-0
 62
     7
370
    50
100
AcDbCircle
 10
138.60487
 20
232.727013
 30
0.0
 40
0.2000000000000455
100
AcDbArc
 50
180.0
 51
333.105969
  0
ARC
  5
1BF
330
1F
100
AcDbEntity
  8
LC-001-100-D00-0
 62
     7
370
    50
100
AcDbCircle
 10
138.60487
 20
177.827013
 30
0.0
 40
0.2000000000000484
100
AcDbArc
 50
26.894031
 51
180.0
  0
LINE
  5
1C0
330
1F
100
AcDbEntity
  8
LC-001-100-D00-0
 62
     7
370
    50
100
AcDbLine
 10
138.40487
 20
232.727014
 30
0.0
 11
138.40487
 21
177.827013
 31
0.0
  0
ARC
  5
1C1
330
1F
100
AcDbEntity
  8
LC-001-100-D00-0
 62
     7
370
    50
100
AcDbCircle
 10
121.20487
 20
231.777013
 30
0.0
 40
0.5
100
AcDbArc
 50
180.0
 51
335.0
  0
ARC
  5
1C2
330
1F
100
AcDbEntity
  8
LC-001-100-D00-0
 62
     7
370
    50
100
AcDbCircle
 10
121.20487
 20
178.777013
 30
0.0
 40
0.5000000000000067
100
AcDbArc
 50
25.0
 51
180.0
  0
LINE
  5
1C3
330
1F
100
AcDbEntity
  8
LC-001-100-D00-0
 62
     7
370
    50
100
AcDbLine
 10
120.70487
 20
231.777013
 30
0.0
 11
120.70487
 21
178.777014
 31
0.0
  0
ARC
  5
1C4
330
1F
100
AcDbEntity
  8
LC-001-100-D00-0
 62
     7
370
    50
100
AcDbCircle
 10
115.20487
 20
231.777013
 30
0.0
 40
0.5
100
AcDbArc
 50
180.0
 51
335.0
  0
ARC
  5
1C5
330
1F
100
AcDbEntity
  8
LC-001-100-D00-0
 62
     7
370
    50
100
AcDbCircle
 10
115.20487
 20
178.777013
 30
0.0
 40
0.5000000000000067
100
AcDbArc
 50
25.0
 51
180.0
  0
LINE
  5
1C6
330
1F
100
AcDbEntity
  8
LC-001-100-D00-0
 62
     7
370
    50
100
AcDbLine
 10
114.704869
 20
231.777013
 30
0.0
 11
114.704869
 21
178.777014
 31
0.0
  0
ARC
  5
1C7
330
1F
100
AcDbEntity
  8
LC-001-100-D00-0
 62
     7
370
    50
100
AcDbCircle
 10
127.20487
 20
231.777013
 30
0.0
 40
0.5000000000000284
100
AcDbArc
 50
180.0
 51
335.0
  0
ARC
  5
1C8
330
1F
100
AcDbEntity
  8
LC-001-100-D00-0
 62
     7
370
    50
100
AcDbCircle
 10
127.20487
 20
178.777013
 30
0.0
 40
0.5000000000000308
100
AcDbArc
 50
25.0
 51
180.0
  0
LINE
  5
1C9
330
1F
100
AcDbEntity
  8
LC-001-100-D00-0
 62
     7
370
    50
100
AcDbLine
 10
126.70487
 20
231.777013
 30
0.0
 11
126.70487
 21
178.777014
 31
0.0
  0
LINE
  5
1CA
330
1F
100
AcDbEntity
  8
LC-001-100-D00-0
 62
     7
370
    50
100
AcDbLine
 10
126.70487
 20
231.777013
 30
0.0
 11
126.70487
 21
238.277013
 31
0.0
  0
LINE
  5
1CB
330
1F
100
AcDbEntity
  8
LC-001-100-D00-0
 62
     7
370
    50
100
AcDbLine
 10
120.70487
 20
231.777013
 30
0.0
 11
120.70487
 21
238.277013
 31
0.0
  0
LINE
  5
1CC
330
1F
100
AcDbEntity
  8
LC-001-100-D00-0
 62
     7
370
    50
100
AcDbLine
 10
132.70487
 20
232.727014
 30
0.0
 11
132.70487
 21
238.277013
 31
0.0
  0
LINE
  5
1CD
330
1F
100
AcDbEntity
  8
LC-001-100-D00-0
 62
     7
370
    50
100
AcDbLine
 10
114.704869
 20
231.777013
 30
0.0
 11
114.704869
 21
238.277013
 31
0.0
  0
LINE
  5
1CE
330
1F
100
AcDbEntity
  8
LC-001-100-D00-0
 62
     7
370
    50
100
AcDbLine
 10
138.40487
 20
232.727014
 30
0.0
 11
138.40487
 21
239.277015
 31
0.0
  0
LINE
  5
1CF
330
1F
100
AcDbEntity
  8
LC-001-100-D00-0
 62
     7
370
    50
100
AcDbLine
 10
109.404871
 20
235.777014
 30
0.0
 11
109.404871
 21
241.973164
 31
0.0
  0
LINE
  5
1D0
330
1F
100
AcDbEntity
  8
LC-001-100-D00-0
 62
     7
370
    50
100
AcDbLine
 10
142.40487
 20
243.277012
 30
0.0
 11
142.40487
 21
239.777013
 31
0.0
  0
LINE
  5
1D1
330
1F
100
AcDbEntity
  8
LC-001-100-D00-0
 62
     7
370
    50
100
AcDbLine
 10
138.40487
 20
242.777015
 30
0.0
 11
138.40487
 21
245.277013
 31
0.0
  0
LINE
  5
1D2
330
1F
100
AcDbEntity
  8
LC-001-100-D00-0
 62
     7
370
    50
100
AcDbLine
 10
126.70487
 20
172.277014
 30
0.0
 11
126.70487
 21
178.777014
 31
0.0
  0
LINE
  5
1D3
330
1F
100
AcDbEntity
  8
LC-001-100-D00-0
 62
     7
370
    50
100
AcDbLine
 10
120.70487
 20
172.277014
 30
0.0
 11
120.70487
 21
178.777014
 31
0.0
  0
LINE
  5
1D4
330
1F
100
AcDbEntity
  8
LC-001-100-D00-0
 62
     7
370
    50
100
AcDbLine
 10
132.70487
 20
172.277014
 30
0.0
 11
132.70487
 21
177.827013
 31
0.0
  0
LINE
  5
1D5
330
1F
100
AcDbEntity
  8
LC-001-100-D00-0
 62
     7
370
    50
100
AcDbLine
 10
114.704869
 20
172.277014
 30
0.0
 11
114.704869
 21
178.777014
 31
0.0
  0
LINE
  5
1D6
330
1F
100
AcDbEntity
  8
LC-001-100-D00-0
 62
     7
370
    50
100
AcDbLine
 10
138.40487
 20
171.277012
 30
0.0
 11
138.40487
 21
177.827013
 31
0.0
  0
LINE
  5
1D7
330
1F
100
AcDbEntity
  8
LC-001-100-D00-0
 62
     7
370
    50
100
AcDbLine
 10
109.404871
 20
168.580863
 30
0.0
 11
109.404871
 21
174.777013
 31
0.0
  0
LINE
  5
1D8
330
1F
100
AcDbEntity
  8
LC-001-100-D00-0
 62
     7
370
    50
100
AcDbLine
 10
142.40487
 20
170.777014
 30
0.0
 11
142.40487
 21
167.277015
 31
0.0
  0
LINE
  5
1D9
330
1F
100
AcDbEntity
  8
LC-001-100-D00-0
 62
     7
370
    50
100
AcDbLine
 10
138.40487
 20
165.277014
 30
0.0
 11
138.40487
 21
167.777012
 31
0.0
  0
INSERT
  5
1F7
330
1F
100
AcDbEntity
  8
LC-001-100-D00-0
 62
     7
370
    50
100
AcDbBlockReference
  2
POLY12
 10
0.0
 20
0.0
 30
0.0
  0
ARC
  5
1F8
330
1F
100
AcDbEntity
  8
LC-001-100-D00-0
 62
     7
370
    50
100
AcDbCircle
 10
133.668972
 20
165.777013
 30
0.0
 40
2.0
100
AcDbArc
 50
270.0
 51
300.0
  0
ARC
  5
1F9
330
1F
100
AcDbEntity
  8
LC-001-100-D00-0
 62
     7
370
    50
100
AcDbCircle
 10
75.10487
 20
176.977013
 30
0.0
 40
1.0
100
AcDbArc
 50
90.0
 51
180.0
  0
LINE
  5
1FA
330
1F
100
AcDbEntity
  8
LC-001-100-D00-0
 62
     7
370
    50
100
AcDbLine
 10
74.104869
 20
174.727014
 30
0.0
 11
74.104869
 21
176.977013
 31
0.0
  0
ARC
  5
1FB
330
1F
100
AcDbEntity
  8
LC-001-100-D00-0
 62
     7
370
    50
100
AcDbCircle
 10
72.10487
 20
174.727013
 30
0.0
 40
2.000000000000057
100
AcDbArc
 50
270.0
 51
0.0
  0
LINE
  5
1FC
330
1F
100
AcDbEntity
  8
LC-001-100-D00-0
 62
     7
370
    50
100
AcDbLine
 10
62.959285
 20
172.727014
 30
0.0
 11
72.104873
 21
172.727014
 31
0.0
  0
LINE
  5
1FD
330
1F
100
AcDbEntity
  8
LC-001-100-D00-0
 62
     7
370
    50
100
AcDbLine
 10
56.702578
 20
177.977013
 30
0.0
 11
62.959285
 21
172.727014
 31
0.0
  0
LINE
  5
1FE
330
1F
100
AcDbEntity
  8
LC-001-100-D00-0
 62
     7
370
    50
100
AcDbLine
 10
55.504867
 20
177.977013
 30
0.0
 11
56.702578
 21
177.977013
 31
0.0
  0
LINE
  5
1FF
330
1F
100
AcDbEntity
  8
LC-001-100-D00-0
 62
     7
370
    50
100
AcDbLine
 10
55.504867
 20
177.977013
 30
0.0
 11
55.504867
 21
179.927013
 31
0.0
  0
LINE
  5
200
330
1F
100
AcDbEntity
  8
LC-001-100-D00-0
 62
     7
370
    50
100
AcDbLine
 10
55.504867
 20
179.927013
 30
0.0
 11
57.704867
 21
179.927013
 31
0.0
  0
LINE
  5
201
330
1F
100
AcDbEntity
  8
LC-001-100-D00-0
 62
     7
370
    50
100
AcDbLine
 10
57.704867
 20
179.927013
 30
0.0
 11
63.354874
 21
175.177014
 31
0.0
  0
LINE
  5
202
330
1F
100
AcDbEntity
  8
LC-001-100-D00-0
 62
     7
370
    50
100
AcDbLine
 10
63.354874
 20
175.177014
 30
0.0
 11
70.60487
 21
175.177014
 31
0.0
  0
ARC
  5
203
330
1F
100
AcDbEntity
  8
LC-001-100-D00-0
 62
     7
370
    50
100
AcDbCircle
 10
70.60487
 20
176.177013
 30
0.0
 40
1.0
100
AcDbArc
 50
270.0
 51
0.0
  0
LINE
  5
204
330
1F
100
AcDbEntity
  8
LC-001-100-D00-0
 62
     7
370
    50
100
AcDbLine
 10
71.604872
 20
179.477013
 30
0.0
 11
71.604872
 21
176.177013
 31
0.0
  0
ARC
  5
205
330
1F
100
AcDbEntity
  8
LC-001-100-D00-0
 62
     7
370
    50
100
AcDbCircle
 10
72.10487
 20
179.477013
 30
0.0
 40
0.5
100
AcDbArc
 50
90.0
 51
180.0
  0
LINE
  5
206
330
1F
100
AcDbEntity
  8
LC-001-100-D00-0
 62
     7
370
    50
100
AcDbLine
 10
72.104873
 20
179.977014
 30
0.0
 11
107.304871
 21
179.977014
 31
0.0
  0
LINE
  5
207
330
1F
100
AcDbEntity
  8
LC-001-100-D00-0
 62
     7
370
    50
100
AcDbLine
 10
107.304871
 20
179.977014
 30
0.0
 11
109.104869
 21
181.777014
 31
0.0
  0
LINE
  5
208
330
1F
100
AcDbEntity
  8
LC-001-100-D00-0
 62
     7
370
    50
100
AcDbLine
 10
109.104869
 20
181.777014
 30
0.0
 11
109.504871
 21
181.777014
 31
0.0
  0
LINE
  5
209
330
1F
100
AcDbEntity
  8
LC-001-100-D00-0
 62
     7
370
    50
100
AcDbLine
 10
109.504871
 20
181.777014
 30
0.0
 11
109.504871
 21
168.777014
 31
0.0
  0
ARC
  5
20A
330
1F
100
AcDbEntity
  8
LC-001-100-D00-0
 62
     7
370
    50
100
AcDbCircle
 10
110.50487
 20
168.777013
 30
0.0
 40
1.0
100
AcDbArc
 50
180.0
 51
270.0
  0
LINE
  5
20B
330
1F
100
AcDbEntity
  8
LC-001-100-D00-0
 62
     7
370
    50
100
AcDbLine
 10
110.504871
 20
167.777012
 30
0.0
 11
112.761857
 21
167.777012
 31
0.0
  0
LINE
  5
20C
330
1F
100
AcDbEntity
  8
LC-001-100-D00-0
 62
     7
370
    50
100
AcDbLine
 10
112.761857
 20
167.777012
 30
0.0
 11
112.90487
 21
168.027012
 31
0.0
  0
LINE
  5
20D
330
1F
100
AcDbEntity
  8
LC-001-100-D00-0
 62
     7
370
    50
100
AcDbLine
 10
112.90487
 20
168.027012
 30
0.0
 11
113.049207
 21
167.777012
 31
0.0
  0
LINE
  5
20E
330
1F
100
AcDbEntity
  8
LC-001-100-D00-0
 62
     7
370
    50
100
AcDbLine
 10
113.049207
 20
167.777012
 30
0.0
 11
114.760533
 21
167.777012
 31
0.0
  0
LINE
  5
20F
330
1F
100
AcDbEntity
  8
LC-001-100-D00-0
 62
     7
370
    50
100
AcDbLine
 10
114.760533
 20
167.777012
 30
0.0
 11
114.904871
 21
168.027012
 31
0.0
  0
LINE
  5
210
330
1F
100
AcDbEntity
  8
LC-001-100-D00-0
 62
     7
370
    50
100
AcDbLine
 10
114.904871
 20
168.027012
 30
0.0
 11
115.049207
 21
167.777012
 31
0.0
  0
LINE
  5
211
330
1F
100
AcDbEntity
  8
LC-001-100-D00-0
 62
     7
370
    50
100
AcDbLine
 10
115.049207
 20
167.777012
 30
0.0
 11
116.760533
 21
167.777012
 31
0.0
  0
LINE
  5
212
330
1F
100
AcDbEntity
  8
LC-001-100-D00-0
 62
     7
370
    50
100
AcDbLine
 10
116.760533
 20
167.777012
 30
0.0
 11
116.904869
 21
168.027012
 31
0.0
  0
LINE
  5
213
330
1F
100
AcDbEntity
  8
LC-001-100-D00-0
 62
     7
370
    50
100
AcDbLine
 10
116.904869
 20
168.027012
 30
0.0
 11
117.049208
 21
167.777012
 31
0.0
  0
LINE
  5
214
330
1F
100
AcDbEntity
  8
LC-001-100-D00-0
 62
     7
370
    50
100
AcDbLine
 10
117.049208
 20
167.777012
 30
0.0
 11
118.760533
 21
167.777012
 31
0.0
  0
LINE
  5
215
330
1F
100
AcDbEntity
  8
LC-001-100-D00-0
 62
     7
370
    50
100
AcDbLine
 10
118.760533
 20
167.777012
 30
0.0
 11
118.90487
 21
168.027012
 31
0.0
  0
LINE
  5
216
330
1F
100
AcDbEntity
  8
LC-001-100-D00-0
 62
     7
370
    50
100
AcDbLine
 10
118.90487
 20
168.027012
 30
0.0
 11
119.049208
 21
167.777012
 31
0.0
  0
LINE
  5
217
330
1F
100
AcDbEntity
  8
LC-001-100-D00-0
 62
     7
370
    50
100
AcDbLine
 10
119.049208
 20
167.777012
 30
0.0
 11
120.760532
 21
167.777012
 31
0.0
  0
LINE
  5
218
330
1F
100
AcDbEntity
  8
LC-001-100-D00-0
 62
     7
370
    50
100
AcDbLine
 10
120.760532
 20
167.777012
 30
0.0
 11
120.90487
 21
168.027012
 31
0.0
  0
LINE
  5
219
330
1F
100
AcDbEntity
  8
LC-001-100-D00-0
 62
     7
370
    50
100
AcDbLine
 10
120.90487
 20
168.027012
 30
0.0
 11
121.049208
 21
167.777012
 31
0.0
  0
LINE
  5
21A
330
1F
100
AcDbEntity
  8
LC-001-100-D00-0
 62
     7
370
    50
100
AcDbLine
 10
121.049208
 20
167.777012
 30
0.0
 11
122.760532
 21
167.777012
 31
0.0
  0
LINE
  5
21B
330
1F
100
AcDbEntity
  8
LC-001-100-D00-0
 62
     7
370
    50
100
AcDbLine
 10
122.760532
 20
167.777012
 30
0.0
 11
122.90487
 21
168.027012
 31
0.0
  0
LINE
  5
21C
330
1F
100
AcDbEntity
  8
LC-001-100-D00-0
 62
     7
370
    50
100
AcDbLine
 10
122.90487
 20
168.027012
 30
0.0
 11
123.049208
 21
167.777012
 31
0.0
  0
LINE
  5
21D
330
1F
100
AcDbEntity
  8
LC-001-100-D00-0
 62
     7
370
    50
100
AcDbLine
 10
123.049208
 20
167.777012
 30
0.0
 11
124.760532
 21
167.777012
 31
0.0
  0
LINE
  5
21E
330
1F
100
AcDbEntity
  8
LC-001-100-D00-0
 62
     7
370
    50
100
AcDbLine
 10
124.760532
 20
167.777012
 30
0.0
 11
124.90487
 21
168.027012
 31
0.0
  0
LINE
  5
21F
330
1F
100
AcDbEntity
  8
LC-001-100-D00-0
 62
     7
370
    50
100
AcDbLine
 10
124.90487
 20
168.027012
 30
0.0
 11
125.049208
 21
167.777012
 31
0.0
  0
LINE
  5
220
330
1F
100
AcDbEntity
  8
LC-001-100-D00-0
 62
     7
370
    50
100
AcDbLine
 10
125.049208
 20
167.777012
 30
0.0
 11
126.760533
 21
167.777012
 31
0.0
  0
LINE
  5
221
330
1F
100
AcDbEntity
  8
LC-001-100-D00-0
 62
     7
370
    50
100
AcDbLine
 10
126.760533
 20
167.777012
 30
0.0
 11
126.90487
 21
168.027012
 31
0.0
  0
LINE
  5
222
330
1F
100
AcDbEntity
  8
LC-001-100-D00-0
 62
     7
370
    50
100
AcDbLine
 10
126.90487
 20
168.027012
 30
0.0
 11
127.049207
 21
167.777012
 31
0.0
  0
LINE
  5
223
330
1F
100
AcDbEntity
  8
LC-001-100-D00-0
 62
     7
370
    50
100
AcDbLine
 10
127.049207
 20
167.777012
 30
0.0
 11
128.760532
 21
167.777012
 31
0.0
  0
LINE
  5
224
330
1F
100
AcDbEntity
  8
LC-001-100-D00-0
 62
     7
370
    50
100
AcDbLine
 10
128.760532
 20
167.777012
 30
0.0
 11
128.90487
 21
168.027012
 31
0.0
  0
LINE
  5
225
330
1F
100
AcDbEntity
  8
LC-001-100-D00-0
 62
     7
370
    50
100
AcDbLine
 10
128.90487
 20
168.027012
 30
0.0
 11
129.049208
 21
167.777012
 31
0.0
  0
LINE
  5
226
330
1F
100
AcDbEntity
  8
LC-001-100-D00-0
 62
     7
370
    50
100
AcDbLine
 10
129.049208
 20
167.777012
 30
0.0
 11
130.760532
 21
167.777012
 31
0.0
  0
LINE
  5
227
330
1F
100
AcDbEntity
  8
LC-001-100-D00-0
 62
     7
370
    50
100
AcDbLine
 10
130.760532
 20
167.777012
 30
0.0
 11
130.90487
 21
168.027012
 31
0.0
  0
LINE
  5
228
330
1F
100
AcDbEntity
  8
LC-001-100-D00-0
 62
     7
370
    50
100
AcDbLine
 10
130.90487
 20
168.027012
 30
0.0
 11
131.049207
 21
167.777012
 31
0.0
  0
LINE
  5
229
330
1F
100
AcDbEntity
  8
LC-001-100-D00-0
 62
     7
370
    50
100
AcDbLine
 10
131.049207
 20
167.777012
 30
0.0
 11
132.760532
 21
167.777012
 31
0.0
  0
LINE
  5
22A
330
1F
100
AcDbEntity
  8
LC-001-100-D00-0
 62
     7
370
    50
100
AcDbLine
 10
132.760532
 20
167.777012
 30
0.0
 11
132.90487
 21
168.027012
 31
0.0
  0
LINE
  5
22B
330
1F
100
AcDbEntity
  8
LC-001-100-D00-0
 62
     7
370
    50
100
AcDbLine
 10
132.90487
 20
168.027012
 30
0.0
 11
133.049208
 21
167.777012
 31
0.0
  0
LINE
  5
22C
330
1F
100
AcDbEntity
  8
LC-001-100-D00-0
 62
     7
370
    50
100
AcDbLine
 10
133.049208
 20
167.777012
 30
0.0
 11
134.760532
 21
167.777012
 31
0.0
  0
LINE
  5
22D
330
1F
100
AcDbEntity
  8
LC-001-100-D00-0
 62
     7
370
    50
100
AcDbLine
 10
134.760532
 20
167.777012
 30
0.0
 11
134.90487
 21
168.027012
 31
0.0
  0
LINE
  5
22E
330
1F
100
AcDbEntity
  8
LC-001-100-D00-0
 62
     7
370
    50
100
AcDbLine
 10
134.90487
 20
168.027012
 30
0.0
 11
135.049208
 21
167.777012
 31
0.0
  0
LINE
  5
22F
330
1F
100
AcDbEntity
  8
LC-001-100-D00-0
 62
     7
370
    50
100
AcDbLine
 10
135.049208
 20
167.777012
 30
0.0
 11
138.40487
 21
167.777012
 31
0.0
  0
ARC
  5
230
330
1F
100
AcDbEntity
  8
LC-001-100-D00-0
 62
     7
370
    50
100
AcDbCircle
 10
137.90487
 20
165.777013
 30
0.0
 40
0.5
100
AcDbArc
 50
270.0
 51
0.0
  0
LINE
  5
231
330
1F
100
AcDbEntity
  8
LC-001-100-D00-0
 62
     7
370
    50
100
AcDbLine
 10
136.802947
 20
165.277014
 30
0.0
 11
137.90487
 21
165.277014
 31
0.0
  0
LINE
  5
232
330
1F
100
AcDbEntity
  8
LC-001-100-D00-0
 62
     7
370
    50
100
AcDbLine
 10
134.668972
 20
164.044964
 30
0.0
 11
136.802947
 21
165.277014
 31
0.0
  0
LINE
  5
233
330
1F
100
AcDbEntity
  8
LC-001-100-D00-0
 62
     7
370
    50
100
AcDbLine
 10
130.60487
 20
163.777015
 30
0.0
 11
133.668972
 21
163.777015
 31
0.0
  0
LINE
  5
234
330
1F
100
AcDbEntity
  8
LC-001-100-D00-0
 62
     7
370
    50
100
AcDbLine
 10
130.60487
 20
163.777015
 30
0.0
 11
130.60487
 21
165.277014
 31
0.0
  0
LINE
  5
235
330
1F
100
AcDbEntity
  8
LC-001-100-D00-0
 62
     7
370
    50
100
AcDbLine
 10
109.80487
 20
165.277014
 30
0.0
 11
130.60487
 21
165.277014
 31
0.0
  0
ARC
  5
236
330
1F
100
AcDbEntity
  8
LC-001-100-D00-0
 62
     7
370
    50
100
AcDbCircle
 10
109.80487
 20
168.277013
 30
0.0
 40
3.0
100
AcDbArc
 50
180.0
 51
270.0
  0
LINE
  5
237
330
1F
100
AcDbEntity
  8
LC-001-100-D00-0
 62
     7
370
    50
100
AcDbLine
 10
106.804872
 20
168.277013
 30
0.0
 11
106.804872
 21
169.977012
 31
0.0
  0
LINE
  5
238
330
1F
100
AcDbEntity
  8
LC-001-100-D00-0
 62
     7
370
    50
100
AcDbLine
 10
106.804872
 20
169.977012
 30
0.0
 11
92.948464
 21
177.977013
 31
0.0
  0
LINE
  5
239
330
1F
100
AcDbEntity
  8
LC-001-100-D00-0
 62
     7
370
    50
100
AcDbLine
 10
75.104871
 20
177.977013
 30
0.0
 11
92.948464
 21
177.977013
 31
0.0
  0
LINE
  5
23A
330
1F
100
AcDbEntity
  8
LC-001-100-D00-0
 62
     7
370
    50
100
AcDbLine
 10
138.40487
 20
165.777012
 30
0.0
 11
138.40487
 21
167.777012
 31
0.0
  0
LINE
  5
23B
330
1F
100
AcDbEntity
  8
LC-001-100-D00-0
 62
     7
370
    50
100
AcDbLine
 10
106.804872
 20
242.277014
 30
0.0
 11
106.804872
 21
234.577014
 31
0.0
  0
ARC
  5
23C
330
1F
100
AcDbEntity
  8
LC-001-100-D00-0
 62
     7
370
    50
100
AcDbCircle
 10
109.80487
 20
242.277013
 30
0.0
 40
3.0
100
AcDbArc
 50
90.0
 51
180.0
  0
LINE
  5
23D
330
1F
100
AcDbEntity
  8
LC-001-100-D00-0
 62
     7
370
    50
100
AcDbLine
 10
130.60487
 20
245.277013
 30
0.0
 11
109.80487
 21
245.277013
 31
0.0
  0
LINE
  5
23E
330
1F
100
AcDbEntity
  8
LC-001-100-D00-0
 62
     7
370
    50
100
AcDbLine
 10
130.60487
 20
245.277013
 30
0.0
 11
130.60487
 21
246.777012
 31
0.0
  0
LINE
  5
23F
330
1F
100
AcDbEntity
  8
LC-001-100-D00-0
 62
     7
370
    50
100
AcDbLine
 10
133.668972
 20
246.777012
 30
0.0
 11
130.60487
 21
246.777012
 31
0.0
  0
ARC
  5
240
330
1F
100
AcDbEntity
  8
LC-001-100-D00-0
 62
     7
370
    50
100
AcDbCircle
 10
133.668972
 20
244.777013
 30
0.0
 40
2.000000000000016
100
AcDbArc
 50
60.0
 51
90.0
  0
LINE
  5
241
330
1F
100
AcDbEntity
  8
LC-001-100-D00-0
 62
     7
370
    50
100
AcDbLine
 10
136.802947
 20
245.277013
 30
0.0
 11
134.668972
 21
246.509063
 31
0.0
  0
LINE
  5
242
330
1F
100
AcDbEntity
  8
LC-001-100-D00-0
 62
     7
370
    50
100
AcDbLine
 10
137.90487
 20
245.277013
 30
0.0
 11
136.802947
 21
245.277013
 31
0.0
  0
ARC
  5
243
330
1F
100
AcDbEntity
  8
LC-001-100-D00-0
 62
     7
370
    50
100
AcDbCircle
 10
137.90487
 20
244.777013
 30
0.0
 40
0.5
100
AcDbArc
 50
0.0
 51
90.0
  0
LINE
  5
244
330
1F
100
AcDbEntity
  8
LC-001-100-D00-0
 62
     7
370
    50
100
AcDbLine
 10
138.40487
 20
242.777015
 30
0.0
 11
135.049208
 21
242.777015
 31
0.0
  0
LINE
  5
245
330
1F
100
AcDbEntity
  8
LC-001-100-D00-0
 62
     7
370
    50
100
AcDbLine
 10
135.049208
 20
242.777015
 30
0.0
 11
134.90487
 21
242.527014
 31
0.0
  0
LINE
  5
246
330
1F
100
AcDbEntity
  8
LC-001-100-D00-0
 62
     7
370
    50
100
AcDbLine
 10
134.90487
 20
242.527014
 30
0.0
 11
134.760532
 21
242.777015
 31
0.0
  0
LINE
  5
247
330
1F
100
AcDbEntity
  8
LC-001-100-D00-0
 62
     7
370
    50
100
AcDbLine
 10
134.760532
 20
242.777015
 30
0.0
 11
133.049208
 21
242.777015
 31
0.0
  0
LINE
  5
248
330
1F
100
AcDbEntity
  8
LC-001-100-D00-0
 62
     7
370
    50
100
AcDbLine
 10
133.049208
 20
242.777015
 30
0.0
 11
132.90487
 21
242.527014
 31
0.0
  0
LINE
  5
249
330
1F
100
AcDbEntity
  8
LC-001-100-D00-0
 62
     7
370
    50
100
AcDbLine
 10
132.90487
 20
242.527014
 30
0.0
 11
132.760532
 21
242.777015
 31
0.0
  0
LINE
  5
24A
330
1F
100
AcDbEntity
  8
LC-001-100-D00-0
 62
     7
370
    50
100
AcDbLine
 10
132.760532
 20
242.777015
 30
0.0
 11
131.049207
 21
242.777015
 31
0.0
  0
LINE
  5
24B
330
1F
100
AcDbEntity
  8
LC-001-100-D00-0
 62
     7
370
    50
100
AcDbLine
 10
131.049207
 20
242.777015
 30
0.0
 11
130.90487
 21
242.527014
 31
0.0
  0
LINE
  5
24C
330
1F
100
AcDbEntity
  8
LC-001-100-D00-0
 62
     7
370
    50
100
AcDbLine
 10
130.90487
 20
242.527014
 30
0.0
 11
130.760532
 21
242.777015
 31
0.0
  0
LINE
  5
24D
330
1F
100
AcDbEntity
  8
LC-001-100-D00-0
 62
     7
370
    50
100
AcDbLine
 10
130.760532
 20
242.777015
 30
0.0
 11
129.049208
 21
242.777015
 31
0.0
  0
LINE
  5
24E
330
1F
100
AcDbEntity
  8
LC-001-100-D00-0
 62
     7
370
    50
100
AcDbLine
 10
129.049208
 20
242.777015
 30
0.0
 11
128.90487
 21
242.527014
 31
0.0
  0
LINE
  5
24F
330
1F
100
AcDbEntity
  8
LC-001-100-D00-0
 62
     7
370
    50
100
AcDbLine
 10
128.90487
 20
242.527014
 30
0.0
 11
128.760532
 21
242.777015
 31
0.0
  0
LINE
  5
250
330
1F
100
AcDbEntity
  8
LC-001-100-D00-0
 62
     7
370
    50
100
AcDbLine
 10
128.760532
 20
242.777015
 30
0.0
 11
127.049207
 21
242.777015
 31
0.0
  0
LINE
  5
251
330
1F
100
AcDbEntity
  8
LC-001-100-D00-0
 62
     7
370
    50
100
AcDbLine
 10
127.049207
 20
242.777015
 30
0.0
 11
126.90487
 21
242.527014
 31
0.0
  0
LINE
  5
252
330
1F
100
AcDbEntity
  8
LC-001-100-D00-0
 62
     7
370
    50
100
AcDbLine
 10
126.90487
 20
242.527014
 30
0.0
 11
126.760533
 21
242.777015
 31
0.0
  0
LINE
  5
253
330
1F
100
AcDbEntity
  8
LC-001-100-D00-0
 62
     7
370
    50
100
AcDbLine
 10
126.760533
 20
242.777015
 30
0.0
 11
125.049208
 21
242.777015
 31
0.0
  0
LINE
  5
254
330
1F
100
AcDbEntity
  8
LC-001-100-D00-0
 62
     7
370
    50
100
AcDbLine
 10
125.049208
 20
242.777015
 30
0.0
 11
124.90487
 21
242.527014
 31
0.0
  0
LINE
  5
255
330
1F
100
AcDbEntity
  8
LC-001-100-D00-0
 62
     7
370
    50
100
AcDbLine
 10
124.90487
 20
242.527014
 30
0.0
 11
124.760532
 21
242.777015
 31
0.0
  0
LINE
  5
256
330
1F
100
AcDbEntity
  8
LC-001-100-D00-0
 62
     7
370
    50
100
AcDbLine
 10
124.760532
 20
242.777015
 30
0.0
 11
123.049208
 21
242.777015
 31
0.0
  0
LINE
  5
257
330
1F
100
AcDbEntity
  8
LC-001-100-D00-0
 62
     7
370
    50
100
AcDbLine
 10
123.049208
 20
242.777015
 30
0.0
 11
122.90487
 21
242.527014
 31
0.0
  0
LINE
  5
258
330
1F
100
AcDbEntity
  8
LC-001-100-D00-0
 62
     7
370
    50
100
AcDbLine
 10
122.90487
 20
242.527014
 30
0.0
 11
122.760532
 21
242.777015
 31
0.0
  0
LINE
  5
259
330
1F
100
AcDbEntity
  8
LC-001-100-D00-0
 62
     7
370
    50
100
AcDbLine
 10
122.760532
 20
242.777015
 30
0.0
 11
121.049208
 21
242.777015
 31
0.0
  0
LINE
  5
25A
330
1F
100
AcDbEntity
  8
LC-001-100-D00-0
 62
     7
370
    50
100
AcDbLine
 10
121.049208
 20
242.777015
 30
0.0
 11
120.90487
 21
242.527014
 31
0.0
  0
LINE
  5
25B
330
1F
100
AcDbEntity
  8
LC-001-100-D00-0
 62
     7
370
    50
100
AcDbLine
 10
120.90487
 20
242.527014
 30
0.0
 11
120.760532
 21
242.777015
 31
0.0
  0
LINE
  5
25C
330
1F
100
AcDbEntity
  8
LC-001-100-D00-0
 62
     7
370
    50
100
AcDbLine
 10
120.760532
 20
242.777015
 30
0.0
 11
119.049208
 21
242.777015
 31
0.0
  0
LINE
  5
25D
330
1F
100
AcDbEntity
  8
LC-001-100-D00-0
 62
     7
370
    50
100
AcDbLine
 10
119.049208
 20
242.777015
 30
0.0
 11
118.90487
 21
242.527014
 31
0.0
  0
LINE
  5
25E
330
1F
100
AcDbEntity
  8
LC-001-100-D00-0
 62
     7
370
    50
100
AcDbLine
 10
118.90487
 20
242.527014
 30
0.0
 11
118.760533
 21
242.777015
 31
0.0
  0
LINE
  5
25F
330
1F
100
AcDbEntity
  8
LC-001-100-D00-0
 62
     7
370
    50
100
AcDbLine
 10
118.760533
 20
242.777015
 30
0.0
 11
117.049208
 21
242.777015
 31
0.0
  0
LINE
  5
260
330
1F
100
AcDbEntity
  8
LC-001-100-D00-0
 62
     7
370
    50
100
AcDbLine
 10
117.049208
 20
242.777015
 30
0.0
 11
116.904869
 21
242.527014
 31
0.0
  0
LINE
  5
261
330
1F
100
AcDbEntity
  8
LC-001-100-D00-0
 62
     7
370
    50
100
AcDbLine
 10
116.904869
 20
242.527014
 30
0.0
 11
116.760533
 21
242.777015
 31
0.0
  0
LINE
  5
262
330
1F
100
AcDbEntity
  8
LC-001-100-D00-0
 62
     7
370
    50
100
AcDbLine
 10
116.760533
 20
242.777015
 30
0.0
 11
115.049207
 21
242.777015
 31
0.0
  0
LINE
  5
263
330
1F
100
AcDbEntity
  8
LC-001-100-D00-0
 62
     7
370
    50
100
AcDbLine
 10
115.049207
 20
242.777015
 30
0.0
 11
114.904871
 21
242.527014
 31
0.0
  0
LINE
  5
264
330
1F
100
AcDbEntity
  8
LC-001-100-D00-0
 62
     7
370
    50
100
AcDbLine
 10
114.904871
 20
242.527014
 30
0.0
 11
114.760533
 21
242.777015
 31
0.0
  0
LINE
  5
265
330
1F
100
AcDbEntity
  8
LC-001-100-D00-0
 62
     7
370
    50
100
AcDbLine
 10
114.760533
 20
242.777015
 30
0.0
 11
113.049207
 21
242.777015
 31
0.0
  0
LINE
  5
266
330
1F
100
AcDbEntity
  8
LC-001-100-D00-0
 62
     7
370
    50
100
AcDbLine
 10
113.049207
 20
242.777015
 30
0.0
 11
112.90487
 21
242.527014
 31
0.0
  0
LINE
  5
267
330
1F
100
AcDbEntity
  8
LC-001-100-D00-0
 62
     7
370
    50
100
AcDbLine
 10
112.90487
 20
242.527014
 30
0.0
 11
112.761857
 21
242.777015
 31
0.0
  0
LINE
  5
268
330
1F
100
AcDbEntity
  8
LC-001-100-D00-0
 62
     7
370
    50
100
AcDbLine
 10
112.761857
 20
242.777015
 30
0.0
 11
110.504871
 21
242.777015
 31
0.0
  0
ARC
  5
269
330
1F
100
AcDbEntity
  8
LC-001-100-D00-0
 62
     7
370
    50
100
AcDbCircle
 10
110.50487
 20
241.777013
 30
0.0
 40
1.0
100
AcDbArc
 50
90.0
 51
180.0
  0
LINE
  5
26A
330
1F
100
AcDbEntity
  8
LC-001-100-D00-0
 62
     7
370
    50
100
AcDbLine
 10
109.504871
 20
241.777013
 30
0.0
 11
109.504871
 21
228.777013
 31
0.0
  0
LINE
  5
26B
330
1F
100
AcDbEntity
  8
LC-001-100-D00-0
 62
     7
370
    50
100
AcDbLine
 10
109.504871
 20
228.777013
 30
0.0
 11
109.104869
 21
228.777013
 31
0.0
  0
LINE
  5
26C
330
1F
100
AcDbEntity
  8
LC-001-100-D00-0
 62
     7
370
    50
100
AcDbLine
 10
109.104869
 20
228.777013
 30
0.0
 11
107.304871
 21
230.577013
 31
0.0
  0
LINE
  5
26D
330
1F
100
AcDbEntity
  8
LC-001-100-D00-0
 62
     7
370
    50
100
AcDbLine
 10
107.304871
 20
230.577013
 30
0.0
 11
72.104873
 21
230.577013
 31
0.0
  0
ARC
  5
26E
330
1F
100
AcDbEntity
  8
LC-001-100-D00-0
 62
     7
370
    50
100
AcDbCircle
 10
72.10487
 20
231.077013
 30
0.0
 40
0.5
100
AcDbArc
 50
180.0
 51
270.0
  0
LINE
  5
26F
330
1F
100
AcDbEntity
  8
LC-001-100-D00-0
 62
     7
370
    50
100
AcDbLine
 10
71.604872
 20
234.377014
 30
0.0
 11
71.604872
 21
231.077014
 31
0.0
  0
ARC
  5
270
330
1F
100
AcDbEntity
  8
LC-001-100-D00-0
 62
     7
370
    50
100
AcDbCircle
 10
70.60487
 20
234.377013
 30
0.0
 40
1.0
100
AcDbArc
 50
0.0
 51
90.0
  0
LINE
  5
271
330
1F
100
AcDbEntity
  8
LC-001-100-D00-0
 62
     7
370
    50
100
AcDbLine
 10
70.60487
 20
235.377013
 30
0.0
 11
63.354874
 21
235.377013
 31
0.0
  0
LINE
  5
272
330
1F
100
AcDbEntity
  8
LC-001-100-D00-0
 62
     7
370
    50
100
AcDbLine
 10
63.354874
 20
235.377013
 30
0.0
 11
57.704867
 21
230.627014
 31
0.0
  0
LINE
  5
273
330
1F
100
AcDbEntity
  8
LC-001-100-D00-0
 62
     7
370
    50
100
AcDbLine
 10
57.704867
 20
230.627014
 30
0.0
 11
55.504867
 21
230.627014
 31
0.0
  0
LINE
  5
274
330
1F
100
AcDbEntity
  8
LC-001-100-D00-0
 62
     7
370
    50
100
AcDbLine
 10
55.504867
 20
230.627014
 30
0.0
 11
55.504867
 21
232.577014
 31
0.0
  0
LINE
  5
275
330
1F
100
AcDbEntity
  8
LC-001-100-D00-0
 62
     7
370
    50
100
AcDbLine
 10
56.702578
 20
232.577014
 30
0.0
 11
55.504867
 21
232.577014
 31
0.0
  0
LINE
  5
276
330
1F
100
AcDbEntity
  8
LC-001-100-D00-0
 62
     7
370
    50
100
AcDbLine
 10
62.959285
 20
237.827013
 30
0.0
 11
56.702578
 21
232.577014
 31
0.0
  0
LINE
  5
277
330
1F
100
AcDbEntity
  8
LC-001-100-D00-0
 62
     7
370
    50
100
AcDbLine
 10
72.104873
 20
237.827013
 30
0.0
 11
62.959285
 21
237.827013
 31
0.0
  0
ARC
  5
278
330
1F
100
AcDbEntity
  8
LC-001-100-D00-0
 62
     7
370
    50
100
AcDbCircle
 10
72.10487
 20
235.827013
 30
0.0
 40
2.0
100
AcDbArc
 50
0.0
 51
90.0
  0
LINE
  5
279
330
1F
100
AcDbEntity
  8
LC-001-100-D00-0
 62
     7
370
    50
100
AcDbLine
 10
74.104869
 20
233.577014
 30
0.0
 11
74.104869
 21
235.827013
 31
0.0
  0
ARC
  5
27A
330
1F
100
AcDbEntity
  8
LC-001-100-D00-0
 62
     7
370
    50
100
AcDbCircle
 10
75.10487
 20
233.577013
 30
0.0
 40
1.0
100
AcDbArc
 50
180.0
 51
270.0
  0
LINE
  5
27B
330
1F
100
AcDbEntity
  8
LC-001-100-D00-0
 62
     7
370
    50
100
AcDbLine
 10
75.104871
 20
232.577014
 30
0.0
 11
104.804871
 21
232.577014
 31
0.0
  0
LINE
  5
27C
330
1F
100
AcDbEntity
  8
LC-001-100-D00-0
 62
     7
370
    50
100
AcDbLine
 10
138.40487
 20
242.777015
 30
0.0
 11
138.40487
 21
244.777015
 31
0.0
  0
INSERT
  5
2D4
330
1F
100
AcDbEntity
  8
LC-001-100-D00-0
 62
     7
370
    50
100
AcDbBlockReference
  2
POLY13
 10
0.0
 20
0.0
 30
0.0
  0
LINE
  5
2D5
330
1F
100
AcDbEntity
  8
LC-001-100-D00-0
 62
     7
370
    50
100
AcDbLine
 10
57.704867
 20
230.627014
 30
0.0
 11
57.704867
 21
179.927013
 31
0.0
  0
LINE
  5
2D6
330
1F
100
AcDbEntity
  8
LC-001-100-D00-0
 62
     7
370
    50
100
AcDbLine
 10
55.504867
 20
230.627014
 30
0.0
 11
55.504867
 21
179.927013
 31
0.0
  0
LINE
  5
2D7
330
1F
100
AcDbEntity
  8
LC-001-100-D00-0
 62
     7
370
    50
100
AcDbLine
 10
109.104869
 20
228.777013
 30
0.0
 11
109.104869
 21
181.777014
 31
0.0
  0
LINE
  5
2D8
330
1F
100
AcDbEntity
  8
LC-001-100-D00-0
 62
     7
370
    50
100
AcDbLine
 10
107.304871
 20
230.577013
 30
0.0
 11
107.304871
 21
179.977014
 31
0.0
  0
LINE
  5
2D9
330
1F
100
AcDbEntity
  8
LC-001-100-D00-0
 62
     7
370
    50
100
AcDbLine
 10
63.354874
 20
235.377013
 30
0.0
 11
63.354874
 21
175.177014
 31
0.0
  0
LINE
  5
2DA
330
1F
100
AcDbEntity
  8
LC-001-100-D00-0
 62
     7
370
    50
100
AcDbLine
 10
109.504871
 20
228.777013
 30
0.0
 11
109.504871
 21
181.777014
 31
0.0
  0
INSERT
  5
2F2
330
1F
100
AcDbEntity
  8
LC-001-100-D00-0
 62
     7
370
    25
100
AcDbBlockReference
  2
KLON1
 10
0.0
 20
0.0
 30
0.0
  0
INSERT
  5
30E
330
1F
100
AcDbEntity
  8
LC-001-100-D00-0
 62
     7
370
    25
100
AcDbBlockReference
  2
KLON2
 10
0.0
 20
0.0
 30
0.0
  0
INSERT
  5
357
330
1F
100
AcDbEntity
  8
LC-001-100-D00-0
 62
     7
370
    25
100
AcDbBlockReference
  2
KLON3
 10
0.0
 20
0.0
 30
0.0
  0
INSERT
  5
38E
330
1F
100
AcDbEntity
  8
LC-001-100-D00-0
 62
     7
370
    25
100
AcDbBlockReference
  2
KLON4
 10
0.0
 20
0.0
 30
0.0
  0
INSERT
  5
39C
330
1F
100
AcDbEntity
  8
LC-001-100-D00-0
 62
     7
370
    25
100
AcDbBlockReference
  2
KLON5
 10
0.0
 20
0.0
 30
0.0
  0
INSERT
  5
3A9
330
1F
100
AcDbEntity
  8
LC-001-100-D00-0
 62
     7
370
    25
100
AcDbBlockReference
  2
KLON6
 10
0.0
 20
0.0
 30
0.0
  0
INSERT
  5
3B4
330
1F
100
AcDbEntity
  8
LC-001-100-D00-0
 62
     7
370
    25
100
AcDbBlockReference
  2
KLON7
 10
0.0
 20
0.0
 30
0.0
  0
INSERT
  5
3BF
330
1F
100
AcDbEntity
  8
LC-001-100-D00-0
 62
     7
370
    25
100
AcDbBlockReference
  2
KLON8
 10
0.0
 20
0.0
 30
0.0
  0
DIMENSION
  5
3C2
330
1F
100
AcDbEntity
  8
LC-001-100-D00-0
 62
     7
370
    25
100
AcDbDimension
  2
*D22
 10
38.667813
 20
230.627013
 30
0.0
 11
7.867813
 21
236.933568
 31
0.0
 70
   160
  1
DN50
 71
     5
 42
50.7
 53
90.0
  3
LC-DIM-L-0140-02-02
100
AcDbAlignedDimension
 13
55.50487
 23
179.927013
 33
0.0
 14
55.50487
 24
230.627013
 34
0.0
 50
90.0
100
AcDbRotatedDimension
  0
DIMENSION
  5
3D2
330
1F
100
AcDbEntity
  8
LC-001-100-D00-0
 62
     7
370
    25
100
AcDbDimension
  2
*D23
 10
147.80487
 20
107.441568
 30
0.0
 11
97.922015
 21
138.241568
 31
0.0
 70
   160
 71
     5
 42
92.3
 53
360.0
  3
LC-DIM-L-0140-00-02
100
AcDbAlignedDimension
 13
55.50487
 23
177.977013
 33
0.0
 14
147.80487
 24
167.53417
 34
0.0
 50
360.0
100
AcDbRotatedDimension
  0
LINE
  5
3E0
330
1F
100
AcDbEntity
  8
LC-001-100-D00-0
  6
DASHDOT
 62
     7
370
    25
100
AcDbLine
 10
147.40487
 20
205.277013
 30
0.0
 11
55.504867
 21
205.277013
 31
0.0
  0
DIMENSION
  5
3E2
330
1F
100
AcDbEntity
  8
LC-002-003-----0
 62
     7
370
    25
100
AcDbDimension
  2
*D24
 10
194.320643
 20
177.917482
 30
0.0
 11
163.520643
 21
207.233568
 31
0.0
 70
   160
  1
DN50(SML)
 71
     5
 42
54.615015
 53
90.0
  3
LC-DIM-L-0140-02-02
100
AcDbAlignedDimension
 13
138.558361
 23
232.532496
 33
0.0
 14
138.783239
 24
177.917482
 34
0.0
 50
90.0
100
AcDbRotatedDimension
  0
ENDSEC
  0
SECTION
  2
OBJECTS
  0
DICTIONARY
  5
C
330
0
100
AcDbDictionary
281
     1
  3
ACAD_GROUP
350
D
  3
ACAD_LAYOUT
350
1A
  3
ACAD_MLINESTYLE
350
17
  3
ACAD_PLOTSETTINGS
350
19
  3
ACAD_PLOTSTYLENAME
350
E
  0
DICTIONARY
  5
D
102
{ACAD_REACTORS
330
C
102
}
330
C
100
AcDbDictionary
281
     1
  0
DICTIONARY
  5
1A
102
{ACAD_REACTORS
330
C
102
}
330
C
100
AcDbDictionary
281
     1
  3
Layout1
350
1E
  3
Layout2
350
26
  3
Model
350
22
  0
DICTIONARY
  5
17
102
{ACAD_REACTORS
330
C
102
}
330
C
100
AcDbDictionary
281
     1
  3
Standard
350
18
  0
DICTIONARY
  5
19
102
{ACAD_REACTORS
330
C
102
}
330
C
100
AcDbDictionary
281
     1
  0
ACDBDICTIONARYWDFLT
  5
E
102
{ACAD_REACTORS
330
C
102
}
330
C
100
AcDbDictionary
281
     1
  3
Normal
350
F
100
AcDbDictionaryWithDefault
340
F
  0
LAYOUT
  5
1E
102
{ACAD_REACTORS
330
1A
102
}
330
1A
100
AcDbPlotSettings
  1

  2

  4

  6

 40
0.0
 41
0.0
 42
0.0
 43
0.0
 44
0.0
 45
0.0
 46
0.0
 47
0.0
 48
0.0
 49
0.0
140
0.0
141
0.0
142
1.0
143
1.0
 70
   688
 72
     0
 73
     0
 74
     5
  7

 75
    16
147
1.0
148
0.0
149
0.0
100
AcDbLayout
  1
Layout1
 70
     1
 71
     1
 10
-209.760318
 20
-147.978432
 11
630.239682
 21
446.021568
 12
0.0
 22
0.0
 32
0.0
 14
-209.760318
 24
-147.978432
 34
0.0
 15
630.239682
 25
446.021568
 35
0.0
146
0.0
 13
0.0
 23
0.0
 33
0.0
 16
1.0
 26
0.0
 36
0.0
 17
0.0
 27
1.0
 37
0.0
 76
     0
330
1B
  0
LAYOUT
  5
26
102
{ACAD_REACTORS
330
1A
102
}
330
1A
100
AcDbPlotSettings
  1

  2

  4

  6

 40
0.0
 41
0.0
 42
0.0
 43
0.0
 44
0.0
 45
0.0
 46
0.0
 47
0.0
 48
0.0
 49
0.0
140
0.0
141
0.0
142
1.0
143
1.0
 70
   688
 72
     0
 73
     0
 74
     5
  7

 75
    16
147
1.0
148
0.0
149
0.0
100
AcDbLayout
  1
Layout2
 70
     1
 71
     2
 10
0.0
 20
0.0
 11
0.0
 21
0.0
 12
0.0
 22
0.0
 32
0.0
 14
0.0
 24
0.0
 34
0.0
 15
0.0
 25
0.0
 35
0.0
146
0.0
 13
0.0
 23
0.0
 33
0.0
 16
1.0
 26
0.0
 36
0.0
 17
0.0
 27
1.0
 37
0.0
 76
     0
330
23
  0
LAYOUT
  5
22
102
{ACAD_REACTORS
330
1A
102
}
330
1A
100
AcDbPlotSettings
  1

  2

  4

  6

 40
0.0
 41
0.0
 42
0.0
 43
0.0
 44
0.0
 45
0.0
 46
0.0
 47
0.0
 48
0.0
 49
0.0
140
0.0
141
0.0
142
1.0
143
1.0
 70
  1776
 72
     0
 73
     0
 74
     0
  7

 75
     0
147
1.0
148
0.0
149
0.0
100
AcDbLayout
  1
Model
 70
     1
 71
     0
 10
-209.760318
 20
-147.978432
 11
630.239682
 21
446.021568
 12
0.0
 22
0.0
 32
0.0
 14
-209.760318
 24
-147.978432
 34
0.0
 15
630.239682
 25
446.021568
 35
0.0
146
0.0
 13
0.0
 23
0.0
 33
0.0
 16
1.0
 26
0.0
 36
0.0
 17
0.0
 27
1.0
 37
0.0
 76
     0
330
1F
  0
MLINESTYLE
  5
18
102
{ACAD_REACTORS
330
17
102
}
330
17
100
AcDbMlineStyle
  2
Standard
 70
     0
  3

 62
   256
 51
90.0
 52
90.0
 71
     2
 49
0.5
 62
   256
  6
BYLAYER
 49
-0.5
 62
   256
  6
BYLAYER
  0
ACDBPLACEHOLDER
  5
F
102
{ACAD_REACTORS
330
E
102
}
330
E
  0
ENDSEC
  0
EOF
