  0
SECTION
  2
HEADER
  9
$ACADVER
  1
AC1015
  9
$ACADMAINTVER
 70
     6
  9
$DWGCODEPAGE
  3
ANSI_1252
  9
$INSBASE
 10
0.0
 20
0.0
 30
0.0
  9
$EXTMIN
 10
-209.760318
 20
-147.978432
 30
0.0
  9
$EXTMAX
 10
630.239682
 20
446.021568
 30
0.0
  9
$LIMMIN
 10
-209.760318
 20
-147.978432
  9
$LIMMAX
 10
630.239682
 20
446.021568
  9
$ORTHOMODE
 70
     0
  9
$REGENMODE
 70
     1
  9
$FILLMODE
 70
     1
  9
$QTEXTMODE
 70
     0
  9
$MIRRTEXT
 70
     1
  9
$LTSCALE
 40
2.0
  9
$ATTMODE
 70
     1
  9
$TEXTSIZE
 40
2.5
  9
$TRACEWID
 40
1.0
  9
$TEXTSTYLE
  7
Standard
  9
$CLAYER
  8
0
  9
$CELTYPE
  6
ByLayer
  9
$CECOLOR
 62
     7
  9
$CELTSCALE
 40
1.0
  9
$DISPSILH
 70
     0
  9
$DIMSCALE
 40
2.0
  9
$DIMASZ
 40
3.5
  9
$DIMEXO
 40
0.625
  9
$DIMDLI
 40
3.75
  9
$DIMRND
 40
0.0
  9
$DIMDLE
 40
0.0
  9
$DIMEXE
 40
1.25
  9
$DIMTP
 40
0.0
  9
$DIMTM
 40
0.0
  9
$DIMTXT
 40
3.5
  9
$DIMCEN
 40
2.5
  9
$DIMTSZ
 40
0.0
  9
$DIMTOL
 70
     0
  9
$DIMLIM
 70
     0
  9
$DIMTIH
 70
     0
  9
$DIMTOH
 70
     0
  9
$DIMSE1
 70
     0
  9
$DIMSE2
 70
     0
  9
$DIMTAD
 70
     1
  9
$DIMZIN
 70
     8
  9
$DIMBLK
  1

  9
$DIMASO
 70
     1
  9
$DIMSHO
 70
     1
  9
$DIMPOST
  1

  9
$DIMAPOST
  1

  9
$DIMALT
 70
     0
  9
$DIMALTD
 70
     3
  9
$DIMALTF
 40
0.03937
  9
$DIMLFAC
 40
1.0
  9
$DIMTOFL
 70
     1
  9
$DIMTVP
 40
0.0
  9
$DIMTIX
 70
     0
  9
$DIMSOXD
 70
     0
  9
$DIMSAH
 70
     0
  9
$DIMBLK1
  1

  9
$DIMBLK2
  1

  9
$DIMSTYLE
  2
ISO-25
  9
$DIMCLRD
 70
     0
  9
$DIMCLRE
 70
     0
  9
$DIMCLRT
 70
     0
  9
$DIMTFAC
 40
1.0
  9
$DIMGAP
 40
0.625
  9
$DIMJUST
 70
     0
  9
$DIMSD1
 70
     0
  9
$DIMSD2
 70
     0
  9
$DIMTOLJ
 70
     0
  9
$DIMTZIN
 70
     8
  9
$DIMALTZ
 70
     0
  9
$DIMALTTZ
 70
     0
  9
$DIMUPT
 70
     0
  9
$DIMDEC
 70
     2
  9
$DIMTDEC
 70
     2
  9
$DIMALTU
 70
     2
  9
$DIMALTTD
 70
     3
  9
$DIMTXSTY
  7
Standard
  9
$DIMAUNIT
 70
     0
  9
$DIMADEC
 70
     0
  9
$DIMALTRND
 40
0.0
  9
$DIMAZIN
 70
     0
  9
$DIMDSEP
 70
    44
  9
$DIMATFIT
 70
     3
  9
$DIMFRAC
 70
     0
  9
$DIMLDRBLK
  1

  9
$DIMLUNIT
 70
     2
  9
$DIMLWD
 70
    -2
  9
$DIMLWE
 70
    -2
  9
$DIMTMOVE
 70
     0
  9
$LUNITS
 70
     2
  9
$LUPREC
 70
     4
  9
$SKETCHINC
 40
1.0
  9
$FILLETRAD
 40
10.0
  9
$AUNITS
 70
     0
  9
$AUPREC
 70
     0
  9
$MENU
  1
.
  9
$ELEVATION
 40
0.0
  9
$PELEVATION
 40
0.0
  9
$THICKNESS
 40
0.0
  9
$LIMCHECK
 70
     0
  9
$CHAMFERA
 40
10.0
  9
$CHAMFERB
 40
10.0
  9
$CHAMFERC
 40
20.0
  9
$CHAMFERD
 40
0.0
  9
$SKPOLY
 70
     0
  9
$TDCREATE
 40
2456738.25017779
  9
$TDUCREATE
 40
2456738.208511123
  9
$TDUPDATE
 40
2456738.250177801
  9
$TDUUPDATE
 40
2456738.208511134
  9
$TDINDWG
 40
0.0000000116
  9
$TDUSRTIMER
 40
0.0000000116
  9
$USRTIMER
 70
     1
  9
$ANGBASE
 50
0.0
  9
$ANGDIR
 70
     0
  9
$PDMODE
 70
     0
  9
$PDSIZE
 40
0.0
  9
$PLINEWID
 40
0.0
  9
$SPLFRAME
 70
     0
  9
$SPLINETYPE
 70
     6
  9
$SPLINESEGS
 70
     8
  9
$HANDSEED
  5
3FE
  9
$SURFTAB1
 70
     6
  9
$SURFTAB2
 70
     6
  9
$SURFTYPE
 70
     6
  9
$SURFU
 70
     6
  9
$SURFV
 70
     6
  9
$UCSBASE
  2

  9
$UCSNAME
  2

  9
$UCSORG
 10
0.0
 20
0.0
 30
0.0
  9
$UCSXDIR
 10
1.0
 20
0.0
 30
0.0
  9
$UCSYDIR
 10
0.0
 20
1.0
 30
0.0
  9
$UCSORTHOREF
  2

  9
$UCSORTHOVIEW
 70
     0
  9
$UCSORGTOP
 10
0.0
 20
0.0
 30
0.0
  9
$UCSORGBOTTOM
 10
0.0
 20
0.0
 30
0.0
  9
$UCSORGLEFT
 10
0.0
 20
0.0
 30
0.0
  9
$UCSORGRIGHT
 10
0.0
 20
0.0
 30
0.0
  9
$UCSORGFRONT
 10
0.0
 20
0.0
 30
0.0
  9
$UCSORGBACK
 10
0.0
 20
0.0
 30
0.0
  9
$PUCSBASE
  2

  9
$PUCSNAME
  2

  9
$PUCSORG
 10
0.0
 20
0.0
 30
0.0
  9
$PUCSXDIR
 10
1.0
 20
0.0
 30
0.0
  9
$PUCSYDIR
 10
0.0
 20
1.0
 30
0.0
  9
$PUCSORTHOREF
  2

  9
$PUCSORTHOVIEW
 70
     0
  9
$PUCSORGTOP
 10
0.0
 20
0.0
 30
0.0
  9
$PUCSORGBOTTOM
 10
0.0
 20
0.0
 30
0.0
  9
$PUCSORGLEFT
 10
0.0
 20
0.0
 30
0.0
  9
$PUCSORGRIGHT
 10
0.0
 20
0.0
 30
0.0
  9
$PUCSORGFRONT
 10
0.0
 20
0.0
 30
0.0
  9
$PUCSORGBACK
 10
0.0
 20
0.0
 30
0.0
  9
$USERI1
 70
     0
  9
$USERI2
 70
     0
  9
$USERI3
 70
     0
  9
$USERI4
 70
     0
  9
$USERI5
 70
     0
  9
$USERR1
 40
0.0
  9
$USERR2
 40
0.0
  9
$USERR3
 40
0.0
  9
$USERR4
 40
0.0
  9
$USERR5
 40
0.0
  9
$WORLDVIEW
 70
     1
  9
$SHADEDGE
 70
     3
  9
$SHADEDIF
 70
    70
  9
$TILEMODE
 70
     1
  9
$MAXACTVP
 70
    64
  9
$PINSBASE
 10
0.0
 20
0.0
 30
0.0
  9
$PLIMCHECK
 70
     0
  9
$PEXTMIN
 10
-209.760318
 20
-147.978432
 30
0.0
  9
$PEXTMAX
 10
630.239682
 20
446.021568
 30
0.0
  9
$PLIMMIN
 10
-209.760318
 20
-147.978432
  9
$PLIMMAX
 10
630.239682
 20
446.021568
  9
$UNITMODE
 70
     0
  9
$VISRETAIN
 70
     1
  9
$PLINEGEN
 70
     0
  9
$PSLTSCALE
 70
     1
  9
$TREEDEPTH
 70
  3020
  9
$CMLSTYLE
  2
Standard
  9
$CMLJUST
 70
     0
  9
$CMLSCALE
 40
20.0
  9
$PROXYGRAPHICS
 70
     1
  9
$MEASUREMENT
 70
     1
  9
$CELWEIGHT
370
    -1
  9
$ENDCAPS
280
     0
  9
$JOINSTYLE
280
     0
  9
$LWDISPLAY
290
     0
  9
$INSUNITS
 70
     4
  9
$HYPERLINKBASE
  1

  9
$STYLESHEET
  1

  9
$XEDIT
290
     1
  9
$CEPSNTYPE
380
     0
  9
$PSTYLEMODE
290
     1
  9
$FINGERPRINTGUID
  2
{FAEB1C30-E019-11D5-929B-00C0DF256EC4}
  9
$VERSIONGUID
  2
{FAEB1C32-E019-11D5-929B-00C0DF256EC4}
  9
$EXTNAMES
290
     1
  9
$PSVPSCALE
 40
0.0
  9
$OLESTARTUP
290
     0
  0
ENDSEC
  0
SECTION
  2
CLASSES
  0
CLASS
  1
ACDBDICTIONARYWDFLT
  2
AcDbDictionaryWithDefault
  3
ObjectDBX Classes
 90
        0
280
     0
281
     0
  0
CLASS
  1
ACDBPLACEHOLDER
  2
AcDbPlaceHolder
  3
ObjectDBX Classes
 90
        0
280
     0
281
     0
  0
CLASS
  1
LAYOUT
  2
AcDbLayout
  3
ObjectDBX Classes
 90
        0
280
     0
281
     0
  0
ENDSEC
  0
SECTION
  2
TABLES
  0
TABLE
  2
VPORT
  5
8
330
0
100
AcDbSymbolTable
 70
     2
  0
VPORT
  5
29
330
8
100
AcDbSymbolTableRecord
100
AcDbViewportTableRecord
  2
*ACTIVE
 70
     0
 10
0.0
 20
0.0
 11
1.0
 21
1.0
 12
210.239682
 22
149.021568
 13
0.0
 23
0.0
 14
1.0
 24
1.0
 15
0.0
 25
0.0
 16
0.0
 26
0.0
 36
1.0
 17
0.0
 27
0.0
 37
0.0
 40
594.0
 41
1.414141
 42
50.0
 43
0.0
 44
0.0
 50
0.0
 51
0.0
 71
    16
 72
   100
 73
     1
 74
     0
 75
     0
 76
     0
 77
     0
 78
     0
281
     0
 65
     0
110
0.0
120
0.0
130
0.0
111
1.0
121
0.0
131
0.0
112
0.0
122
1.0
132
0.0
 79
     0
146
0.0
  0
ENDTAB
  0
TABLE
  2
LTYPE
  5
5
330
0
100
AcDbSymbolTable
 70
     3
  0
LTYPE
  5
14
330
5
100
AcDbSymbolTableRecord
100
AcDbLinetypeTableRecord
  2
ByBlock
 70
     0
  3

 72
    65
 73
     0
 40
0.0
  0
LTYPE
  5
15
330
5
100
AcDbSymbolTableRecord
100
AcDbLinetypeTableRecord
  2
ByLayer
 70
     0
  3

 72
    65
 73
     0
 40
0.0
  0
LTYPE
  5
16
330
5
100
AcDbSymbolTableRecord
100
AcDbLinetypeTableRecord
  2
Continuous
 70
     0
  3
Solid line
 72
    65
 73
     0
 40
0.0
  0
LTYPE
  5
2A
330
5
100
AcDbSymbolTableRecord
100
AcDbLinetypeTableRecord
  2
DASHED
 70
     0
  3
__ __ __ __ __
 72
    65
 73
     2
 40
6.25
 49
5.0
 74
     4
 75
     0
340
0
 46
1.0
 50
0.0
 44
0.0
 45
0.0
 49
-1.25
 74
     4
 75
     0
340
0
 46
1.0
 50
0.0
 44
0.0
 45
0.0
  0
LTYPE
  5
3ED
330
5
100
AcDbSymbolTableRecord
100
AcDbLinetypeTableRecord
  2
DASHDOT
 70
     0
  3
__ . __ . __ . __ . __
 72
    65
 73
     4
 40
7.5
 49
5.0
 74
     4
 75
     0
340
0
 46
1.0
 50
0.0
 44
0.0
 45
0.0
 49
-1.25
 74
     4
 75
     0
340
0
 46
1.0
 50
0.0
 44
0.0
 45
0.0
 49
0.0
 74
     4
 75
     0
340
0
 46
1.0
 50
0.0
 44
0.0
 45
0.0
 49
-1.25
 74
     4
 75
     0
340
0
 46
1.0
 50
0.0
 44
0.0
 45
0.0
  0
ENDTAB
  0
TABLE
  2
LAYER
  5
2
330
0
100
AcDbSymbolTable
 70
     8
  0
LAYER
  5
10
330
2
100
AcDbSymbolTableRecord
100
AcDbLayerTableRecord
  2
0
 70
     0
 62
     7
  6
Continuous
370
    -3
390
F
  0
LAYER
  5
2B
330
2
100
AcDbSymbolTableRecord
100
AcDbLayerTableRecord
  2
LC-INFO-1-2-mm-A3-0
 70
     1
 62
     7
  6
ByBlock
370
    -3
390
F
  0
LAYER
  5
2C
330
2
100
AcDbSymbolTableRecord
100
AcDbLayerTableRecord
  2
LC-CUT-HIDDEN
 70
     0
 62
     7
  6
DASHED
370
    -3
390
F
  0
LAYER
  5
2D
330
2
100
AcDbSymbolTableRecord
100
AcDbLayerTableRecord
  2
LC-VIEWPORT
 70
     0
 62
     7
  6
ByBlock
370
    -3
390
F
  0
LAYER
  5
2E
330
2
100
AcDbSymbolTableRecord
100
AcDbLayerTableRecord
  2
LC-3D-HIDDEN
 70
     0
 62
     9
  6
DASHED
370
    -3
390
F
  0
LAYER
  5
31
330
2
100
AcDbSymbolTableRecord
100
AcDbLayerTableRecord
  2
LC-001-100-D00-0
 70
     0
 62
     1
  6
ByBlock
370
    -3
390
F
  0
LAYER
  5
3D1
330
2
100
AcDbSymbolTableRecord
100
AcDbLayerTableRecord
  2
Defpoints
 70
     0
 62
     7
  6
Continuous
290
     0
370
    -3
390
F
  0
LAYER
  5
3EF
330
2
100
AcDbSymbolTableRecord
100
AcDbLayerTableRecord
  2
LC-002-003-----0
 70
     0
 62
     2
  6
ByBlock
370
    -3
390
F
  0
ENDTAB
  0
TABLE
  2
STYLE
  5
3
330
0
100
AcDbSymbolTable
 70
     4
  0
STYLE
  5
11
330
3
100
AcDbSymbolTableRecord
100
AcDbTextStyleTableRecord
  2
Standard
 70
     0
 40
0.0
 41
1.0
 50
0.0
 71
     0
 42
2.5
  3
txt
  4

  0
STYLE
  5
2F
330
3
100
AcDbSymbolTableRecord
100
AcDbTextStyleTableRecord
  2
LCTX0-400-0-0pDIN-Schrift
 70
     0
 40
0.0
 41
0.75
 50
0.0
 71
     0
 42
3.5
  3
TXT
  4

  0
STYLE
  5
30
330
3
100
AcDbSymbolTableRecord
100
AcDbTextStyleTableRecord
  2
LCTX15-400-0-0-Arial
 70
     0
 40
0.0
 41
0.8
 50
0.0
 71
     0
 42
3.5
  3

  4

1001
ACAD
1000
Arial
1071
 16777218
  0
STYLE
  5
3CE
330
3
100
AcDbSymbolTableRecord
100
AcDbTextStyleTableRecord
  2
LCTX15-400-0-0pDIN-Schrift
 70
     0
 40
2.5
 41
0.8
 50
15.0
 71
     0
 42
3.5
  3
STANDARD
  4

  0
ENDTAB
  0
TABLE
  2
VIEW
  5
6
330
0
100
AcDbSymbolTable
 70
     0
  0
ENDTAB
  0
TABLE
  2
UCS
  5
7
330
0
100
AcDbSymbolTable
 70
     0
  0
ENDTAB
  0
TABLE
  2
APPID
  5
9
330
0
100
AcDbSymbolTable
 70
     1
  0
APPID
  5
12
330
9
100
AcDbSymbolTableRecord
100
AcDbRegAppTableRecord
  2
ACAD
 70
     0
  0
ENDTAB
  0
TABLE
  2
DIMSTYLE
  5
A
330
0
100
AcDbSymbolTable
 70
     3
100
AcDbDimStyleTable
  0
DIMSTYLE
105
27
330
A
100
AcDbSymbolTableRecord
100
AcDbDimStyleTableRecord
  2
ISO-25
 70
     0
 41
2.5
 42
0.625
 43
3.75
 44
1.25
 73
     0
 74
     0
 77
     1
 78
     8
140
2.5
141
2.5
143
0.03937
147
0.625
171
     3
172
     1
271
     2
272
     2
274
     3
278
    44
283
     0
284
     8
340
11
  0
DIMSTYLE
105
3CF
102
{ACAD_REACTORS
330
3D0
330
3F0
102
}
330
A
100
AcDbSymbolTableRecord
100
AcDbDimStyleTableRecord
  2
LC-DIM-L-0140-02-02
 70
     0
 40
2.0
 41
14.0
 42
0.0
 43
7.5
 44
1.8
 73
     0
 74
     0
 77
     1
 78
     8
 79
     2
140
14.0
141
0.0
146
0.71
147
1.5
176
     2
177
     2
178
     2
179
     2
271
     2
278
    44
289
     1
340
3CE
  0
DIMSTYLE
105
3DF
102
{ACAD_REACTORS
330
3E0
102
}
330
A
100
AcDbSymbolTableRecord
100
AcDbDimStyleTableRecord
  2
LC-DIM-L-0140-00-02
 70
     0
 40
2.0
 41
14.0
 42
0.0
 43
7.5
 44
1.8
 73
     0
 74
     0
 77
     1
 78
     8
140
14.0
141
0.0
146
0.71
147
1.5
176
     2
177
     2
178
     2
271
     0
278
    44
289
     1
340
3CE
  0
ENDTAB
  0
TABLE
  2
BLOCK_RECORD
  5
1
330
0
100
AcDbSymbolTable
 70
    28
  0
BLOCK_RECORD
  5
1F
330
1
100
AcDbSymbolTableRecord
100
AcDbBlockTableRecord
  2
*Model_Space
340
22
  0
BLOCK_RECORD
  5
1B
330
1
100
AcDbSymbolTableRecord
100
AcDbBlockTableRecord
  2
*Paper_Space
340
1E
  0
BLOCK_RECORD
  5
23
330
1
100
AcDbSymbolTableRecord
100
AcDbBlockTableRecord
  2
*Paper_Space0
340
26
  0
BLOCK_RECORD
  5
4E
330
1
100
AcDbSymbolTableRecord
100
AcDbBlockTableRecord
  2
POLY1
340
0
102
{BLKREFS
331
8D
102
}
  0
BLOCK_RECORD
  5
91
330
1
100
AcDbSymbolTableRecord
100
AcDbBlockTableRecord
  2
POLY2
340
0
102
{BLKREFS
331
A2
102
}
  0
BLOCK_RECORD
  5
B0
330
1
100
AcDbSymbolTableRecord
100
AcDbBlockTableRecord
  2
POLY3
340
0
102
{BLKREFS
331
C1
102
}
  0
BLOCK_RECORD
  5
C2
330
1
100
AcDbSymbolTableRecord
100
AcDbBlockTableRecord
  2
POLY4
340
0
102
{BLKREFS
331
D1
102
}
  0
BLOCK_RECORD
  5
D2
330
1
100
AcDbSymbolTableRecord
100
AcDbBlockTableRecord
  2
POLY5
340
0
102
{BLKREFS
331
DD
102
}
  0
BLOCK_RECORD
  5
DF
330
1
100
AcDbSymbolTableRecord
100
AcDbBlockTableRecord
  2
POLY6
340
0
102
{BLKREFS
331
F0
102
}
  0
BLOCK_RECORD
  5
F4
330
1
100
AcDbSymbolTableRecord
100
AcDbBlockTableRecord
  2
POLY7
340
0
102
{BLKREFS
331
105
102
}
  0
BLOCK_RECORD
  5
106
330
1
100
AcDbSymbolTableRecord
100
AcDbBlockTableRecord
  2
POLY8
340
0
102
{BLKREFS
331
111
102
}
  0
BLOCK_RECORD
  5
114
330
1
100
AcDbSymbolTableRecord
100
AcDbBlockTableRecord
  2
POLY9
340
0
102
{BLKREFS
331
121
102
}
  0
BLOCK_RECORD
  5
122
330
1
100
AcDbSymbolTableRecord
100
AcDbBlockTableRecord
  2
POLY10
340
0
102
{BLKREFS
331
133
102
}
  0
BLOCK_RECORD
  5
134
330
1
100
AcDbSymbolTableRecord
100
AcDbBlockTableRecord
  2
POLY11
340
0
102
{BLKREFS
331
13F
102
}
  0
BLOCK_RECORD
  5
142
330
1
100
AcDbSymbolTableRecord
100
AcDbBlockTableRecord
  2
POLY12
340
0
102
{BLKREFS
331
151
102
}
  0
BLOCK_RECORD
  5
153
330
1
100
AcDbSymbolTableRecord
100
AcDbBlockTableRecord
  2
POLY13
340
0
102
{BLKREFS
331
164
102
}
  0
BLOCK_RECORD
  5
166
330
1
100
AcDbSymbolTableRecord
100
AcDbBlockTableRecord
  2
POLY14
340
0
102
{BLKREFS
331
177
102
}
  0
BLOCK_RECORD
  5
178
330
1
100
AcDbSymbolTableRecord
100
AcDbBlockTableRecord
  2
POLY15
340
0
102
{BLKREFS
331
183
102
}
  0
BLOCK_RECORD
  5
217
330
1
100
AcDbSymbolTableRecord
100
AcDbBlockTableRecord
  2
POLY16
340
0
102
{BLKREFS
331
228
102
}
  0
BLOCK_RECORD
  5
275
330
1
100
AcDbSymbolTableRecord
100
AcDbBlockTableRecord
  2
POLY17
340
0
102
{BLKREFS
331
286
102
}
  0
BLOCK_RECORD
  5
2D5
330
1
100
AcDbSymbolTableRecord
100
AcDbBlockTableRecord
  2
POLY18
340
0
102
{BLKREFS
331
318
102
}
  0
BLOCK_RECORD
  5
37A
330
1
100
AcDbSymbolTableRecord
100
AcDbBlockTableRecord
  2
KLON1
340
0
102
{BLKREFS
331
38D
102
}
  0
BLOCK_RECORD
  5
38E
330
1
100
AcDbSymbolTableRecord
100
AcDbBlockTableRecord
  2
KLON2
340
0
102
{BLKREFS
331
3A1
102
}
  0
BLOCK_RECORD
  5
3A2
330
1
100
AcDbSymbolTableRecord
100
AcDbBlockTableRecord
  2
KLON3
340
0
102
{BLKREFS
331
3B0
102
}
  0
BLOCK_RECORD
  5
3B1
330
1
100
AcDbSymbolTableRecord
100
AcDbBlockTableRecord
  2
KLON4
340
0
102
{BLKREFS
331
3BC
102
}
  0
BLOCK_RECORD
  5
3BF
330
1
100
AcDbSymbolTableRecord
100
AcDbBlockTableRecord
  2
KLON5
340
0
102
{BLKREFS
331
3C6
102
}
  0
BLOCK_RECORD
  5
3C7
330
1
100
AcDbSymbolTableRecord
100
AcDbBlockTableRecord
  2
KLON6
340
0
102
{BLKREFS
331
3CD
102
}
  0
BLOCK_RECORD
  5
3D2
330
1
100
AcDbSymbolTableRecord
100
AcDbBlockTableRecord
  2
*D25
340
0
  0
BLOCK_RECORD
  5
3E1
330
1
100
AcDbSymbolTableRecord
100
AcDbBlockTableRecord
  2
*D26
340
0
  0
BLOCK_RECORD
  5
3F1
330
1
100
AcDbSymbolTableRecord
100
AcDbBlockTableRecord
  2
*D27
340
0
  0
ENDTAB
  0
ENDSEC
  0
SECTION
  2
BLOCKS
  0
BLOCK
  5
20
330
1F
100
AcDbEntity
  8
0
100
AcDbBlockBegin
  2
*Model_Space
 70
     0
 71
     0
 10
0.0
 20
0.0
 30
0.0
  3
*Model_Space
  1

  0
ENDBLK
  5
21
330
1F
100
AcDbEntity
  8
0
100
AcDbBlockEnd
  0
BLOCK
  5
1C
330
1B
100
AcDbEntity
 67
     1
  8
0
100
AcDbBlockBegin
  2
*Paper_Space
 70
     0
 71
     0
 10
0.0
 20
0.0
 30
0.0
  3
*Paper_Space
  1

  0
ENDBLK
  5
1D
330
1B
100
AcDbEntity
 67
     1
  8
0
100
AcDbBlockEnd
  0
BLOCK
  5
24
330
23
100
AcDbEntity
  8
0
100
AcDbBlockBegin
  2
*Paper_Space0
 70
     0
 71
     0
 10
0.0
 20
0.0
 30
0.0
  3
*Paper_Space0
  1

  0
ENDBLK
  5
25
330
23
100
AcDbEntity
  8
0
100
AcDbBlockEnd
  0
BLOCK
  5
4F
330
4E
100
AcDbEntity
  8
0
100
AcDbBlockBegin
  2
POLY1
 70
     0
 71
     0
 10
0.0
 20
0.0
 30
0.0
  3
POLY1
  1

  4
POLY1
  0
LINE
  5
51
330
4E
100
AcDbEntity
  8
LC-001-100-D00-0
 62
     7
370
    50
100
AcDbLine
 10
187.427273
 20
222.75699
 30
0.0
 11
187.427273
 21
222.75699
 31
0.0
  0
LINE
  5
52
330
4E
100
AcDbEntity
  8
LC-001-100-D00-0
 62
     7
370
    50
100
AcDbLine
 10
187.427273
 20
222.75699
 30
0.0
 11
187.427273
 21
222.409633
 31
0.0
  0
LINE
  5
53
330
4E
100
AcDbEntity
  8
LC-001-100-D00-0
 62
     7
370
    50
100
AcDbLine
 10
187.427273
 20
222.409633
 30
0.0
 11
187.427273
 21
222.409633
 31
0.0
  0
LINE
  5
54
330
4E
100
AcDbEntity
  8
LC-001-100-D00-0
 62
     7
370
    50
100
AcDbLine
 10
187.427273
 20
222.409633
 30
0.0
 11
187.427273
 21
221.71499
 31
0.0
  0
LINE
  5
55
330
4E
100
AcDbEntity
  8
LC-001-100-D00-0
 62
     7
370
    50
100
AcDbLine
 10
187.427273
 20
221.71499
 30
0.0
 11
187.427273
 21
221.71499
 31
0.0
  0
LINE
  5
56
330
4E
100
AcDbEntity
  8
LC-001-100-D00-0
 62
     7
370
    50
100
AcDbLine
 10
187.427273
 20
221.71499
 30
0.0
 11
187.427273
 21
220.205204
 31
0.0
  0
LINE
  5
57
330
4E
100
AcDbEntity
  8
LC-001-100-D00-0
 62
     7
370
    50
100
AcDbLine
 10
187.427273
 20
220.205204
 30
0.0
 11
187.427273
 21
220.205204
 31
0.0
  0
LINE
  5
58
330
4E
100
AcDbEntity
  8
LC-001-100-D00-0
 62
     7
370
    50
100
AcDbLine
 10
187.427273
 20
220.205204
 30
0.0
 11
187.427273
 21
218.340279
 31
0.0
  0
LINE
  5
59
330
4E
100
AcDbEntity
  8
LC-001-100-D00-0
 62
     7
370
    50
100
AcDbLine
 10
187.427273
 20
218.340279
 30
0.0
 11
187.427273
 21
218.340279
 31
0.0
  0
LINE
  5
5A
330
4E
100
AcDbEntity
  8
LC-001-100-D00-0
 62
     7
370
    50
100
AcDbLine
 10
187.427273
 20
218.340279
 30
0.0
 11
187.427273
 21
216.044864
 31
0.0
  0
LINE
  5
5B
330
4E
100
AcDbEntity
  8
LC-001-100-D00-0
 62
     7
370
    50
100
AcDbLine
 10
187.427273
 20
216.044864
 30
0.0
 11
187.427273
 21
216.044864
 31
0.0
  0
LINE
  5
5C
330
4E
100
AcDbEntity
  8
LC-001-100-D00-0
 62
     7
370
    50
100
AcDbLine
 10
187.427273
 20
216.044864
 30
0.0
 11
187.427273
 21
213.374047
 31
0.0
  0
LINE
  5
5D
330
4E
100
AcDbEntity
  8
LC-001-100-D00-0
 62
     7
370
    50
100
AcDbLine
 10
187.427273
 20
213.374047
 30
0.0
 11
187.427273
 21
213.374047
 31
0.0
  0
LINE
  5
5E
330
4E
100
AcDbEntity
  8
LC-001-100-D00-0
 62
     7
370
    50
100
AcDbLine
 10
187.427273
 20
213.374047
 30
0.0
 11
187.427273
 21
210.309671
 31
0.0
  0
LINE
  5
5F
330
4E
100
AcDbEntity
  8
LC-001-100-D00-0
 62
     7
370
    50
100
AcDbLine
 10
187.427273
 20
210.309671
 30
0.0
 11
187.427273
 21
210.309671
 31
0.0
  0
LINE
  5
60
330
4E
100
AcDbEntity
  8
LC-001-100-D00-0
 62
     7
370
    50
100
AcDbLine
 10
187.427273
 20
210.309671
 30
0.0
 11
187.427273
 21
206.916985
 31
0.0
  0
LINE
  5
61
330
4E
100
AcDbEntity
  8
LC-001-100-D00-0
 62
     7
370
    50
100
AcDbLine
 10
187.427273
 20
206.916985
 30
0.0
 11
187.427273
 21
206.916985
 31
0.0
  0
LINE
  5
62
330
4E
100
AcDbEntity
  8
LC-001-100-D00-0
 62
     7
370
    50
100
AcDbLine
 10
187.427273
 20
206.916985
 30
0.0
 11
187.427273
 21
203.219845
 31
0.0
  0
LINE
  5
63
330
4E
100
AcDbEntity
  8
LC-001-100-D00-0
 62
     7
370
    50
100
AcDbLine
 10
187.427273
 20
203.219845
 30
0.0
 11
187.427273
 21
203.219845
 31
0.0
  0
LINE
  5
64
330
4E
100
AcDbEntity
  8
LC-001-100-D00-0
 62
     7
370
    50
100
AcDbLine
 10
187.427273
 20
203.219845
 30
0.0
 11
187.427273
 21
199.285702
 31
0.0
  0
LINE
  5
65
330
4E
100
AcDbEntity
  8
LC-001-100-D00-0
 62
     7
370
    50
100
AcDbLine
 10
187.427273
 20
199.285702
 30
0.0
 11
187.427273
 21
199.285702
 31
0.0
  0
LINE
  5
66
330
4E
100
AcDbEntity
  8
LC-001-100-D00-0
 62
     7
370
    50
100
AcDbLine
 10
187.427273
 20
199.285702
 30
0.0
 11
187.427273
 21
195.1813
 31
0.0
  0
LINE
  5
67
330
4E
100
AcDbEntity
  8
LC-001-100-D00-0
 62
     7
370
    50
100
AcDbLine
 10
187.427273
 20
195.1813
 30
0.0
 11
187.427273
 21
195.1813
 31
0.0
  0
LINE
  5
68
330
4E
100
AcDbEntity
  8
LC-001-100-D00-0
 62
     7
370
    50
100
AcDbLine
 10
187.427273
 20
195.1813
 30
0.0
 11
187.427273
 21
190.957558
 31
0.0
  0
LINE
  5
69
330
4E
100
AcDbEntity
  8
LC-001-100-D00-0
 62
     7
370
    50
100
AcDbLine
 10
187.427273
 20
190.957558
 30
0.0
 11
187.427273
 21
190.957558
 31
0.0
  0
LINE
  5
6A
330
4E
100
AcDbEntity
  8
LC-001-100-D00-0
 62
     7
370
    50
100
AcDbLine
 10
187.427273
 20
190.957558
 30
0.0
 11
187.427273
 21
186.715688
 31
0.0
  0
LINE
  5
6B
330
4E
100
AcDbEntity
  8
LC-001-100-D00-0
 62
     7
370
    50
100
AcDbLine
 10
187.427273
 20
186.715688
 30
0.0
 11
187.427273
 21
186.715688
 31
0.0
  0
LINE
  5
6C
330
4E
100
AcDbEntity
  8
LC-001-100-D00-0
 62
     7
370
    50
100
AcDbLine
 10
187.427273
 20
186.715688
 30
0.0
 11
187.427273
 21
182.474549
 31
0.0
  0
LINE
  5
6D
330
4E
100
AcDbEntity
  8
LC-001-100-D00-0
 62
     7
370
    50
100
AcDbLine
 10
187.427273
 20
182.474549
 30
0.0
 11
187.427273
 21
182.474549
 31
0.0
  0
LINE
  5
6E
330
4E
100
AcDbEntity
  8
LC-001-100-D00-0
 62
     7
370
    50
100
AcDbLine
 10
187.427273
 20
182.474549
 30
0.0
 11
187.427273
 21
178.354124
 31
0.0
  0
LINE
  5
6F
330
4E
100
AcDbEntity
  8
LC-001-100-D00-0
 62
     7
370
    50
100
AcDbLine
 10
187.427273
 20
178.354124
 30
0.0
 11
187.427273
 21
178.354124
 31
0.0
  0
LINE
  5
70
330
4E
100
AcDbEntity
  8
LC-001-100-D00-0
 62
     7
370
    50
100
AcDbLine
 10
187.427273
 20
178.354124
 30
0.0
 11
187.427273
 21
174.335086
 31
0.0
  0
LINE
  5
71
330
4E
100
AcDbEntity
  8
LC-001-100-D00-0
 62
     7
370
    50
100
AcDbLine
 10
187.427273
 20
174.335086
 30
0.0
 11
187.427273
 21
174.335086
 31
0.0
  0
LINE
  5
72
330
4E
100
AcDbEntity
  8
LC-001-100-D00-0
 62
     7
370
    50
100
AcDbLine
 10
187.427273
 20
174.335086
 30
0.0
 11
187.427273
 21
170.448625
 31
0.0
  0
LINE
  5
73
330
4E
100
AcDbEntity
  8
LC-001-100-D00-0
 62
     7
370
    50
100
AcDbLine
 10
187.427273
 20
170.448625
 30
0.0
 11
187.427273
 21
170.448625
 31
0.0
  0
LINE
  5
74
330
4E
100
AcDbEntity
  8
LC-001-100-D00-0
 62
     7
370
    50
100
AcDbLine
 10
187.427273
 20
170.448625
 30
0.0
 11
187.427273
 21
166.647943
 31
0.0
  0
LINE
  5
75
330
4E
100
AcDbEntity
  8
LC-001-100-D00-0
 62
     7
370
    50
100
AcDbLine
 10
187.427273
 20
166.647943
 30
0.0
 11
187.427273
 21
166.647943
 31
0.0
  0
LINE
  5
76
330
4E
100
AcDbEntity
  8
LC-001-100-D00-0
 62
     7
370
    50
100
AcDbLine
 10
187.427273
 20
166.647943
 30
0.0
 11
187.427273
 21
162.892173
 31
0.0
  0
LINE
  5
77
330
4E
100
AcDbEntity
  8
LC-001-100-D00-0
 62
     7
370
    50
100
AcDbLine
 10
187.427273
 20
162.892173
 30
0.0
 11
187.427273
 21
162.892173
 31
0.0
  0
LINE
  5
78
330
4E
100
AcDbEntity
  8
LC-001-100-D00-0
 62
     7
370
    50
100
AcDbLine
 10
187.427273
 20
162.892173
 30
0.0
 11
187.427273
 21
159.220847
 31
0.0
  0
LINE
  5
79
330
4E
100
AcDbEntity
  8
LC-001-100-D00-0
 62
     7
370
    50
100
AcDbLine
 10
187.427273
 20
159.220847
 30
0.0
 11
187.427273
 21
159.220847
 31
0.0
  0
LINE
  5
7A
330
4E
100
AcDbEntity
  8
LC-001-100-D00-0
 62
     7
370
    50
100
AcDbLine
 10
187.427273
 20
159.220847
 30
0.0
 11
187.427273
 21
155.633477
 31
0.0
  0
LINE
  5
7B
330
4E
100
AcDbEntity
  8
LC-001-100-D00-0
 62
     7
370
    50
100
AcDbLine
 10
187.427273
 20
155.633477
 30
0.0
 11
187.427273
 21
155.633477
 31
0.0
  0
LINE
  5
7C
330
4E
100
AcDbEntity
  8
LC-001-100-D00-0
 62
     7
370
    50
100
AcDbLine
 10
187.427273
 20
155.633477
 30
0.0
 11
187.427273
 21
152.242204
 31
0.0
  0
LINE
  5
7D
330
4E
100
AcDbEntity
  8
LC-001-100-D00-0
 62
     7
370
    50
100
AcDbLine
 10
187.427273
 20
152.242204
 30
0.0
 11
187.427273
 21
152.242204
 31
0.0
  0
LINE
  5
7E
330
4E
100
AcDbEntity
  8
LC-001-100-D00-0
 62
     7
370
    50
100
AcDbLine
 10
187.427273
 20
152.242204
 30
0.0
 11
187.427273
 21
149.075815
 31
0.0
  0
LINE
  5
7F
330
4E
100
AcDbEntity
  8
LC-001-100-D00-0
 62
     7
370
    50
100
AcDbLine
 10
187.427273
 20
149.075815
 30
0.0
 11
187.427273
 21
149.075815
 31
0.0
  0
LINE
  5
80
330
4E
100
AcDbEntity
  8
LC-001-100-D00-0
 62
     7
370
    50
100
AcDbLine
 10
187.427273
 20
149.075815
 30
0.0
 11
187.427273
 21
146.214944
 31
0.0
  0
LINE
  5
81
330
4E
100
AcDbEntity
  8
LC-001-100-D00-0
 62
     7
370
    50
100
AcDbLine
 10
187.427273
 20
146.214944
 30
0.0
 11
187.427273
 21
146.214944
 31
0.0
  0
LINE
  5
82
330
4E
100
AcDbEntity
  8
LC-001-100-D00-0
 62
     7
370
    50
100
AcDbLine
 10
187.427273
 20
146.214944
 30
0.0
 11
187.427273
 21
143.706076
 31
0.0
  0
LINE
  5
83
330
4E
100
AcDbEntity
  8
LC-001-100-D00-0
 62
     7
370
    50
100
AcDbLine
 10
187.427273
 20
143.706076
 30
0.0
 11
187.427273
 21
143.706076
 31
0.0
  0
LINE
  5
84
330
4E
100
AcDbEntity
  8
LC-001-100-D00-0
 62
     7
370
    50
100
AcDbLine
 10
187.427273
 20
143.706076
 30
0.0
 11
187.427273
 21
141.581343
 31
0.0
  0
LINE
  5
85
330
4E
100
AcDbEntity
  8
LC-001-100-D00-0
 62
     7
370
    50
100
AcDbLine
 10
187.427273
 20
141.581343
 30
0.0
 11
187.427273
 21
141.581343
 31
0.0
  0
LINE
  5
86
330
4E
100
AcDbEntity
  8
LC-001-100-D00-0
 62
     7
370
    50
100
AcDbLine
 10
187.427273
 20
141.581343
 30
0.0
 11
187.427273
 21
139.913821
 31
0.0
  0
LINE
  5
87
330
4E
100
AcDbEntity
  8
LC-001-100-D00-0
 62
     7
370
    50
100
AcDbLine
 10
187.427273
 20
139.913821
 30
0.0
 11
187.427273
 21
139.913821
 31
0.0
  0
LINE
  5
88
330
4E
100
AcDbEntity
  8
LC-001-100-D00-0
 62
     7
370
    50
100
AcDbLine
 10
187.427273
 20
139.913821
 30
0.0
 11
187.427273
 21
138.828282
 31
0.0
  0
LINE
  5
89
330
4E
100
AcDbEntity
  8
LC-001-100-D00-0
 62
     7
370
    50
100
AcDbLine
 10
187.427273
 20
138.828282
 30
0.0
 11
187.427273
 21
138.828282
 31
0.0
  0
LINE
  5
8A
330
4E
100
AcDbEntity
  8
LC-001-100-D00-0
 62
     7
370
    50
100
AcDbLine
 10
187.427273
 20
138.828282
 30
0.0
 11
187.427273
 21
138.464067
 31
0.0
  0
LINE
  5
8B
330
4E
100
AcDbEntity
  8
LC-001-100-D00-0
 62
     7
370
    50
100
AcDbLine
 10
187.427273
 20
138.464067
 30
0.0
 11
187.427273
 21
138.464067
 31
0.0
  0
LINE
  5
8C
330
4E
100
AcDbEntity
  8
LC-001-100-D00-0
 62
     7
370
    50
100
AcDbLine
 10
187.427273
 20
138.464067
 30
0.0
 11
187.427273
 21
138.35154
 31
0.0
  0
ENDBLK
  5
50
330
4E
100
AcDbEntity
  8
0
100
AcDbBlockEnd
  0
BLOCK
  5
92
330
91
100
AcDbEntity
  8
0
100
AcDbBlockBegin
  2
POLY2
 70
     0
 71
     0
 10
0.0
 20
0.0
 30
0.0
  3
POLY2
  1

  4
POLY2
  0
LINE
  5
94
330
91
100
AcDbEntity
  8
LC-001-100-D00-0
 62
     7
370
    50
100
AcDbLine
 10
187.92727
 20
225.997568
 30
0.0
 11
187.92727
 21
225.997568
 31
0.0
  0
LINE
  5
95
330
91
100
AcDbEntity
  8
LC-001-100-D00-0
 62
     7
370
    50
100
AcDbLine
 10
187.92727
 20
225.997568
 30
0.0
 11
187.871059
 21
225.99204
 31
0.0
  0
LINE
  5
96
330
91
100
AcDbEntity
  8
LC-001-100-D00-0
 62
     7
370
    50
100
AcDbLine
 10
187.871059
 20
225.99204
 30
0.0
 11
187.871059
 21
225.99204
 31
0.0
  0
LINE
  5
97
330
91
100
AcDbEntity
  8
LC-001-100-D00-0
 62
     7
370
    50
100
AcDbLine
 10
187.871059
 20
225.99204
 30
0.0
 11
187.758636
 21
225.980986
 31
0.0
  0
LINE
  5
98
330
91
100
AcDbEntity
  8
LC-001-100-D00-0
 62
     7
370
    50
100
AcDbLine
 10
187.758636
 20
225.980986
 30
0.0
 11
187.758636
 21
225.980986
 31
0.0
  0
LINE
  5
99
330
91
100
AcDbEntity
  8
LC-001-100-D00-0
 62
     7
370
    50
100
AcDbLine
 10
187.758636
 20
225.980986
 30
0.0
 11
187.6088
 21
225.89478
 31
0.0
  0
LINE
  5
9A
330
91
100
AcDbEntity
  8
LC-001-100-D00-0
 62
     7
370
    50
100
AcDbLine
 10
187.6088
 20
225.89478
 30
0.0
 11
187.6088
 21
225.89478
 31
0.0
  0
LINE
  5
9B
330
91
100
AcDbEntity
  8
LC-001-100-D00-0
 62
     7
370
    50
100
AcDbLine
 10
187.6088
 20
225.89478
 30
0.0
 11
187.495721
 21
225.767909
 31
0.0
  0
LINE
  5
9C
330
91
100
AcDbEntity
  8
LC-001-100-D00-0
 62
     7
370
    50
100
AcDbLine
 10
187.495721
 20
225.767909
 30
0.0
 11
187.495721
 21
225.767909
 31
0.0
  0
LINE
  5
9D
330
91
100
AcDbEntity
  8
LC-001-100-D00-0
 62
     7
370
    50
100
AcDbLine
 10
187.495721
 20
225.767909
 30
0.0
 11
187.435804
 21
225.627322
 31
0.0
  0
LINE
  5
9E
330
91
100
AcDbEntity
  8
LC-001-100-D00-0
 62
     7
370
    50
100
AcDbLine
 10
187.435804
 20
225.627322
 30
0.0
 11
187.435804
 21
225.627322
 31
0.0
  0
LINE
  5
9F
330
91
100
AcDbEntity
  8
LC-001-100-D00-0
 62
     7
370
    50
100
AcDbLine
 10
187.435804
 20
225.627322
 30
0.0
 11
187.429696
 21
225.534428
 31
0.0
  0
LINE
  5
A0
330
91
100
AcDbEntity
  8
LC-001-100-D00-0
 62
     7
370
    50
100
AcDbLine
 10
187.429696
 20
225.534428
 30
0.0
 11
187.429696
 21
225.534428
 31
0.0
  0
LINE
  5
A1
330
91
100
AcDbEntity
  8
LC-001-100-D00-0
 62
     7
370
    50
100
AcDbLine
 10
187.429696
 20
225.534428
 30
0.0
 11
187.427273
 21
225.497569
 31
0.0
  0
ENDBLK
  5
93
330
91
100
AcDbEntity
  8
0
100
AcDbBlockEnd
  0
BLOCK
  5
B1
330
B0
100
AcDbEntity
  8
0
100
AcDbBlockBegin
  2
POLY3
 70
     0
 71
     0
 10
0.0
 20
0.0
 30
0.0
  3
POLY3
  1

  4
POLY3
  0
LINE
  5
B3
330
B0
100
AcDbEntity
  8
LC-001-100-D00-0
 62
     7
370
    50
100
AcDbLine
 10
187.427273
 20
130.262429
 30
0.0
 11
187.427273
 21
130.262429
 31
0.0
  0
LINE
  5
B4
330
B0
100
AcDbEntity
  8
LC-001-100-D00-0
 62
     7
370
    50
100
AcDbLine
 10
187.427273
 20
130.262429
 30
0.0
 11
187.432796
 21
130.254489
 31
0.0
  0
LINE
  5
B5
330
B0
100
AcDbEntity
  8
LC-001-100-D00-0
 62
     7
370
    50
100
AcDbLine
 10
187.432796
 20
130.254489
 30
0.0
 11
187.432796
 21
130.254489
 31
0.0
  0
LINE
  5
B6
330
B0
100
AcDbEntity
  8
LC-001-100-D00-0
 62
     7
370
    50
100
AcDbLine
 10
187.432796
 20
130.254489
 30
0.0
 11
187.443844
 21
130.238607
 31
0.0
  0
LINE
  5
B7
330
B0
100
AcDbEntity
  8
LC-001-100-D00-0
 62
     7
370
    50
100
AcDbLine
 10
187.443844
 20
130.238607
 30
0.0
 11
187.443844
 21
130.238607
 31
0.0
  0
LINE
  5
B8
330
B0
100
AcDbEntity
  8
LC-001-100-D00-0
 62
     7
370
    50
100
AcDbLine
 10
187.443844
 20
130.238607
 30
0.0
 11
187.529955
 21
130.219547
 31
0.0
  0
LINE
  5
B9
330
B0
100
AcDbEntity
  8
LC-001-100-D00-0
 62
     7
370
    50
100
AcDbLine
 10
187.529955
 20
130.219547
 30
0.0
 11
187.529955
 21
130.219547
 31
0.0
  0
LINE
  5
BA
330
B0
100
AcDbEntity
  8
LC-001-100-D00-0
 62
     7
370
    50
100
AcDbLine
 10
187.529955
 20
130.219547
 30
0.0
 11
187.656252
 21
130.212189
 31
0.0
  0
LINE
  5
BB
330
B0
100
AcDbEntity
  8
LC-001-100-D00-0
 62
     7
370
    50
100
AcDbLine
 10
187.656252
 20
130.212189
 30
0.0
 11
187.656252
 21
130.212189
 31
0.0
  0
LINE
  5
BC
330
B0
100
AcDbEntity
  8
LC-001-100-D00-0
 62
     7
370
    50
100
AcDbLine
 10
187.656252
 20
130.212189
 30
0.0
 11
187.783023
 21
130.219906
 31
0.0
  0
LINE
  5
BD
330
B0
100
AcDbEntity
  8
LC-001-100-D00-0
 62
     7
370
    50
100
AcDbLine
 10
187.783023
 20
130.219906
 30
0.0
 11
187.783023
 21
130.219906
 31
0.0
  0
LINE
  5
BE
330
B0
100
AcDbEntity
  8
LC-001-100-D00-0
 62
     7
370
    50
100
AcDbLine
 10
187.783023
 20
130.219906
 30
0.0
 11
187.860527
 21
130.23212
 31
0.0
  0
LINE
  5
BF
330
B0
100
AcDbEntity
  8
LC-001-100-D00-0
 62
     7
370
    50
100
AcDbLine
 10
187.860527
 20
130.23212
 30
0.0
 11
187.860527
 21
130.23212
 31
0.0
  0
LINE
  5
C0
330
B0
100
AcDbEntity
  8
LC-001-100-D00-0
 62
     7
370
    50
100
AcDbLine
 10
187.860527
 20
130.23212
 30
0.0
 11
187.883695
 21
130.235771
 31
0.0
  0
ENDBLK
  5
B2
330
B0
100
AcDbEntity
  8
0
100
AcDbBlockEnd
  0
BLOCK
  5
C3
330
C2
100
AcDbEntity
  8
0
100
AcDbBlockBegin
  2
POLY4
 70
     0
 71
     0
 10
0.0
 20
0.0
 30
0.0
  3
POLY4
  1

  4
POLY4
  0
LINE
  5
C5
330
C2
100
AcDbEntity
  8
LC-001-100-D00-0
 62
     7
370
    50
100
AcDbLine
 10
187.883695
 20
130.235771
 30
0.0
 11
187.883695
 21
130.235771
 31
0.0
  0
LINE
  5
C6
330
C2
100
AcDbEntity
  8
LC-001-100-D00-0
 62
     7
370
    50
100
AcDbLine
 10
187.883695
 20
130.235771
 30
0.0
 11
188.15614
 21
130.31054
 31
0.0
  0
LINE
  5
C7
330
C2
100
AcDbEntity
  8
LC-001-100-D00-0
 62
     7
370
    50
100
AcDbLine
 10
188.15614
 20
130.31054
 30
0.0
 11
188.15614
 21
130.31054
 31
0.0
  0
LINE
  5
C8
330
C2
100
AcDbEntity
  8
LC-001-100-D00-0
 62
     7
370
    50
100
AcDbLine
 10
188.15614
 20
130.31054
 30
0.0
 11
188.701041
 21
130.460081
 31
0.0
  0
LINE
  5
C9
330
C2
100
AcDbEntity
  8
LC-001-100-D00-0
 62
     7
370
    50
100
AcDbLine
 10
188.701041
 20
130.460081
 30
0.0
 11
188.701041
 21
130.460081
 31
0.0
  0
LINE
  5
CA
330
C2
100
AcDbEntity
  8
LC-001-100-D00-0
 62
     7
370
    50
100
AcDbLine
 10
188.701041
 20
130.460081
 30
0.0
 11
189.354878
 21
131.00952
 31
0.0
  0
LINE
  5
CB
330
C2
100
AcDbEntity
  8
LC-001-100-D00-0
 62
     7
370
    50
100
AcDbLine
 10
189.354878
 20
131.00952
 30
0.0
 11
189.354878
 21
131.00952
 31
0.0
  0
LINE
  5
CC
330
C2
100
AcDbEntity
  8
LC-001-100-D00-0
 62
     7
370
    50
100
AcDbLine
 10
189.354878
 20
131.00952
 30
0.0
 11
189.829894
 21
131.750586
 31
0.0
  0
LINE
  5
CD
330
C2
100
AcDbEntity
  8
LC-001-100-D00-0
 62
     7
370
    50
100
AcDbLine
 10
189.829894
 20
131.750586
 30
0.0
 11
189.829894
 21
131.750586
 31
0.0
  0
LINE
  5
CE
330
C2
100
AcDbEntity
  8
LC-001-100-D00-0
 62
     7
370
    50
100
AcDbLine
 10
189.829894
 20
131.750586
 30
0.0
 11
189.893846
 21
132.336418
 31
0.0
  0
LINE
  5
CF
330
C2
100
AcDbEntity
  8
LC-001-100-D00-0
 62
     7
370
    50
100
AcDbLine
 10
189.893846
 20
132.336418
 30
0.0
 11
189.893846
 21
132.336418
 31
0.0
  0
LINE
  5
D0
330
C2
100
AcDbEntity
  8
LC-001-100-D00-0
 62
     7
370
    50
100
AcDbLine
 10
189.893846
 20
132.336418
 30
0.0
 11
189.927271
 21
132.642599
 31
0.0
  0
ENDBLK
  5
C4
330
C2
100
AcDbEntity
  8
0
100
AcDbBlockEnd
  0
BLOCK
  5
D3
330
D2
100
AcDbEntity
  8
0
100
AcDbBlockBegin
  2
POLY5
 70
     0
 71
     0
 10
0.0
 20
0.0
 30
0.0
  3
POLY5
  1

  4
POLY5
  0
LINE
  5
D5
330
D2
100
AcDbEntity
  8
LC-001-100-D00-0
 62
     7
370
    50
100
AcDbLine
 10
192.138268
 20
130.824315
 30
0.0
 11
192.138268
 21
130.824315
 31
0.0
  0
LINE
  5
D6
330
D2
100
AcDbEntity
  8
LC-001-100-D00-0
 62
     7
370
    50
100
AcDbLine
 10
192.138268
 20
130.824315
 30
0.0
 11
192.361699
 21
131.264861
 31
0.0
  0
LINE
  5
D7
330
D2
100
AcDbEntity
  8
LC-001-100-D00-0
 62
     7
370
    50
100
AcDbLine
 10
192.361699
 20
131.264861
 30
0.0
 11
192.361699
 21
131.264861
 31
0.0
  0
LINE
  5
D8
330
D2
100
AcDbEntity
  8
LC-001-100-D00-0
 62
     7
370
    50
100
AcDbLine
 10
192.361699
 20
131.264861
 30
0.0
 11
192.763216
 21
132.056543
 31
0.0
  0
LINE
  5
D9
330
D2
100
AcDbEntity
  8
LC-001-100-D00-0
 62
     7
370
    50
100
AcDbLine
 10
192.763216
 20
132.056543
 30
0.0
 11
192.763216
 21
132.056543
 31
0.0
  0
LINE
  5
DA
330
D2
100
AcDbEntity
  8
LC-001-100-D00-0
 62
     7
370
    50
100
AcDbLine
 10
192.763216
 20
132.056543
 30
0.0
 11
192.80759
 21
132.938207
 31
0.0
  0
LINE
  5
DB
330
D2
100
AcDbEntity
  8
LC-001-100-D00-0
 62
     7
370
    50
100
AcDbLine
 10
192.80759
 20
132.938207
 30
0.0
 11
192.80759
 21
132.938207
 31
0.0
  0
LINE
  5
DC
330
D2
100
AcDbEntity
  8
LC-001-100-D00-0
 62
     7
370
    50
100
AcDbLine
 10
192.80759
 20
132.938207
 30
0.0
 11
192.827271
 21
133.329252
 31
0.0
  0
ENDBLK
  5
D4
330
D2
100
AcDbEntity
  8
0
100
AcDbBlockEnd
  0
BLOCK
  5
E0
330
DF
100
AcDbEntity
  8
0
100
AcDbBlockBegin
  2
POLY6
 70
     0
 71
     0
 10
0.0
 20
0.0
 30
0.0
  3
POLY6
  1

  4
POLY6
  0
LINE
  5
E2
330
DF
100
AcDbEntity
  8
LC-001-100-D00-0
 62
     7
370
    50
100
AcDbLine
 10
192.827271
 20
136.514696
 30
0.0
 11
192.827271
 21
136.514696
 31
0.0
  0
LINE
  5
E3
330
DF
100
AcDbEntity
  8
LC-001-100-D00-0
 62
     7
370
    50
100
AcDbLine
 10
192.827271
 20
136.514696
 30
0.0
 11
192.827271
 21
136.683311
 31
0.0
  0
LINE
  5
E4
330
DF
100
AcDbEntity
  8
LC-001-100-D00-0
 62
     7
370
    50
100
AcDbLine
 10
192.827271
 20
136.683311
 30
0.0
 11
192.827271
 21
136.683311
 31
0.0
  0
LINE
  5
E5
330
DF
100
AcDbEntity
  8
LC-001-100-D00-0
 62
     7
370
    50
100
AcDbLine
 10
192.827271
 20
136.683311
 30
0.0
 11
192.827271
 21
137.020586
 31
0.0
  0
LINE
  5
E6
330
DF
100
AcDbEntity
  8
LC-001-100-D00-0
 62
     7
370
    50
100
AcDbLine
 10
192.827271
 20
137.020586
 30
0.0
 11
192.827271
 21
137.020586
 31
0.0
  0
LINE
  5
E7
330
DF
100
AcDbEntity
  8
LC-001-100-D00-0
 62
     7
370
    50
100
AcDbLine
 10
192.827271
 20
137.020586
 30
0.0
 11
192.827271
 21
137.501651
 31
0.0
  0
LINE
  5
E8
330
DF
100
AcDbEntity
  8
LC-001-100-D00-0
 62
     7
370
    50
100
AcDbLine
 10
192.827271
 20
137.501651
 30
0.0
 11
192.827271
 21
137.501651
 31
0.0
  0
LINE
  5
E9
330
DF
100
AcDbEntity
  8
LC-001-100-D00-0
 62
     7
370
    50
100
AcDbLine
 10
192.827271
 20
137.501651
 30
0.0
 11
192.827271
 21
137.888931
 31
0.0
  0
LINE
  5
EA
330
DF
100
AcDbEntity
  8
LC-001-100-D00-0
 62
     7
370
    50
100
AcDbLine
 10
192.827271
 20
137.888931
 30
0.0
 11
192.827271
 21
137.888931
 31
0.0
  0
LINE
  5
EB
330
DF
100
AcDbEntity
  8
LC-001-100-D00-0
 62
     7
370
    50
100
AcDbLine
 10
192.827271
 20
137.888931
 30
0.0
 11
192.827271
 21
138.118385
 31
0.0
  0
LINE
  5
EC
330
DF
100
AcDbEntity
  8
LC-001-100-D00-0
 62
     7
370
    50
100
AcDbLine
 10
192.827271
 20
138.118385
 30
0.0
 11
192.827271
 21
138.118385
 31
0.0
  0
LINE
  5
ED
330
DF
100
AcDbEntity
  8
LC-001-100-D00-0
 62
     7
370
    50
100
AcDbLine
 10
192.827271
 20
138.118385
 30
0.0
 11
192.827271
 21
138.174784
 31
0.0
  0
LINE
  5
EE
330
DF
100
AcDbEntity
  8
LC-001-100-D00-0
 62
     7
370
    50
100
AcDbLine
 10
192.827271
 20
138.174784
 30
0.0
 11
192.827271
 21
138.174784
 31
0.0
  0
LINE
  5
EF
330
DF
100
AcDbEntity
  8
LC-001-100-D00-0
 62
     7
370
    50
100
AcDbLine
 10
192.827271
 20
138.174784
 30
0.0
 11
192.827271
 21
138.19615
 31
0.0
  0
ENDBLK
  5
E1
330
DF
100
AcDbEntity
  8
0
100
AcDbBlockEnd
  0
BLOCK
  5
F5
330
F4
100
AcDbEntity
  8
0
100
AcDbBlockBegin
  2
POLY7
 70
     0
 71
     0
 10
0.0
 20
0.0
 30
0.0
  3
POLY7
  1

  4
POLY7
  0
LINE
  5
F7
330
F4
100
AcDbEntity
  8
LC-001-100-D00-0
 62
     7
370
    50
100
AcDbLine
 10
192.827271
 20
218.003919
 30
0.0
 11
192.827271
 21
218.003919
 31
0.0
  0
LINE
  5
F8
330
F4
100
AcDbEntity
  8
LC-001-100-D00-0
 62
     7
370
    50
100
AcDbLine
 10
192.827271
 20
218.003919
 30
0.0
 11
192.827271
 21
217.858685
 31
0.0
  0
LINE
  5
F9
330
F4
100
AcDbEntity
  8
LC-001-100-D00-0
 62
     7
370
    50
100
AcDbLine
 10
192.827271
 20
217.858685
 30
0.0
 11
192.827271
 21
217.858685
 31
0.0
  0
LINE
  5
FA
330
F4
100
AcDbEntity
  8
LC-001-100-D00-0
 62
     7
370
    50
100
AcDbLine
 10
192.827271
 20
217.858685
 30
0.0
 11
192.827271
 21
217.568181
 31
0.0
  0
LINE
  5
FB
330
F4
100
AcDbEntity
  8
LC-001-100-D00-0
 62
     7
370
    50
100
AcDbLine
 10
192.827271
 20
217.568181
 30
0.0
 11
192.827271
 21
217.568181
 31
0.0
  0
LINE
  5
FC
330
F4
100
AcDbEntity
  8
LC-001-100-D00-0
 62
     7
370
    50
100
AcDbLine
 10
192.827271
 20
217.568181
 30
0.0
 11
192.827271
 21
217.05564
 31
0.0
  0
LINE
  5
FD
330
F4
100
AcDbEntity
  8
LC-001-100-D00-0
 62
     7
370
    50
100
AcDbLine
 10
192.827271
 20
217.05564
 30
0.0
 11
192.827271
 21
217.05564
 31
0.0
  0
LINE
  5
FE
330
F4
100
AcDbEntity
  8
LC-001-100-D00-0
 62
     7
370
    50
100
AcDbLine
 10
192.827271
 20
217.05564
 30
0.0
 11
192.827271
 21
216.563456
 31
0.0
  0
LINE
  5
FF
330
F4
100
AcDbEntity
  8
LC-001-100-D00-0
 62
     7
370
    50
100
AcDbLine
 10
192.827271
 20
216.563456
 30
0.0
 11
192.827271
 21
216.563456
 31
0.0
  0
LINE
  5
100
330
F4
100
AcDbEntity
  8
LC-001-100-D00-0
 62
     7
370
    50
100
AcDbLine
 10
192.827271
 20
216.563456
 30
0.0
 11
192.827271
 21
216.18557
 31
0.0
  0
LINE
  5
101
330
F4
100
AcDbEntity
  8
LC-001-100-D00-0
 62
     7
370
    50
100
AcDbLine
 10
192.827271
 20
216.18557
 30
0.0
 11
192.827271
 21
216.18557
 31
0.0
  0
LINE
  5
102
330
F4
100
AcDbEntity
  8
LC-001-100-D00-0
 62
     7
370
    50
100
AcDbLine
 10
192.827271
 20
216.18557
 30
0.0
 11
192.827271
 21
216.016227
 31
0.0
  0
LINE
  5
103
330
F4
100
AcDbEntity
  8
LC-001-100-D00-0
 62
     7
370
    50
100
AcDbLine
 10
192.827271
 20
216.016227
 30
0.0
 11
192.827271
 21
216.016227
 31
0.0
  0
LINE
  5
104
330
F4
100
AcDbEntity
  8
LC-001-100-D00-0
 62
     7
370
    50
100
AcDbLine
 10
192.827271
 20
216.016227
 30
0.0
 11
192.827271
 21
215.952053
 31
0.0
  0
ENDBLK
  5
F6
330
F4
100
AcDbEntity
  8
0
100
AcDbBlockEnd
  0
BLOCK
  5
107
330
106
100
AcDbEntity
  8
0
100
AcDbBlockBegin
  2
POLY8
 70
     0
 71
     0
 10
0.0
 20
0.0
 30
0.0
  3
POLY8
  1

  4
POLY8
  0
LINE
  5
109
330
106
100
AcDbEntity
  8
LC-001-100-D00-0
 62
     7
370
    50
100
AcDbLine
 10
192.427272
 20
222.077974
 30
0.0
 11
192.427272
 21
222.077974
 31
0.0
  0
LINE
  5
10A
330
106
100
AcDbEntity
  8
LC-001-100-D00-0
 62
     7
370
    50
100
AcDbLine
 10
192.427272
 20
222.077974
 30
0.0
 11
192.529604
 21
221.902962
 31
0.0
  0
LINE
  5
10B
330
106
100
AcDbEntity
  8
LC-001-100-D00-0
 62
     7
370
    50
100
AcDbLine
 10
192.529604
 20
221.902962
 30
0.0
 11
192.529604
 21
221.902962
 31
0.0
  0
LINE
  5
10C
330
106
100
AcDbEntity
  8
LC-001-100-D00-0
 62
     7
370
    50
100
AcDbLine
 10
192.529604
 20
221.902962
 30
0.0
 11
192.80058
 21
221.43953
 31
0.0
  0
LINE
  5
10D
330
106
100
AcDbEntity
  8
LC-001-100-D00-0
 62
     7
370
    50
100
AcDbLine
 10
192.80058
 20
221.43953
 30
0.0
 11
192.80058
 21
221.43953
 31
0.0
  0
LINE
  5
10E
330
106
100
AcDbEntity
  8
LC-001-100-D00-0
 62
     7
370
    50
100
AcDbLine
 10
192.80058
 20
221.43953
 30
0.0
 11
192.817032
 21
220.923781
 31
0.0
  0
LINE
  5
10F
330
106
100
AcDbEntity
  8
LC-001-100-D00-0
 62
     7
370
    50
100
AcDbLine
 10
192.817032
 20
220.923781
 30
0.0
 11
192.817032
 21
220.923781
 31
0.0
  0
LINE
  5
110
330
106
100
AcDbEntity
  8
LC-001-100-D00-0
 62
     7
370
    50
100
AcDbLine
 10
192.817032
 20
220.923781
 30
0.0
 11
192.827271
 21
220.602802
 31
0.0
  0
ENDBLK
  5
108
330
106
100
AcDbEntity
  8
0
100
AcDbBlockEnd
  0
BLOCK
  5
115
330
114
100
AcDbEntity
  8
0
100
AcDbBlockBegin
  2
POLY9
 70
     0
 71
     0
 10
0.0
 20
0.0
 30
0.0
  3
POLY9
  1

  4
POLY9
  0
LINE
  5
117
330
114
100
AcDbEntity
  8
LC-001-100-D00-0
 62
     7
370
    50
100
AcDbLine
 10
192.827271
 20
214.453004
 30
0.0
 11
192.827271
 21
214.453004
 31
0.0
  0
LINE
  5
118
330
114
100
AcDbEntity
  8
LC-001-100-D00-0
 62
     7
370
    50
100
AcDbLine
 10
192.827271
 20
214.453004
 30
0.0
 11
192.827271
 21
214.448441
 31
0.0
  0
LINE
  5
119
330
114
100
AcDbEntity
  8
LC-001-100-D00-0
 62
     7
370
    50
100
AcDbLine
 10
192.827271
 20
214.448441
 30
0.0
 11
192.827271
 21
214.448441
 31
0.0
  0
LINE
  5
11A
330
114
100
AcDbEntity
  8
LC-001-100-D00-0
 62
     7
370
    50
100
AcDbLine
 10
192.827271
 20
214.448441
 30
0.0
 11
192.827271
 21
214.424468
 31
0.0
  0
LINE
  5
11B
330
114
100
AcDbEntity
  8
LC-001-100-D00-0
 62
     7
370
    50
100
AcDbLine
 10
192.827271
 20
214.424468
 30
0.0
 11
192.827271
 21
214.424468
 31
0.0
  0
LINE
  5
11C
330
114
100
AcDbEntity
  8
LC-001-100-D00-0
 62
     7
370
    50
100
AcDbLine
 10
192.827271
 20
214.424468
 30
0.0
 11
192.827271
 21
214.523732
 31
0.0
  0
LINE
  5
11D
330
114
100
AcDbEntity
  8
LC-001-100-D00-0
 62
     7
370
    50
100
AcDbLine
 10
192.827271
 20
214.523732
 30
0.0
 11
192.827271
 21
214.523732
 31
0.0
  0
LINE
  5
11E
330
114
100
AcDbEntity
  8
LC-001-100-D00-0
 62
     7
370
    50
100
AcDbLine
 10
192.827271
 20
214.523732
 30
0.0
 11
192.827271
 21
214.663196
 31
0.0
  0
LINE
  5
11F
330
114
100
AcDbEntity
  8
LC-001-100-D00-0
 62
     7
370
    50
100
AcDbLine
 10
192.827271
 20
214.663196
 30
0.0
 11
192.827271
 21
214.663196
 31
0.0
  0
LINE
  5
120
330
114
100
AcDbEntity
  8
LC-001-100-D00-0
 62
     7
370
    50
100
AcDbLine
 10
192.827271
 20
214.663196
 30
0.0
 11
192.827271
 21
214.716032
 31
0.0
  0
ENDBLK
  5
116
330
114
100
AcDbEntity
  8
0
100
AcDbBlockEnd
  0
BLOCK
  5
123
330
122
100
AcDbEntity
  8
0
100
AcDbBlockBegin
  2
POLY10
 70
     0
 71
     0
 10
0.0
 20
0.0
 30
0.0
  3
POLY10
  1

  4
POLY10
  0
LINE
  5
125
330
122
100
AcDbEntity
  8
LC-001-100-D00-0
 62
     7
370
    50
100
AcDbLine
 10
192.827271
 20
152.492198
 30
0.0
 11
192.827271
 21
152.492198
 31
0.0
  0
LINE
  5
126
330
122
100
AcDbEntity
  8
LC-001-100-D00-0
 62
     7
370
    50
100
AcDbLine
 10
192.827271
 20
152.492198
 30
0.0
 11
192.827271
 21
152.604858
 31
0.0
  0
LINE
  5
127
330
122
100
AcDbEntity
  8
LC-001-100-D00-0
 62
     7
370
    50
100
AcDbLine
 10
192.827271
 20
152.604858
 30
0.0
 11
192.827271
 21
152.604858
 31
0.0
  0
LINE
  5
128
330
122
100
AcDbEntity
  8
LC-001-100-D00-0
 62
     7
370
    50
100
AcDbLine
 10
192.827271
 20
152.604858
 30
0.0
 11
192.827271
 21
152.830207
 31
0.0
  0
LINE
  5
129
330
122
100
AcDbEntity
  8
LC-001-100-D00-0
 62
     7
370
    50
100
AcDbLine
 10
192.827271
 20
152.830207
 30
0.0
 11
192.827271
 21
152.830207
 31
0.0
  0
LINE
  5
12A
330
122
100
AcDbEntity
  8
LC-001-100-D00-0
 62
     7
370
    50
100
AcDbLine
 10
192.827271
 20
152.830207
 30
0.0
 11
192.827271
 21
153.301917
 31
0.0
  0
LINE
  5
12B
330
122
100
AcDbEntity
  8
LC-001-100-D00-0
 62
     7
370
    50
100
AcDbLine
 10
192.827271
 20
153.301917
 30
0.0
 11
192.827271
 21
153.301917
 31
0.0
  0
LINE
  5
12C
330
122
100
AcDbEntity
  8
LC-001-100-D00-0
 62
     7
370
    50
100
AcDbLine
 10
192.827271
 20
153.301917
 30
0.0
 11
192.827271
 21
153.803405
 31
0.0
  0
LINE
  5
12D
330
122
100
AcDbEntity
  8
LC-001-100-D00-0
 62
     7
370
    50
100
AcDbLine
 10
192.827271
 20
153.803405
 30
0.0
 11
192.827271
 21
153.803405
 31
0.0
  0
LINE
  5
12E
330
122
100
AcDbEntity
  8
LC-001-100-D00-0
 62
     7
370
    50
100
AcDbLine
 10
192.827271
 20
153.803405
 30
0.0
 11
192.827271
 21
154.232482
 31
0.0
  0
LINE
  5
12F
330
122
100
AcDbEntity
  8
LC-001-100-D00-0
 62
     7
370
    50
100
AcDbLine
 10
192.827271
 20
154.232482
 30
0.0
 11
192.827271
 21
154.232482
 31
0.0
  0
LINE
  5
130
330
122
100
AcDbEntity
  8
LC-001-100-D00-0
 62
     7
370
    50
100
AcDbLine
 10
192.827271
 20
154.232482
 30
0.0
 11
192.827271
 21
154.454954
 31
0.0
  0
LINE
  5
131
330
122
100
AcDbEntity
  8
LC-001-100-D00-0
 62
     7
370
    50
100
AcDbLine
 10
192.827271
 20
154.454954
 30
0.0
 11
192.827271
 21
154.454954
 31
0.0
  0
LINE
  5
132
330
122
100
AcDbEntity
  8
LC-001-100-D00-0
 62
     7
370
    50
100
AcDbLine
 10
192.827271
 20
154.454954
 30
0.0
 11
192.827271
 21
154.539237
 31
0.0
  0
ENDBLK
  5
124
330
122
100
AcDbEntity
  8
0
100
AcDbBlockEnd
  0
BLOCK
  5
135
330
134
100
AcDbEntity
  8
0
100
AcDbBlockBegin
  2
POLY11
 70
     0
 71
     0
 10
0.0
 20
0.0
 30
0.0
  3
POLY11
  1

  4
POLY11
  0
LINE
  5
137
330
134
100
AcDbEntity
  8
LC-001-100-D00-0
 62
     7
370
    50
100
AcDbLine
 10
192.427272
 20
149.504295
 30
0.0
 11
192.427272
 21
149.504295
 31
0.0
  0
LINE
  5
138
330
134
100
AcDbEntity
  8
LC-001-100-D00-0
 62
     7
370
    50
100
AcDbLine
 10
192.427272
 20
149.504295
 30
0.0
 11
192.529604
 21
149.632648
 31
0.0
  0
LINE
  5
139
330
134
100
AcDbEntity
  8
LC-001-100-D00-0
 62
     7
370
    50
100
AcDbLine
 10
192.529604
 20
149.632648
 30
0.0
 11
192.529604
 21
149.632648
 31
0.0
  0
LINE
  5
13A
330
134
100
AcDbEntity
  8
LC-001-100-D00-0
 62
     7
370
    50
100
AcDbLine
 10
192.529604
 20
149.632648
 30
0.0
 11
192.800581
 21
149.972525
 31
0.0
  0
LINE
  5
13B
330
134
100
AcDbEntity
  8
LC-001-100-D00-0
 62
     7
370
    50
100
AcDbLine
 10
192.800581
 20
149.972525
 30
0.0
 11
192.800581
 21
149.972525
 31
0.0
  0
LINE
  5
13C
330
134
100
AcDbEntity
  8
LC-001-100-D00-0
 62
     7
370
    50
100
AcDbLine
 10
192.800581
 20
149.972525
 30
0.0
 11
192.817032
 21
150.350776
 31
0.0
  0
LINE
  5
13D
330
134
100
AcDbEntity
  8
LC-001-100-D00-0
 62
     7
370
    50
100
AcDbLine
 10
192.817032
 20
150.350776
 30
0.0
 11
192.817032
 21
150.350776
 31
0.0
  0
LINE
  5
13E
330
134
100
AcDbEntity
  8
LC-001-100-D00-0
 62
     7
370
    50
100
AcDbLine
 10
192.817032
 20
150.350776
 30
0.0
 11
192.827271
 21
150.586183
 31
0.0
  0
ENDBLK
  5
136
330
134
100
AcDbEntity
  8
0
100
AcDbBlockEnd
  0
BLOCK
  5
143
330
142
100
AcDbEntity
  8
0
100
AcDbBlockBegin
  2
POLY12
 70
     0
 71
     0
 10
0.0
 20
0.0
 30
0.0
  3
POLY12
  1

  4
POLY12
  0
LINE
  5
145
330
142
100
AcDbEntity
  8
LC-001-100-D00-0
 62
     7
370
    50
100
AcDbLine
 10
192.827271
 20
156.803737
 30
0.0
 11
192.827271
 21
156.803737
 31
0.0
  0
LINE
  5
146
330
142
100
AcDbEntity
  8
LC-001-100-D00-0
 62
     7
370
    50
100
AcDbLine
 10
192.827271
 20
156.803737
 30
0.0
 11
192.827271
 21
156.807002
 31
0.0
  0
LINE
  5
147
330
142
100
AcDbEntity
  8
LC-001-100-D00-0
 62
     7
370
    50
100
AcDbLine
 10
192.827271
 20
156.807002
 30
0.0
 11
192.827271
 21
156.807002
 31
0.0
  0
LINE
  5
148
330
142
100
AcDbEntity
  8
LC-001-100-D00-0
 62
     7
370
    50
100
AcDbLine
 10
192.827271
 20
156.807002
 30
0.0
 11
192.827271
 21
156.834277
 31
0.0
  0
LINE
  5
149
330
142
100
AcDbEntity
  8
LC-001-100-D00-0
 62
     7
370
    50
100
AcDbLine
 10
192.827271
 20
156.834277
 30
0.0
 11
192.827271
 21
156.834277
 31
0.0
  0
LINE
  5
14A
330
142
100
AcDbEntity
  8
LC-001-100-D00-0
 62
     7
370
    50
100
AcDbLine
 10
192.827271
 20
156.834277
 30
0.0
 11
192.827271
 21
156.722417
 31
0.0
  0
LINE
  5
14B
330
142
100
AcDbEntity
  8
LC-001-100-D00-0
 62
     7
370
    50
100
AcDbLine
 10
192.827271
 20
156.722417
 30
0.0
 11
192.827271
 21
156.722417
 31
0.0
  0
LINE
  5
14C
330
142
100
AcDbEntity
  8
LC-001-100-D00-0
 62
     7
370
    50
100
AcDbLine
 10
192.827271
 20
156.722417
 30
0.0
 11
192.827271
 21
156.505999
 31
0.0
  0
LINE
  5
14D
330
142
100
AcDbEntity
  8
LC-001-100-D00-0
 62
     7
370
    50
100
AcDbLine
 10
192.827271
 20
156.505999
 30
0.0
 11
192.827271
 21
156.505999
 31
0.0
  0
LINE
  5
14E
330
142
100
AcDbEntity
  8
LC-001-100-D00-0
 62
     7
370
    50
100
AcDbLine
 10
192.827271
 20
156.505999
 30
0.0
 11
192.827271
 21
156.301913
 31
0.0
  0
LINE
  5
14F
330
142
100
AcDbEntity
  8
LC-001-100-D00-0
 62
     7
370
    50
100
AcDbLine
 10
192.827271
 20
156.301913
 30
0.0
 11
192.827271
 21
156.301913
 31
0.0
  0
LINE
  5
150
330
142
100
AcDbEntity
  8
LC-001-100-D00-0
 62
     7
370
    50
100
AcDbLine
 10
192.827271
 20
156.301913
 30
0.0
 11
192.827271
 21
156.224574
 31
0.0
  0
ENDBLK
  5
144
330
142
100
AcDbEntity
  8
0
100
AcDbBlockEnd
  0
BLOCK
  5
154
330
153
100
AcDbEntity
  8
0
100
AcDbBlockBegin
  2
POLY13
 70
     0
 71
     0
 10
0.0
 20
0.0
 30
0.0
  3
POLY13
  1

  4
POLY13
  0
LINE
  5
156
330
153
100
AcDbEntity
  8
LC-001-100-D00-0
 62
     7
370
    50
100
AcDbLine
 10
192.827271
 20
189.963207
 30
0.0
 11
192.827271
 21
189.963207
 31
0.0
  0
LINE
  5
157
330
153
100
AcDbEntity
  8
LC-001-100-D00-0
 62
     7
370
    50
100
AcDbLine
 10
192.827271
 20
189.963207
 30
0.0
 11
192.827271
 21
189.921408
 31
0.0
  0
LINE
  5
158
330
153
100
AcDbEntity
  8
LC-001-100-D00-0
 62
     7
370
    50
100
AcDbLine
 10
192.827271
 20
189.921408
 30
0.0
 11
192.827271
 21
189.921408
 31
0.0
  0
LINE
  5
159
330
153
100
AcDbEntity
  8
LC-001-100-D00-0
 62
     7
370
    50
100
AcDbLine
 10
192.827271
 20
189.921408
 30
0.0
 11
192.827271
 21
189.8378
 31
0.0
  0
LINE
  5
15A
330
153
100
AcDbEntity
  8
LC-001-100-D00-0
 62
     7
370
    50
100
AcDbLine
 10
192.827271
 20
189.8378
 30
0.0
 11
192.827271
 21
189.8378
 31
0.0
  0
LINE
  5
15B
330
153
100
AcDbEntity
  8
LC-001-100-D00-0
 62
     7
370
    50
100
AcDbLine
 10
192.827271
 20
189.8378
 30
0.0
 11
192.827271
 21
189.515869
 31
0.0
  0
LINE
  5
15C
330
153
100
AcDbEntity
  8
LC-001-100-D00-0
 62
     7
370
    50
100
AcDbLine
 10
192.827271
 20
189.515869
 30
0.0
 11
192.827271
 21
189.515869
 31
0.0
  0
LINE
  5
15D
330
153
100
AcDbEntity
  8
LC-001-100-D00-0
 62
     7
370
    50
100
AcDbLine
 10
192.827271
 20
189.515869
 30
0.0
 11
192.827271
 21
189.092484
 31
0.0
  0
LINE
  5
15E
330
153
100
AcDbEntity
  8
LC-001-100-D00-0
 62
     7
370
    50
100
AcDbLine
 10
192.827271
 20
189.092484
 30
0.0
 11
192.827271
 21
189.092484
 31
0.0
  0
LINE
  5
15F
330
153
100
AcDbEntity
  8
LC-001-100-D00-0
 62
     7
370
    50
100
AcDbLine
 10
192.827271
 20
189.092484
 30
0.0
 11
192.827271
 21
188.663583
 31
0.0
  0
LINE
  5
160
330
153
100
AcDbEntity
  8
LC-001-100-D00-0
 62
     7
370
    50
100
AcDbLine
 10
192.827271
 20
188.663583
 30
0.0
 11
192.827271
 21
188.663583
 31
0.0
  0
LINE
  5
161
330
153
100
AcDbEntity
  8
LC-001-100-D00-0
 62
     7
370
    50
100
AcDbLine
 10
192.827271
 20
188.663583
 30
0.0
 11
192.827271
 21
188.400297
 31
0.0
  0
LINE
  5
162
330
153
100
AcDbEntity
  8
LC-001-100-D00-0
 62
     7
370
    50
100
AcDbLine
 10
192.827271
 20
188.400297
 30
0.0
 11
192.827271
 21
188.400297
 31
0.0
  0
LINE
  5
163
330
153
100
AcDbEntity
  8
LC-001-100-D00-0
 62
     7
370
    50
100
AcDbLine
 10
192.827271
 20
188.400297
 30
0.0
 11
192.827271
 21
188.300523
 31
0.0
  0
ENDBLK
  5
155
330
153
100
AcDbEntity
  8
0
100
AcDbBlockEnd
  0
BLOCK
  5
167
330
166
100
AcDbEntity
  8
0
100
AcDbBlockBegin
  2
POLY14
 70
     0
 71
     0
 10
0.0
 20
0.0
 30
0.0
  3
POLY14
  1

  4
POLY14
  0
LINE
  5
169
330
166
100
AcDbEntity
  8
LC-001-100-D00-0
 62
     7
370
    50
100
AcDbLine
 10
192.827271
 20
185.027086
 30
0.0
 11
192.827271
 21
185.027086
 31
0.0
  0
LINE
  5
16A
330
166
100
AcDbEntity
  8
LC-001-100-D00-0
 62
     7
370
    50
100
AcDbLine
 10
192.827271
 20
185.027086
 30
0.0
 11
192.827271
 21
185.026401
 31
0.0
  0
LINE
  5
16B
330
166
100
AcDbEntity
  8
LC-001-100-D00-0
 62
     7
370
    50
100
AcDbLine
 10
192.827271
 20
185.026401
 30
0.0
 11
192.827271
 21
185.026401
 31
0.0
  0
LINE
  5
16C
330
166
100
AcDbEntity
  8
LC-001-100-D00-0
 62
     7
370
    50
100
AcDbLine
 10
192.827271
 20
185.026401
 30
0.0
 11
192.827271
 21
185.023129
 31
0.0
  0
LINE
  5
16D
330
166
100
AcDbEntity
  8
LC-001-100-D00-0
 62
     7
370
    50
100
AcDbLine
 10
192.827271
 20
185.023129
 30
0.0
 11
192.827271
 21
185.023129
 31
0.0
  0
LINE
  5
16E
330
166
100
AcDbEntity
  8
LC-001-100-D00-0
 62
     7
370
    50
100
AcDbLine
 10
192.827271
 20
185.023129
 30
0.0
 11
192.827271
 21
185.185661
 31
0.0
  0
LINE
  5
16F
330
166
100
AcDbEntity
  8
LC-001-100-D00-0
 62
     7
370
    50
100
AcDbLine
 10
192.827271
 20
185.185661
 30
0.0
 11
192.827271
 21
185.185661
 31
0.0
  0
LINE
  5
170
330
166
100
AcDbEntity
  8
LC-001-100-D00-0
 62
     7
370
    50
100
AcDbLine
 10
192.827271
 20
185.185661
 30
0.0
 11
192.827271
 21
185.49976
 31
0.0
  0
LINE
  5
171
330
166
100
AcDbEntity
  8
LC-001-100-D00-0
 62
     7
370
    50
100
AcDbLine
 10
192.827271
 20
185.49976
 30
0.0
 11
192.827271
 21
185.49976
 31
0.0
  0
LINE
  5
172
330
166
100
AcDbEntity
  8
LC-001-100-D00-0
 62
     7
370
    50
100
AcDbLine
 10
192.827271
 20
185.49976
 30
0.0
 11
192.827271
 21
185.878989
 31
0.0
  0
LINE
  5
173
330
166
100
AcDbEntity
  8
LC-001-100-D00-0
 62
     7
370
    50
100
AcDbLine
 10
192.827271
 20
185.878989
 30
0.0
 11
192.827271
 21
185.878989
 31
0.0
  0
LINE
  5
174
330
166
100
AcDbEntity
  8
LC-001-100-D00-0
 62
     7
370
    50
100
AcDbLine
 10
192.827271
 20
185.878989
 30
0.0
 11
192.827271
 21
186.137047
 31
0.0
  0
LINE
  5
175
330
166
100
AcDbEntity
  8
LC-001-100-D00-0
 62
     7
370
    50
100
AcDbLine
 10
192.827271
 20
186.137047
 30
0.0
 11
192.827271
 21
186.137047
 31
0.0
  0
LINE
  5
176
330
166
100
AcDbEntity
  8
LC-001-100-D00-0
 62
     7
370
    50
100
AcDbLine
 10
192.827271
 20
186.137047
 30
0.0
 11
192.827271
 21
186.234812
 31
0.0
  0
ENDBLK
  5
168
330
166
100
AcDbEntity
  8
0
100
AcDbBlockEnd
  0
BLOCK
  5
179
330
178
100
AcDbEntity
  8
0
100
AcDbBlockBegin
  2
POLY15
 70
     0
 71
     0
 10
0.0
 20
0.0
 30
0.0
  3
POLY15
  1

  4
POLY15
  0
LINE
  5
17B
330
178
100
AcDbEntity
  8
LC-001-100-D00-0
 62
     7
370
    50
100
AcDbLine
 10
192.427272
 20
190.73123
 30
0.0
 11
192.427272
 21
190.73123
 31
0.0
  0
LINE
  5
17C
330
178
100
AcDbEntity
  8
LC-001-100-D00-0
 62
     7
370
    50
100
AcDbLine
 10
192.427272
 20
190.73123
 30
0.0
 11
192.529604
 21
190.698238
 31
0.0
  0
LINE
  5
17D
330
178
100
AcDbEntity
  8
LC-001-100-D00-0
 62
     7
370
    50
100
AcDbLine
 10
192.529604
 20
190.698238
 30
0.0
 11
192.529604
 21
190.698238
 31
0.0
  0
LINE
  5
17E
330
178
100
AcDbEntity
  8
LC-001-100-D00-0
 62
     7
370
    50
100
AcDbLine
 10
192.529604
 20
190.698238
 30
0.0
 11
192.800579
 21
190.610875
 31
0.0
  0
LINE
  5
17F
330
178
100
AcDbEntity
  8
LC-001-100-D00-0
 62
     7
370
    50
100
AcDbLine
 10
192.800579
 20
190.610875
 30
0.0
 11
192.800579
 21
190.610875
 31
0.0
  0
LINE
  5
180
330
178
100
AcDbEntity
  8
LC-001-100-D00-0
 62
     7
370
    50
100
AcDbLine
 10
192.800579
 20
190.610875
 30
0.0
 11
192.817032
 21
190.513647
 31
0.0
  0
LINE
  5
181
330
178
100
AcDbEntity
  8
LC-001-100-D00-0
 62
     7
370
    50
100
AcDbLine
 10
192.817032
 20
190.513647
 30
0.0
 11
192.817032
 21
190.513647
 31
0.0
  0
LINE
  5
182
330
178
100
AcDbEntity
  8
LC-001-100-D00-0
 62
     7
370
    50
100
AcDbLine
 10
192.817032
 20
190.513647
 30
0.0
 11
192.827271
 21
190.453137
 31
0.0
  0
ENDBLK
  5
17A
330
178
100
AcDbEntity
  8
0
100
AcDbBlockEnd
  0
BLOCK
  5
218
330
217
100
AcDbEntity
  8
0
100
AcDbBlockBegin
  2
POLY16
 70
     0
 71
     0
 10
0.0
 20
0.0
 30
0.0
  3
POLY16
  1

  4
POLY16
  0
LINE
  5
21A
330
217
100
AcDbEntity
  8
LC-001-100-D00-0
 62
     7
370
    50
100
AcDbLine
 10
134.627272
 20
218.747568
 30
0.0
 11
134.627272
 21
218.747568
 31
0.0
  0
LINE
  5
21B
330
217
100
AcDbEntity
  8
LC-001-100-D00-0
 62
     7
370
    50
100
AcDbLine
 10
134.627272
 20
218.747568
 30
0.0
 11
134.739696
 21
218.758623
 31
0.0
  0
LINE
  5
21C
330
217
100
AcDbEntity
  8
LC-001-100-D00-0
 62
     7
370
    50
100
AcDbLine
 10
134.739696
 20
218.758623
 30
0.0
 11
134.739696
 21
218.758623
 31
0.0
  0
LINE
  5
21D
330
217
100
AcDbEntity
  8
LC-001-100-D00-0
 62
     7
370
    50
100
AcDbLine
 10
134.739696
 20
218.758623
 30
0.0
 11
134.964543
 21
218.780732
 31
0.0
  0
LINE
  5
21E
330
217
100
AcDbEntity
  8
LC-001-100-D00-0
 62
     7
370
    50
100
AcDbLine
 10
134.964543
 20
218.780732
 30
0.0
 11
134.964543
 21
218.780732
 31
0.0
  0
LINE
  5
21F
330
217
100
AcDbEntity
  8
LC-001-100-D00-0
 62
     7
370
    50
100
AcDbLine
 10
134.964543
 20
218.780732
 30
0.0
 11
135.264218
 21
218.953141
 31
0.0
  0
LINE
  5
220
330
217
100
AcDbEntity
  8
LC-001-100-D00-0
 62
     7
370
    50
100
AcDbLine
 10
135.264218
 20
218.953141
 30
0.0
 11
135.264218
 21
218.953141
 31
0.0
  0
LINE
  5
221
330
217
100
AcDbEntity
  8
LC-001-100-D00-0
 62
     7
370
    50
100
AcDbLine
 10
135.264218
 20
218.953141
 30
0.0
 11
135.490372
 21
219.206888
 31
0.0
  0
LINE
  5
222
330
217
100
AcDbEntity
  8
LC-001-100-D00-0
 62
     7
370
    50
100
AcDbLine
 10
135.490372
 20
219.206888
 30
0.0
 11
135.490372
 21
219.206888
 31
0.0
  0
LINE
  5
223
330
217
100
AcDbEntity
  8
LC-001-100-D00-0
 62
     7
370
    50
100
AcDbLine
 10
135.490372
 20
219.206888
 30
0.0
 11
135.610201
 21
219.488061
 31
0.0
  0
LINE
  5
224
330
217
100
AcDbEntity
  8
LC-001-100-D00-0
 62
     7
370
    50
100
AcDbLine
 10
135.610201
 20
219.488061
 30
0.0
 11
135.610201
 21
219.488061
 31
0.0
  0
LINE
  5
225
330
217
100
AcDbEntity
  8
LC-001-100-D00-0
 62
     7
370
    50
100
AcDbLine
 10
135.610201
 20
219.488061
 30
0.0
 11
135.622422
 21
219.67385
 31
0.0
  0
LINE
  5
226
330
217
100
AcDbEntity
  8
LC-001-100-D00-0
 62
     7
370
    50
100
AcDbLine
 10
135.622422
 20
219.67385
 30
0.0
 11
135.622422
 21
219.67385
 31
0.0
  0
LINE
  5
227
330
217
100
AcDbEntity
  8
LC-001-100-D00-0
 62
     7
370
    50
100
AcDbLine
 10
135.622422
 20
219.67385
 30
0.0
 11
135.627272
 21
219.747568
 31
0.0
  0
ENDBLK
  5
219
330
217
100
AcDbEntity
  8
0
100
AcDbBlockEnd
  0
BLOCK
  5
276
330
275
100
AcDbEntity
  8
0
100
AcDbBlockBegin
  2
POLY17
 70
     0
 71
     0
 10
0.0
 20
0.0
 30
0.0
  3
POLY17
  1

  4
POLY17
  0
LINE
  5
278
330
275
100
AcDbEntity
  8
LC-001-100-D00-0
 62
     7
370
    50
100
AcDbLine
 10
135.627272
 20
141.747567
 30
0.0
 11
135.627272
 21
141.747567
 31
0.0
  0
LINE
  5
279
330
275
100
AcDbEntity
  8
LC-001-100-D00-0
 62
     7
370
    50
100
AcDbLine
 10
135.627272
 20
141.747567
 30
0.0
 11
135.616217
 21
141.859991
 31
0.0
  0
LINE
  5
27A
330
275
100
AcDbEntity
  8
LC-001-100-D00-0
 62
     7
370
    50
100
AcDbLine
 10
135.616217
 20
141.859991
 30
0.0
 11
135.616217
 21
141.859991
 31
0.0
  0
LINE
  5
27B
330
275
100
AcDbEntity
  8
LC-001-100-D00-0
 62
     7
370
    50
100
AcDbLine
 10
135.616217
 20
141.859991
 30
0.0
 11
135.594108
 21
142.084839
 31
0.0
  0
LINE
  5
27C
330
275
100
AcDbEntity
  8
LC-001-100-D00-0
 62
     7
370
    50
100
AcDbLine
 10
135.594108
 20
142.084839
 30
0.0
 11
135.594108
 21
142.084839
 31
0.0
  0
LINE
  5
27D
330
275
100
AcDbEntity
  8
LC-001-100-D00-0
 62
     7
370
    50
100
AcDbLine
 10
135.594108
 20
142.084839
 30
0.0
 11
135.421699
 21
142.384514
 31
0.0
  0
LINE
  5
27E
330
275
100
AcDbEntity
  8
LC-001-100-D00-0
 62
     7
370
    50
100
AcDbLine
 10
135.421699
 20
142.384514
 30
0.0
 11
135.421699
 21
142.384514
 31
0.0
  0
LINE
  5
27F
330
275
100
AcDbEntity
  8
LC-001-100-D00-0
 62
     7
370
    50
100
AcDbLine
 10
135.421699
 20
142.384514
 30
0.0
 11
135.167951
 21
142.610666
 31
0.0
  0
LINE
  5
280
330
275
100
AcDbEntity
  8
LC-001-100-D00-0
 62
     7
370
    50
100
AcDbLine
 10
135.167951
 20
142.610666
 30
0.0
 11
135.167951
 21
142.610666
 31
0.0
  0
LINE
  5
281
330
275
100
AcDbEntity
  8
LC-001-100-D00-0
 62
     7
370
    50
100
AcDbLine
 10
135.167951
 20
142.610666
 30
0.0
 11
134.886779
 21
142.730496
 31
0.0
  0
LINE
  5
282
330
275
100
AcDbEntity
  8
LC-001-100-D00-0
 62
     7
370
    50
100
AcDbLine
 10
134.886779
 20
142.730496
 30
0.0
 11
134.886779
 21
142.730496
 31
0.0
  0
LINE
  5
283
330
275
100
AcDbEntity
  8
LC-001-100-D00-0
 62
     7
370
    50
100
AcDbLine
 10
134.886779
 20
142.730496
 30
0.0
 11
134.700991
 21
142.742719
 31
0.0
  0
LINE
  5
284
330
275
100
AcDbEntity
  8
LC-001-100-D00-0
 62
     7
370
    50
100
AcDbLine
 10
134.700991
 20
142.742719
 30
0.0
 11
134.700991
 21
142.742719
 31
0.0
  0
LINE
  5
285
330
275
100
AcDbEntity
  8
LC-001-100-D00-0
 62
     7
370
    50
100
AcDbLine
 10
134.700991
 20
142.742719
 30
0.0
 11
134.627272
 21
142.747569
 31
0.0
  0
ENDBLK
  5
277
330
275
100
AcDbEntity
  8
0
100
AcDbBlockEnd
  0
BLOCK
  5
2D6
330
2D5
100
AcDbEntity
  8
0
100
AcDbBlockBegin
  2
POLY18
 70
     0
 71
     0
 10
0.0
 20
0.0
 30
0.0
  3
POLY18
  1

  4
POLY18
  0
LINE
  5
2D8
330
2D5
100
AcDbEntity
  8
LC-001-100-D00-0
 62
     7
370
    50
100
AcDbLine
 10
68.62727
 20
219.197568
 30
0.0
 11
68.62727
 21
219.197568
 31
0.0
  0
LINE
  5
2D9
330
2D5
100
AcDbEntity
  8
LC-001-100-D00-0
 62
     7
370
    50
100
AcDbLine
 10
68.62727
 20
219.197568
 30
0.0
 11
68.62727
 21
219.16674
 31
0.0
  0
LINE
  5
2DA
330
2D5
100
AcDbEntity
  8
LC-001-100-D00-0
 62
     7
370
    50
100
AcDbLine
 10
68.62727
 20
219.16674
 30
0.0
 11
68.62727
 21
219.16674
 31
0.0
  0
LINE
  5
2DB
330
2D5
100
AcDbEntity
  8
LC-001-100-D00-0
 62
     7
370
    50
100
AcDbLine
 10
68.62727
 20
219.16674
 30
0.0
 11
68.62727
 21
219.105086
 31
0.0
  0
LINE
  5
2DC
330
2D5
100
AcDbEntity
  8
LC-001-100-D00-0
 62
     7
370
    50
100
AcDbLine
 10
68.62727
 20
219.105086
 30
0.0
 11
68.62727
 21
219.105086
 31
0.0
  0
LINE
  5
2DD
330
2D5
100
AcDbEntity
  8
LC-001-100-D00-0
 62
     7
370
    50
100
AcDbLine
 10
68.62727
 20
219.105086
 30
0.0
 11
68.62727
 21
218.594384
 31
0.0
  0
LINE
  5
2DE
330
2D5
100
AcDbEntity
  8
LC-001-100-D00-0
 62
     7
370
    50
100
AcDbLine
 10
68.62727
 20
218.594384
 30
0.0
 11
68.62727
 21
218.594384
 31
0.0
  0
LINE
  5
2DF
330
2D5
100
AcDbEntity
  8
LC-001-100-D00-0
 62
     7
370
    50
100
AcDbLine
 10
68.62727
 20
218.594384
 30
0.0
 11
68.62727
 21
217.760389
 31
0.0
  0
LINE
  5
2E0
330
2D5
100
AcDbEntity
  8
LC-001-100-D00-0
 62
     7
370
    50
100
AcDbLine
 10
68.62727
 20
217.760389
 30
0.0
 11
68.62727
 21
217.760389
 31
0.0
  0
LINE
  5
2E1
330
2D5
100
AcDbEntity
  8
LC-001-100-D00-0
 62
     7
370
    50
100
AcDbLine
 10
68.62727
 20
217.760389
 30
0.0
 11
68.62727
 21
216.536633
 31
0.0
  0
LINE
  5
2E2
330
2D5
100
AcDbEntity
  8
LC-001-100-D00-0
 62
     7
370
    50
100
AcDbLine
 10
68.62727
 20
216.536633
 30
0.0
 11
68.62727
 21
216.536633
 31
0.0
  0
LINE
  5
2E3
330
2D5
100
AcDbEntity
  8
LC-001-100-D00-0
 62
     7
370
    50
100
AcDbLine
 10
68.62727
 20
216.536633
 30
0.0
 11
68.62727
 21
214.947228
 31
0.0
  0
LINE
  5
2E4
330
2D5
100
AcDbEntity
  8
LC-001-100-D00-0
 62
     7
370
    50
100
AcDbLine
 10
68.62727
 20
214.947228
 30
0.0
 11
68.62727
 21
214.947228
 31
0.0
  0
LINE
  5
2E5
330
2D5
100
AcDbEntity
  8
LC-001-100-D00-0
 62
     7
370
    50
100
AcDbLine
 10
68.62727
 20
214.947228
 30
0.0
 11
68.62727
 21
212.970588
 31
0.0
  0
LINE
  5
2E6
330
2D5
100
AcDbEntity
  8
LC-001-100-D00-0
 62
     7
370
    50
100
AcDbLine
 10
68.62727
 20
212.970588
 30
0.0
 11
68.62727
 21
212.970588
 31
0.0
  0
LINE
  5
2E7
330
2D5
100
AcDbEntity
  8
LC-001-100-D00-0
 62
     7
370
    50
100
AcDbLine
 10
68.62727
 20
212.970588
 30
0.0
 11
68.62727
 21
210.645582
 31
0.0
  0
LINE
  5
2E8
330
2D5
100
AcDbEntity
  8
LC-001-100-D00-0
 62
     7
370
    50
100
AcDbLine
 10
68.62727
 20
210.645582
 30
0.0
 11
68.62727
 21
210.645582
 31
0.0
  0
LINE
  5
2E9
330
2D5
100
AcDbEntity
  8
LC-001-100-D00-0
 62
     7
370
    50
100
AcDbLine
 10
68.62727
 20
210.645582
 30
0.0
 11
68.62727
 21
207.983858
 31
0.0
  0
LINE
  5
2EA
330
2D5
100
AcDbEntity
  8
LC-001-100-D00-0
 62
     7
370
    50
100
AcDbLine
 10
68.62727
 20
207.983858
 30
0.0
 11
68.62727
 21
207.983858
 31
0.0
  0
LINE
  5
2EB
330
2D5
100
AcDbEntity
  8
LC-001-100-D00-0
 62
     7
370
    50
100
AcDbLine
 10
68.62727
 20
207.983858
 30
0.0
 11
68.62727
 21
205.034565
 31
0.0
  0
LINE
  5
2EC
330
2D5
100
AcDbEntity
  8
LC-001-100-D00-0
 62
     7
370
    50
100
AcDbLine
 10
68.62727
 20
205.034565
 30
0.0
 11
68.62727
 21
205.034565
 31
0.0
  0
LINE
  5
2ED
330
2D5
100
AcDbEntity
  8
LC-001-100-D00-0
 62
     7
370
    50
100
AcDbLine
 10
68.62727
 20
205.034565
 30
0.0
 11
68.62727
 21
201.847305
 31
0.0
  0
LINE
  5
2EE
330
2D5
100
AcDbEntity
  8
LC-001-100-D00-0
 62
     7
370
    50
100
AcDbLine
 10
68.62727
 20
201.847305
 30
0.0
 11
68.62727
 21
201.847305
 31
0.0
  0
LINE
  5
2EF
330
2D5
100
AcDbEntity
  8
LC-001-100-D00-0
 62
     7
370
    50
100
AcDbLine
 10
68.62727
 20
201.847305
 30
0.0
 11
68.62727
 21
198.465066
 31
0.0
  0
LINE
  5
2F0
330
2D5
100
AcDbEntity
  8
LC-001-100-D00-0
 62
     7
370
    50
100
AcDbLine
 10
68.62727
 20
198.465066
 30
0.0
 11
68.62727
 21
198.465066
 31
0.0
  0
LINE
  5
2F1
330
2D5
100
AcDbEntity
  8
LC-001-100-D00-0
 62
     7
370
    50
100
AcDbLine
 10
68.62727
 20
198.465066
 30
0.0
 11
68.62727
 21
194.595828
 31
0.0
  0
LINE
  5
2F2
330
2D5
100
AcDbEntity
  8
LC-001-100-D00-0
 62
     7
370
    50
100
AcDbLine
 10
68.62727
 20
194.595828
 30
0.0
 11
68.62727
 21
194.595828
 31
0.0
  0
LINE
  5
2F3
330
2D5
100
AcDbEntity
  8
LC-001-100-D00-0
 62
     7
370
    50
100
AcDbLine
 10
68.62727
 20
194.595828
 30
0.0
 11
68.62727
 21
190.243633
 31
0.0
  0
LINE
  5
2F4
330
2D5
100
AcDbEntity
  8
LC-001-100-D00-0
 62
     7
370
    50
100
AcDbLine
 10
68.62727
 20
190.243633
 30
0.0
 11
68.62727
 21
190.243633
 31
0.0
  0
LINE
  5
2F5
330
2D5
100
AcDbEntity
  8
LC-001-100-D00-0
 62
     7
370
    50
100
AcDbLine
 10
68.62727
 20
190.243633
 30
0.0
 11
68.62727
 21
185.485287
 31
0.0
  0
LINE
  5
2F6
330
2D5
100
AcDbEntity
  8
LC-001-100-D00-0
 62
     7
370
    50
100
AcDbLine
 10
68.62727
 20
185.485287
 30
0.0
 11
68.62727
 21
185.485287
 31
0.0
  0
LINE
  5
2F7
330
2D5
100
AcDbEntity
  8
LC-001-100-D00-0
 62
     7
370
    50
100
AcDbLine
 10
68.62727
 20
185.485287
 30
0.0
 11
68.62727
 21
181.137453
 31
0.0
  0
LINE
  5
2F8
330
2D5
100
AcDbEntity
  8
LC-001-100-D00-0
 62
     7
370
    50
100
AcDbLine
 10
68.62727
 20
181.137453
 30
0.0
 11
68.62727
 21
181.137453
 31
0.0
  0
LINE
  5
2F9
330
2D5
100
AcDbEntity
  8
LC-001-100-D00-0
 62
     7
370
    50
100
AcDbLine
 10
68.62727
 20
181.137453
 30
0.0
 11
68.62727
 21
177.229804
 31
0.0
  0
LINE
  5
2FA
330
2D5
100
AcDbEntity
  8
LC-001-100-D00-0
 62
     7
370
    50
100
AcDbLine
 10
68.62727
 20
177.229804
 30
0.0
 11
68.62727
 21
177.229804
 31
0.0
  0
LINE
  5
2FB
330
2D5
100
AcDbEntity
  8
LC-001-100-D00-0
 62
     7
370
    50
100
AcDbLine
 10
68.62727
 20
177.229804
 30
0.0
 11
68.62727
 21
173.67178
 31
0.0
  0
LINE
  5
2FC
330
2D5
100
AcDbEntity
  8
LC-001-100-D00-0
 62
     7
370
    50
100
AcDbLine
 10
68.62727
 20
173.67178
 30
0.0
 11
68.62727
 21
173.67178
 31
0.0
  0
LINE
  5
2FD
330
2D5
100
AcDbEntity
  8
LC-001-100-D00-0
 62
     7
370
    50
100
AcDbLine
 10
68.62727
 20
173.67178
 30
0.0
 11
68.62727
 21
170.105934
 31
0.0
  0
LINE
  5
2FE
330
2D5
100
AcDbEntity
  8
LC-001-100-D00-0
 62
     7
370
    50
100
AcDbLine
 10
68.62727
 20
170.105934
 30
0.0
 11
68.62727
 21
170.105934
 31
0.0
  0
LINE
  5
2FF
330
2D5
100
AcDbEntity
  8
LC-001-100-D00-0
 62
     7
370
    50
100
AcDbLine
 10
68.62727
 20
170.105934
 30
0.0
 11
68.62727
 21
166.523391
 31
0.0
  0
LINE
  5
300
330
2D5
100
AcDbEntity
  8
LC-001-100-D00-0
 62
     7
370
    50
100
AcDbLine
 10
68.62727
 20
166.523391
 30
0.0
 11
68.62727
 21
166.523391
 31
0.0
  0
LINE
  5
301
330
2D5
100
AcDbEntity
  8
LC-001-100-D00-0
 62
     7
370
    50
100
AcDbLine
 10
68.62727
 20
166.523391
 30
0.0
 11
68.62727
 21
163.030128
 31
0.0
  0
LINE
  5
302
330
2D5
100
AcDbEntity
  8
LC-001-100-D00-0
 62
     7
370
    50
100
AcDbLine
 10
68.62727
 20
163.030128
 30
0.0
 11
68.62727
 21
163.030128
 31
0.0
  0
LINE
  5
303
330
2D5
100
AcDbEntity
  8
LC-001-100-D00-0
 62
     7
370
    50
100
AcDbLine
 10
68.62727
 20
163.030128
 30
0.0
 11
68.62727
 21
159.648155
 31
0.0
  0
LINE
  5
304
330
2D5
100
AcDbEntity
  8
LC-001-100-D00-0
 62
     7
370
    50
100
AcDbLine
 10
68.62727
 20
159.648155
 30
0.0
 11
68.62727
 21
159.648155
 31
0.0
  0
LINE
  5
305
330
2D5
100
AcDbEntity
  8
LC-001-100-D00-0
 62
     7
370
    50
100
AcDbLine
 10
68.62727
 20
159.648155
 30
0.0
 11
68.62727
 21
156.460708
 31
0.0
  0
LINE
  5
306
330
2D5
100
AcDbEntity
  8
LC-001-100-D00-0
 62
     7
370
    50
100
AcDbLine
 10
68.62727
 20
156.460708
 30
0.0
 11
68.62727
 21
156.460708
 31
0.0
  0
LINE
  5
307
330
2D5
100
AcDbEntity
  8
LC-001-100-D00-0
 62
     7
370
    50
100
AcDbLine
 10
68.62727
 20
156.460708
 30
0.0
 11
68.62727
 21
153.511523
 31
0.0
  0
LINE
  5
308
330
2D5
100
AcDbEntity
  8
LC-001-100-D00-0
 62
     7
370
    50
100
AcDbLine
 10
68.62727
 20
153.511523
 30
0.0
 11
68.62727
 21
153.511523
 31
0.0
  0
LINE
  5
309
330
2D5
100
AcDbEntity
  8
LC-001-100-D00-0
 62
     7
370
    50
100
AcDbLine
 10
68.62727
 20
153.511523
 30
0.0
 11
68.62727
 21
150.849702
 31
0.0
  0
LINE
  5
30A
330
2D5
100
AcDbEntity
  8
LC-001-100-D00-0
 62
     7
370
    50
100
AcDbLine
 10
68.62727
 20
150.849702
 30
0.0
 11
68.62727
 21
150.849702
 31
0.0
  0
LINE
  5
30B
330
2D5
100
AcDbEntity
  8
LC-001-100-D00-0
 62
     7
370
    50
100
AcDbLine
 10
68.62727
 20
150.849702
 30
0.0
 11
68.62727
 21
148.524615
 31
0.0
  0
LINE
  5
30C
330
2D5
100
AcDbEntity
  8
LC-001-100-D00-0
 62
     7
370
    50
100
AcDbLine
 10
68.62727
 20
148.524615
 30
0.0
 11
68.62727
 21
148.524615
 31
0.0
  0
LINE
  5
30D
330
2D5
100
AcDbEntity
  8
LC-001-100-D00-0
 62
     7
370
    50
100
AcDbLine
 10
68.62727
 20
148.524615
 30
0.0
 11
68.62727
 21
146.548471
 31
0.0
  0
LINE
  5
30E
330
2D5
100
AcDbEntity
  8
LC-001-100-D00-0
 62
     7
370
    50
100
AcDbLine
 10
68.62727
 20
146.548471
 30
0.0
 11
68.62727
 21
146.548471
 31
0.0
  0
LINE
  5
30F
330
2D5
100
AcDbEntity
  8
LC-001-100-D00-0
 62
     7
370
    50
100
AcDbLine
 10
68.62727
 20
146.548471
 30
0.0
 11
68.62727
 21
144.78525
 31
0.0
  0
LINE
  5
310
330
2D5
100
AcDbEntity
  8
LC-001-100-D00-0
 62
     7
370
    50
100
AcDbLine
 10
68.62727
 20
144.78525
 30
0.0
 11
68.62727
 21
144.78525
 31
0.0
  0
LINE
  5
311
330
2D5
100
AcDbEntity
  8
LC-001-100-D00-0
 62
     7
370
    50
100
AcDbLine
 10
68.62727
 20
144.78525
 30
0.0
 11
68.62727
 21
143.38788
 31
0.0
  0
LINE
  5
312
330
2D5
100
AcDbEntity
  8
LC-001-100-D00-0
 62
     7
370
    50
100
AcDbLine
 10
68.62727
 20
143.38788
 30
0.0
 11
68.62727
 21
143.38788
 31
0.0
  0
LINE
  5
313
330
2D5
100
AcDbEntity
  8
LC-001-100-D00-0
 62
     7
370
    50
100
AcDbLine
 10
68.62727
 20
143.38788
 30
0.0
 11
68.62727
 21
142.464679
 31
0.0
  0
LINE
  5
314
330
2D5
100
AcDbEntity
  8
LC-001-100-D00-0
 62
     7
370
    50
100
AcDbLine
 10
68.62727
 20
142.464679
 30
0.0
 11
68.62727
 21
142.464679
 31
0.0
  0
LINE
  5
315
330
2D5
100
AcDbEntity
  8
LC-001-100-D00-0
 62
     7
370
    50
100
AcDbLine
 10
68.62727
 20
142.464679
 30
0.0
 11
68.62727
 21
142.352704
 31
0.0
  0
LINE
  5
316
330
2D5
100
AcDbEntity
  8
LC-001-100-D00-0
 62
     7
370
    50
100
AcDbLine
 10
68.62727
 20
142.352704
 30
0.0
 11
68.62727
 21
142.352704
 31
0.0
  0
LINE
  5
317
330
2D5
100
AcDbEntity
  8
LC-001-100-D00-0
 62
     7
370
    50
100
AcDbLine
 10
68.62727
 20
142.352704
 30
0.0
 11
68.62727
 21
142.297568
 31
0.0
  0
ENDBLK
  5
2D7
330
2D5
100
AcDbEntity
  8
0
100
AcDbBlockEnd
  0
BLOCK
  5
37B
330
37A
100
AcDbEntity
  8
0
100
AcDbBlockBegin
  2
KLON1
 70
     0
 71
     0
 10
0.0
 20
0.0
 30
0.0
  3
KLON1
  1

  4
KLON1
  0
LINE
  5
37D
330
37A
100
AcDbEntity
  8
LC-001-100-D00-0
 62
     7
370
    25
100
AcDbLine
 10
182.009238
 20
227.497568
 30
0.0
 11
177.509238
 21
231.997568
 31
0.0
  0
LINE
  5
37E
330
37A
100
AcDbEntity
  8
LC-001-100-D00-0
 62
     7
370
    25
100
AcDbLine
 10
173.028982
 20
227.497568
 30
0.0
 11
170.028982
 21
230.497568
 31
0.0
  0
LINE
  5
37F
330
37A
100
AcDbEntity
  8
LC-001-100-D00-0
 62
     7
370
    25
100
AcDbLine
 10
164.048726
 20
227.497568
 30
0.0
 11
161.048726
 21
230.497568
 31
0.0
  0
LINE
  5
380
330
37A
100
AcDbEntity
  8
LC-001-100-D00-0
 62
     7
370
    25
100
AcDbLine
 10
155.06847
 20
227.497568
 30
0.0
 11
152.06847
 21
230.497568
 31
0.0
  0
LINE
  5
381
330
37A
100
AcDbEntity
  8
LC-001-100-D00-0
 62
     7
370
    25
100
AcDbLine
 10
146.088214
 20
227.497568
 30
0.0
 11
143.088214
 21
230.497568
 31
0.0
  0
LINE
  5
382
330
37A
100
AcDbEntity
  8
LC-001-100-D00-0
 62
     7
370
    25
100
AcDbLine
 10
138.516674
 20
226.088852
 30
0.0
 11
136.414656
 21
228.19087
 31
0.0
  0
LINE
  5
383
330
37A
100
AcDbEntity
  8
LC-001-100-D00-0
 62
     7
370
    25
100
AcDbLine
 10
138.427272
 20
217.197998
 30
0.0
 11
135.627272
 21
219.997998
 31
0.0
  0
LINE
  5
384
330
37A
100
AcDbEntity
  8
LC-001-100-D00-0
 62
     7
370
    25
100
AcDbLine
 10
130.447446
 20
216.197568
 30
0.0
 11
127.897446
 21
218.747568
 31
0.0
  0
LINE
  5
385
330
37A
100
AcDbEntity
  8
LC-001-100-D00-0
 62
     7
370
    25
100
AcDbLine
 10
121.467189
 20
216.197568
 30
0.0
 11
118.917189
 21
218.747568
 31
0.0
  0
LINE
  5
386
330
37A
100
AcDbEntity
  8
LC-001-100-D00-0
 62
     7
370
    25
100
AcDbLine
 10
110.28816
 20
218.396341
 30
0.0
 11
107.486933
 21
221.197568
 31
0.0
  0
LINE
  5
387
330
37A
100
AcDbEntity
  8
LC-001-100-D00-0
 62
     7
370
    25
100
AcDbLine
 10
101.006677
 20
218.697568
 30
0.0
 11
98.506677
 21
221.197568
 31
0.0
  0
LINE
  5
388
330
37A
100
AcDbEntity
  8
LC-001-100-D00-0
 62
     7
370
    25
100
AcDbLine
 10
92.026421
 20
218.697568
 30
0.0
 11
89.526421
 21
221.197568
 31
0.0
  0
LINE
  5
389
330
37A
100
AcDbEntity
  8
LC-001-100-D00-0
 62
     7
370
    25
100
AcDbLine
 10
83.046165
 20
218.697568
 30
0.0
 11
80.546165
 21
221.197568
 31
0.0
  0
LINE
  5
38A
330
37A
100
AcDbEntity
  8
LC-001-100-D00-0
 62
     7
370
    25
100
AcDbLine
 10
74.065909
 20
218.697568
 30
0.0
 11
67.115909
 21
225.647568
 31
0.0
  0
LINE
  5
38B
330
37A
100
AcDbEntity
  8
LC-001-100-D00-0
 62
     7
370
    25
100
AcDbLine
 10
61.056462
 20
222.726759
 30
0.0
 11
59.113695
 21
224.669526
 31
0.0
  0
LINE
  5
38C
330
37A
100
AcDbEntity
  8
LC-001-100-D00-0
 62
     7
370
    25
100
AcDbLine
 10
56.105397
 20
218.697568
 30
0.0
 11
53.605397
 21
221.197568
 31
0.0
  0
ENDBLK
  5
37C
330
37A
100
AcDbEntity
  8
0
100
AcDbBlockEnd
  0
BLOCK
  5
38F
330
38E
100
AcDbEntity
  8
0
100
AcDbBlockBegin
  2
KLON2
 70
     0
 71
     0
 10
0.0
 20
0.0
 30
0.0
  3
KLON2
  1

  4
KLON2
  0
LINE
  5
391
330
38E
100
AcDbEntity
  8
LC-001-100-D00-0
 62
     7
370
    25
100
AcDbLine
 10
180.494682
 20
130.229307
 30
0.0
 11
176.726421
 21
133.997568
 31
0.0
  0
LINE
  5
392
330
38E
100
AcDbEntity
  8
LC-001-100-D00-0
 62
     7
370
    25
100
AcDbLine
 10
170.746165
 20
130.997568
 30
0.0
 11
167.746165
 21
133.997568
 31
0.0
  0
LINE
  5
393
330
38E
100
AcDbEntity
  8
LC-001-100-D00-0
 62
     7
370
    25
100
AcDbLine
 10
161.765909
 20
130.997568
 30
0.0
 11
158.765909
 21
133.997568
 31
0.0
  0
LINE
  5
394
330
38E
100
AcDbEntity
  8
LC-001-100-D00-0
 62
     7
370
    25
100
AcDbLine
 10
152.785653
 20
130.997568
 30
0.0
 11
149.785653
 21
133.997568
 31
0.0
  0
LINE
  5
395
330
38E
100
AcDbEntity
  8
LC-001-100-D00-0
 62
     7
370
    25
100
AcDbLine
 10
143.805397
 20
130.997568
 30
0.0
 11
140.805397
 21
133.997568
 31
0.0
  0
LINE
  5
396
330
38E
100
AcDbEntity
  8
LC-001-100-D00-0
 62
     7
370
    25
100
AcDbLine
 10
138.427272
 20
136.375693
 30
0.0
 11
135.627272
 21
139.175693
 31
0.0
  0
LINE
  5
397
330
38E
100
AcDbEntity
  8
LC-001-100-D00-0
 62
     7
370
    25
100
AcDbLine
 10
132.055397
 20
142.747568
 30
0.0
 11
129.505397
 21
145.297568
 31
0.0
  0
LINE
  5
398
330
38E
100
AcDbEntity
  8
LC-001-100-D00-0
 62
     7
370
    25
100
AcDbLine
 10
123.07514
 20
142.747568
 30
0.0
 11
120.52514
 21
145.297568
 31
0.0
  0
LINE
  5
399
330
38E
100
AcDbEntity
  8
LC-001-100-D00-0
 62
     7
370
    25
100
AcDbLine
 10
115.040756
 20
141.801697
 30
0.0
 11
113.013425
 21
143.829027
 31
0.0
  0
LINE
  5
39A
330
38E
100
AcDbEntity
  8
LC-001-100-D00-0
 62
     7
370
    25
100
AcDbLine
 10
107.564628
 20
140.297568
 30
0.0
 11
105.064628
 21
142.797568
 31
0.0
  0
LINE
  5
39B
330
38E
100
AcDbEntity
  8
LC-001-100-D00-0
 62
     7
370
    25
100
AcDbLine
 10
98.584372
 20
140.297568
 30
0.0
 11
96.084372
 21
142.797568
 31
0.0
  0
LINE
  5
39C
330
38E
100
AcDbEntity
  8
LC-001-100-D00-0
 62
     7
370
    25
100
AcDbLine
 10
89.604116
 20
140.297568
 30
0.0
 11
87.104116
 21
142.797568
 31
0.0
  0
LINE
  5
39D
330
38E
100
AcDbEntity
  8
LC-001-100-D00-0
 62
     7
370
    25
100
AcDbLine
 10
80.62386
 20
140.297568
 30
0.0
 11
78.12386
 21
142.797568
 31
0.0
  0
LINE
  5
39E
330
38E
100
AcDbEntity
  8
LC-001-100-D00-0
 62
     7
370
    25
100
AcDbLine
 10
71.787081
 20
140.154091
 30
0.0
 11
69.143604
 21
142.797568
 31
0.0
  0
LINE
  5
39F
330
38E
100
AcDbEntity
  8
LC-001-100-D00-0
 62
     7
370
    25
100
AcDbLine
 10
67.113348
 20
135.847568
 30
0.0
 11
64.763348
 21
138.197568
 31
0.0
  0
LINE
  5
3A0
330
38E
100
AcDbEntity
  8
LC-001-100-D00-0
 62
     7
370
    25
100
AcDbLine
 10
53.683092
 20
140.297568
 30
0.0
 11
52.927272
 21
141.053388
 31
0.0
  0
ENDBLK
  5
390
330
38E
100
AcDbEntity
  8
0
100
AcDbBlockEnd
  0
BLOCK
  5
3A3
330
3A2
100
AcDbEntity
  8
0
100
AcDbBlockBegin
  2
KLON3
 70
     0
 71
     0
 10
0.0
 20
0.0
 30
0.0
  3
KLON3
  1

  4
KLON3
  0
LINE
  5
3A5
330
3A2
100
AcDbEntity
  8
LC-001-100-D00-0
 62
     7
370
    25
100
AcDbLine
 10
186.993266
 20
222.513541
 30
0.0
 11
182.259238
 21
227.247568
 31
0.0
  0
LINE
  5
3A6
330
3A2
100
AcDbEntity
  8
LC-001-100-D00-0
 62
     7
370
    25
100
AcDbLine
 10
179.731704
 20
220.794847
 30
0.0
 11
177.666128
 21
222.860422
 31
0.0
  0
LINE
  5
3A7
330
3A2
100
AcDbEntity
  8
LC-001-100-D00-0
 62
     7
370
    25
100
AcDbLine
 10
176.108637
 20
224.417913
 30
0.0
 11
173.278982
 21
227.247568
 31
0.0
  0
LINE
  5
3A8
330
3A2
100
AcDbEntity
  8
LC-001-100-D00-0
 62
     7
370
    25
100
AcDbLine
 10
172.470142
 20
219.076153
 30
0.0
 11
171.176782
 21
220.369512
 31
0.0
  0
LINE
  5
3A9
330
3A2
100
AcDbEntity
  8
LC-001-100-D00-0
 62
     7
370
    25
100
AcDbLine
 10
168.477027
 20
223.069267
 30
0.0
 11
164.298726
 21
227.247568
 31
0.0
  0
LINE
  5
3AA
330
3A2
100
AcDbEntity
  8
LC-001-100-D00-0
 62
     7
370
    25
100
AcDbLine
 10
165.074384
 20
217.491654
 30
0.0
 11
164.494625
 21
218.071413
 31
0.0
  0
LINE
  5
3AB
330
3A2
100
AcDbEntity
  8
LC-001-100-D00-0
 62
     7
370
    25
100
AcDbLine
 10
161.157439
 20
221.4086
 30
0.0
 11
155.31847
 21
227.247568
 31
0.0
  0
LINE
  5
3AC
330
3A2
100
AcDbEntity
  8
LC-001-100-D00-0
 62
     7
370
    25
100
AcDbLine
 10
153.83785
 20
219.747933
 30
0.0
 11
152.247263
 21
221.338519
 31
0.0
  0
LINE
  5
3AD
330
3A2
100
AcDbEntity
  8
LC-001-100-D00-0
 62
     7
370
    25
100
AcDbLine
 10
149.920904
 20
223.664878
 30
0.0
 11
146.338214
 21
227.247568
 31
0.0
  0
LINE
  5
3AE
330
3A2
100
AcDbEntity
  8
LC-001-100-D00-0
 62
     7
370
    25
100
AcDbLine
 10
146.518261
 20
218.087265
 30
0.0
 11
145.671664
 21
218.933862
 31
0.0
  0
LINE
  5
3AF
330
3A2
100
AcDbEntity
  8
LC-001-100-D00-0
 62
     7
370
    25
100
AcDbLine
 10
142.743407
 20
221.862119
 30
0.0
 11
138.927272
 21
225.678254
 31
0.0
  0
ENDBLK
  5
3A4
330
3A2
100
AcDbEntity
  8
0
100
AcDbBlockEnd
  0
BLOCK
  5
3B2
330
3B1
100
AcDbEntity
  8
0
100
AcDbBlockBegin
  2
KLON4
 70
     0
 71
     0
 10
0.0
 20
0.0
 30
0.0
  3
KLON4
  1

  4
KLON4
  0
LINE
  5
3B4
330
3B1
100
AcDbEntity
  8
LC-001-100-D00-0
 62
     7
370
    50
100
AcDbLine
 10
186.999906
 20
132.70434
 30
0.0
 11
182.6572
 21
137.047045
 31
0.0
  0
LINE
  5
3B5
330
3B1
100
AcDbEntity
  8
LC-001-100-D00-0
 62
     7
370
    50
100
AcDbLine
 10
180.784449
 20
138.919797
 30
0.0
 11
177.296559
 21
142.407687
 31
0.0
  0
LINE
  5
3B6
330
3B1
100
AcDbEntity
  8
LC-001-100-D00-0
 62
     7
370
    50
100
AcDbLine
 10
176.476421
 20
134.247568
 30
0.0
 11
171.34818
 21
139.37581
 31
0.0
  0
LINE
  5
3B7
330
3B1
100
AcDbEntity
  8
LC-001-100-D00-0
 62
     7
370
    50
100
AcDbLine
 10
167.496165
 20
134.247568
 30
0.0
 11
164.494312
 21
137.249422
 31
0.0
  0
LINE
  5
3B8
330
3B1
100
AcDbEntity
  8
LC-001-100-D00-0
 62
     7
370
    50
100
AcDbLine
 10
160.375589
 20
141.368144
 30
0.0
 11
158.171514
 21
143.572219
 31
0.0
  0
LINE
  5
3B9
330
3B1
100
AcDbEntity
  8
LC-001-100-D00-0
 62
     7
370
    50
100
AcDbLine
 10
158.515909
 20
134.247568
 30
0.0
 11
152.20195
 21
140.561527
 31
0.0
  0
LINE
  5
3BA
330
3B1
100
AcDbEntity
  8
LC-001-100-D00-0
 62
     7
370
    50
100
AcDbLine
 10
149.535653
 20
134.247568
 30
0.0
 11
145.8603
 21
137.922921
 31
0.0
  0
LINE
  5
3BB
330
3B1
100
AcDbEntity
  8
LC-001-100-D00-0
 62
     7
370
    50
100
AcDbLine
 10
139.321205
 20
135.48176
 30
0.0
 11
138.927272
 21
135.875693
 31
0.0
  0
ENDBLK
  5
3B3
330
3B1
100
AcDbEntity
  8
0
100
AcDbBlockEnd
  0
BLOCK
  5
3C0
330
3BF
100
AcDbEntity
  8
0
100
AcDbBlockBegin
  2
KLON5
 70
     0
 71
     0
 10
0.0
 20
0.0
 30
0.0
  3
KLON5
  1

  4
KLON5
  0
LINE
  5
3C2
330
3BF
100
AcDbEntity
  8
LC-001-100-D00-0
 62
     7
370
    25
100
AcDbLine
 10
192.427271
 20
136.25723
 30
0.0
 11
190.686933
 21
137.997568
 31
0.0
  0
LINE
  5
3C3
330
3BF
100
AcDbEntity
  8
LC-001-100-D00-0
 62
     7
370
    25
100
AcDbLine
 10
190.977478
 20
128.726768
 30
0.0
 11
189.20968
 21
130.494565
 31
0.0
  0
LINE
  5
3C4
330
3BF
100
AcDbEntity
  8
LC-001-100-D00-0
 62
     7
370
    25
100
AcDbLine
 10
183.476421
 20
127.247568
 30
0.0
 11
180.976421
 21
129.747568
 31
0.0
  0
LINE
  5
3C5
330
3BF
100
AcDbEntity
  8
LC-001-100-D00-0
 62
     7
370
    25
100
AcDbLine
 10
174.496165
 20
127.247568
 30
0.0
 11
171.593191
 21
130.150542
 31
0.0
  0
ENDBLK
  5
3C1
330
3BF
100
AcDbEntity
  8
0
100
AcDbBlockEnd
  0
BLOCK
  5
3C8
330
3C7
100
AcDbEntity
  8
0
100
AcDbBlockBegin
  2
KLON6
 70
     0
 71
     0
 10
0.0
 20
0.0
 30
0.0
  3
KLON6
  1

  4
KLON6
  0
LINE
  5
3CA
330
3C7
100
AcDbEntity
  8
LC-001-100-D00-0
 62
     7
370
    25
100
AcDbLine
 10
192.427271
 20
226.059791
 30
0.0
 11
189.927272
 21
228.559791
 31
0.0
  0
LINE
  5
3CB
330
3C7
100
AcDbEntity
  8
LC-001-100-D00-0
 62
     7
370
    25
100
AcDbLine
 10
186.739495
 20
231.747568
 30
0.0
 11
184.239495
 21
234.247568
 31
0.0
  0
LINE
  5
3CC
330
3C7
100
AcDbEntity
  8
LC-001-100-D00-0
 62
     7
370
    25
100
AcDbLine
 10
177.759238
 20
231.747568
 30
0.0
 11
175.259238
 21
234.247568
 31
0.0
  0
ENDBLK
  5
3C9
330
3C7
100
AcDbEntity
  8
0
100
AcDbBlockEnd
  0
BLOCK
  5
3DD
330
3D2
100
AcDbEntity
  8
0
100
AcDbBlockBegin
  2
*D25
 70
     1
 71
     0
 10
0.0
 20
0.0
 30
0.0
  3
*D25
  1

  0
LINE
  5
3D3
330
3D2
100
AcDbEntity
  8
LC-001-100-D00-0
 62
     2
370
    -2
100
AcDbLine
 10
52.927272
 20
142.797568
 30
0.0
 11
30.934638
 21
142.797568
 31
0.0
  0
LINE
  5
3D4
330
3D2
100
AcDbEntity
  8
LC-001-100-D00-0
 62
     2
370
    -2
100
AcDbLine
 10
52.927272
 20
218.697568
 30
0.0
 11
30.934638
 21
218.697568
 31
0.0
  0
LINE
  5
3D5
330
3D2
100
AcDbEntity
  8
LC-001-100-D00-0
 62
     2
370
    -2
100
AcDbLine
 10
34.534638
 20
170.797568
 30
0.0
 11
34.534638
 21
190.697568
 31
0.0
  0
LINE
  5
3D6
330
3D2
100
AcDbEntity
  8
LC-001-100-D00-0
 62
     2
370
    -2
100
AcDbLine
 10
34.534638
 20
218.697568
 30
0.0
 11
34.534638
 21
284.752326
 31
0.0
  0
SOLID
  5
3D7
330
3D2
100
AcDbEntity
  8
LC-001-100-D00-0
 62
     2
100
AcDbTrace
 10
29.867972
 20
170.797568
 30
0.0
 11
39.201305
 21
170.797568
 31
0.0
 12
34.534638
 22
142.797568
 32
0.0
 13
34.534638
 23
142.797568
 33
0.0
  0
SOLID
  5
3D8
330
3D2
100
AcDbEntity
  8
LC-001-100-D00-0
 62
     2
100
AcDbTrace
 10
39.201305
 20
190.697568
 30
0.0
 11
29.867972
 21
190.697568
 31
0.0
 12
34.534638
 22
218.697568
 32
0.0
 13
34.534638
 23
218.697568
 33
0.0
  0
MTEXT
  5
3D9
330
3D2
100
AcDbEntity
  8
LC-001-100-D00-0
 62
     2
100
AcDbMText
 10
3.734638
 20
238.715568
 30
0.0
 40
28.0
 41
0.0
 71
     5
 72
     1
  1
\A1;DN70
  7
LCTX15-400-0-0pDIN-Schrift
 11
6.123031769111886E-17
 21
1.0
 31
0.0
 73
     1
 44
1.0
  0
POINT
  5
3DA
330
3D2
100
AcDbEntity
  8
Defpoints
 62
     0
100
AcDbPoint
 10
52.927272
 20
142.797568
 30
0.0
  0
POINT
  5
3DB
330
3D2
100
AcDbEntity
  8
Defpoints
 62
     0
100
AcDbPoint
 10
52.927272
 20
218.697568
 30
0.0
  0
POINT
  5
3DC
330
3D2
100
AcDbEntity
  8
Defpoints
 62
     0
100
AcDbPoint
 10
34.534638
 20
218.697568
 30
0.0
  0
ENDBLK
  5
3DE
330
3D2
100
AcDbEntity
  8
0
100
AcDbBlockEnd
  0
BLOCK
  5
3EB
330
3E1
100
AcDbEntity
  8
0
100
AcDbBlockBegin
  2
*D26
 70
     1
 71
     0
 10
0.0
 20
0.0
 30
0.0
  3
*D26
  1

  0
LINE
  5
3E2
330
3E1
100
AcDbEntity
  8
LC-001-100-D00-0
 62
     2
370
    -2
100
AcDbLine
 10
52.927272
 20
140.297568
 30
0.0
 11
52.927272
 21
77.705568
 31
0.0
  0
LINE
  5
3E3
330
3E1
100
AcDbEntity
  8
LC-001-100-D00-0
 62
     2
370
    -2
100
AcDbLine
 10
192.827271
 20
133.329249
 30
0.0
 11
192.827271
 21
77.705568
 31
0.0
  0
LINE
  5
3E4
330
3E1
100
AcDbEntity
  8
LC-001-100-D00-0
 62
     2
370
    -2
100
AcDbLine
 10
80.927272
 20
81.305568
 30
0.0
 11
164.827271
 21
81.305568
 31
0.0
  0
SOLID
  5
3E5
330
3E1
100
AcDbEntity
  8
LC-001-100-D00-0
 62
     2
100
AcDbTrace
 10
80.927272
 20
85.972235
 30
0.0
 11
80.927272
 21
76.638902
 31
0.0
 12
52.927272
 22
81.305568
 32
0.0
 13
52.927272
 23
81.305568
 33
0.0
  0
SOLID
  5
3E6
330
3E1
100
AcDbEntity
  8
LC-001-100-D00-0
 62
     2
100
AcDbTrace
 10
164.827271
 20
76.638902
 30
0.0
 11
164.827271
 21
85.972235
 31
0.0
 12
192.827271
 22
81.305568
 32
0.0
 13
192.827271
 23
81.305568
 33
0.0
  0
MTEXT
  5
3E7
330
3E1
100
AcDbEntity
  8
LC-001-100-D00-0
 62
     2
100
AcDbMText
 10
102.686898
 20
112.105568
 30
0.0
 40
28.0
 41
0.0
 71
     5
 72
     1
  1
\A1;140
  7
LCTX15-400-0-0pDIN-Schrift
 73
     1
 44
1.0
  0
POINT
  5
3E8
330
3E1
100
AcDbEntity
  8
Defpoints
 62
     0
100
AcDbPoint
 10
52.927272
 20
140.297568
 30
0.0
  0
POINT
  5
3E9
330
3E1
100
AcDbEntity
  8
Defpoints
 62
     0
100
AcDbPoint
 10
192.827271
 20
133.329249
 30
0.0
  0
POINT
  5
3EA
330
3E1
100
AcDbEntity
  8
Defpoints
 62
     0
100
AcDbPoint
 10
192.827271
 20
81.305568
 30
0.0
  0
ENDBLK
  5
3EC
330
3E1
100
AcDbEntity
  8
0
100
AcDbBlockEnd
  0
BLOCK
  5
3FC
330
3F1
100
AcDbEntity
  8
0
100
AcDbBlockBegin
  2
*D27
 70
     1
 71
     0
 10
0.0
 20
0.0
 30
0.0
  3
*D27
  1

  0
LINE
  5
3F2
330
3F1
100
AcDbEntity
  8
LC-002-003-----0
 62
     2
370
    -2
100
AcDbLine
 10
183.596161
 20
217.229926
 30
0.0
 11
227.68311
 21
217.229926
 31
0.0
  0
LINE
  5
3F3
330
3F1
100
AcDbEntity
  8
LC-002-003-----0
 62
     2
370
    -2
100
AcDbLine
 10
183.596161
 20
144.26521
 30
0.0
 11
227.68311
 21
144.26521
 31
0.0
  0
LINE
  5
3F4
330
3F1
100
AcDbEntity
  8
LC-002-003-----0
 62
     2
370
    -2
100
AcDbLine
 10
224.08311
 20
189.229926
 30
0.0
 11
224.08311
 21
172.26521
 31
0.0
  0
LINE
  5
3F5
330
3F1
100
AcDbEntity
  8
LC-002-003-----0
 62
     2
370
    -2
100
AcDbLine
 10
224.08311
 20
217.229926
 30
0.0
 11
224.08311
 21
315.469026
 31
0.0
  0
SOLID
  5
3F6
330
3F1
100
AcDbEntity
  8
LC-002-003-----0
 62
     2
100
AcDbTrace
 10
228.749777
 20
189.229926
 30
0.0
 11
219.416443
 21
189.229926
 31
0.0
 12
224.08311
 22
217.229926
 32
0.0
 13
224.08311
 23
217.229926
 33
0.0
  0
SOLID
  5
3F7
330
3F1
100
AcDbEntity
  8
LC-002-003-----0
 62
     2
100
AcDbTrace
 10
219.416443
 20
172.26521
 30
0.0
 11
228.749777
 21
172.26521
 31
0.0
 12
224.08311
 22
144.26521
 32
0.0
 13
224.08311
 23
144.26521
 33
0.0
  0
MTEXT
  5
3F8
330
3F1
100
AcDbEntity
  8
LC-002-003-----0
 62
     2
100
AcDbMText
 10
193.28311
 20
222.677568
 30
0.0
 40
28.0
 41
0.0
 71
     5
 72
     1
  1
\A1;DN70(SML)
  7
LCTX15-400-0-0pDIN-Schrift
 11
6.123031769111886E-17
 21
1.0
 31
0.0
 73
     1
 44
1.0
  0
POINT
  5
3F9
330
3F1
100
AcDbEntity
  8
Defpoints
 62
     0
100
AcDbPoint
 10
183.596161
 20
217.229926
 30
0.0
  0
POINT
  5
3FA
330
3F1
100
AcDbEntity
  8
Defpoints
 62
     0
100
AcDbPoint
 10
183.596161
 20
144.26521
 30
0.0
  0
POINT
  5
3FB
330
3F1
100
AcDbEntity
  8
Defpoints
 62
     0
100
AcDbPoint
 10
224.08311
 20
144.26521
 30
0.0
  0
ENDBLK
  5
3FD
330
3F1
100
AcDbEntity
  8
0
100
AcDbBlockEnd
  0
ENDSEC
  0
SECTION
  2
ENTITIES
  0
LINE
  5
32
330
1F
100
AcDbEntity
  8
LC-001-100-D00-0
 62
     7
370
    50
100
AcDbLine
 10
192.828661
 20
138.522933
 30
0.0
 11
192.424936
 21
138.592991
 31
0.0
  0
LINE
  5
33
330
1F
100
AcDbEntity
  8
LC-001-100-D00-0
 62
     7
370
    50
100
AcDbLine
 10
192.367194
 20
214.375259
 30
0.0
 11
192.829085
 21
214.438937
 31
0.0
  0
LINE
  5
34
330
1F
100
AcDbEntity
  8
LC-001-100-D00-0
 62
     7
370
    50
100
AcDbLine
 10
192.828143
 20
156.813725
 30
0.0
 11
192.376709
 21
156.86114
 31
0.0
  0
LINE
  5
35
330
1F
100
AcDbEntity
  8
LC-001-100-D00-0
 62
     7
370
    50
100
AcDbLine
 10
192.427752
 20
184.999906
 30
0.0
 11
192.893555
 21
185.012373
 31
0.0
  0
LINE
  5
36
330
1F
100
AcDbEntity
  8
LC-001-100-D00-0
 62
     7
370
    50
100
AcDbLine
 10
61.227294
 20
221.32158
 30
0.0
 11
61.227294
 21
140.173557
 31
0.0
  0
ARC
  5
37
330
1F
100
AcDbEntity
  8
LC-001-100-D00-0
 62
     7
370
    15
100
AcDbCircle
 10
187.427271
 20
132.247568
 30
0.0
 40
5.0
100
AcDbArc
 50
270.0
 51
0.0
  0
ARC
  5
38
330
1F
100
AcDbEntity
  8
LC-001-100-D00-0
 62
     7
370
    50
100
AcDbCircle
 10
187.427271
 20
229.247568
 30
0.0
 40
5.000000000000057
100
AcDbArc
 50
0.0
 51
90.0
  0
LINE
  5
39
330
1F
100
AcDbEntity
  8
LC-001-100-D00-0
 62
     7
370
    15
100
AcDbLine
 10
187.427273
 20
127.247567
 30
0.0
 11
171.127271
 21
127.247567
 31
0.0
  0
LINE
  5
3A
330
1F
100
AcDbEntity
  8
LC-001-100-D00-0
 62
     7
370
    50
100
AcDbLine
 10
171.127271
 20
234.247568
 30
0.0
 11
187.427273
 21
234.247568
 31
0.0
  0
LINE
  5
3B
330
1F
100
AcDbEntity
  8
LC-001-100-D00-0
 62
     7
370
    50
100
AcDbLine
 10
175.089592
 20
231.747568
 30
0.0
 11
187.427273
 21
231.747568
 31
0.0
  0
LINE
  5
3C
330
1F
100
AcDbEntity
  8
LC-001-100-D00-0
 62
     7
370
    15
100
AcDbLine
 10
187.427273
 20
129.747565
 30
0.0
 11
175.089592
 21
129.747565
 31
0.0
  0
ARC
  5
3D
330
1F
100
AcDbEntity
  8
LC-001-100-D00-0
 62
     7
370
    50
100
AcDbCircle
 10
175.089592
 20
231.247568
 30
0.0
 40
0.5
100
AcDbArc
 50
90.0
 51
135.0
  0
ARC
  5
3E
330
1F
100
AcDbEntity
  8
LC-001-100-D00-0
 62
     7
370
    15
100
AcDbCircle
 10
175.089592
 20
130.247568
 30
0.0
 40
0.5000000000000442
100
AcDbArc
 50
225.0
 51
270.0
  0
LINE
  5
3F
330
1F
100
AcDbEntity
  8
LC-001-100-D00-0
 62
     7
370
    50
100
AcDbLine
 10
172.627272
 20
230.747568
 30
0.0
 11
172.627272
 21
230.497568
 31
0.0
  0
LINE
  5
40
330
1F
100
AcDbEntity
  8
LC-001-100-D00-0
 62
     7
370
    50
100
AcDbLine
 10
172.627272
 20
130.997571
 30
0.0
 11
172.627272
 21
130.747567
 31
0.0
  0
LINE
  5
41
330
1F
100
AcDbEntity
  8
LC-001-100-D00-0
 62
     7
370
    15
100
AcDbLine
 10
172.627272
 20
130.747567
 30
0.0
 11
171.127271
 21
129.881541
 31
0.0
  0
LINE
  5
42
330
1F
100
AcDbEntity
  8
LC-001-100-D00-0
 62
     7
370
    50
100
AcDbLine
 10
171.127271
 20
231.613594
 30
0.0
 11
172.627272
 21
230.747568
 31
0.0
  0
LINE
  5
43
330
1F
100
AcDbEntity
  8
LC-001-100-D00-0
 62
     7
370
    15
100
AcDbLine
 10
171.127271
 20
129.881541
 30
0.0
 11
171.127271
 21
130.997571
 31
0.0
  0
LINE
  5
44
330
1F
100
AcDbEntity
  8
LC-001-100-D00-0
 62
     7
370
    50
100
AcDbLine
 10
171.127271
 20
230.497568
 30
0.0
 11
171.127271
 21
231.613594
 31
0.0
  0
LINE
  5
45
330
1F
100
AcDbEntity
  8
LC-001-100-D00-0
 62
     7
370
    50
100
AcDbLine
 10
174.028931
 20
230.894015
 30
0.0
 11
174.73604
 21
231.601121
 31
0.0
  0
LINE
  5
46
330
1F
100
AcDbEntity
  8
LC-001-100-D00-0
 62
     7
370
    15
100
AcDbLine
 10
174.73604
 20
129.894013
 30
0.0
 11
174.028931
 21
130.601118
 31
0.0
  0
ARC
  5
47
330
1F
100
AcDbEntity
  8
LC-001-100-D00-0
 62
     7
370
    50
100
AcDbCircle
 10
173.675379
 20
231.247568
 30
0.0
 40
0.5000000000001137
100
AcDbArc
 50
270.0
 51
315.0
  0
ARC
  5
48
330
1F
100
AcDbEntity
  8
LC-001-100-D00-0
 62
     7
370
    50
100
AcDbCircle
 10
173.675379
 20
130.247568
 30
0.0
 40
0.5000000000000844
100
AcDbArc
 50
45.0
 51
90.0
  0
LINE
  5
49
330
1F
100
AcDbEntity
  8
LC-001-100-D00-0
 62
     7
370
    50
100
AcDbLine
 10
172.627272
 20
230.747568
 30
0.0
 11
173.675379
 21
230.747568
 31
0.0
  0
LINE
  5
4A
330
1F
100
AcDbEntity
  8
LC-001-100-D00-0
 62
     7
370
    50
100
AcDbLine
 10
173.675379
 20
130.747567
 30
0.0
 11
172.627272
 21
130.747567
 31
0.0
  0
ARC
  5
4B
330
1F
100
AcDbEntity
  8
LC-001-100-D00-0
 62
     7
370
    50
100
AcDbCircle
 10
187.927272
 20
223.997568
 30
0.0
 40
0.5000000000000568
100
AcDbArc
 50
180.0
 51
270.0
  0
ARC
  5
4C
330
1F
100
AcDbEntity
  8
LC-001-100-D00-0
 62
     7
370
    50
100
AcDbCircle
 10
187.927272
 20
137.497568
 30
0.0
 40
0.5
100
AcDbArc
 50
90.0
 51
180.0
  0
LINE
  5
4D
330
1F
100
AcDbEntity
  8
LC-001-100-D00-0
 62
     7
370
    50
100
AcDbLine
 10
187.427273
 20
223.143604
 30
0.0
 11
187.427273
 21
222.75699
 31
0.0
  0
INSERT
  5
8D
330
1F
100
AcDbEntity
  8
LC-001-100-D00-0
 62
     7
370
    50
100
AcDbBlockReference
  2
POLY1
 10
0.0
 20
0.0
 30
0.0
  0
LINE
  5
8E
330
1F
100
AcDbEntity
  8
LC-001-100-D00-0
 62
     7
370
    50
100
AcDbLine
 10
187.92727
 20
223.497568
 30
0.0
 11
192.427272
 21
223.497568
 31
0.0
  0
LINE
  5
8F
330
1F
100
AcDbEntity
  8
LC-001-100-D00-0
 62
     7
370
    50
100
AcDbLine
 10
192.427272
 20
137.99757
 30
0.0
 11
187.92727
 21
137.99757
 31
0.0
  0
LINE
  5
90
330
1F
100
AcDbEntity
  8
LC-001-100-D00-0
 62
     7
370
    50
100
AcDbLine
 10
192.427272
 20
223.497568
 30
0.0
 11
192.427272
 21
137.99757
 31
0.0
  0
INSERT
  5
A2
330
1F
100
AcDbEntity
  8
LC-001-100-D00-0
 62
     7
370
    50
100
AcDbBlockReference
  2
POLY2
 10
0.0
 20
0.0
 30
0.0
  0
LINE
  5
A3
330
1F
100
AcDbEntity
  8
LC-001-100-D00-0
 62
     7
370
    50
100
AcDbLine
 10
187.92727
 20
225.997568
 30
0.0
 11
189.927271
 21
225.997568
 31
0.0
  0
LINE
  5
A4
330
1F
100
AcDbEntity
  8
LC-001-100-D00-0
 62
     7
370
    50
100
AcDbLine
 10
189.927271
 20
225.997568
 30
0.0
 11
189.927271
 21
229.247837
 31
0.0
  0
ARC
  5
A5
330
1F
100
AcDbEntity
  8
LC-001-100-D00-0
 62
     7
370
    50
100
AcDbCircle
 10
187.427272
 20
229.247568
 30
0.0
 40
2.5
100
AcDbArc
 50
0.0
 51
90.0
  0
LINE
  5
A6
330
1F
100
AcDbEntity
  8
LC-001-100-D00-0
 62
     7
370
    50
100
AcDbLine
 10
187.427273
 20
223.997908
 30
0.0
 11
187.427273
 21
225.497829
 31
0.0
  0
LINE
  5
A7
330
1F
100
AcDbEntity
  8
LC-001-100-D00-0
 62
     7
370
    50
100
AcDbLine
 10
192.427272
 20
229.247863
 30
0.0
 11
192.427272
 21
223.497568
 31
0.0
  0
LINE
  5
A8
330
1F
100
AcDbEntity
  8
LC-001-100-D00-0
 62
     7
370
    50
100
AcDbLine
 10
171.127271
 20
231.613594
 30
0.0
 11
171.127271
 21
234.247568
 31
0.0
  0
LINE
  5
A9
330
1F
100
AcDbEntity
  8
LC-001-100-D00-0
 62
     7
370
    50
100
AcDbLine
 10
189.927271
 20
135.497565
 30
0.0
 11
187.92727
 21
135.497565
 31
0.0
  0
ARC
  5
AA
330
1F
100
AcDbEntity
  8
LC-001-100-D00-0
 62
     7
370
    50
100
AcDbCircle
 10
187.927272
 20
135.997568
 30
0.0
 40
0.5
100
AcDbArc
 50
180.0
 51
270.0
  0
ARC
  5
AB
330
1F
100
AcDbEntity
  8
LC-001-100-D00-0
 62
     7
370
    15
100
AcDbCircle
 10
187.427272
 20
132.247568
 30
0.0
 40
2.500000000000001
100
AcDbArc
 50
270.000002
 51
0.0
  0
LINE
  5
AC
330
1F
100
AcDbEntity
  8
LC-001-100-D00-0
 62
     7
370
    50
100
AcDbLine
 10
189.927271
 20
132.247301
 30
0.0
 11
189.927271
 21
135.497565
 31
0.0
  0
LINE
  5
AD
330
1F
100
AcDbEntity
  8
LC-001-100-D00-0
 62
     7
370
    50
100
AcDbLine
 10
187.427273
 20
135.99732
 30
0.0
 11
187.427273
 21
137.497226
 31
0.0
  0
LINE
  5
AE
330
1F
100
AcDbEntity
  8
LC-001-100-D00-0
 62
     7
370
    50
100
AcDbLine
 10
192.427272
 20
137.99757
 30
0.0
 11
192.427272
 21
132.247272
 31
0.0
  0
LINE
  5
AF
330
1F
100
AcDbEntity
  8
LC-001-100-D00-0
 62
     7
370
    15
100
AcDbLine
 10
171.127271
 20
127.247567
 30
0.0
 11
171.127271
 21
129.881541
 31
0.0
  0
INSERT
  5
C1
330
1F
100
AcDbEntity
  8
LC-001-100-D00-0
 62
     7
370
    50
100
AcDbBlockReference
  2
POLY3
 10
0.0
 20
0.0
 30
0.0
  0
INSERT
  5
D1
330
1F
100
AcDbEntity
  8
LC-001-100-D00-0
 62
     7
370
    50
100
AcDbBlockReference
  2
POLY4
 10
0.0
 20
0.0
 30
0.0
  0
INSERT
  5
DD
330
1F
100
AcDbEntity
  8
LC-001-100-D00-0
 62
     7
370
    50
100
AcDbBlockReference
  2
POLY5
 10
0.0
 20
0.0
 30
0.0
  0
LINE
  5
DE
330
1F
100
AcDbEntity
  8
LC-001-100-D00-0
 62
     7
370
    50
100
AcDbLine
 10
192.827271
 20
133.329252
 30
0.0
 11
192.827271
 21
136.514696
 31
0.0
  0
INSERT
  5
F0
330
1F
100
AcDbEntity
  8
LC-001-100-D00-0
 62
     7
370
    50
100
AcDbBlockReference
  2
POLY6
 10
0.0
 20
0.0
 30
0.0
  0
ARC
  5
F1
330
1F
100
AcDbEntity
  8
LC-001-100-D00-0
 62
     7
370
    50
100
AcDbCircle
 10
187.779518
 20
136.183646
 30
0.0
 40
0.7923801441389257
100
AcDbArc
 50
243.60609
 51
277.554817
  0
LINE
  5
F2
330
1F
100
AcDbEntity
  8
LC-001-100-D00-0
 62
     7
370
    50
100
AcDbLine
 10
187.427273
 20
130.262429
 30
0.0
 11
187.427273
 21
134.247566
 31
0.0
  0
LINE
  5
F3
330
1F
100
AcDbEntity
  8
LC-001-100-D00-0
 62
     7
370
    50
100
AcDbLine
 10
192.827271
 20
138.513866
 30
0.0
 11
192.827271
 21
138.19615
 31
0.0
  0
INSERT
  5
105
330
1F
100
AcDbEntity
  8
LC-001-100-D00-0
 62
     7
370
    50
100
AcDbBlockReference
  2
POLY7
 10
0.0
 20
0.0
 30
0.0
  0
INSERT
  5
111
330
1F
100
AcDbEntity
  8
LC-001-100-D00-0
 62
     7
370
    50
100
AcDbBlockReference
  2
POLY8
 10
0.0
 20
0.0
 30
0.0
  0
LINE
  5
112
330
1F
100
AcDbEntity
  8
LC-001-100-D00-0
 62
     7
370
    50
100
AcDbLine
 10
192.827271
 20
220.602802
 30
0.0
 11
192.827271
 21
218.003919
 31
0.0
  0
LINE
  5
113
330
1F
100
AcDbEntity
  8
LC-001-100-D00-0
 62
     7
370
    50
100
AcDbLine
 10
192.827271
 20
215.952053
 30
0.0
 11
192.827271
 21
214.716032
 31
0.0
  0
INSERT
  5
121
330
1F
100
AcDbEntity
  8
LC-001-100-D00-0
 62
     7
370
    50
100
AcDbBlockReference
  2
POLY9
 10
0.0
 20
0.0
 30
0.0
  0
INSERT
  5
133
330
1F
100
AcDbEntity
  8
LC-001-100-D00-0
 62
     7
370
    50
100
AcDbBlockReference
  2
POLY10
 10
0.0
 20
0.0
 30
0.0
  0
INSERT
  5
13F
330
1F
100
AcDbEntity
  8
LC-001-100-D00-0
 62
     7
370
    50
100
AcDbBlockReference
  2
POLY11
 10
0.0
 20
0.0
 30
0.0
  0
LINE
  5
140
330
1F
100
AcDbEntity
  8
LC-001-100-D00-0
 62
     7
370
    50
100
AcDbLine
 10
192.827271
 20
150.586183
 30
0.0
 11
192.827271
 21
152.492198
 31
0.0
  0
LINE
  5
141
330
1F
100
AcDbEntity
  8
LC-001-100-D00-0
 62
     7
370
    50
100
AcDbLine
 10
192.827271
 20
156.224574
 30
0.0
 11
192.827271
 21
154.539237
 31
0.0
  0
INSERT
  5
151
330
1F
100
AcDbEntity
  8
LC-001-100-D00-0
 62
     7
370
    50
100
AcDbBlockReference
  2
POLY12
 10
0.0
 20
0.0
 30
0.0
  0
LINE
  5
152
330
1F
100
AcDbEntity
  8
LC-001-100-D00-0
 62
     7
370
    50
100
AcDbLine
 10
192.827271
 20
188.300523
 30
0.0
 11
192.827271
 21
186.234812
 31
0.0
  0
INSERT
  5
164
330
1F
100
AcDbEntity
  8
LC-001-100-D00-0
 62
     7
370
    50
100
AcDbBlockReference
  2
POLY13
 10
0.0
 20
0.0
 30
0.0
  0
LINE
  5
165
330
1F
100
AcDbEntity
  8
LC-001-100-D00-0
 62
     7
370
    50
100
AcDbLine
 10
192.827271
 20
185.021317
 30
0.0
 11
192.427272
 21
185.010594
 31
0.0
  0
INSERT
  5
177
330
1F
100
AcDbEntity
  8
LC-001-100-D00-0
 62
     7
370
    50
100
AcDbBlockReference
  2
POLY14
 10
0.0
 20
0.0
 30
0.0
  0
INSERT
  5
183
330
1F
100
AcDbEntity
  8
LC-001-100-D00-0
 62
     7
370
    50
100
AcDbBlockReference
  2
POLY15
 10
0.0
 20
0.0
 30
0.0
  0
LINE
  5
184
330
1F
100
AcDbEntity
  8
LC-001-100-D00-0
 62
     7
370
    50
100
AcDbLine
 10
192.827271
 20
190.453137
 30
0.0
 11
192.827271
 21
189.963207
 31
0.0
  0
ARC
  5
185
330
1F
100
AcDbEntity
  8
LC-001-100-D00-0
 62
     7
370
    50
100
AcDbCircle
 10
64.627343
 20
223.493872
 30
0.0
 40
0.100000000000002
100
AcDbArc
 50
29.998769
 51
149.998769
  0
ARC
  5
186
330
1F
100
AcDbEntity
  8
LC-001-100-D00-0
 62
     7
370
    50
100
AcDbCircle
 10
64.627343
 20
138.001265
 30
0.0
 40
0.1000000000000008
100
AcDbArc
 50
210.001231
 51
330.001231
  0
ARC
  5
187
330
1F
100
AcDbEntity
  8
LC-001-100-D00-0
 62
     7
370
    50
100
AcDbCircle
 10
65.727343
 20
223.493848
 30
0.0
 40
0.1000000000000436
100
AcDbArc
 50
29.998769
 51
149.998769
  0
ARC
  5
188
330
1F
100
AcDbEntity
  8
LC-001-100-D00-0
 62
     7
370
    50
100
AcDbCircle
 10
65.727343
 20
138.001288
 30
0.0
 40
0.10000000000005
100
AcDbArc
 50
210.001231
 51
330.001231
  0
ARC
  5
189
330
1F
100
AcDbEntity
  8
LC-001-100-D00-0
 62
     7
370
    50
100
AcDbCircle
 10
66.827343
 20
223.493824
 30
0.0
 40
0.0999999999999943
100
AcDbArc
 50
29.998769
 51
149.998769
  0
ARC
  5
18A
330
1F
100
AcDbEntity
  8
LC-001-100-D00-0
 62
     7
370
    50
100
AcDbCircle
 10
66.827343
 20
138.001312
 30
0.0
 40
0.0999999999999515
100
AcDbArc
 50
210.001231
 51
330.001231
  0
LINE
  5
18B
330
1F
100
AcDbEntity
  8
LC-001-100-D00-0
 62
     7
370
    50
100
AcDbLine
 10
64.540738
 20
223.543874
 30
0.0
 11
64.223187
 21
222.99388
 31
0.0
  0
LINE
  5
18C
330
1F
100
AcDbEntity
  8
LC-001-100-D00-0
 62
     7
370
    50
100
AcDbLine
 10
64.223187
 20
138.501259
 30
0.0
 11
64.540738
 21
137.951265
 31
0.0
  0
LINE
  5
18D
330
1F
100
AcDbEntity
  8
LC-001-100-D00-0
 62
     7
370
    50
100
AcDbLine
 10
64.713949
 20
137.951265
 30
0.0
 11
65.031478
 21
138.501274
 31
0.0
  0
LINE
  5
18E
330
1F
100
AcDbEntity
  8
LC-001-100-D00-0
 62
     7
370
    50
100
AcDbLine
 10
65.031478
 20
222.993862
 30
0.0
 11
64.713949
 21
223.54387
 31
0.0
  0
LINE
  5
18F
330
1F
100
AcDbEntity
  8
LC-001-100-D00-0
 62
     7
370
    50
100
AcDbLine
 10
65.640742
 20
223.543849
 30
0.0
 11
65.323183
 21
222.993857
 31
0.0
  0
LINE
  5
190
330
1F
100
AcDbEntity
  8
LC-001-100-D00-0
 62
     7
370
    50
100
AcDbLine
 10
65.323183
 20
138.501282
 30
0.0
 11
65.640742
 21
137.951287
 31
0.0
  0
LINE
  5
191
330
1F
100
AcDbEntity
  8
LC-001-100-D00-0
 62
     7
370
    50
100
AcDbLine
 10
65.813945
 20
137.951287
 30
0.0
 11
66.131474
 21
138.501296
 31
0.0
  0
LINE
  5
192
330
1F
100
AcDbEntity
  8
LC-001-100-D00-0
 62
     7
370
    50
100
AcDbLine
 10
66.131474
 20
222.993839
 30
0.0
 11
65.813945
 21
223.543846
 31
0.0
  0
LINE
  5
193
330
1F
100
AcDbEntity
  8
LC-001-100-D00-0
 62
     7
370
    50
100
AcDbLine
 10
66.740738
 20
223.543826
 30
0.0
 11
66.423187
 21
222.993833
 31
0.0
  0
LINE
  5
194
330
1F
100
AcDbEntity
  8
LC-001-100-D00-0
 62
     7
370
    50
100
AcDbLine
 10
66.423187
 20
138.501304
 30
0.0
 11
66.740738
 21
137.951309
 31
0.0
  0
LINE
  5
195
330
1F
100
AcDbEntity
  8
LC-001-100-D00-0
 62
     7
370
    50
100
AcDbLine
 10
66.913949
 20
137.951317
 30
0.0
 11
67.231478
 21
138.501319
 31
0.0
  0
LINE
  5
196
330
1F
100
AcDbEntity
  8
LC-001-100-D00-0
 62
     7
370
    50
100
AcDbLine
 10
67.231478
 20
222.993816
 30
0.0
 11
66.913949
 21
223.543822
 31
0.0
  0
ARC
  5
197
330
1F
100
AcDbEntity
  8
LC-001-100-D00-0
 62
     7
370
    50
100
AcDbCircle
 10
63.52734
 20
223.393895
 30
0.0
 40
0.100000000000002
100
AcDbArc
 50
29.998769
 51
149.998769
  0
ARC
  5
198
330
1F
100
AcDbEntity
  8
LC-001-100-D00-0
 62
     7
370
    50
100
AcDbCircle
 10
63.52734
 20
138.101241
 30
0.0
 40
0.1000000000000368
100
AcDbArc
 50
210.001231
 51
330.001231
  0
LINE
  5
199
330
1F
100
AcDbEntity
  8
LC-001-100-D00-0
 62
     7
370
    50
100
AcDbLine
 10
63.440742
 20
223.443897
 30
0.0
 11
63.180925
 21
222.993903
 31
0.0
  0
LINE
  5
19A
330
1F
100
AcDbEntity
  8
LC-001-100-D00-0
 62
     7
370
    50
100
AcDbLine
 10
63.180925
 20
138.501237
 30
0.0
 11
63.440742
 21
138.051237
 31
0.0
  0
LINE
  5
19B
330
1F
100
AcDbEntity
  8
LC-001-100-D00-0
 62
     7
370
    50
100
AcDbLine
 10
63.613946
 20
138.051244
 30
0.0
 11
63.87374
 21
138.501252
 31
0.0
  0
LINE
  5
19C
330
1F
100
AcDbEntity
  8
LC-001-100-D00-0
 62
     7
370
    50
100
AcDbLine
 10
63.87374
 20
222.993888
 30
0.0
 11
63.613946
 21
223.443893
 31
0.0
  0
LINE
  5
19D
330
1F
100
AcDbEntity
  8
LC-001-100-D00-0
 62
     7
370
    50
100
AcDbLine
 10
63.180925
 20
222.993903
 30
0.0
 11
62.809156
 21
222.993911
 31
0.0
  0
LINE
  5
19E
330
1F
100
AcDbEntity
  8
LC-001-100-D00-0
 62
     7
370
    50
100
AcDbLine
 10
62.809156
 20
138.501229
 30
0.0
 11
63.180925
 21
138.501237
 31
0.0
  0
ARC
  5
19F
330
1F
100
AcDbEntity
  8
LC-001-100-D00-0
 62
     7
370
    50
100
AcDbCircle
 10
62.809136
 20
221.993911
 30
0.0
 40
1.000000000000031
100
AcDbArc
 50
89.99875
 51
159.998777
  0
ARC
  5
1A0
330
1F
100
AcDbEntity
  8
LC-001-100-D00-0
 62
     7
370
    50
100
AcDbCircle
 10
62.809136
 20
139.501226
 30
0.0
 40
0.9999999999999881
100
AcDbArc
 50
200.001223
 51
270.00125
  0
LINE
  5
1A1
330
1F
100
AcDbEntity
  8
LC-001-100-D00-0
 62
     7
370
    50
100
AcDbLine
 10
64.223187
 20
222.99388
 30
0.0
 11
63.87374
 21
222.993888
 31
0.0
  0
LINE
  5
1A2
330
1F
100
AcDbEntity
  8
LC-001-100-D00-0
 62
     7
370
    50
100
AcDbLine
 10
63.87374
 20
138.501252
 30
0.0
 11
64.223187
 21
138.501259
 31
0.0
  0
LINE
  5
1A3
330
1F
100
AcDbEntity
  8
LC-001-100-D00-0
 62
     7
370
    50
100
AcDbLine
 10
65.323183
 20
222.993857
 30
0.0
 11
65.031478
 21
222.993862
 31
0.0
  0
LINE
  5
1A4
330
1F
100
AcDbEntity
  8
LC-001-100-D00-0
 62
     7
370
    50
100
AcDbLine
 10
65.031478
 20
138.501274
 30
0.0
 11
65.323183
 21
138.501282
 31
0.0
  0
LINE
  5
1A5
330
1F
100
AcDbEntity
  8
LC-001-100-D00-0
 62
     7
370
    50
100
AcDbLine
 10
66.423187
 20
222.993833
 30
0.0
 11
66.131474
 21
222.993839
 31
0.0
  0
LINE
  5
1A6
330
1F
100
AcDbEntity
  8
LC-001-100-D00-0
 62
     7
370
    50
100
AcDbLine
 10
66.131474
 20
138.501296
 30
0.0
 11
66.423187
 21
138.501304
 31
0.0
  0
ARC
  5
1A7
330
1F
100
AcDbEntity
  8
LC-001-100-D00-0
 62
     7
370
    50
100
AcDbCircle
 10
67.435557
 20
221.993811
 30
0.0
 40
1.00000000000004
100
AcDbArc
 50
9.998758
 51
89.998724
  0
ARC
  5
1A8
330
1F
100
AcDbEntity
  8
LC-001-100-D00-0
 62
     7
370
    50
100
AcDbCircle
 10
67.435557
 20
139.501325
 30
0.0
 40
0.9999999999999942
100
AcDbArc
 50
270.001276
 51
350.001242
  0
LINE
  5
1A9
330
1F
100
AcDbEntity
  8
LC-001-100-D00-0
 62
     7
370
    50
100
AcDbLine
 10
67.435579
 20
222.993811
 30
0.0
 11
67.231478
 21
222.993816
 31
0.0
  0
LINE
  5
1AA
330
1F
100
AcDbEntity
  8
LC-001-100-D00-0
 62
     7
370
    50
100
AcDbLine
 10
67.231478
 20
138.501319
 30
0.0
 11
67.435579
 21
138.501326
 31
0.0
  0
LINE
  5
1AB
330
1F
100
AcDbEntity
  8
LC-001-100-D00-0
 62
     7
370
    50
100
AcDbLine
 10
61.869452
 20
222.335951
 30
0.0
 11
61.329948
 21
221.903721
 31
0.0
  0
LINE
  5
1AC
330
1F
100
AcDbEntity
  8
LC-001-100-D00-0
 62
     7
370
    50
100
AcDbLine
 10
61.329948
 20
139.591413
 30
0.0
 11
61.869452
 21
139.159183
 31
0.0
  0
LINE
  5
1AD
330
1F
100
AcDbEntity
  8
LC-001-100-D00-0
 62
     7
370
    50
100
AcDbLine
 10
68.420367
 20
139.3277
 30
0.0
 11
68.627315
 21
139.45135
 31
0.0
  0
LINE
  5
1AE
330
1F
100
AcDbEntity
  8
LC-001-100-D00-0
 62
     7
370
    50
100
AcDbLine
 10
68.627315
 20
222.043785
 30
0.0
 11
68.420367
 21
222.167438
 31
0.0
  0
LINE
  5
1AF
330
1F
100
AcDbEntity
  8
LC-001-100-D00-0
 62
     7
370
    50
100
AcDbLine
 10
68.62727
 20
220.189662
 30
0.0
 11
68.627315
 21
222.043785
 31
0.0
  0
LINE
  5
1B0
330
1F
100
AcDbEntity
  8
LC-001-100-D00-0
 62
     7
370
    50
100
AcDbLine
 10
68.627315
 20
139.45135
 30
0.0
 11
68.62727
 21
141.305471
 31
0.0
  0
ARC
  5
1B1
330
1F
100
AcDbEntity
  8
LC-001-100-D00-0
 62
     7
370
    50
100
AcDbCircle
 10
62.929262
 20
221.32158
 30
0.0
 40
1.701966081581922
100
AcDbArc
 50
159.998786
 51
239.998765
  0
ARC
  5
1B2
330
1F
100
AcDbEntity
  8
LC-001-100-D00-0
 62
     7
370
    50
100
AcDbCircle
 10
62.929262
 20
140.173556
 30
0.0
 40
1.701966081581917
100
AcDbArc
 50
120.001235
 51
200.001214
  0
ARC
  5
1B3
330
1F
100
AcDbEntity
  8
LC-001-100-D00-0
 62
     7
370
    50
100
AcDbCircle
 10
68.127272
 20
220.189673
 30
0.0
 40
0.4999999999999907
100
AcDbArc
 50
259.998769
 51
359.998769
  0
ARC
  5
1B4
330
1F
100
AcDbEntity
  8
LC-001-100-D00-0
 62
     7
370
    50
100
AcDbCircle
 10
68.127272
 20
141.305463
 30
0.0
 40
0.5000000000000168
100
AcDbArc
 50
0.001231
 51
100.001231
  0
ARC
  5
1B5
330
1F
100
AcDbEntity
  8
LC-001-100-D00-0
 62
     7
370
    50
100
AcDbCircle
 10
66.28204
 20
219.790898
 30
0.0
 40
0.2999999999999477
100
AcDbArc
 50
79.998769
 51
149.998769
  0
ARC
  5
1B6
330
1F
100
AcDbEntity
  8
LC-001-100-D00-0
 62
     7
370
    50
100
AcDbCircle
 10
66.28204
 20
141.704238
 30
0.0
 40
0.2999999999999246
100
AcDbArc
 50
210.001231
 51
280.001231
  0
LINE
  5
1B7
330
1F
100
AcDbEntity
  8
LC-001-100-D00-0
 62
     7
370
    50
100
AcDbLine
 10
68.04044
 20
141.797865
 30
0.0
 11
66.334138
 21
141.408796
 31
0.0
  0
LINE
  5
1B8
330
1F
100
AcDbEntity
  8
LC-001-100-D00-0
 62
     7
370
    50
100
AcDbLine
 10
66.334138
 20
220.08634
 30
0.0
 11
68.04044
 21
219.697271
 31
0.0
  0
LINE
  5
1B9
330
1F
100
AcDbEntity
  8
LC-001-100-D00-0
 62
     7
370
    50
100
AcDbLine
 10
65.70203
 20
219.386323
 30
0.0
 11
66.022234
 21
219.940903
 31
0.0
  0
LINE
  5
1BA
330
1F
100
AcDbEntity
  8
LC-001-100-D00-0
 62
     7
370
    50
100
AcDbLine
 10
66.022234
 20
141.554231
 30
0.0
 11
65.70203
 21
142.108815
 31
0.0
  0
LINE
  5
1BB
330
1F
100
AcDbEntity
  8
LC-001-100-D00-0
 62
     7
370
    50
100
AcDbLine
 10
65.653065
 20
144.288863
 30
0.0
 11
62.078247
 21
141.647483
 31
0.0
  0
LINE
  5
1BC
330
1F
100
AcDbEntity
  8
LC-001-100-D00-0
 62
     7
370
    50
100
AcDbLine
 10
62.078247
 20
219.847653
 30
0.0
 11
65.653065
 21
217.206271
 31
0.0
  0
ARC
  5
1BD
330
1F
100
AcDbEntity
  8
LC-001-100-D00-0
 62
     7
370
    50
100
AcDbCircle
 10
65.961836
 20
219.236317
 30
0.0
 40
0.2999999999999815
100
AcDbArc
 50
149.998769
 51
194.998769
  0
ARC
  5
1BE
330
1F
100
AcDbEntity
  8
LC-001-100-D00-0
 62
     7
370
    50
100
AcDbCircle
 10
65.961836
 20
142.258819
 30
0.0
 40
0.2999999999999151
100
AcDbArc
 50
165.001231
 51
210.001231
  0
LINE
  5
1BF
330
1F
100
AcDbEntity
  8
LC-001-100-D00-0
 62
     7
370
    50
100
AcDbLine
 10
65.672057
 20
142.33646
 30
0.0
 11
66.33609
 21
143.764789
 31
0.0
  0
LINE
  5
1C0
330
1F
100
AcDbEntity
  8
LC-001-100-D00-0
 62
     7
370
    50
100
AcDbLine
 10
66.33609
 20
217.730351
 30
0.0
 11
65.672057
 21
219.158678
 31
0.0
  0
ARC
  5
1C1
330
1F
100
AcDbEntity
  8
LC-001-100-D00-0
 62
     7
370
    50
100
AcDbCircle
 10
65.886035
 20
217.60977
 30
0.0
 40
0.4659258262890659
100
AcDbArc
 50
239.998722
 51
14.998783
  0
ARC
  5
1C2
330
1F
100
AcDbEntity
  8
LC-001-100-D00-0
 62
     7
370
    50
100
AcDbCircle
 10
65.886035
 20
143.885366
 30
0.0
 40
0.4659258262891452
100
AcDbArc
 50
345.001217
 51
120.001278
  0
LINE
  5
1C3
330
1F
100
AcDbEntity
  8
LC-001-100-D00-0
 62
     7
370
    50
100
AcDbLine
 10
184.427271
 20
131.247568
 30
0.0
 11
183.427272
 21
131.247568
 31
0.0
  0
LINE
  5
1C4
330
1F
100
AcDbEntity
  8
LC-001-100-D00-0
 62
     7
370
    50
100
AcDbLine
 10
183.427272
 20
230.247569
 30
0.0
 11
184.427271
 21
230.247569
 31
0.0
  0
ARC
  5
1C5
330
1F
100
AcDbEntity
  8
LC-001-100-D00-0
 62
     7
370
    50
100
AcDbCircle
 10
184.427272
 20
134.247568
 30
0.0
 40
3.0
100
AcDbArc
 50
270.0
 51
0.0
  0
ARC
  5
1C6
330
1F
100
AcDbEntity
  8
LC-001-100-D00-0
 62
     7
370
    50
100
AcDbCircle
 10
184.427272
 20
227.247568
 30
0.0
 40
3.0
100
AcDbArc
 50
0.0
 51
90.0
  0
LINE
  5
1C7
330
1F
100
AcDbEntity
  8
LC-001-100-D00-0
 62
     7
370
    50
100
AcDbLine
 10
183.427272
 20
134.247566
 30
0.0
 11
143.927272
 21
134.247566
 31
0.0
  0
LINE
  5
1C8
330
1F
100
AcDbEntity
  8
LC-001-100-D00-0
 62
     7
370
    50
100
AcDbLine
 10
143.927272
 20
227.247568
 30
0.0
 11
183.427272
 21
227.247568
 31
0.0
  0
LINE
  5
1C9
330
1F
100
AcDbEntity
  8
LC-001-100-D00-0
 62
     7
370
    50
100
AcDbLine
 10
138.927272
 20
225.907822
 30
0.0
 11
143.927272
 21
227.247568
 31
0.0
  0
LINE
  5
1CA
330
1F
100
AcDbEntity
  8
LC-001-100-D00-0
 62
     7
370
    50
100
AcDbLine
 10
143.927272
 20
134.247566
 30
0.0
 11
138.927272
 21
135.587315
 31
0.0
  0
ARC
  5
1CB
330
1F
100
AcDbEntity
  8
LC-001-100-D00-0
 62
     7
370
    50
100
AcDbCircle
 10
170.16086
 20
138.161927
 30
0.0
 40
1.300000000000013
100
AcDbArc
 50
211.385437
 51
5.594381
  0
ARC
  5
1CC
330
1F
100
AcDbEntity
  8
LC-001-100-D00-0
 62
     7
370
    50
100
AcDbCircle
 10
170.16086
 20
223.33321
 30
0.0
 40
1.300000000000006
100
AcDbArc
 50
354.405619
 51
148.614563
  0
ARC
  5
1CD
330
1F
100
AcDbEntity
  8
LC-001-100-D00-0
 62
     7
370
    50
100
AcDbCircle
 10
163.757611
 20
138.32053
 30
0.0
 40
1.300000000000013
100
AcDbArc
 50
211.385437
 51
6.385437
  0
ARC
  5
1CE
330
1F
100
AcDbEntity
  8
LC-001-100-D00-0
 62
     7
370
    50
100
AcDbCircle
 10
163.757611
 20
223.174607
 30
0.0
 40
1.299999999999973
100
AcDbArc
 50
353.614563
 51
148.614563
  0
ARC
  5
1CF
330
1F
100
AcDbEntity
  8
LC-001-100-D00-0
 62
     7
370
    50
100
AcDbCircle
 10
157.451118
 20
138.32053
 30
0.0
 40
1.300000000000013
100
AcDbArc
 50
211.385437
 51
6.385437
  0
ARC
  5
1D0
330
1F
100
AcDbEntity
  8
LC-001-100-D00-0
 62
     7
370
    50
100
AcDbCircle
 10
157.451118
 20
223.174607
 30
0.0
 40
1.299999999999985
100
AcDbArc
 50
353.614563
 51
148.614563
  0
ARC
  5
1D1
330
1F
100
AcDbEntity
  8
LC-001-100-D00-0
 62
     7
370
    50
100
AcDbCircle
 10
151.144626
 20
138.32053
 30
0.0
 40
1.300000000000013
100
AcDbArc
 50
211.385437
 51
6.385437
  0
ARC
  5
1D2
330
1F
100
AcDbEntity
  8
LC-001-100-D00-0
 62
     7
370
    50
100
AcDbCircle
 10
151.144626
 20
223.174607
 30
0.0
 40
1.300000000000042
100
AcDbArc
 50
353.614563
 51
148.614563
  0
ARC
  5
1D3
330
1F
100
AcDbEntity
  8
LC-001-100-D00-0
 62
     7
370
    50
100
AcDbCircle
 10
182.633463
 20
138.346828
 30
0.0
 40
1.300000000000074
100
AcDbArc
 50
210.594381
 51
5.594381
  0
ARC
  5
1D4
330
1F
100
AcDbEntity
  8
LC-001-100-D00-0
 62
     7
370
    50
100
AcDbCircle
 10
182.633463
 20
223.148308
 30
0.0
 40
1.300000000000074
100
AcDbArc
 50
354.405619
 51
149.405619
  0
ARC
  5
1D5
330
1F
100
AcDbEntity
  8
LC-001-100-D00-0
 62
     7
370
    50
100
AcDbCircle
 10
176.388106
 20
138.346828
 30
0.0
 40
1.299999999999997
100
AcDbArc
 50
210.594381
 51
5.594381
  0
ARC
  5
1D6
330
1F
100
AcDbEntity
  8
LC-001-100-D00-0
 62
     7
370
    50
100
AcDbCircle
 10
176.388106
 20
223.148308
 30
0.0
 40
1.300000000000017
100
AcDbArc
 50
354.405619
 51
149.405619
  0
ARC
  5
1D7
330
1F
100
AcDbEntity
  8
LC-001-100-D00-0
 62
     7
370
    50
100
AcDbCircle
 10
144.798665
 20
138.673208
 30
0.0
 40
1.300000000000055
100
AcDbArc
 50
210.0
 51
6.385437
  0
ARC
  5
1D8
330
1F
100
AcDbEntity
  8
LC-001-100-D00-0
 62
     7
370
    50
100
AcDbCircle
 10
144.798665
 20
222.821929
 30
0.0
 40
1.300000000000042
100
AcDbArc
 50
353.614563
 51
150.0
  0
LINE
  5
1D9
330
1F
100
AcDbEntity
  8
LC-001-100-D00-0
 62
     7
370
    50
100
AcDbLine
 10
169.051072
 20
224.01024
 30
0.0
 11
164.989665
 21
217.352783
 31
0.0
  0
LINE
  5
1DA
330
1F
100
AcDbEntity
  8
LC-001-100-D00-0
 62
     7
370
    50
100
AcDbLine
 10
164.989665
 20
144.142355
 30
0.0
 11
169.051072
 21
137.484896
 31
0.0
  0
LINE
  5
1DB
330
1F
100
AcDbEntity
  8
LC-001-100-D00-0
 62
     7
370
    50
100
AcDbLine
 10
150.034838
 20
223.851638
 30
0.0
 11
146.070187
 21
217.352783
 31
0.0
  0
LINE
  5
1DC
330
1F
100
AcDbEntity
  8
LC-001-100-D00-0
 62
     7
370
    50
100
AcDbLine
 10
146.070187
 20
144.142355
 30
0.0
 11
150.034838
 21
137.643496
 31
0.0
  0
LINE
  5
1DD
330
1F
100
AcDbEntity
  8
LC-001-100-D00-0
 62
     7
370
    50
100
AcDbLine
 10
156.34133
 20
223.851638
 30
0.0
 11
152.37668
 21
217.352783
 31
0.0
  0
LINE
  5
1DE
330
1F
100
AcDbEntity
  8
LC-001-100-D00-0
 62
     7
370
    50
100
AcDbLine
 10
152.37668
 20
144.142355
 30
0.0
 11
156.34133
 21
137.643496
 31
0.0
  0
LINE
  5
1DF
330
1F
100
AcDbEntity
  8
LC-001-100-D00-0
 62
     7
370
    50
100
AcDbLine
 10
162.647823
 20
223.851638
 30
0.0
 11
158.683171
 21
217.352783
 31
0.0
  0
LINE
  5
1E0
330
1F
100
AcDbEntity
  8
LC-001-100-D00-0
 62
     7
370
    50
100
AcDbLine
 10
158.683171
 20
144.142355
 30
0.0
 11
162.647823
 21
137.643496
 31
0.0
  0
LINE
  5
1E1
330
1F
100
AcDbEntity
  8
LC-001-100-D00-0
 62
     7
370
    50
100
AcDbLine
 10
181.514433
 20
223.809953
 30
0.0
 11
177.702216
 21
217.362403
 31
0.0
  0
LINE
  5
1E2
330
1F
100
AcDbEntity
  8
LC-001-100-D00-0
 62
     7
370
    50
100
AcDbLine
 10
177.702216
 20
144.132736
 30
0.0
 11
181.514433
 21
137.685182
 31
0.0
  0
LINE
  5
1E3
330
1F
100
AcDbEntity
  8
LC-001-100-D00-0
 62
     7
370
    50
100
AcDbLine
 10
175.269076
 20
223.809953
 30
0.0
 11
171.45686
 21
217.362403
 31
0.0
  0
LINE
  5
1E4
330
1F
100
AcDbEntity
  8
LC-001-100-D00-0
 62
     7
370
    50
100
AcDbLine
 10
171.45686
 20
144.132736
 30
0.0
 11
175.269076
 21
137.685182
 31
0.0
  0
LINE
  5
1E5
330
1F
100
AcDbEntity
  8
LC-001-100-D00-0
 62
     7
370
    50
100
AcDbLine
 10
143.672832
 20
223.471929
 30
0.0
 11
142.677272
 21
221.747568
 31
0.0
  0
LINE
  5
1E6
330
1F
100
AcDbEntity
  8
LC-001-100-D00-0
 62
     7
370
    50
100
AcDbLine
 10
142.677272
 20
139.74757
 30
0.0
 11
143.672832
 21
138.023208
 31
0.0
  0
LINE
  5
1E7
330
1F
100
AcDbEntity
  8
LC-001-100-D00-0
 62
     7
370
    50
100
AcDbLine
 10
142.677272
 20
221.747568
 30
0.0
 11
142.677272
 21
139.74757
 31
0.0
  0
LINE
  5
1E8
330
1F
100
AcDbEntity
  8
LC-001-100-D00-0
 62
     7
370
    50
100
AcDbLine
 10
187.427273
 20
223.247568
 30
0.0
 11
183.947572
 21
217.362403
 31
0.0
  0
LINE
  5
1E9
330
1F
100
AcDbEntity
  8
LC-001-100-D00-0
 62
     7
370
    50
100
AcDbLine
 10
183.947572
 20
144.132736
 30
0.0
 11
187.427273
 21
138.247567
 31
0.0
  0
LINE
  5
1EA
330
1F
100
AcDbEntity
  8
LC-001-100-D00-0
 62
     7
370
    50
100
AcDbLine
 10
187.427273
 20
223.247568
 30
0.0
 11
187.427273
 21
138.247567
 31
0.0
  0
LINE
  5
1EB
330
1F
100
AcDbEntity
  8
LC-001-100-D00-0
 62
     7
370
    50
100
AcDbLine
 10
170.90005
 20
217.544336
 30
0.0
 11
171.454668
 21
223.206479
 31
0.0
  0
LINE
  5
1EC
330
1F
100
AcDbEntity
  8
LC-001-100-D00-0
 62
     7
370
    50
100
AcDbLine
 10
170.90005
 20
217.544336
 30
0.0
 11
170.90005
 21
143.9508
 31
0.0
  0
LINE
  5
1ED
330
1F
100
AcDbEntity
  8
LC-001-100-D00-0
 62
     7
370
    50
100
AcDbLine
 10
171.454668
 20
138.288657
 30
0.0
 11
170.90005
 21
143.9508
 31
0.0
  0
LINE
  5
1EE
330
1F
100
AcDbEntity
  8
LC-001-100-D00-0
 62
     7
370
    50
100
AcDbLine
 10
158.128928
 20
217.542386
 30
0.0
 11
158.743054
 21
223.030026
 31
0.0
  0
LINE
  5
1EF
330
1F
100
AcDbEntity
  8
LC-001-100-D00-0
 62
     7
370
    50
100
AcDbLine
 10
158.128928
 20
217.542386
 30
0.0
 11
158.128928
 21
143.952752
 31
0.0
  0
LINE
  5
1F0
330
1F
100
AcDbEntity
  8
LC-001-100-D00-0
 62
     7
370
    50
100
AcDbLine
 10
158.743054
 20
138.465109
 30
0.0
 11
158.128928
 21
143.952752
 31
0.0
  0
LINE
  5
1F1
330
1F
100
AcDbEntity
  8
LC-001-100-D00-0
 62
     7
370
    50
100
AcDbLine
 10
151.822436
 20
217.542386
 30
0.0
 11
152.436561
 21
223.030026
 31
0.0
  0
LINE
  5
1F2
330
1F
100
AcDbEntity
  8
LC-001-100-D00-0
 62
     7
370
    50
100
AcDbLine
 10
151.822436
 20
217.542386
 30
0.0
 11
151.822436
 21
143.952752
 31
0.0
  0
LINE
  5
1F3
330
1F
100
AcDbEntity
  8
LC-001-100-D00-0
 62
     7
370
    50
100
AcDbLine
 10
152.436561
 20
138.465109
 30
0.0
 11
151.822436
 21
143.952752
 31
0.0
  0
LINE
  5
1F4
330
1F
100
AcDbEntity
  8
LC-001-100-D00-0
 62
     7
370
    50
100
AcDbLine
 10
164.43542
 20
217.542386
 30
0.0
 11
165.049545
 21
223.030026
 31
0.0
  0
LINE
  5
1F5
330
1F
100
AcDbEntity
  8
LC-001-100-D00-0
 62
     7
370
    50
100
AcDbLine
 10
164.43542
 20
217.542386
 30
0.0
 11
164.43542
 21
143.952752
 31
0.0
  0
LINE
  5
1F6
330
1F
100
AcDbEntity
  8
LC-001-100-D00-0
 62
     7
370
    50
100
AcDbLine
 10
165.049545
 20
138.465109
 30
0.0
 11
164.43542
 21
143.952752
 31
0.0
  0
LINE
  5
1F7
330
1F
100
AcDbEntity
  8
LC-001-100-D00-0
 62
     7
370
    50
100
AcDbLine
 10
183.390764
 20
217.544336
 30
0.0
 11
183.92727
 21
223.021577
 31
0.0
  0
LINE
  5
1F8
330
1F
100
AcDbEntity
  8
LC-001-100-D00-0
 62
     7
370
    50
100
AcDbLine
 10
183.390764
 20
217.544336
 30
0.0
 11
183.390764
 21
143.9508
 31
0.0
  0
LINE
  5
1F9
330
1F
100
AcDbEntity
  8
LC-001-100-D00-0
 62
     7
370
    50
100
AcDbLine
 10
183.92727
 20
138.473558
 30
0.0
 11
183.390764
 21
143.9508
 31
0.0
  0
LINE
  5
1FA
330
1F
100
AcDbEntity
  8
LC-001-100-D00-0
 62
     7
370
    50
100
AcDbLine
 10
177.145408
 20
217.544336
 30
0.0
 11
177.681913
 21
223.021577
 31
0.0
  0
LINE
  5
1FB
330
1F
100
AcDbEntity
  8
LC-001-100-D00-0
 62
     7
370
    50
100
AcDbLine
 10
177.145408
 20
217.544336
 30
0.0
 11
177.145408
 21
143.9508
 31
0.0
  0
LINE
  5
1FC
330
1F
100
AcDbEntity
  8
LC-001-100-D00-0
 62
     7
370
    50
100
AcDbLine
 10
177.681913
 20
138.473558
 30
0.0
 11
177.145408
 21
143.9508
 31
0.0
  0
LINE
  5
1FD
330
1F
100
AcDbEntity
  8
LC-001-100-D00-0
 62
     7
370
    50
100
AcDbLine
 10
145.515943
 20
217.542386
 30
0.0
 11
146.0906
 21
222.677348
 31
0.0
  0
LINE
  5
1FE
330
1F
100
AcDbEntity
  8
LC-001-100-D00-0
 62
     7
370
    50
100
AcDbLine
 10
145.515943
 20
217.542386
 30
0.0
 11
145.515943
 21
143.952752
 31
0.0
  0
LINE
  5
1FF
330
1F
100
AcDbEntity
  8
LC-001-100-D00-0
 62
     7
370
    50
100
AcDbLine
 10
146.0906
 20
138.81779
 30
0.0
 11
145.515943
 21
143.952752
 31
0.0
  0
LINE
  5
200
330
1F
100
AcDbEntity
  8
LC-001-100-D00-0
 62
     7
370
    50
100
AcDbLine
 10
138.927272
 20
139.74757
 30
0.0
 11
142.677272
 21
139.74757
 31
0.0
  0
LINE
  5
201
330
1F
100
AcDbEntity
  8
LC-001-100-D00-0
 62
     7
370
    50
100
AcDbLine
 10
142.677272
 20
221.747568
 30
0.0
 11
138.927272
 21
221.747568
 31
0.0
  0
LINE
  5
202
330
1F
100
AcDbEntity
  8
LC-001-100-D00-0
 62
     7
370
    50
100
AcDbLine
 10
138.927272
 20
221.747568
 30
0.0
 11
138.927272
 21
139.74757
 31
0.0
  0
ARC
  5
203
330
1F
100
AcDbEntity
  8
LC-001-100-D00-0
 62
     7
370
    50
100
AcDbCircle
 10
183.689336
 20
143.980047
 30
0.0
 40
0.3000000000000354
100
AcDbArc
 50
30.594381
 51
185.594381
  0
ARC
  5
204
330
1F
100
AcDbEntity
  8
LC-001-100-D00-0
 62
     7
370
    50
100
AcDbCircle
 10
183.689336
 20
217.51509
 30
0.0
 40
0.300000000000025
100
AcDbArc
 50
174.405619
 51
329.405619
  0
ARC
  5
205
330
1F
100
AcDbEntity
  8
LC-001-100-D00-0
 62
     7
370
    50
100
AcDbCircle
 10
171.198622
 20
143.980047
 30
0.0
 40
0.3000000000000354
100
AcDbArc
 50
30.594381
 51
185.594381
  0
ARC
  5
206
330
1F
100
AcDbEntity
  8
LC-001-100-D00-0
 62
     7
370
    50
100
AcDbCircle
 10
171.198622
 20
217.51509
 30
0.0
 40
0.300000000000025
100
AcDbArc
 50
174.405619
 51
329.405619
  0
ARC
  5
207
330
1F
100
AcDbEntity
  8
LC-001-100-D00-0
 62
     7
370
    50
100
AcDbCircle
 10
177.443979
 20
143.980047
 30
0.0
 40
0.2999999999999864
100
AcDbArc
 50
30.594381
 51
185.594381
  0
ARC
  5
208
330
1F
100
AcDbEntity
  8
LC-001-100-D00-0
 62
     7
370
    50
100
AcDbCircle
 10
177.443979
 20
217.51509
 30
0.0
 40
0.2999999999999684
100
AcDbArc
 50
174.405619
 51
329.405619
  0
ARC
  5
209
330
1F
100
AcDbEntity
  8
LC-001-100-D00-0
 62
     7
370
    50
100
AcDbCircle
 10
145.814082
 20
143.986116
 30
0.0
 40
0.2999999999999828
100
AcDbArc
 50
31.385437
 51
186.385437
  0
ARC
  5
20A
330
1F
100
AcDbEntity
  8
LC-001-100-D00-0
 62
     7
370
    50
100
AcDbCircle
 10
145.814082
 20
217.509021
 30
0.0
 40
0.2999999999999671
100
AcDbArc
 50
173.614563
 51
328.614563
  0
ARC
  5
20B
330
1F
100
AcDbEntity
  8
LC-001-100-D00-0
 62
     7
370
    50
100
AcDbCircle
 10
152.120575
 20
143.986116
 30
0.0
 40
0.2999999999999828
100
AcDbArc
 50
31.385437
 51
186.385437
  0
ARC
  5
20C
330
1F
100
AcDbEntity
  8
LC-001-100-D00-0
 62
     7
370
    50
100
AcDbCircle
 10
152.120575
 20
217.509021
 30
0.0
 40
0.3000000000000236
100
AcDbArc
 50
173.614563
 51
328.614563
  0
ARC
  5
20D
330
1F
100
AcDbEntity
  8
LC-001-100-D00-0
 62
     7
370
    50
100
AcDbCircle
 10
164.73356
 20
143.986116
 30
0.0
 40
0.2999999999999828
100
AcDbArc
 50
31.385437
 51
186.385437
  0
ARC
  5
20E
330
1F
100
AcDbEntity
  8
LC-001-100-D00-0
 62
     7
370
    50
100
AcDbCircle
 10
164.73356
 20
217.509021
 30
0.0
 40
0.3000000000000236
100
AcDbArc
 50
173.614563
 51
328.614563
  0
ARC
  5
20F
330
1F
100
AcDbEntity
  8
LC-001-100-D00-0
 62
     7
370
    50
100
AcDbCircle
 10
158.427067
 20
143.986116
 30
0.0
 40
0.3000000000000609
100
AcDbArc
 50
31.385437
 51
186.385437
  0
ARC
  5
210
330
1F
100
AcDbEntity
  8
LC-001-100-D00-0
 62
     7
370
    50
100
AcDbCircle
 10
158.427067
 20
217.509021
 30
0.0
 40
0.3000000000000236
100
AcDbArc
 50
173.614563
 51
328.614563
  0
LINE
  5
211
330
1F
100
AcDbEntity
  8
LC-001-100-D00-0
 62
     7
370
    50
100
AcDbLine
 10
138.927272
 20
135.587315
 30
0.0
 11
138.927272
 21
139.74757
 31
0.0
  0
LINE
  5
212
330
1F
100
AcDbEntity
  8
LC-001-100-D00-0
 62
     7
370
    50
100
AcDbLine
 10
187.427273
 20
138.247567
 30
0.0
 11
187.427273
 21
134.247566
 31
0.0
  0
LINE
  5
213
330
1F
100
AcDbEntity
  8
LC-001-100-D00-0
 62
     7
370
    50
100
AcDbLine
 10
183.427272
 20
131.247568
 30
0.0
 11
183.427272
 21
134.247566
 31
0.0
  0
LINE
  5
214
330
1F
100
AcDbEntity
  8
LC-001-100-D00-0
 62
     7
370
    50
100
AcDbLine
 10
138.927272
 20
221.747568
 30
0.0
 11
138.927272
 21
225.907822
 31
0.0
  0
LINE
  5
215
330
1F
100
AcDbEntity
  8
LC-001-100-D00-0
 62
     7
370
    50
100
AcDbLine
 10
187.427273
 20
227.247568
 30
0.0
 11
187.427273
 21
223.247568
 31
0.0
  0
LINE
  5
216
330
1F
100
AcDbEntity
  8
LC-001-100-D00-0
 62
     7
370
    50
100
AcDbLine
 10
183.427272
 20
227.247568
 30
0.0
 11
183.427272
 21
230.247569
 31
0.0
  0
INSERT
  5
228
330
1F
100
AcDbEntity
  8
LC-001-100-D00-0
 62
     7
370
    50
100
AcDbBlockReference
  2
POLY16
 10
0.0
 20
0.0
 30
0.0
  0
LINE
  5
229
330
1F
100
AcDbEntity
  8
LC-001-100-D00-0
 62
     7
370
    50
100
AcDbLine
 10
134.627272
 20
142.747569
 30
0.0
 11
118.570797
 21
142.747569
 31
0.0
  0
LINE
  5
22A
330
1F
100
AcDbEntity
  8
LC-001-100-D00-0
 62
     7
370
    50
100
AcDbLine
 10
118.570797
 20
142.747569
 30
0.0
 11
109.427271
 21
140.297572
 31
0.0
  0
LINE
  5
22B
330
1F
100
AcDbEntity
  8
LC-001-100-D00-0
 62
     7
370
    50
100
AcDbLine
 10
109.427271
 20
140.297572
 30
0.0
 11
72.427275
 21
140.297572
 31
0.0
  0
ARC
  5
22C
330
1F
100
AcDbEntity
  8
LC-001-100-D00-0
 62
     7
370
    50
100
AcDbCircle
 10
72.427272
 20
138.797568
 30
0.0
 40
1.5
100
AcDbArc
 50
90.0
 51
180.0
  0
LINE
  5
22D
330
1F
100
AcDbEntity
  8
LC-001-100-D00-0
 62
     7
370
    50
100
AcDbLine
 10
70.927272
 20
138.797569
 30
0.0
 11
70.927272
 21
137.347567
 31
0.0
  0
ARC
  5
22E
330
1F
100
AcDbEntity
  8
LC-001-100-D00-0
 62
     7
370
    50
100
AcDbCircle
 10
69.427272
 20
137.347568
 30
0.0
 40
1.5
100
AcDbArc
 50
270.0
 51
0.0
  0
LINE
  5
22F
330
1F
100
AcDbEntity
  8
LC-001-100-D00-0
 62
     7
370
    50
100
AcDbLine
 10
69.427268
 20
135.847571
 30
0.0
 11
60.091736
 21
135.847571
 31
0.0
  0
LINE
  5
230
330
1F
100
AcDbEntity
  8
LC-001-100-D00-0
 62
     7
370
    50
100
AcDbLine
 10
60.091736
 20
135.847571
 30
0.0
 11
55.641735
 21
140.297572
 31
0.0
  0
LINE
  5
231
330
1F
100
AcDbEntity
  8
LC-001-100-D00-0
 62
     7
370
    50
100
AcDbLine
 10
55.641735
 20
140.297572
 30
0.0
 11
52.927272
 21
140.297572
 31
0.0
  0
LINE
  5
232
330
1F
100
AcDbEntity
  8
LC-001-100-D00-0
 62
     7
370
    50
100
AcDbLine
 10
52.927272
 20
140.297572
 30
0.0
 11
52.927272
 21
142.797569
 31
0.0
  0
LINE
  5
233
330
1F
100
AcDbEntity
  8
LC-001-100-D00-0
 62
     7
370
    50
100
AcDbLine
 10
57.027275
 20
142.797569
 30
0.0
 11
52.927272
 21
142.797569
 31
0.0
  0
LINE
  5
234
330
1F
100
AcDbEntity
  8
LC-001-100-D00-0
 62
     7
370
    50
100
AcDbLine
 10
61.627271
 20
138.197566
 30
0.0
 11
57.027275
 21
142.797569
 31
0.0
  0
LINE
  5
235
330
1F
100
AcDbEntity
  8
LC-001-100-D00-0
 62
     7
370
    50
100
AcDbLine
 10
67.627275
 20
138.197566
 30
0.0
 11
61.627271
 21
138.197566
 31
0.0
  0
ARC
  5
236
330
1F
100
AcDbEntity
  8
LC-001-100-D00-0
 62
     7
370
    50
100
AcDbCircle
 10
67.627272
 20
139.197568
 30
0.0
 40
1.0
100
AcDbArc
 50
270.0
 51
0.0
  0
LINE
  5
237
330
1F
100
AcDbEntity
  8
LC-001-100-D00-0
 62
     7
370
    50
100
AcDbLine
 10
68.62727
 20
142.297568
 30
0.0
 11
68.62727
 21
139.197568
 31
0.0
  0
ARC
  5
238
330
1F
100
AcDbEntity
  8
LC-001-100-D00-0
 62
     7
370
    50
100
AcDbCircle
 10
69.127272
 20
142.297568
 30
0.0
 40
0.5000000000000568
100
AcDbArc
 50
90.0
 51
180.0
  0
LINE
  5
239
330
1F
100
AcDbEntity
  8
LC-001-100-D00-0
 62
     7
370
    50
100
AcDbLine
 10
109.163968
 20
142.797569
 30
0.0
 11
69.127271
 21
142.797569
 31
0.0
  0
LINE
  5
23A
330
1F
100
AcDbEntity
  8
LC-001-100-D00-0
 62
     7
370
    50
100
AcDbLine
 10
118.494093
 20
145.297567
 30
0.0
 11
109.163968
 21
142.797569
 31
0.0
  0
LINE
  5
23B
330
1F
100
AcDbEntity
  8
LC-001-100-D00-0
 62
     7
370
    50
100
AcDbLine
 10
138.427272
 20
145.297567
 30
0.0
 11
118.494093
 21
145.297567
 31
0.0
  0
LINE
  5
23C
330
1F
100
AcDbEntity
  8
LC-001-100-D00-0
 62
     7
370
    50
100
AcDbLine
 10
138.427272
 20
135.997566
 30
0.0
 11
138.427272
 21
145.297567
 31
0.0
  0
ARC
  5
23D
330
1F
100
AcDbEntity
  8
LC-001-100-D00-0
 62
     7
370
    50
100
AcDbCircle
 10
140.427272
 20
135.997568
 30
0.0
 40
2.0
100
AcDbArc
 50
180.0
 51
270.0
  0
LINE
  5
23E
330
1F
100
AcDbEntity
  8
LC-001-100-D00-0
 62
     7
370
    50
100
AcDbLine
 10
144.827272
 20
133.997569
 30
0.0
 11
140.427272
 21
133.997569
 31
0.0
  0
LINE
  5
23F
330
1F
100
AcDbEntity
  8
LC-001-100-D00-0
 62
     7
370
    50
100
AcDbLine
 10
144.927272
 20
134.097571
 30
0.0
 11
144.827272
 21
133.997569
 31
0.0
  0
LINE
  5
240
330
1F
100
AcDbEntity
  8
LC-001-100-D00-0
 62
     7
370
    50
100
AcDbLine
 10
145.027272
 20
133.997569
 30
0.0
 11
144.927272
 21
134.097571
 31
0.0
  0
LINE
  5
241
330
1F
100
AcDbEntity
  8
LC-001-100-D00-0
 62
     7
370
    50
100
AcDbLine
 10
147.327272
 20
133.997569
 30
0.0
 11
145.027272
 21
133.997569
 31
0.0
  0
LINE
  5
242
330
1F
100
AcDbEntity
  8
LC-001-100-D00-0
 62
     7
370
    50
100
AcDbLine
 10
147.427271
 20
134.097571
 30
0.0
 11
147.327272
 21
133.997569
 31
0.0
  0
LINE
  5
243
330
1F
100
AcDbEntity
  8
LC-001-100-D00-0
 62
     7
370
    50
100
AcDbLine
 10
147.527272
 20
133.997569
 30
0.0
 11
147.427271
 21
134.097571
 31
0.0
  0
LINE
  5
244
330
1F
100
AcDbEntity
  8
LC-001-100-D00-0
 62
     7
370
    50
100
AcDbLine
 10
149.827272
 20
133.997569
 30
0.0
 11
147.527272
 21
133.997569
 31
0.0
  0
LINE
  5
245
330
1F
100
AcDbEntity
  8
LC-001-100-D00-0
 62
     7
370
    50
100
AcDbLine
 10
149.927271
 20
134.097571
 30
0.0
 11
149.827272
 21
133.997569
 31
0.0
  0
LINE
  5
246
330
1F
100
AcDbEntity
  8
LC-001-100-D00-0
 62
     7
370
    50
100
AcDbLine
 10
150.027272
 20
133.997569
 30
0.0
 11
149.927271
 21
134.097571
 31
0.0
  0
LINE
  5
247
330
1F
100
AcDbEntity
  8
LC-001-100-D00-0
 62
     7
370
    50
100
AcDbLine
 10
152.327272
 20
133.997569
 30
0.0
 11
150.027272
 21
133.997569
 31
0.0
  0
LINE
  5
248
330
1F
100
AcDbEntity
  8
LC-001-100-D00-0
 62
     7
370
    50
100
AcDbLine
 10
152.427272
 20
134.097571
 30
0.0
 11
152.327272
 21
133.997569
 31
0.0
  0
LINE
  5
249
330
1F
100
AcDbEntity
  8
LC-001-100-D00-0
 62
     7
370
    50
100
AcDbLine
 10
152.527272
 20
133.997569
 30
0.0
 11
152.427272
 21
134.097571
 31
0.0
  0
LINE
  5
24A
330
1F
100
AcDbEntity
  8
LC-001-100-D00-0
 62
     7
370
    50
100
AcDbLine
 10
154.827271
 20
133.997569
 30
0.0
 11
152.527272
 21
133.997569
 31
0.0
  0
LINE
  5
24B
330
1F
100
AcDbEntity
  8
LC-001-100-D00-0
 62
     7
370
    50
100
AcDbLine
 10
154.927271
 20
134.097571
 30
0.0
 11
154.827271
 21
133.997569
 31
0.0
  0
LINE
  5
24C
330
1F
100
AcDbEntity
  8
LC-001-100-D00-0
 62
     7
370
    50
100
AcDbLine
 10
155.027272
 20
133.997569
 30
0.0
 11
154.927271
 21
134.097571
 31
0.0
  0
LINE
  5
24D
330
1F
100
AcDbEntity
  8
LC-001-100-D00-0
 62
     7
370
    50
100
AcDbLine
 10
157.327272
 20
133.997569
 30
0.0
 11
155.027272
 21
133.997569
 31
0.0
  0
LINE
  5
24E
330
1F
100
AcDbEntity
  8
LC-001-100-D00-0
 62
     7
370
    50
100
AcDbLine
 10
157.427272
 20
134.097571
 30
0.0
 11
157.327272
 21
133.997569
 31
0.0
  0
LINE
  5
24F
330
1F
100
AcDbEntity
  8
LC-001-100-D00-0
 62
     7
370
    50
100
AcDbLine
 10
157.527272
 20
133.997569
 30
0.0
 11
157.427272
 21
134.097571
 31
0.0
  0
LINE
  5
250
330
1F
100
AcDbEntity
  8
LC-001-100-D00-0
 62
     7
370
    50
100
AcDbLine
 10
159.827271
 20
133.997569
 30
0.0
 11
157.527272
 21
133.997569
 31
0.0
  0
LINE
  5
251
330
1F
100
AcDbEntity
  8
LC-001-100-D00-0
 62
     7
370
    50
100
AcDbLine
 10
159.927271
 20
134.097571
 30
0.0
 11
159.827271
 21
133.997569
 31
0.0
  0
LINE
  5
252
330
1F
100
AcDbEntity
  8
LC-001-100-D00-0
 62
     7
370
    50
100
AcDbLine
 10
160.027271
 20
133.997569
 30
0.0
 11
159.927271
 21
134.097571
 31
0.0
  0
LINE
  5
253
330
1F
100
AcDbEntity
  8
LC-001-100-D00-0
 62
     7
370
    50
100
AcDbLine
 10
162.327271
 20
133.997569
 30
0.0
 11
160.027271
 21
133.997569
 31
0.0
  0
LINE
  5
254
330
1F
100
AcDbEntity
  8
LC-001-100-D00-0
 62
     7
370
    50
100
AcDbLine
 10
162.427273
 20
134.097571
 30
0.0
 11
162.327271
 21
133.997569
 31
0.0
  0
LINE
  5
255
330
1F
100
AcDbEntity
  8
LC-001-100-D00-0
 62
     7
370
    50
100
AcDbLine
 10
162.527272
 20
133.997569
 30
0.0
 11
162.427273
 21
134.097571
 31
0.0
  0
LINE
  5
256
330
1F
100
AcDbEntity
  8
LC-001-100-D00-0
 62
     7
370
    50
100
AcDbLine
 10
164.827272
 20
133.997569
 30
0.0
 11
162.527272
 21
133.997569
 31
0.0
  0
LINE
  5
257
330
1F
100
AcDbEntity
  8
LC-001-100-D00-0
 62
     7
370
    50
100
AcDbLine
 10
164.927272
 20
134.097571
 30
0.0
 11
164.827272
 21
133.997569
 31
0.0
  0
LINE
  5
258
330
1F
100
AcDbEntity
  8
LC-001-100-D00-0
 62
     7
370
    50
100
AcDbLine
 10
165.027272
 20
133.997569
 30
0.0
 11
164.927272
 21
134.097571
 31
0.0
  0
LINE
  5
259
330
1F
100
AcDbEntity
  8
LC-001-100-D00-0
 62
     7
370
    50
100
AcDbLine
 10
167.327272
 20
133.997569
 30
0.0
 11
165.027272
 21
133.997569
 31
0.0
  0
LINE
  5
25A
330
1F
100
AcDbEntity
  8
LC-001-100-D00-0
 62
     7
370
    50
100
AcDbLine
 10
167.427271
 20
134.097571
 30
0.0
 11
167.327272
 21
133.997569
 31
0.0
  0
LINE
  5
25B
330
1F
100
AcDbEntity
  8
LC-001-100-D00-0
 62
     7
370
    50
100
AcDbLine
 10
167.527271
 20
133.997569
 30
0.0
 11
167.427271
 21
134.097571
 31
0.0
  0
LINE
  5
25C
330
1F
100
AcDbEntity
  8
LC-001-100-D00-0
 62
     7
370
    50
100
AcDbLine
 10
169.827271
 20
133.997569
 30
0.0
 11
167.527271
 21
133.997569
 31
0.0
  0
LINE
  5
25D
330
1F
100
AcDbEntity
  8
LC-001-100-D00-0
 62
     7
370
    50
100
AcDbLine
 10
169.927271
 20
134.097571
 30
0.0
 11
169.827271
 21
133.997569
 31
0.0
  0
LINE
  5
25E
330
1F
100
AcDbEntity
  8
LC-001-100-D00-0
 62
     7
370
    50
100
AcDbLine
 10
170.027271
 20
133.997569
 30
0.0
 11
169.927271
 21
134.097571
 31
0.0
  0
LINE
  5
25F
330
1F
100
AcDbEntity
  8
LC-001-100-D00-0
 62
     7
370
    50
100
AcDbLine
 10
172.327272
 20
133.997569
 30
0.0
 11
170.027271
 21
133.997569
 31
0.0
  0
LINE
  5
260
330
1F
100
AcDbEntity
  8
LC-001-100-D00-0
 62
     7
370
    50
100
AcDbLine
 10
172.427272
 20
134.097571
 30
0.0
 11
172.327272
 21
133.997569
 31
0.0
  0
LINE
  5
261
330
1F
100
AcDbEntity
  8
LC-001-100-D00-0
 62
     7
370
    50
100
AcDbLine
 10
172.527272
 20
133.997569
 30
0.0
 11
172.427272
 21
134.097571
 31
0.0
  0
LINE
  5
262
330
1F
100
AcDbEntity
  8
LC-001-100-D00-0
 62
     7
370
    50
100
AcDbLine
 10
174.827272
 20
133.997569
 30
0.0
 11
172.527272
 21
133.997569
 31
0.0
  0
LINE
  5
263
330
1F
100
AcDbEntity
  8
LC-001-100-D00-0
 62
     7
370
    50
100
AcDbLine
 10
174.92727
 20
134.097571
 30
0.0
 11
174.827272
 21
133.997569
 31
0.0
  0
LINE
  5
264
330
1F
100
AcDbEntity
  8
LC-001-100-D00-0
 62
     7
370
    50
100
AcDbLine
 10
175.027272
 20
133.997569
 30
0.0
 11
174.92727
 21
134.097571
 31
0.0
  0
LINE
  5
265
330
1F
100
AcDbEntity
  8
LC-001-100-D00-0
 62
     7
370
    50
100
AcDbLine
 10
177.327273
 20
133.997569
 30
0.0
 11
175.027272
 21
133.997569
 31
0.0
  0
LINE
  5
266
330
1F
100
AcDbEntity
  8
LC-001-100-D00-0
 62
     7
370
    50
100
AcDbLine
 10
177.427271
 20
134.097571
 30
0.0
 11
177.327273
 21
133.997569
 31
0.0
  0
LINE
  5
267
330
1F
100
AcDbEntity
  8
LC-001-100-D00-0
 62
     7
370
    50
100
AcDbLine
 10
177.527273
 20
133.997569
 30
0.0
 11
177.427271
 21
134.097571
 31
0.0
  0
LINE
  5
268
330
1F
100
AcDbEntity
  8
LC-001-100-D00-0
 62
     7
370
    50
100
AcDbLine
 10
179.827271
 20
133.997569
 30
0.0
 11
177.527273
 21
133.997569
 31
0.0
  0
LINE
  5
269
330
1F
100
AcDbEntity
  8
LC-001-100-D00-0
 62
     7
370
    50
100
AcDbLine
 10
179.927273
 20
134.097571
 30
0.0
 11
179.827271
 21
133.997569
 31
0.0
  0
LINE
  5
26A
330
1F
100
AcDbEntity
  8
LC-001-100-D00-0
 62
     7
370
    50
100
AcDbLine
 10
180.027271
 20
133.997569
 30
0.0
 11
179.927273
 21
134.097571
 31
0.0
  0
LINE
  5
26B
330
1F
100
AcDbEntity
  8
LC-001-100-D00-0
 62
     7
370
    50
100
AcDbLine
 10
183.427272
 20
133.997569
 30
0.0
 11
180.027271
 21
133.997569
 31
0.0
  0
ARC
  5
26C
330
1F
100
AcDbEntity
  8
LC-001-100-D00-0
 62
     7
370
    50
100
AcDbCircle
 10
182.927272
 20
131.497568
 30
0.0
 40
0.5
100
AcDbArc
 50
270.0
 51
0.0
  0
LINE
  5
26D
330
1F
100
AcDbEntity
  8
LC-001-100-D00-0
 62
     7
370
    50
100
AcDbLine
 10
182.927271
 20
130.997571
 30
0.0
 11
181.825349
 21
130.997571
 31
0.0
  0
LINE
  5
26E
330
1F
100
AcDbEntity
  8
LC-001-100-D00-0
 62
     7
370
    15
100
AcDbLine
 10
181.825349
 20
130.997571
 30
0.0
 11
179.691372
 21
129.76552
 31
0.0
  0
ARC
  5
26F
330
1F
100
AcDbEntity
  8
LC-001-100-D00-0
 62
     7
370
    15
100
AcDbCircle
 10
178.691374
 20
131.497568
 30
0.0
 40
2.0
100
AcDbArc
 50
270.0
 51
300.0
  0
LINE
  5
270
330
1F
100
AcDbEntity
  8
LC-001-100-D00-0
 62
     7
370
    15
100
AcDbLine
 10
178.691374
 20
129.497568
 30
0.0
 11
175.627271
 21
129.497568
 31
0.0
  0
LINE
  5
271
330
1F
100
AcDbEntity
  8
LC-001-100-D00-0
 62
     7
370
    15
100
AcDbLine
 10
175.627271
 20
130.997571
 30
0.0
 11
175.627271
 21
129.497568
 31
0.0
  0
LINE
  5
272
330
1F
100
AcDbEntity
  8
LC-001-100-D00-0
 62
     7
370
    50
100
AcDbLine
 10
175.627271
 20
130.997571
 30
0.0
 11
140.627272
 21
130.997571
 31
0.0
  0
ARC
  5
273
330
1F
100
AcDbEntity
  8
LC-001-100-D00-0
 62
     7
370
    50
100
AcDbCircle
 10
140.627272
 20
135.997568
 30
0.0
 40
5.0
100
AcDbArc
 50
180.0
 51
270.0
  0
LINE
  5
274
330
1F
100
AcDbEntity
  8
LC-001-100-D00-0
 62
     7
370
    50
100
AcDbLine
 10
135.627272
 20
135.997566
 30
0.0
 11
135.627272
 21
141.747567
 31
0.0
  0
INSERT
  5
286
330
1F
100
AcDbEntity
  8
LC-001-100-D00-0
 62
     7
370
    50
100
AcDbBlockReference
  2
POLY17
 10
0.0
 20
0.0
 30
0.0
  0
LINE
  5
287
330
1F
100
AcDbEntity
  8
LC-001-100-D00-0
 62
     7
370
    50
100
AcDbLine
 10
183.427272
 20
133.997569
 30
0.0
 11
183.427272
 21
131.497572
 31
0.0
  0
LINE
  5
288
330
1F
100
AcDbEntity
  8
LC-001-100-D00-0
 62
     7
370
    50
100
AcDbLine
 10
109.427271
 20
221.197568
 30
0.0
 11
118.570797
 21
218.747568
 31
0.0
  0
LINE
  5
289
330
1F
100
AcDbEntity
  8
LC-001-100-D00-0
 62
     7
370
    50
100
AcDbLine
 10
118.570797
 20
218.747568
 30
0.0
 11
134.627272
 21
218.747568
 31
0.0
  0
LINE
  5
28A
330
1F
100
AcDbEntity
  8
LC-001-100-D00-0
 62
     7
370
    50
100
AcDbLine
 10
135.627272
 20
219.747568
 30
0.0
 11
135.627272
 21
225.497569
 31
0.0
  0
ARC
  5
28B
330
1F
100
AcDbEntity
  8
LC-001-100-D00-0
 62
     7
370
    50
100
AcDbCircle
 10
140.627272
 20
225.497568
 30
0.0
 40
5.0
100
AcDbArc
 50
90.0
 51
180.0
  0
LINE
  5
28C
330
1F
100
AcDbEntity
  8
LC-001-100-D00-0
 62
     7
370
    50
100
AcDbLine
 10
140.627272
 20
230.497568
 30
0.0
 11
175.627271
 21
230.497568
 31
0.0
  0
LINE
  5
28D
330
1F
100
AcDbEntity
  8
LC-001-100-D00-0
 62
     7
370
    50
100
AcDbLine
 10
175.627271
 20
231.997569
 30
0.0
 11
175.627271
 21
230.497568
 31
0.0
  0
LINE
  5
28E
330
1F
100
AcDbEntity
  8
LC-001-100-D00-0
 62
     7
370
    50
100
AcDbLine
 10
175.627271
 20
231.997569
 30
0.0
 11
178.691374
 21
231.997569
 31
0.0
  0
ARC
  5
28F
330
1F
100
AcDbEntity
  8
LC-001-100-D00-0
 62
     7
370
    50
100
AcDbCircle
 10
178.691374
 20
229.997568
 30
0.0
 40
1.999999999999967
100
AcDbArc
 50
60.0
 51
90.0
  0
LINE
  5
290
330
1F
100
AcDbEntity
  8
LC-001-100-D00-0
 62
     7
370
    50
100
AcDbLine
 10
179.691372
 20
231.72962
 30
0.0
 11
181.825349
 21
230.497568
 31
0.0
  0
LINE
  5
291
330
1F
100
AcDbEntity
  8
LC-001-100-D00-0
 62
     7
370
    50
100
AcDbLine
 10
181.825349
 20
230.497568
 30
0.0
 11
182.927271
 21
230.497568
 31
0.0
  0
ARC
  5
292
330
1F
100
AcDbEntity
  8
LC-001-100-D00-0
 62
     7
370
    50
100
AcDbCircle
 10
182.927272
 20
229.997568
 30
0.0
 40
0.5
100
AcDbArc
 50
0.0
 51
90.0
  0
LINE
  5
293
330
1F
100
AcDbEntity
  8
LC-001-100-D00-0
 62
     7
370
    50
100
AcDbLine
 10
180.027271
 20
227.497569
 30
0.0
 11
183.427272
 21
227.497569
 31
0.0
  0
LINE
  5
294
330
1F
100
AcDbEntity
  8
LC-001-100-D00-0
 62
     7
370
    50
100
AcDbLine
 10
179.927273
 20
227.397569
 30
0.0
 11
180.027271
 21
227.497569
 31
0.0
  0
LINE
  5
295
330
1F
100
AcDbEntity
  8
LC-001-100-D00-0
 62
     7
370
    50
100
AcDbLine
 10
179.827271
 20
227.497569
 30
0.0
 11
179.927273
 21
227.397569
 31
0.0
  0
LINE
  5
296
330
1F
100
AcDbEntity
  8
LC-001-100-D00-0
 62
     7
370
    50
100
AcDbLine
 10
177.527273
 20
227.497569
 30
0.0
 11
179.827271
 21
227.497569
 31
0.0
  0
LINE
  5
297
330
1F
100
AcDbEntity
  8
LC-001-100-D00-0
 62
     7
370
    50
100
AcDbLine
 10
177.427271
 20
227.397569
 30
0.0
 11
177.527273
 21
227.497569
 31
0.0
  0
LINE
  5
298
330
1F
100
AcDbEntity
  8
LC-001-100-D00-0
 62
     7
370
    50
100
AcDbLine
 10
177.327273
 20
227.497569
 30
0.0
 11
177.427271
 21
227.397569
 31
0.0
  0
LINE
  5
299
330
1F
100
AcDbEntity
  8
LC-001-100-D00-0
 62
     7
370
    50
100
AcDbLine
 10
175.027272
 20
227.497569
 30
0.0
 11
177.327273
 21
227.497569
 31
0.0
  0
LINE
  5
29A
330
1F
100
AcDbEntity
  8
LC-001-100-D00-0
 62
     7
370
    50
100
AcDbLine
 10
174.92727
 20
227.397569
 30
0.0
 11
175.027272
 21
227.497569
 31
0.0
  0
LINE
  5
29B
330
1F
100
AcDbEntity
  8
LC-001-100-D00-0
 62
     7
370
    50
100
AcDbLine
 10
174.827272
 20
227.497569
 30
0.0
 11
174.92727
 21
227.397569
 31
0.0
  0
LINE
  5
29C
330
1F
100
AcDbEntity
  8
LC-001-100-D00-0
 62
     7
370
    50
100
AcDbLine
 10
172.527272
 20
227.497569
 30
0.0
 11
174.827272
 21
227.497569
 31
0.0
  0
LINE
  5
29D
330
1F
100
AcDbEntity
  8
LC-001-100-D00-0
 62
     7
370
    50
100
AcDbLine
 10
172.427272
 20
227.397569
 30
0.0
 11
172.527272
 21
227.497569
 31
0.0
  0
LINE
  5
29E
330
1F
100
AcDbEntity
  8
LC-001-100-D00-0
 62
     7
370
    50
100
AcDbLine
 10
172.327272
 20
227.497569
 30
0.0
 11
172.427272
 21
227.397569
 31
0.0
  0
LINE
  5
29F
330
1F
100
AcDbEntity
  8
LC-001-100-D00-0
 62
     7
370
    50
100
AcDbLine
 10
170.027271
 20
227.497569
 30
0.0
 11
172.327272
 21
227.497569
 31
0.0
  0
LINE
  5
2A0
330
1F
100
AcDbEntity
  8
LC-001-100-D00-0
 62
     7
370
    50
100
AcDbLine
 10
169.927271
 20
227.397569
 30
0.0
 11
170.027271
 21
227.497569
 31
0.0
  0
LINE
  5
2A1
330
1F
100
AcDbEntity
  8
LC-001-100-D00-0
 62
     7
370
    50
100
AcDbLine
 10
169.827271
 20
227.497569
 30
0.0
 11
169.927271
 21
227.397569
 31
0.0
  0
LINE
  5
2A2
330
1F
100
AcDbEntity
  8
LC-001-100-D00-0
 62
     7
370
    50
100
AcDbLine
 10
167.527271
 20
227.497569
 30
0.0
 11
169.827271
 21
227.497569
 31
0.0
  0
LINE
  5
2A3
330
1F
100
AcDbEntity
  8
LC-001-100-D00-0
 62
     7
370
    50
100
AcDbLine
 10
167.427271
 20
227.397569
 30
0.0
 11
167.527271
 21
227.497569
 31
0.0
  0
LINE
  5
2A4
330
1F
100
AcDbEntity
  8
LC-001-100-D00-0
 62
     7
370
    50
100
AcDbLine
 10
167.327272
 20
227.497569
 30
0.0
 11
167.427271
 21
227.397569
 31
0.0
  0
LINE
  5
2A5
330
1F
100
AcDbEntity
  8
LC-001-100-D00-0
 62
     7
370
    50
100
AcDbLine
 10
165.027272
 20
227.497569
 30
0.0
 11
167.327272
 21
227.497569
 31
0.0
  0
LINE
  5
2A6
330
1F
100
AcDbEntity
  8
LC-001-100-D00-0
 62
     7
370
    50
100
AcDbLine
 10
164.927272
 20
227.397569
 30
0.0
 11
165.027272
 21
227.497569
 31
0.0
  0
LINE
  5
2A7
330
1F
100
AcDbEntity
  8
LC-001-100-D00-0
 62
     7
370
    50
100
AcDbLine
 10
164.827272
 20
227.497569
 30
0.0
 11
164.927272
 21
227.397569
 31
0.0
  0
LINE
  5
2A8
330
1F
100
AcDbEntity
  8
LC-001-100-D00-0
 62
     7
370
    50
100
AcDbLine
 10
162.527272
 20
227.497569
 30
0.0
 11
164.827272
 21
227.497569
 31
0.0
  0
LINE
  5
2A9
330
1F
100
AcDbEntity
  8
LC-001-100-D00-0
 62
     7
370
    50
100
AcDbLine
 10
162.427273
 20
227.397569
 30
0.0
 11
162.527272
 21
227.497569
 31
0.0
  0
LINE
  5
2AA
330
1F
100
AcDbEntity
  8
LC-001-100-D00-0
 62
     7
370
    50
100
AcDbLine
 10
162.327271
 20
227.497569
 30
0.0
 11
162.427273
 21
227.397569
 31
0.0
  0
LINE
  5
2AB
330
1F
100
AcDbEntity
  8
LC-001-100-D00-0
 62
     7
370
    50
100
AcDbLine
 10
160.027271
 20
227.497569
 30
0.0
 11
162.327271
 21
227.497569
 31
0.0
  0
LINE
  5
2AC
330
1F
100
AcDbEntity
  8
LC-001-100-D00-0
 62
     7
370
    50
100
AcDbLine
 10
159.927271
 20
227.397569
 30
0.0
 11
160.027271
 21
227.497569
 31
0.0
  0
LINE
  5
2AD
330
1F
100
AcDbEntity
  8
LC-001-100-D00-0
 62
     7
370
    50
100
AcDbLine
 10
159.827271
 20
227.497569
 30
0.0
 11
159.927271
 21
227.397569
 31
0.0
  0
LINE
  5
2AE
330
1F
100
AcDbEntity
  8
LC-001-100-D00-0
 62
     7
370
    50
100
AcDbLine
 10
157.527272
 20
227.497569
 30
0.0
 11
159.827271
 21
227.497569
 31
0.0
  0
LINE
  5
2AF
330
1F
100
AcDbEntity
  8
LC-001-100-D00-0
 62
     7
370
    50
100
AcDbLine
 10
157.427272
 20
227.397569
 30
0.0
 11
157.527272
 21
227.497569
 31
0.0
  0
LINE
  5
2B0
330
1F
100
AcDbEntity
  8
LC-001-100-D00-0
 62
     7
370
    50
100
AcDbLine
 10
157.327272
 20
227.497569
 30
0.0
 11
157.427272
 21
227.397569
 31
0.0
  0
LINE
  5
2B1
330
1F
100
AcDbEntity
  8
LC-001-100-D00-0
 62
     7
370
    50
100
AcDbLine
 10
155.027272
 20
227.497569
 30
0.0
 11
157.327272
 21
227.497569
 31
0.0
  0
LINE
  5
2B2
330
1F
100
AcDbEntity
  8
LC-001-100-D00-0
 62
     7
370
    50
100
AcDbLine
 10
154.927271
 20
227.397569
 30
0.0
 11
155.027272
 21
227.497569
 31
0.0
  0
LINE
  5
2B3
330
1F
100
AcDbEntity
  8
LC-001-100-D00-0
 62
     7
370
    50
100
AcDbLine
 10
154.827271
 20
227.497569
 30
0.0
 11
154.927271
 21
227.397569
 31
0.0
  0
LINE
  5
2B4
330
1F
100
AcDbEntity
  8
LC-001-100-D00-0
 62
     7
370
    50
100
AcDbLine
 10
152.527272
 20
227.497569
 30
0.0
 11
154.827271
 21
227.497569
 31
0.0
  0
LINE
  5
2B5
330
1F
100
AcDbEntity
  8
LC-001-100-D00-0
 62
     7
370
    50
100
AcDbLine
 10
152.427272
 20
227.397569
 30
0.0
 11
152.527272
 21
227.497569
 31
0.0
  0
LINE
  5
2B6
330
1F
100
AcDbEntity
  8
LC-001-100-D00-0
 62
     7
370
    50
100
AcDbLine
 10
152.327272
 20
227.497569
 30
0.0
 11
152.427272
 21
227.397569
 31
0.0
  0
LINE
  5
2B7
330
1F
100
AcDbEntity
  8
LC-001-100-D00-0
 62
     7
370
    50
100
AcDbLine
 10
150.027272
 20
227.497569
 30
0.0
 11
152.327272
 21
227.497569
 31
0.0
  0
LINE
  5
2B8
330
1F
100
AcDbEntity
  8
LC-001-100-D00-0
 62
     7
370
    50
100
AcDbLine
 10
149.927271
 20
227.397569
 30
0.0
 11
150.027272
 21
227.497569
 31
0.0
  0
LINE
  5
2B9
330
1F
100
AcDbEntity
  8
LC-001-100-D00-0
 62
     7
370
    50
100
AcDbLine
 10
149.827272
 20
227.497569
 30
0.0
 11
149.927271
 21
227.397569
 31
0.0
  0
LINE
  5
2BA
330
1F
100
AcDbEntity
  8
LC-001-100-D00-0
 62
     7
370
    50
100
AcDbLine
 10
147.527272
 20
227.497569
 30
0.0
 11
149.827272
 21
227.497569
 31
0.0
  0
LINE
  5
2BB
330
1F
100
AcDbEntity
  8
LC-001-100-D00-0
 62
     7
370
    50
100
AcDbLine
 10
147.427271
 20
227.397569
 30
0.0
 11
147.527272
 21
227.497569
 31
0.0
  0
LINE
  5
2BC
330
1F
100
AcDbEntity
  8
LC-001-100-D00-0
 62
     7
370
    50
100
AcDbLine
 10
147.327272
 20
227.497569
 30
0.0
 11
147.427271
 21
227.397569
 31
0.0
  0
LINE
  5
2BD
330
1F
100
AcDbEntity
  8
LC-001-100-D00-0
 62
     7
370
    50
100
AcDbLine
 10
145.027272
 20
227.497569
 30
0.0
 11
147.327272
 21
227.497569
 31
0.0
  0
LINE
  5
2BE
330
1F
100
AcDbEntity
  8
LC-001-100-D00-0
 62
     7
370
    50
100
AcDbLine
 10
144.927272
 20
227.397569
 30
0.0
 11
145.027272
 21
227.497569
 31
0.0
  0
LINE
  5
2BF
330
1F
100
AcDbEntity
  8
LC-001-100-D00-0
 62
     7
370
    50
100
AcDbLine
 10
144.827272
 20
227.497569
 30
0.0
 11
144.927272
 21
227.397569
 31
0.0
  0
LINE
  5
2C0
330
1F
100
AcDbEntity
  8
LC-001-100-D00-0
 62
     7
370
    50
100
AcDbLine
 10
140.427272
 20
227.497569
 30
0.0
 11
144.827272
 21
227.497569
 31
0.0
  0
ARC
  5
2C1
330
1F
100
AcDbEntity
  8
LC-001-100-D00-0
 62
     7
370
    50
100
AcDbCircle
 10
140.427272
 20
225.497568
 30
0.0
 40
2.0
100
AcDbArc
 50
90.0
 51
180.0
  0
LINE
  5
2C2
330
1F
100
AcDbEntity
  8
LC-001-100-D00-0
 62
     7
370
    50
100
AcDbLine
 10
138.427272
 20
216.197568
 30
0.0
 11
138.427272
 21
225.497569
 31
0.0
  0
LINE
  5
2C3
330
1F
100
AcDbEntity
  8
LC-001-100-D00-0
 62
     7
370
    50
100
AcDbLine
 10
118.494093
 20
216.197568
 30
0.0
 11
138.427272
 21
216.197568
 31
0.0
  0
LINE
  5
2C4
330
1F
100
AcDbEntity
  8
LC-001-100-D00-0
 62
     7
370
    50
100
AcDbLine
 10
109.163968
 20
218.697568
 30
0.0
 11
118.494093
 21
216.197568
 31
0.0
  0
LINE
  5
2C5
330
1F
100
AcDbEntity
  8
LC-001-100-D00-0
 62
     7
370
    50
100
AcDbLine
 10
69.127271
 20
218.697568
 30
0.0
 11
109.163968
 21
218.697568
 31
0.0
  0
ARC
  5
2C6
330
1F
100
AcDbEntity
  8
LC-001-100-D00-0
 62
     7
370
    50
100
AcDbCircle
 10
69.127272
 20
219.197568
 30
0.0
 40
0.5000000000000568
100
AcDbArc
 50
180.0
 51
270.0
  0
LINE
  5
2C7
330
1F
100
AcDbEntity
  8
LC-001-100-D00-0
 62
     7
370
    50
100
AcDbLine
 10
68.62727
 20
222.297568
 30
0.0
 11
68.62727
 21
219.197568
 31
0.0
  0
ARC
  5
2C8
330
1F
100
AcDbEntity
  8
LC-001-100-D00-0
 62
     7
370
    50
100
AcDbCircle
 10
67.627272
 20
222.297568
 30
0.0
 40
1.0
100
AcDbArc
 50
0.0
 51
90.0
  0
LINE
  5
2C9
330
1F
100
AcDbEntity
  8
LC-001-100-D00-0
 62
     7
370
    50
100
AcDbLine
 10
61.627271
 20
223.297569
 30
0.0
 11
67.627275
 21
223.297569
 31
0.0
  0
LINE
  5
2CA
330
1F
100
AcDbEntity
  8
LC-001-100-D00-0
 62
     7
370
    50
100
AcDbLine
 10
57.027275
 20
218.697568
 30
0.0
 11
61.627271
 21
223.297569
 31
0.0
  0
LINE
  5
2CB
330
1F
100
AcDbEntity
  8
LC-001-100-D00-0
 62
     7
370
    50
100
AcDbLine
 10
52.927272
 20
218.697568
 30
0.0
 11
57.027275
 21
218.697568
 31
0.0
  0
LINE
  5
2CC
330
1F
100
AcDbEntity
  8
LC-001-100-D00-0
 62
     7
370
    50
100
AcDbLine
 10
52.927272
 20
218.697568
 30
0.0
 11
52.927272
 21
221.197568
 31
0.0
  0
LINE
  5
2CD
330
1F
100
AcDbEntity
  8
LC-001-100-D00-0
 62
     7
370
    50
100
AcDbLine
 10
52.927272
 20
221.197568
 30
0.0
 11
55.641735
 21
221.197568
 31
0.0
  0
LINE
  5
2CE
330
1F
100
AcDbEntity
  8
LC-001-100-D00-0
 62
     7
370
    50
100
AcDbLine
 10
55.641735
 20
221.197568
 30
0.0
 11
60.091736
 21
225.647568
 31
0.0
  0
LINE
  5
2CF
330
1F
100
AcDbEntity
  8
LC-001-100-D00-0
 62
     7
370
    50
100
AcDbLine
 10
60.091736
 20
225.647568
 30
0.0
 11
69.427268
 21
225.647568
 31
0.0
  0
ARC
  5
2D0
330
1F
100
AcDbEntity
  8
LC-001-100-D00-0
 62
     7
370
    50
100
AcDbCircle
 10
69.427272
 20
224.147568
 30
0.0
 40
1.5
100
AcDbArc
 50
0.0
 51
90.0
  0
LINE
  5
2D1
330
1F
100
AcDbEntity
  8
LC-001-100-D00-0
 62
     7
370
    50
100
AcDbLine
 10
70.927272
 20
224.147568
 30
0.0
 11
70.927272
 21
222.697568
 31
0.0
  0
ARC
  5
2D2
330
1F
100
AcDbEntity
  8
LC-001-100-D00-0
 62
     7
370
    50
100
AcDbCircle
 10
72.427272
 20
222.697568
 30
0.0
 40
1.5
100
AcDbArc
 50
180.0
 51
270.0
  0
LINE
  5
2D3
330
1F
100
AcDbEntity
  8
LC-001-100-D00-0
 62
     7
370
    50
100
AcDbLine
 10
72.427275
 20
221.197568
 30
0.0
 11
109.427271
 21
221.197568
 31
0.0
  0
LINE
  5
2D4
330
1F
100
AcDbEntity
  8
LC-001-100-D00-0
 62
     7
370
    50
100
AcDbLine
 10
183.427272
 20
229.997568
 30
0.0
 11
183.427272
 21
227.497569
 31
0.0
  0
INSERT
  5
318
330
1F
100
AcDbEntity
  8
LC-001-100-D00-0
 62
     7
370
    50
100
AcDbBlockReference
  2
POLY18
 10
0.0
 20
0.0
 30
0.0
  0
LINE
  5
319
330
1F
100
AcDbEntity
  8
LC-001-100-D00-0
 62
     7
370
    50
100
AcDbLine
 10
144.927272
 20
227.397569
 30
0.0
 11
144.927272
 21
227.247568
 31
0.0
  0
LINE
  5
31A
330
1F
100
AcDbEntity
  8
LC-001-100-D00-0
 62
     7
370
    50
100
AcDbLine
 10
144.927272
 20
134.247566
 30
0.0
 11
144.927272
 21
134.097571
 31
0.0
  0
LINE
  5
31B
330
1F
100
AcDbEntity
  8
LC-001-100-D00-0
 62
     7
370
    50
100
AcDbLine
 10
145.027272
 20
227.497569
 30
0.0
 11
145.027272
 21
227.247568
 31
0.0
  0
LINE
  5
31C
330
1F
100
AcDbEntity
  8
LC-001-100-D00-0
 62
     7
370
    50
100
AcDbLine
 10
145.027272
 20
134.247566
 30
0.0
 11
145.027272
 21
133.997569
 31
0.0
  0
LINE
  5
31D
330
1F
100
AcDbEntity
  8
LC-001-100-D00-0
 62
     7
370
    50
100
AcDbLine
 10
109.163968
 20
218.697568
 30
0.0
 11
109.163968
 21
142.797569
 31
0.0
  0
LINE
  5
31E
330
1F
100
AcDbEntity
  8
LC-001-100-D00-0
 62
     7
370
    50
100
AcDbLine
 10
149.827272
 20
227.497569
 30
0.0
 11
149.827272
 21
227.247568
 31
0.0
  0
LINE
  5
31F
330
1F
100
AcDbEntity
  8
LC-001-100-D00-0
 62
     7
370
    50
100
AcDbLine
 10
149.827272
 20
134.247566
 30
0.0
 11
149.827272
 21
133.997569
 31
0.0
  0
LINE
  5
320
330
1F
100
AcDbEntity
  8
LC-001-100-D00-0
 62
     7
370
    50
100
AcDbLine
 10
147.527272
 20
227.497569
 30
0.0
 11
147.527272
 21
227.247568
 31
0.0
  0
LINE
  5
321
330
1F
100
AcDbEntity
  8
LC-001-100-D00-0
 62
     7
370
    50
100
AcDbLine
 10
147.527272
 20
134.247566
 30
0.0
 11
147.527272
 21
133.997569
 31
0.0
  0
LINE
  5
322
330
1F
100
AcDbEntity
  8
LC-001-100-D00-0
 62
     7
370
    50
100
AcDbLine
 10
147.327272
 20
227.497569
 30
0.0
 11
147.327272
 21
227.247568
 31
0.0
  0
LINE
  5
323
330
1F
100
AcDbEntity
  8
LC-001-100-D00-0
 62
     7
370
    50
100
AcDbLine
 10
147.327272
 20
134.247566
 30
0.0
 11
147.327272
 21
133.997569
 31
0.0
  0
LINE
  5
324
330
1F
100
AcDbEntity
  8
LC-001-100-D00-0
 62
     7
370
    50
100
AcDbLine
 10
164.827272
 20
133.997569
 30
0.0
 11
164.827272
 21
134.247566
 31
0.0
  0
LINE
  5
325
330
1F
100
AcDbEntity
  8
LC-001-100-D00-0
 62
     7
370
    50
100
AcDbLine
 10
164.827272
 20
227.247568
 30
0.0
 11
164.827272
 21
227.497569
 31
0.0
  0
LINE
  5
326
330
1F
100
AcDbEntity
  8
LC-001-100-D00-0
 62
     7
370
    50
100
AcDbLine
 10
162.527272
 20
133.997569
 30
0.0
 11
162.527272
 21
134.247566
 31
0.0
  0
LINE
  5
327
330
1F
100
AcDbEntity
  8
LC-001-100-D00-0
 62
     7
370
    50
100
AcDbLine
 10
162.527272
 20
227.247568
 30
0.0
 11
162.527272
 21
227.497569
 31
0.0
  0
LINE
  5
328
330
1F
100
AcDbEntity
  8
LC-001-100-D00-0
 62
     7
370
    50
100
AcDbLine
 10
118.494093
 20
216.197568
 30
0.0
 11
118.494093
 21
145.297567
 31
0.0
  0
LINE
  5
329
330
1F
100
AcDbEntity
  8
LC-001-100-D00-0
 62
     7
370
    50
100
AcDbLine
 10
172.427272
 20
134.097571
 30
0.0
 11
172.427272
 21
134.247566
 31
0.0
  0
LINE
  5
32A
330
1F
100
AcDbEntity
  8
LC-001-100-D00-0
 62
     7
370
    50
100
AcDbLine
 10
172.427272
 20
227.247568
 30
0.0
 11
172.427272
 21
227.397569
 31
0.0
  0
LINE
  5
32B
330
1F
100
AcDbEntity
  8
LC-001-100-D00-0
 62
     7
370
    50
100
AcDbLine
 10
172.327272
 20
133.997569
 30
0.0
 11
172.327272
 21
134.247566
 31
0.0
  0
LINE
  5
32C
330
1F
100
AcDbEntity
  8
LC-001-100-D00-0
 62
     7
370
    50
100
AcDbLine
 10
172.327272
 20
227.247568
 30
0.0
 11
172.327272
 21
227.497569
 31
0.0
  0
LINE
  5
32D
330
1F
100
AcDbEntity
  8
LC-001-100-D00-0
 62
     7
370
    50
100
AcDbLine
 10
138.427272
 20
216.197568
 30
0.0
 11
138.427272
 21
145.297567
 31
0.0
  0
LINE
  5
32E
330
1F
100
AcDbEntity
  8
LC-001-100-D00-0
 62
     7
370
    50
100
AcDbLine
 10
174.827272
 20
133.997569
 30
0.0
 11
174.827272
 21
134.247566
 31
0.0
  0
LINE
  5
32F
330
1F
100
AcDbEntity
  8
LC-001-100-D00-0
 62
     7
370
    50
100
AcDbLine
 10
174.827272
 20
227.247568
 30
0.0
 11
174.827272
 21
227.497569
 31
0.0
  0
LINE
  5
330
330
1F
100
AcDbEntity
  8
LC-001-100-D00-0
 62
     7
370
    50
100
AcDbLine
 10
172.527272
 20
133.997569
 30
0.0
 11
172.527272
 21
134.247566
 31
0.0
  0
LINE
  5
331
330
1F
100
AcDbEntity
  8
LC-001-100-D00-0
 62
     7
370
    50
100
AcDbLine
 10
172.527272
 20
227.247568
 30
0.0
 11
172.527272
 21
227.497569
 31
0.0
  0
LINE
  5
332
330
1F
100
AcDbEntity
  8
LC-001-100-D00-0
 62
     7
370
    50
100
AcDbLine
 10
167.327272
 20
133.997569
 30
0.0
 11
167.327272
 21
134.247566
 31
0.0
  0
LINE
  5
333
330
1F
100
AcDbEntity
  8
LC-001-100-D00-0
 62
     7
370
    50
100
AcDbLine
 10
167.327272
 20
227.247568
 30
0.0
 11
167.327272
 21
227.497569
 31
0.0
  0
LINE
  5
334
330
1F
100
AcDbEntity
  8
LC-001-100-D00-0
 62
     7
370
    50
100
AcDbLine
 10
165.027272
 20
133.997569
 30
0.0
 11
165.027272
 21
134.247566
 31
0.0
  0
LINE
  5
335
330
1F
100
AcDbEntity
  8
LC-001-100-D00-0
 62
     7
370
    50
100
AcDbLine
 10
165.027272
 20
227.247568
 30
0.0
 11
165.027272
 21
227.497569
 31
0.0
  0
LINE
  5
336
330
1F
100
AcDbEntity
  8
LC-001-100-D00-0
 62
     7
370
    50
100
AcDbLine
 10
164.927272
 20
134.097571
 30
0.0
 11
164.927272
 21
134.247566
 31
0.0
  0
LINE
  5
337
330
1F
100
AcDbEntity
  8
LC-001-100-D00-0
 62
     7
370
    50
100
AcDbLine
 10
164.927272
 20
227.247568
 30
0.0
 11
164.927272
 21
227.397569
 31
0.0
  0
LINE
  5
338
330
1F
100
AcDbEntity
  8
LC-001-100-D00-0
 62
     7
370
    50
100
AcDbLine
 10
147.427271
 20
227.397569
 30
0.0
 11
147.427271
 21
227.247568
 31
0.0
  0
LINE
  5
339
330
1F
100
AcDbEntity
  8
LC-001-100-D00-0
 62
     7
370
    50
100
AcDbLine
 10
147.427271
 20
134.247566
 30
0.0
 11
147.427271
 21
134.097571
 31
0.0
  0
LINE
  5
33A
330
1F
100
AcDbEntity
  8
LC-001-100-D00-0
 62
     7
370
    50
100
AcDbLine
 10
169.927271
 20
134.097571
 30
0.0
 11
169.927271
 21
134.247566
 31
0.0
  0
LINE
  5
33B
330
1F
100
AcDbEntity
  8
LC-001-100-D00-0
 62
     7
370
    50
100
AcDbLine
 10
169.927271
 20
227.247568
 30
0.0
 11
169.927271
 21
227.397569
 31
0.0
  0
LINE
  5
33C
330
1F
100
AcDbEntity
  8
LC-001-100-D00-0
 62
     7
370
    50
100
AcDbLine
 10
170.027271
 20
133.997569
 30
0.0
 11
170.027271
 21
134.247566
 31
0.0
  0
LINE
  5
33D
330
1F
100
AcDbEntity
  8
LC-001-100-D00-0
 62
     7
370
    50
100
AcDbLine
 10
170.027271
 20
227.247568
 30
0.0
 11
170.027271
 21
227.497569
 31
0.0
  0
LINE
  5
33E
330
1F
100
AcDbEntity
  8
LC-001-100-D00-0
 62
     7
370
    50
100
AcDbLine
 10
162.427273
 20
134.097571
 30
0.0
 11
162.427273
 21
134.247566
 31
0.0
  0
LINE
  5
33F
330
1F
100
AcDbEntity
  8
LC-001-100-D00-0
 62
     7
370
    50
100
AcDbLine
 10
162.427273
 20
227.247568
 30
0.0
 11
162.427273
 21
227.397569
 31
0.0
  0
LINE
  5
340
330
1F
100
AcDbEntity
  8
LC-001-100-D00-0
 62
     7
370
    50
100
AcDbLine
 10
149.927271
 20
227.397569
 30
0.0
 11
149.927271
 21
227.247568
 31
0.0
  0
LINE
  5
341
330
1F
100
AcDbEntity
  8
LC-001-100-D00-0
 62
     7
370
    50
100
AcDbLine
 10
149.927271
 20
134.247566
 30
0.0
 11
149.927271
 21
134.097571
 31
0.0
  0
LINE
  5
342
330
1F
100
AcDbEntity
  8
LC-001-100-D00-0
 62
     7
370
    50
100
AcDbLine
 10
180.027271
 20
133.997569
 30
0.0
 11
180.027271
 21
134.247566
 31
0.0
  0
LINE
  5
343
330
1F
100
AcDbEntity
  8
LC-001-100-D00-0
 62
     7
370
    50
100
AcDbLine
 10
180.027271
 20
227.247568
 30
0.0
 11
180.027271
 21
227.497569
 31
0.0
  0
LINE
  5
344
330
1F
100
AcDbEntity
  8
LC-001-100-D00-0
 62
     7
370
    50
100
AcDbLine
 10
179.927273
 20
134.097571
 30
0.0
 11
179.927273
 21
134.247566
 31
0.0
  0
LINE
  5
345
330
1F
100
AcDbEntity
  8
LC-001-100-D00-0
 62
     7
370
    50
100
AcDbLine
 10
179.927273
 20
227.247568
 30
0.0
 11
179.927273
 21
227.397569
 31
0.0
  0
LINE
  5
346
330
1F
100
AcDbEntity
  8
LC-001-100-D00-0
 62
     7
370
    50
100
AcDbLine
 10
179.827271
 20
133.997569
 30
0.0
 11
179.827271
 21
134.247566
 31
0.0
  0
LINE
  5
347
330
1F
100
AcDbEntity
  8
LC-001-100-D00-0
 62
     7
370
    50
100
AcDbLine
 10
179.827271
 20
227.247568
 30
0.0
 11
179.827271
 21
227.497569
 31
0.0
  0
LINE
  5
348
330
1F
100
AcDbEntity
  8
LC-001-100-D00-0
 62
     7
370
    50
100
AcDbLine
 10
177.427271
 20
134.097571
 30
0.0
 11
177.427271
 21
134.247566
 31
0.0
  0
LINE
  5
349
330
1F
100
AcDbEntity
  8
LC-001-100-D00-0
 62
     7
370
    50
100
AcDbLine
 10
177.427271
 20
227.247568
 30
0.0
 11
177.427271
 21
227.397569
 31
0.0
  0
LINE
  5
34A
330
1F
100
AcDbEntity
  8
LC-001-100-D00-0
 62
     7
370
    50
100
AcDbLine
 10
177.527273
 20
133.997569
 30
0.0
 11
177.527273
 21
134.247566
 31
0.0
  0
LINE
  5
34B
330
1F
100
AcDbEntity
  8
LC-001-100-D00-0
 62
     7
370
    50
100
AcDbLine
 10
177.527273
 20
227.247568
 30
0.0
 11
177.527273
 21
227.497569
 31
0.0
  0
LINE
  5
34C
330
1F
100
AcDbEntity
  8
LC-001-100-D00-0
 62
     7
370
    50
100
AcDbLine
 10
57.027275
 20
218.697568
 30
0.0
 11
57.027275
 21
142.797569
 31
0.0
  0
LINE
  5
34D
330
1F
100
AcDbEntity
  8
LC-001-100-D00-0
 62
     7
370
    50
100
AcDbLine
 10
52.927272
 20
142.797569
 30
0.0
 11
52.927272
 21
218.697568
 31
0.0
  0
LINE
  5
34E
330
1F
100
AcDbEntity
  8
LC-001-100-D00-0
 62
     7
370
    50
100
AcDbLine
 10
177.327273
 20
133.997569
 30
0.0
 11
177.327273
 21
134.247566
 31
0.0
  0
LINE
  5
34F
330
1F
100
AcDbEntity
  8
LC-001-100-D00-0
 62
     7
370
    50
100
AcDbLine
 10
177.327273
 20
227.247568
 30
0.0
 11
177.327273
 21
227.497569
 31
0.0
  0
LINE
  5
350
330
1F
100
AcDbEntity
  8
LC-001-100-D00-0
 62
     7
370
    50
100
AcDbLine
 10
61.627271
 20
223.297569
 30
0.0
 11
61.627271
 21
222.141925
 31
0.0
  0
LINE
  5
351
330
1F
100
AcDbEntity
  8
LC-001-100-D00-0
 62
     7
370
    50
100
AcDbLine
 10
61.627271
 20
139.353211
 30
0.0
 11
61.627271
 21
138.197566
 31
0.0
  0
LINE
  5
352
330
1F
100
AcDbEntity
  8
LC-001-100-D00-0
 62
     7
370
    50
100
AcDbLine
 10
162.327271
 20
133.997569
 30
0.0
 11
162.327271
 21
134.247566
 31
0.0
  0
LINE
  5
353
330
1F
100
AcDbEntity
  8
LC-001-100-D00-0
 62
     7
370
    50
100
AcDbLine
 10
162.327271
 20
227.247568
 30
0.0
 11
162.327271
 21
227.497569
 31
0.0
  0
LINE
  5
354
330
1F
100
AcDbEntity
  8
LC-001-100-D00-0
 62
     7
370
    50
100
AcDbLine
 10
174.92727
 20
134.097571
 30
0.0
 11
174.92727
 21
134.247566
 31
0.0
  0
LINE
  5
355
330
1F
100
AcDbEntity
  8
LC-001-100-D00-0
 62
     7
370
    50
100
AcDbLine
 10
174.92727
 20
227.247568
 30
0.0
 11
174.92727
 21
227.397569
 31
0.0
  0
LINE
  5
356
330
1F
100
AcDbEntity
  8
LC-001-100-D00-0
 62
     7
370
    50
100
AcDbLine
 10
159.927271
 20
134.097571
 30
0.0
 11
159.927271
 21
134.247566
 31
0.0
  0
LINE
  5
357
330
1F
100
AcDbEntity
  8
LC-001-100-D00-0
 62
     7
370
    50
100
AcDbLine
 10
159.927271
 20
227.247568
 30
0.0
 11
159.927271
 21
227.397569
 31
0.0
  0
LINE
  5
358
330
1F
100
AcDbEntity
  8
LC-001-100-D00-0
 62
     7
370
    50
100
AcDbLine
 10
160.027271
 20
133.997569
 30
0.0
 11
160.027271
 21
134.247566
 31
0.0
  0
LINE
  5
359
330
1F
100
AcDbEntity
  8
LC-001-100-D00-0
 62
     7
370
    50
100
AcDbLine
 10
160.027271
 20
227.247568
 30
0.0
 11
160.027271
 21
227.497569
 31
0.0
  0
LINE
  5
35A
330
1F
100
AcDbEntity
  8
LC-001-100-D00-0
 62
     7
370
    50
100
AcDbLine
 10
152.427272
 20
227.397569
 30
0.0
 11
152.427272
 21
227.247568
 31
0.0
  0
LINE
  5
35B
330
1F
100
AcDbEntity
  8
LC-001-100-D00-0
 62
     7
370
    50
100
AcDbLine
 10
152.427272
 20
134.247566
 30
0.0
 11
152.427272
 21
134.097571
 31
0.0
  0
LINE
  5
35C
330
1F
100
AcDbEntity
  8
LC-001-100-D00-0
 62
     7
370
    50
100
AcDbLine
 10
152.327272
 20
227.497569
 30
0.0
 11
152.327272
 21
227.247568
 31
0.0
  0
LINE
  5
35D
330
1F
100
AcDbEntity
  8
LC-001-100-D00-0
 62
     7
370
    50
100
AcDbLine
 10
152.327272
 20
134.247566
 30
0.0
 11
152.327272
 21
133.997569
 31
0.0
  0
LINE
  5
35E
330
1F
100
AcDbEntity
  8
LC-001-100-D00-0
 62
     7
370
    50
100
AcDbLine
 10
159.827271
 20
133.997569
 30
0.0
 11
159.827271
 21
134.247566
 31
0.0
  0
LINE
  5
35F
330
1F
100
AcDbEntity
  8
LC-001-100-D00-0
 62
     7
370
    50
100
AcDbLine
 10
159.827271
 20
227.247568
 30
0.0
 11
159.827271
 21
227.497569
 31
0.0
  0
LINE
  5
360
330
1F
100
AcDbEntity
  8
LC-001-100-D00-0
 62
     7
370
    50
100
AcDbLine
 10
152.527272
 20
227.497569
 30
0.0
 11
152.527272
 21
227.247568
 31
0.0
  0
LINE
  5
361
330
1F
100
AcDbEntity
  8
LC-001-100-D00-0
 62
     7
370
    50
100
AcDbLine
 10
152.527272
 20
134.247566
 30
0.0
 11
152.527272
 21
133.997569
 31
0.0
  0
LINE
  5
362
330
1F
100
AcDbEntity
  8
LC-001-100-D00-0
 62
     7
370
    50
100
AcDbLine
 10
157.527272
 20
133.997569
 30
0.0
 11
157.527272
 21
134.247566
 31
0.0
  0
LINE
  5
363
330
1F
100
AcDbEntity
  8
LC-001-100-D00-0
 62
     7
370
    50
100
AcDbLine
 10
157.527272
 20
227.247568
 30
0.0
 11
157.527272
 21
227.497569
 31
0.0
  0
LINE
  5
364
330
1F
100
AcDbEntity
  8
LC-001-100-D00-0
 62
     7
370
    50
100
AcDbLine
 10
154.827271
 20
227.497569
 30
0.0
 11
154.827271
 21
227.247568
 31
0.0
  0
LINE
  5
365
330
1F
100
AcDbEntity
  8
LC-001-100-D00-0
 62
     7
370
    50
100
AcDbLine
 10
154.827271
 20
134.247566
 30
0.0
 11
154.827271
 21
133.997569
 31
0.0
  0
LINE
  5
366
330
1F
100
AcDbEntity
  8
LC-001-100-D00-0
 62
     7
370
    50
100
AcDbLine
 10
157.427272
 20
134.097571
 30
0.0
 11
157.427272
 21
134.247566
 31
0.0
  0
LINE
  5
367
330
1F
100
AcDbEntity
  8
LC-001-100-D00-0
 62
     7
370
    50
100
AcDbLine
 10
157.427272
 20
227.247568
 30
0.0
 11
157.427272
 21
227.397569
 31
0.0
  0
LINE
  5
368
330
1F
100
AcDbEntity
  8
LC-001-100-D00-0
 62
     7
370
    50
100
AcDbLine
 10
154.927271
 20
227.397569
 30
0.0
 11
154.927271
 21
227.247568
 31
0.0
  0
LINE
  5
369
330
1F
100
AcDbEntity
  8
LC-001-100-D00-0
 62
     7
370
    50
100
AcDbLine
 10
154.927271
 20
134.247566
 30
0.0
 11
154.927271
 21
134.097571
 31
0.0
  0
LINE
  5
36A
330
1F
100
AcDbEntity
  8
LC-001-100-D00-0
 62
     7
370
    50
100
AcDbLine
 10
157.327272
 20
133.997569
 30
0.0
 11
157.327272
 21
134.247566
 31
0.0
  0
LINE
  5
36B
330
1F
100
AcDbEntity
  8
LC-001-100-D00-0
 62
     7
370
    50
100
AcDbLine
 10
157.327272
 20
227.247568
 30
0.0
 11
157.327272
 21
227.497569
 31
0.0
  0
LINE
  5
36C
330
1F
100
AcDbEntity
  8
LC-001-100-D00-0
 62
     7
370
    50
100
AcDbLine
 10
155.027272
 20
227.497569
 30
0.0
 11
155.027272
 21
227.247568
 31
0.0
  0
LINE
  5
36D
330
1F
100
AcDbEntity
  8
LC-001-100-D00-0
 62
     7
370
    50
100
AcDbLine
 10
155.027272
 20
134.247566
 30
0.0
 11
155.027272
 21
133.997569
 31
0.0
  0
LINE
  5
36E
330
1F
100
AcDbEntity
  8
LC-001-100-D00-0
 62
     7
370
    50
100
AcDbLine
 10
175.027272
 20
133.997569
 30
0.0
 11
175.027272
 21
134.247566
 31
0.0
  0
LINE
  5
36F
330
1F
100
AcDbEntity
  8
LC-001-100-D00-0
 62
     7
370
    50
100
AcDbLine
 10
175.027272
 20
227.247568
 30
0.0
 11
175.027272
 21
227.497569
 31
0.0
  0
LINE
  5
370
330
1F
100
AcDbEntity
  8
LC-001-100-D00-0
 62
     7
370
    50
100
AcDbLine
 10
144.827272
 20
227.497569
 30
0.0
 11
144.827272
 21
227.247568
 31
0.0
  0
LINE
  5
371
330
1F
100
AcDbEntity
  8
LC-001-100-D00-0
 62
     7
370
    50
100
AcDbLine
 10
144.827272
 20
134.247566
 30
0.0
 11
144.827272
 21
133.997569
 31
0.0
  0
LINE
  5
372
330
1F
100
AcDbEntity
  8
LC-001-100-D00-0
 62
     7
370
    50
100
AcDbLine
 10
167.427271
 20
134.097571
 30
0.0
 11
167.427271
 21
134.247566
 31
0.0
  0
LINE
  5
373
330
1F
100
AcDbEntity
  8
LC-001-100-D00-0
 62
     7
370
    50
100
AcDbLine
 10
167.427271
 20
227.247568
 30
0.0
 11
167.427271
 21
227.397569
 31
0.0
  0
LINE
  5
374
330
1F
100
AcDbEntity
  8
LC-001-100-D00-0
 62
     7
370
    50
100
AcDbLine
 10
167.527271
 20
133.997569
 30
0.0
 11
167.527271
 21
134.247566
 31
0.0
  0
LINE
  5
375
330
1F
100
AcDbEntity
  8
LC-001-100-D00-0
 62
     7
370
    50
100
AcDbLine
 10
167.527271
 20
227.247568
 30
0.0
 11
167.527271
 21
227.497569
 31
0.0
  0
LINE
  5
376
330
1F
100
AcDbEntity
  8
LC-001-100-D00-0
 62
     7
370
    50
100
AcDbLine
 10
150.027272
 20
227.497569
 30
0.0
 11
150.027272
 21
227.247568
 31
0.0
  0
LINE
  5
377
330
1F
100
AcDbEntity
  8
LC-001-100-D00-0
 62
     7
370
    50
100
AcDbLine
 10
150.027272
 20
134.247566
 30
0.0
 11
150.027272
 21
133.997569
 31
0.0
  0
LINE
  5
378
330
1F
100
AcDbEntity
  8
LC-001-100-D00-0
 62
     7
370
    50
100
AcDbLine
 10
169.827271
 20
133.997569
 30
0.0
 11
169.827271
 21
134.247566
 31
0.0
  0
LINE
  5
379
330
1F
100
AcDbEntity
  8
LC-001-100-D00-0
 62
     7
370
    50
100
AcDbLine
 10
169.827271
 20
227.247568
 30
0.0
 11
169.827271
 21
227.497569
 31
0.0
  0
INSERT
  5
38D
330
1F
100
AcDbEntity
  8
LC-001-100-D00-0
 62
     7
370
    25
100
AcDbBlockReference
  2
KLON1
 10
0.0
 20
0.0
 30
0.0
  0
INSERT
  5
3A1
330
1F
100
AcDbEntity
  8
LC-001-100-D00-0
 62
     7
370
    25
100
AcDbBlockReference
  2
KLON2
 10
0.0
 20
0.0
 30
0.0
  0
INSERT
  5
3B0
330
1F
100
AcDbEntity
  8
LC-001-100-D00-0
 62
     7
370
    25
100
AcDbBlockReference
  2
KLON3
 10
0.0
 20
0.0
 30
0.0
  0
INSERT
  5
3BC
330
1F
100
AcDbEntity
  8
LC-001-100-D00-0
 62
     7
370
    50
100
AcDbBlockReference
  2
KLON4
 10
0.0
 20
0.0
 30
0.0
  0
LINE
  5
3BD
330
1F
100
AcDbEntity
  8
LC-001-100-D00-0
 62
     7
370
    25
100
AcDbLine
 10
66.326208
 20
217.457013
 30
0.0
 11
61.635058
 21
222.148163
 31
0.0
  0
LINE
  5
3BE
330
1F
100
AcDbEntity
  8
LC-001-100-D00-0
 62
     7
370
    25
100
AcDbLine
 10
64.822178
 20
138.138738
 30
0.0
 11
61.656932
 21
141.303984
 31
0.0
  0
INSERT
  5
3C6
330
1F
100
AcDbEntity
  8
LC-001-100-D00-0
 62
     7
370
    25
100
AcDbBlockReference
  2
KLON5
 10
0.0
 20
0.0
 30
0.0
  0
INSERT
  5
3CD
330
1F
100
AcDbEntity
  8
LC-001-100-D00-0
 62
     7
370
    25
100
AcDbBlockReference
  2
KLON6
 10
0.0
 20
0.0
 30
0.0
  0
DIMENSION
  5
3D0
330
1F
100
AcDbEntity
  8
LC-001-100-D00-0
 62
     7
370
    25
100
AcDbDimension
  2
*D25
 10
34.534638
 20
218.697568
 30
0.0
 11
3.734638
 21
238.715568
 31
0.0
 70
   160
  1
DN70
 71
     5
 42
75.9
 53
90.0
  3
LC-DIM-L-0140-02-02
100
AcDbAlignedDimension
 13
52.927272
 23
142.797568
 33
0.0
 14
52.927272
 24
218.697568
 34
0.0
 50
90.0
100
AcDbRotatedDimension
  0
DIMENSION
  5
3E0
330
1F
100
AcDbEntity
  8
LC-001-100-D00-0
 62
     7
370
    25
100
AcDbDimension
  2
*D26
 10
192.827271
 20
81.305568
 30
0.0
 11
102.686898
 21
112.105568
 31
0.0
 70
   160
  1
140
 71
     5
 42
139.9
  3
LC-DIM-L-0140-00-02
100
AcDbAlignedDimension
 13
52.927272
 23
140.297568
 33
0.0
 14
192.827271
 24
133.329249
 34
0.0
100
AcDbRotatedDimension
  0
LINE
  5
3EE
330
1F
100
AcDbEntity
  8
LC-001-100-D00-0
  6
DASHDOT
 62
     7
370
    25
100
AcDbLine
 10
52.927272
 20
180.747568
 30
0.0
 11
192.427272
 21
180.747568
 31
0.0
  0
DIMENSION
  5
3F0
330
1F
100
AcDbEntity
  8
LC-002-003-----0
 62
     7
370
    25
100
AcDbDimension
  2
*D27
 10
224.08311
 20
144.26521
 30
0.0
 11
193.28311
 21
222.677568
 31
0.0
 70
   160
  1
DN70(SML)
 71
     5
 42
72.964715
 53
90.0
  3
LC-DIM-L-0140-02-02
100
AcDbAlignedDimension
 13
183.596161
 23
217.229926
 33
0.0
 14
183.596161
 24
144.26521
 34
0.0
 50
90.0
100
AcDbRotatedDimension
  0
ENDSEC
  0
SECTION
  2
OBJECTS
  0
DICTIONARY
  5
C
330
0
100
AcDbDictionary
281
     1
  3
ACAD_GROUP
350
D
  3
ACAD_LAYOUT
350
1A
  3
ACAD_MLINESTYLE
350
17
  3
ACAD_PLOTSETTINGS
350
19
  3
ACAD_PLOTSTYLENAME
350
E
  0
DICTIONARY
  5
D
102
{ACAD_REACTORS
330
C
102
}
330
C
100
AcDbDictionary
281
     1
  0
DICTIONARY
  5
1A
102
{ACAD_REACTORS
330
C
102
}
330
C
100
AcDbDictionary
281
     1
  3
Layout1
350
1E
  3
Layout2
350
26
  3
Model
350
22
  0
DICTIONARY
  5
17
102
{ACAD_REACTORS
330
C
102
}
330
C
100
AcDbDictionary
281
     1
  3
Standard
350
18
  0
DICTIONARY
  5
19
102
{ACAD_REACTORS
330
C
102
}
330
C
100
AcDbDictionary
281
     1
  0
ACDBDICTIONARYWDFLT
  5
E
102
{ACAD_REACTORS
330
C
102
}
330
C
100
AcDbDictionary
281
     1
  3
Normal
350
F
100
AcDbDictionaryWithDefault
340
F
  0
LAYOUT
  5
1E
102
{ACAD_REACTORS
330
1A
102
}
330
1A
100
AcDbPlotSettings
  1

  2

  4

  6

 40
0.0
 41
0.0
 42
0.0
 43
0.0
 44
0.0
 45
0.0
 46
0.0
 47
0.0
 48
0.0
 49
0.0
140
0.0
141
0.0
142
1.0
143
1.0
 70
   688
 72
     0
 73
     0
 74
     5
  7

 75
    16
147
1.0
148
0.0
149
0.0
100
AcDbLayout
  1
Layout1
 70
     1
 71
     1
 10
-209.760318
 20
-147.978432
 11
630.239682
 21
446.021568
 12
0.0
 22
0.0
 32
0.0
 14
-209.760318
 24
-147.978432
 34
0.0
 15
630.239682
 25
446.021568
 35
0.0
146
0.0
 13
0.0
 23
0.0
 33
0.0
 16
1.0
 26
0.0
 36
0.0
 17
0.0
 27
1.0
 37
0.0
 76
     0
330
1B
  0
LAYOUT
  5
26
102
{ACAD_REACTORS
330
1A
102
}
330
1A
100
AcDbPlotSettings
  1

  2

  4

  6

 40
0.0
 41
0.0
 42
0.0
 43
0.0
 44
0.0
 45
0.0
 46
0.0
 47
0.0
 48
0.0
 49
0.0
140
0.0
141
0.0
142
1.0
143
1.0
 70
   688
 72
     0
 73
     0
 74
     5
  7

 75
    16
147
1.0
148
0.0
149
0.0
100
AcDbLayout
  1
Layout2
 70
     1
 71
     2
 10
0.0
 20
0.0
 11
0.0
 21
0.0
 12
0.0
 22
0.0
 32
0.0
 14
0.0
 24
0.0
 34
0.0
 15
0.0
 25
0.0
 35
0.0
146
0.0
 13
0.0
 23
0.0
 33
0.0
 16
1.0
 26
0.0
 36
0.0
 17
0.0
 27
1.0
 37
0.0
 76
     0
330
23
  0
LAYOUT
  5
22
102
{ACAD_REACTORS
330
1A
102
}
330
1A
100
AcDbPlotSettings
  1

  2

  4

  6

 40
0.0
 41
0.0
 42
0.0
 43
0.0
 44
0.0
 45
0.0
 46
0.0
 47
0.0
 48
0.0
 49
0.0
140
0.0
141
0.0
142
1.0
143
1.0
 70
  1776
 72
     0
 73
     0
 74
     0
  7

 75
     0
147
1.0
148
0.0
149
0.0
100
AcDbLayout
  1
Model
 70
     1
 71
     0
 10
-209.760318
 20
-147.978432
 11
630.239682
 21
446.021568
 12
0.0
 22
0.0
 32
0.0
 14
-209.760318
 24
-147.978432
 34
0.0
 15
630.239682
 25
446.021568
 35
0.0
146
0.0
 13
0.0
 23
0.0
 33
0.0
 16
1.0
 26
0.0
 36
0.0
 17
0.0
 27
1.0
 37
0.0
 76
     0
330
1F
  0
MLINESTYLE
  5
18
102
{ACAD_REACTORS
330
17
102
}
330
17
100
AcDbMlineStyle
  2
Standard
 70
     0
  3

 62
   256
 51
90.0
 52
90.0
 71
     2
 49
0.5
 62
   256
  6
BYLAYER
 49
-0.5
 62
   256
  6
BYLAYER
  0
ACDBPLACEHOLDER
  5
F
102
{ACAD_REACTORS
330
E
102
}
330
E
  0
ENDSEC
  0
EOF
